<?xml version="1.0" standalone="no"?>
<!DOCTYPE svg PUBLIC "-//W3C//DTD SVG 1.1//EN" "http://www.w3.org/Graphics/SVG/1.1/DTD/svg11.dtd" >
<svg xmlns="http://www.w3.org/2000/svg" xmlns:xlink="http://www.w3.org/1999/xlink" version="1.1">
<metadata>
Created by FontForge 20190801 at Fri Apr 13 15:22:40 2007
 By Jimmy Wärting
Copyright (c) 2001, 2005 Parachute :, www.parachute.gr.  All rights reserved.
</metadata>
<defs>
<font id="PFHighwaySansPro-Thin" horiz-adv-x="1818" >
  <font-face 
    font-family="PF Highway Sans Pro Thin"
    font-weight="200"
    font-stretch="normal"
    units-per-em="1000"
    panose-1="2 0 5 0 0 0 0 2 0 4"
    ascent="750"
    descent="-250"
    x-height="488"
    cap-height="651"
    bbox="-313 -236 1760 913"
    underline-thickness="50"
    underline-position="-100"
    unicode-range="U+0020-FB05"
  />
<missing-glyph horiz-adv-x="433" 
d="M0 700h433v-700h-433v700zM374 32l-158 288l-158 -288h316zM374 668h-316l158 -288zM32 55l163 295l-163 295v-590zM401 54l1 595l-165 -299z" />
    <glyph glyph-name="ff" unicode="ff" horiz-adv-x="475" 
d="M232 679q23 0 52 -4.5t52 -13.5q25 24 74 24q10 0 22 -0.5t23 -2.5l-3 -39q-8 1 -14 1h-13q-34 0 -51 -13t-17 -51v-91h95v-38h-95v-451h-46v451h-170v-451h-46v451h-66v38h66v70q0 62 38 91t99 29zM311 489v98q0 11 1.5 20.5t5.5 16.5q-20 5 -39 8t-42 3q-96 0 -96 -84
v-62h170z" />
    <glyph glyph-name="fi" unicode="fi" horiz-adv-x="400" 
d="M295 0v451h-164v-451h-45v451h-67v38h67v81q0 30 10 51t27.5 34t40 18.5t47.5 5.5q27 0 53.5 -5.5t43.5 -12.5l-9 -38q-19 4 -40.5 7.5t-42.5 3.5q-17 0 -32.5 -3t-27 -11.5t-18.5 -22.5t-7 -35v-73h161l49 13v-502h-46z" />
    <glyph glyph-name="fl" unicode="fl" horiz-adv-x="422" 
d="M310 0v622q-18 4 -40 7t-42 3q-38 0 -62.5 -15.5t-24.5 -56.5v-72h104v-37h-104v-451h-46v451h-67v37h67v80q0 31 10.5 52t28.5 33.5t41 17.5t48 5q23 0 48 -4t44 -10q10 5 20 9.5t20 9.5v-681h-45z" />
    <glyph glyph-name="ffi" unicode="ffi" horiz-adv-x="612" 
d="M224 679q25 0 53.5 -5t50.5 -13q17 15 41.5 21.5t52.5 6.5q27 0 53.5 -5.5t43.5 -11.5l-9 -38q-19 4 -41 7.5t-43 3.5q-34 0 -59 -15t-25 -57v-84h163l48 13v-502h-46v451h-165v-451h-46v451h-163v-451h-45v451h-67v38h67v71q0 61 37.5 90t98.5 29zM296 489v91q0 27 9 45
q-18 5 -36.5 7.5t-39.5 2.5q-95 0 -95 -83v-63h162z" />
    <glyph glyph-name="ffl" unicode="ffl" horiz-adv-x="632" 
d="M456 489v-38h-104v-451h-46v451h-164v-451h-46v451h-67v38h67v81q0 30 10.5 51t28 34t41 18.5t49.5 5.5q25 0 55.5 -5t49.5 -11q18 19 45 27.5t59 8.5q23 0 48 -4.5t44 -9.5l40 18v-703h-45v644q-18 4 -40 7t-42 3q-38 0 -62.5 -14.5t-24.5 -57.5v-93h104zM306 590
q0 19 5 36q-19 3 -41.5 5.5t-39.5 2.5q-38 0 -63 -14.5t-25 -57.5v-73h164v101z" />
    <glyph glyph-name="ft" unicode="ft" horiz-adv-x="493" 
d="M141 0h-45v451h-67v38h67v88q0 54 25.5 77.5t73.5 23.5q21 0 44 -3l-2 -39q-7 1 -13.5 1h-13.5q-32 0 -50.5 -13t-18.5 -51v-84h169v124q7 2 21.5 8.5t21.5 9.5v-142h107v-38h-107v-352q0 -38 14.5 -51t43.5 -13q26 0 64 6l4 -35q-17 -6 -41.5 -9.5t-42.5 -3.5
q-26 0 -42.5 7.5t-26 21.5t-13 33.5t-3.5 43.5v352h-169v-451z" />
    <glyph glyph-name="fj" unicode="fj" horiz-adv-x="400" 
d="M340 1q0 -42 -4.5 -75t-19.5 -56.5t-44 -37.5t-78 -18l-4 39q36 5 57 16.5t31.5 29t13 42.5t2.5 57v453h-162v-451h-46v451h-67v38h67v81q0 30 10 51t27.5 34t40 18.5t47.5 5.5q27 0 54 -5.5t44 -12.5l-10 -38q-19 4 -40.5 7.5t-42.5 3.5q-17 0 -32.5 -3t-27 -11.5
t-18 -22.5t-6.5 -35v-73h160l48 13v-501z" />
    <glyph glyph-name="ffj" unicode="ffj" horiz-adv-x="608" 
d="M86 560q0 61 37.5 90t98.5 29q24 0 52 -4.5t51 -12.5q17 16 42 23t53 7q27 0 53.5 -5.5t43.5 -12.5l-9 -37q-19 4 -40.5 7t-42.5 3q-17 0 -32.5 -3t-27 -11.5t-18.5 -22.5t-7 -35v-86h160l49 13v-501q0 -42 -4.5 -75t-20 -56.5t-44.5 -37.5t-78 -18l-4 39q36 5 57 16.5
t31.5 29t13.5 42.5t3 57v453h-163v-451h-45v451h-163v-451h-46v451h-67v38h67v71zM295 583q0 24 8 42q-18 5 -36.5 7.5t-39.5 2.5q-95 0 -95 -83v-63h163v94z" />
    <glyph glyph-name=".notdef" horiz-adv-x="433" 
d="M0 700h433v-700h-433v700zM374 32l-158 288l-158 -288h316zM374 668h-316l158 -288zM32 55l163 295l-163 295v-590zM401 54l1 595l-165 -299z" />
    <glyph glyph-name="quotedbl" unicode="&#x22;" horiz-adv-x="306" 
d="M224 450h-27l-13 201h53zM108 450h-27l-13 201h53z" />
    <glyph glyph-name="numbersign" unicode="#" horiz-adv-x="588" 
d="M558 421h-116l-30 -180h116l-6 -39h-117l-35 -202h-42l35 202h-180l-34 -202h-44l36 202h-116l6 39h117l30 180h-116l6 39h116l33 191h42l-32 -191h180l32 191h42l-32 -191h116zM219 422l-30 -182h181l31 182h-182z" />
    <glyph glyph-name="dollar" unicode="$" horiz-adv-x="588" 
d="M305 649q95 -3 168 -59l-31 -36q-35 26 -71.5 39.5t-84.5 13.5q-64 0 -101.5 -33t-37.5 -84q0 -25 10 -43.5t26 -32t37 -23.5t42 -18q36 -14 78 -27t77.5 -34t59 -54.5t23.5 -87.5q0 -35 -12 -65t-36 -52.5t-60.5 -36t-86.5 -16.5v-90h-46v90q-53 3 -97.5 23.5
t-79.5 53.5l32 34q36 -32 79 -50t91 -18q35 0 65.5 7t53.5 22t36 39t13 58q0 50 -30 78t-75 45q-51 19 -96 34t-78.5 34.5t-53.5 49t-20 78.5q0 32 11.5 59.5t32.5 48.5t50.5 34.5t65.5 17.5v94h46v-93z" />
    <glyph glyph-name="ampersand" unicode="&#x26;" horiz-adv-x="710" 
d="M543 369q35 0 69.5 -5t59.5 -13q-2 -10 -4.5 -19t-4.5 -18q-24 8 -49.5 12t-55.5 5q3 -19 5 -36.5t2 -34.5q0 -65 -20 -115.5t-54.5 -85.5t-81 -53t-99.5 -18q-62 0 -106.5 18.5t-73 48t-42 67t-13.5 76.5q0 61 36 120t108 106q-41 36 -60 72.5t-19 73.5q0 19 6.5 41
t21.5 40t38.5 30t57.5 12q25 0 47.5 -7.5t40 -22t27.5 -37t10 -52.5q0 -26 -10 -50t-26 -44t-35.5 -37t-38.5 -29q13 -15 24.5 -27.5t21 -26.5t16 -31t9.5 -39q37 45 88 62t105 17zM298 217q17 37 17 62q0 27 -16.5 51.5t-53.5 62.5q-29 -18 -52 -41t-39.5 -48.5t-25.5 -53
t-9 -52.5t8.5 -54.5t30.5 -55.5t59.5 -43.5t94.5 -17.5q55 0 94.5 20.5t65 54t37.5 75.5t12 85q0 17 -2 34t-6 34q-54 -4 -101.5 -33t-80.5 -97zM262 657q-11 0 -24 -4t-25 -13.5t-20 -26.5t-8 -44q0 -38 19 -67t50 -58q45 29 68 61t23 67q0 16 -4.5 31t-14.5 27t-26 19.5
t-38 7.5z" />
    <glyph glyph-name="quotesingle" unicode="'" horiz-adv-x="211" 
d="M117 450h-27l-13 201h53z" />
    <glyph glyph-name="parenleft" unicode="(" horiz-adv-x="281" 
d="M241 671q-32 -38 -59.5 -82t-47.5 -92.5t-31.5 -100t-11.5 -104.5q0 -57 11.5 -109.5t32 -101t47.5 -91.5t58 -80l-24 -22q-36 36 -67.5 80.5t-55.5 95.5t-38 107.5t-14 115.5q0 61 13.5 118.5t37.5 109.5t56 97t68 81l25 -22v0z" />
    <glyph glyph-name="parenright" unicode=")" horiz-adv-x="281" 
d="M191 292q0 53 -11.5 104.5t-32 99.5t-48 92.5t-59.5 82.5l26 22q36 -36 68 -81.5t56 -97t37.5 -109t13.5 -118.5q0 -59 -14 -115.5t-38 -107.5t-55.5 -95t-67.5 -80l-24 22q31 36 58 79t47.5 91t32 101t11.5 110z" />
    <glyph glyph-name="asterisk" unicode="*" horiz-adv-x="426" 
d="M323 389l-36 -28l-71 114l-68 -114l-36 28l79 102l-121 36l13 44l120 -51l-7 130h41l-7 -130l120 51l14 -44l-123 -36z" />
    <glyph glyph-name="plus" unicode="+" horiz-adv-x="588" 
d="M315 289v-171h-43v171h-171v44h171v181h43v-181h172v-44h-172z" />
    <glyph glyph-name="comma" unicode="," horiz-adv-x="184" 
d="M52 -67q15 12 24.5 29.5t11.5 36.5q-18 0 -30.5 8t-12.5 27t12.5 30t26.5 11q16 0 30.5 -13t14.5 -41q0 -34 -17.5 -60.5t-46.5 -44.5z" />
    <glyph glyph-name="hyphen" unicode="-" horiz-adv-x="315" 
d="M52 285v51h212v-51h-212z" />
    <glyph glyph-name="period" unicode="." horiz-adv-x="154" 
d="M114 33q0 -17 -11 -27.5t-26 -10.5q-16 0 -26.5 10.5t-10.5 27.5q0 16 10.5 27t26.5 11q15 0 26 -11t11 -27z" />
    <glyph glyph-name="slash" unicode="/" horiz-adv-x="370" 
d="M8 -82l315 814h44l-314 -814h-45z" />
    <glyph glyph-name="zero" unicode="0" horiz-adv-x="588" 
d="M559 325q0 -77 -18.5 -138.5t-53 -105.5t-83 -67.5t-109.5 -23.5q-62 0 -111 24t-82.5 68t-51 105.5t-17.5 137.5q0 75 17.5 136.5t51 105.5t82.5 68.5t111 24.5q60 0 109 -24t83.5 -67.5t53 -105.5t18.5 -138zM508 325q0 62 -13 115t-39.5 91.5t-66.5 60.5t-94 22
t-93.5 -21.5t-65.5 -60t-39 -91.5t-13 -116q0 -59 12.5 -111.5t38 -92.5t65.5 -63.5t95 -23.5t95 23.5t66.5 63t39 92.5t12.5 112z" />
    <glyph glyph-name="one" unicode="1" horiz-adv-x="588" 
d="M277 0v558h-79v33q23 2 38 7t24.5 12.5t15 17.5t9.5 23h42v-651h-50z" />
    <glyph glyph-name="two" unicode="2" horiz-adv-x="588" 
d="M63 0q6 64 28.5 112.5t56 87t77 69.5t91.5 60q35 21 60 39.5t41 37t23.5 39t7.5 46.5q0 61 -43.5 93t-118.5 32q-43 0 -86 -16.5t-80 -44.5l-30 37q42 33 93.5 51t105.5 18q98 0 154 -44t56 -121q0 -34 -9.5 -61.5t-30 -51.5t-51.5 -47.5t-74 -49.5q-54 -32 -90 -59
t-60 -54.5t-38.5 -58t-23.5 -69.5h382v-45h-441z" />
    <glyph glyph-name="three" unicode="3" horiz-adv-x="588" 
d="M251 -10q-65 0 -116 22t-89 57l34 35q36 -32 79.5 -50.5t92.5 -18.5q40 0 74 9.5t59 28t39.5 46t14.5 63.5t-14 62t-37.5 42.5t-53 24.5t-59.5 8h-31v42h36q31 0 57.5 10.5t46 28t30.5 41t11 49.5q0 24 -9.5 47t-29 40.5t-50.5 28t-74 10.5q-38 0 -80 -15.5t-74 -41.5
q-8 9 -15.5 18t-15.5 18q42 34 89.5 50t100.5 16q48 0 86.5 -12.5t66 -34t42 -52t14.5 -66.5q0 -22 -6.5 -45t-21 -44t-36.5 -39t-52 -28v-1q37 -8 62 -25.5t40 -40t21.5 -46.5t6.5 -45q0 -45 -17.5 -80.5t-49.5 -60.5t-76 -38t-96 -13z" />
    <glyph glyph-name="four" unicode="4" horiz-adv-x="588" 
d="M450 155v-155h-46v155h-376v45l369 451h53v-451h90v-45h-90zM404 589l-317 -389h317v389z" />
    <glyph glyph-name="five" unicode="5" horiz-adv-x="588" 
d="M273 -10q-57 0 -109 14.5t-95 37.5l22 40q42 -23 91 -36t94 -13q90 0 144 44t54 129q0 39 -14 68.5t-37.5 49t-55 29t-66.5 9.5q-23 0 -47 -3.5t-47 -10t-43 -15t-35 -18.5l-45 20q5 79 10 157.5t11 158.5h372v-45h-331l-14 -240h1q52 27 96 33.5t80 6.5q50 0 90 -15.5
t67.5 -42t42 -62t14.5 -76.5q0 -54 -18.5 -95.5t-51.5 -69t-79 -41.5t-101 -14z" />
    <glyph glyph-name="six" unicode="6" horiz-adv-x="588" 
d="M286 -10q-45 0 -86.5 14.5t-73 45t-50 78.5t-18.5 115q0 62 18.5 131.5t61.5 130t114.5 103t176.5 50.5v-44q-41 -4 -76 -12.5t-66 -24.5q-71 -36 -118.5 -111t-62.5 -169q1 0 1.5 0.5t1.5 0.5q21 29 47.5 47t54.5 28t53.5 13.5t44.5 3.5q40 0 79 -10.5t70.5 -33.5
t51 -60t19.5 -90q0 -44 -14.5 -79.5t-40.5 -61t-62.5 -41.5t-81.5 -21q-21 -3 -44 -3zM302 348q-40 0 -75 -10.5t-61.5 -30t-41.5 -48t-15 -64.5q0 -26 11 -55t33.5 -53t56.5 -40t81 -16q40 0 75 11t60.5 31.5t40 50.5t14.5 68q0 41 -14 70.5t-38.5 48.5t-57 28t-69.5 9z
" />
    <glyph glyph-name="seven" unicode="7" horiz-adv-x="588" 
d="M495 597q-46 -51 -88 -119t-75 -145.5t-53.5 -162.5t-21.5 -170h-51q2 75 18.5 154t47.5 157.5t75 153.5t100 141h-392v45h438l2 -54v0z" />
    <glyph glyph-name="eight" unicode="8" horiz-adv-x="588" 
d="M296 -10q-120 0 -181 50t-61 138q0 24 6.5 49.5t23 49t45 42.5t72.5 30q-39 10 -62 29t-35.5 40t-16 40.5t-3.5 31.5q0 42 16.5 74t46 53.5t69 32.5t85.5 11q45 0 83.5 -11t67 -32t45 -52.5t16.5 -73.5q0 -11 -3 -30.5t-15 -41t-35.5 -41.5t-65.5 -30v-1
q41 -8 69.5 -26.5t46.5 -42t26 -50t8 -51.5q0 -84 -64 -136t-184 -52zM297 325q-43 0 -79 -9.5t-62 -28.5t-40.5 -46t-14.5 -61q0 -38 15 -66t41 -47t62.5 -28.5t78.5 -9.5q38 0 74 9t63.5 27t44 45.5t16.5 64.5q0 75 -53.5 112.5t-145.5 37.5zM299 622q-39 0 -70 -10
t-52 -27t-32.5 -41t-11.5 -52q0 -30 13 -53.5t35.5 -39.5t53 -24.5t64.5 -8.5q36 0 66 8.5t52.5 24t35 38.5t12.5 52q0 28 -10 52.5t-30.5 42.5t-52 28t-73.5 10z" />
    <glyph glyph-name="nine" unicode="9" horiz-adv-x="588" 
d="M296 658q45 0 86.5 -14t73.5 -44t51 -78t19 -117q0 -62 -18.5 -131.5t-61.5 -130t-114 -103t-176 -50.5v43q42 4 79.5 14t69.5 27q68 36 112.5 109t60.5 167q-1 1 -2 1q-22 -30 -49.5 -48.5t-55.5 -28t-53.5 -13t-43.5 -3.5q-39 0 -78.5 10.5t-71 33.5t-51.5 60t-20 90
q0 51 19 89.5t52 64.5t77.5 39t94.5 13zM282 299q40 0 75 11t61.5 31.5t41.5 49.5t15 64q0 24 -10.5 52t-33 51.5t-56.5 39.5t-81 16q-41 0 -76.5 -10.5t-61.5 -31t-41 -50t-15 -67.5q0 -41 14.5 -70.5t39.5 -48.5t58 -28t70 -9z" />
    <glyph glyph-name="colon" unicode=":" horiz-adv-x="204" 
d="M141 380q0 -17 -10.5 -27.5t-26.5 -10.5q-15 0 -25.5 10.5t-10.5 27.5q0 16 10.5 27t25.5 11t26 -11t11 -27zM141 33q0 -17 -10.5 -27.5t-26.5 -10.5q-15 0 -25.5 10.5t-10.5 27.5q0 16 10.5 27t25.5 11t26 -11t11 -27z" />
    <glyph glyph-name="semicolon" unicode=";" horiz-adv-x="218" 
d="M152 380q0 -17 -11.5 -28t-27.5 -11q-17 0 -29 11t-12 28q0 16 12 27.5t29 11.5q16 0 27.5 -11t11.5 -28zM75 -68q31 27 36 66q-17 -1 -30 8t-13 29q0 18 12.5 29t26.5 11q16 0 30.5 -12.5t14.5 -40.5q0 -34 -17.5 -61t-46.5 -45z" />
    <glyph glyph-name="question" unicode="?" horiz-adv-x="470" 
d="M240 659q44 0 78 -12t57 -32.5t36 -48.5t15 -59q0 -38 -12.5 -70.5t-33.5 -56.5q-28 -32 -50.5 -59t-38.5 -53.5t-25.5 -54.5t-11.5 -61h-47q2 37 13 68.5t28.5 61.5t42 60.5t53.5 66.5q14 17 24 39.5t10 45.5q0 18 -6.5 39t-22 39t-43 30.5t-69.5 12.5q-38 0 -65 -12
t-45.5 -30.5t-28.5 -40.5t-14 -41h-49q6 40 24.5 71.5t46 53t62 32.5t72.5 11zM231 -5q-16 0 -26.5 10t-10.5 27t11.5 27.5t25.5 10.5q15 0 25.5 -11t10.5 -27t-10.5 -26.5t-25.5 -10.5z" />
    <glyph glyph-name="at" unicode="@" horiz-adv-x="814" 
d="M379 135q-30 0 -54 11.5t-40.5 32.5t-25.5 49.5t-9 62.5q0 56 14 97t36.5 67.5t50.5 39.5t55 13q20 0 48 -9t54 -35l4 38h38q-6 -68 -12 -134.5t-11 -133.5v-9q0 -22 10.5 -37t37.5 -15q31 0 55 17t41 45.5t26 64t9 73.5q0 66 -23 116.5t-62 84t-89 50.5t-104 17
q-70 0 -129 -23.5t-102 -66t-67.5 -101t-24.5 -127.5q0 -75 24 -134.5t66.5 -101.5t101.5 -64.5t130 -22.5q57 0 102.5 9.5t90.5 28.5l12 -33q-48 -17 -95.5 -28t-105.5 -11q-79 0 -145 24.5t-114 71t-75 112.5t-27 149q0 75 26.5 139t73.5 111.5t112 74t143 26.5
q70 0 128.5 -20.5t100.5 -59.5t65.5 -95t23.5 -127q0 -53 -13 -96t-36 -73.5t-54 -47.5t-67 -17q-10 0 -22.5 2.5t-24 8t-21 15t-13.5 23.5q-47 -52 -113 -52zM385 170q27 0 55.5 16.5t46.5 39.5l17 194q-14 21 -40 37t-56 16q-27 0 -49 -14.5t-37.5 -39t-23.5 -57t-8 -68.5
q0 -55 24 -89.5t71 -34.5z" />
    <glyph glyph-name="A" unicode="A" horiz-adv-x="592" 
d="M128 162q-15 -41 -31 -81t-31 -81h-53l257 651h54l257 -651h-52q-16 41 -32 81t-31 81h-338zM448 208l-110 281q-11 26 -20.5 51.5t-20.5 53.5h-3l-71 -186l-78 -200h303z" />
    <glyph glyph-name="B" unicode="B" horiz-adv-x="577" 
d="M526 189q0 -93 -53.5 -141t-154.5 -48h-251v651h256q80 0 126.5 -41t46.5 -117q0 -21 -6.5 -42.5t-19 -40.5t-32 -34.5t-46.5 -22.5v-2q62 -11 98 -56.5t36 -105.5zM115 606v-234h202q31 0 55 9.5t41 25.5t26 37.5t9 45.5q0 52 -30 84t-93 32h-210zM115 328v-283h208
q77 0 115.5 38t38.5 104q0 33 -12.5 59.5t-34 44.5t-50.5 27.5t-62 9.5h-203z" />
    <glyph glyph-name="C" unicode="C" horiz-adv-x="537" 
d="M312 661q64 0 110.5 -19.5t81.5 -59.5l-35 -35q-32 36 -69.5 52.5t-87.5 16.5q-52 0 -92 -22.5t-67.5 -61.5t-41.5 -92t-14 -114t13.5 -114t40.5 -92t67.5 -61.5t94.5 -22.5q95 0 159 73l36 -32q-35 -42 -83.5 -64.5t-112.5 -22.5q-60 0 -109.5 23t-84 66.5t-53.5 105.5
t-19 140q0 76 19.5 138.5t54.5 106t84 67.5t108 24z" />
    <glyph glyph-name="D" unicode="D" horiz-adv-x="594" 
d="M226 651q65 0 122.5 -18t101 -57t69 -101t25.5 -150q0 -87 -26 -148.5t-70 -101t-101.5 -57.5t-121.5 -18h-152v651h153zM122 605v-559h104q68 0 118 20.5t83 57.5t49 88.5t16 112.5t-16 112.5t-49 88.5t-83 58t-118 21h-104z" />
    <glyph glyph-name="E" unicode="E" horiz-adv-x="492" 
d="M66 0v651h396v-46h-346v-233h248v-46h-248v-280h360v-46h-410z" />
    <glyph glyph-name="F" unicode="F" horiz-adv-x="476" 
d="M118 604v-242h244v-46h-244v-316h-49v651h398v-47h-349z" />
    <glyph glyph-name="G" unicode="G" horiz-adv-x="575" 
d="M306 661q64 0 112 -20.5t84 -64.5l-36 -34q-64 73 -161 73q-54 0 -94.5 -22.5t-67 -61.5t-40 -92t-13.5 -114q0 -62 13.5 -115t40.5 -92t68 -61t95 -22q51 0 86.5 18t58 46t32.5 62t10 65v34h-112v45h163v-52q0 -63 -17.5 -112t-49 -82.5t-75.5 -51t-97 -17.5
q-62 0 -111.5 23.5t-84 67t-53 105.5t-18.5 139q0 78 19.5 140.5t54.5 106t84 66.5t109 23z" />
    <glyph glyph-name="H" unicode="H" horiz-adv-x="605" 
d="M489 0v318h-374v-318h-49v651h49v-287h374v287h49v-651h-49z" />
    <glyph glyph-name="I" unicode="I" horiz-adv-x="224" 
d="M87 0v651h50v-651h-50z" />
    <glyph glyph-name="J" unicode="J" horiz-adv-x="516" 
d="M451 251q0 -135 -54.5 -198t-166.5 -63q-82 0 -131 35.5t-75 102.5l47 18q23 -53 60 -81.5t102 -28.5q48 0 80 16t51.5 45.5t28 72t8.5 95.5v386h50v-400z" />
    <glyph glyph-name="K" unicode="K" horiz-adv-x="563" 
d="M477 0q-51 96 -101.5 191.5t-101.5 192.5q-41 -52 -80 -104t-80 -104v-176h-49v651h49v-405h1l99 132l208 273h57l-173 -225q57 -107 113 -213t113 -213h-55v0z" />
    <glyph glyph-name="L" unicode="L" horiz-adv-x="467" 
d="M66 0v651h50v-604h347v-47h-397z" />
    <glyph glyph-name="M" unicode="M" horiz-adv-x="694" 
d="M577 543h-1l-79 -186q-24 -56 -48.5 -112t-45.5 -103.5t-36.5 -82.5t-21.5 -47q-27 57 -53 118q-23 51 -49.5 112.5t-49.5 118.5q-12 28 -24.5 58t-23 56t-18 45t-9.5 25h-1v-545h-48v651h52q30 -71 68 -156.5t73 -169.5l83 -198h4l83 198q35 81 71.5 164.5t69.5 161.5
h51v-651h-47v543z" />
    <glyph glyph-name="N" unicode="N" horiz-adv-x="590" 
d="M478 0q-9 14 -28.5 44.5t-45.5 70.5t-56.5 87t-61 95t-60 93.5t-53 82.5t-39.5 62t-21 33h-1v-568h-49v651h52l242 -372q30 -48 60.5 -96.5t59.5 -92.5h1v561h49v-651h-49v0z" />
    <glyph glyph-name="O" unicode="O" horiz-adv-x="619" 
d="M573 325q0 -77 -18.5 -138.5t-53 -105.5t-83.5 -67.5t-109 -23.5q-62 0 -110.5 24t-82.5 68t-52 105.5t-18 137.5q0 75 18 136.5t52 105.5t82.5 68.5t110.5 24.5q60 0 109 -24t83.5 -67.5t53 -105.5t18.5 -138zM522 325q0 61 -13 114.5t-39.5 93t-66.5 62t-94 22.5
q-53 0 -93 -22t-66.5 -61t-40 -92.5t-13.5 -116.5q0 -58 13 -111t39.5 -93t66.5 -63.5t94 -23.5q55 0 95 23.5t66 63.5t39 93t13 111z" />
    <glyph glyph-name="P" unicode="P" horiz-adv-x="537" 
d="M525 459q0 -49 -15 -85.5t-42 -61t-65 -37t-84 -12.5h-203v-263h-49v651h259q43 0 80 -12t63 -36t41 -60t15 -84zM116 606v-297h210q72 0 110 40t38 109q0 72 -41 110t-107 38h-210z" />
    <glyph glyph-name="Q" unicode="Q" horiz-adv-x="620" 
d="M577 326q0 -97 -29 -169t-83 -115l38 -60l-38 -24l-37 60q-53 -28 -115 -28q-60 0 -108.5 23.5t-83 67t-53 105.5t-18.5 139t18.5 139t52.5 105.5t83 67t109 23.5t109 -23.5t83.5 -67t53 -105.5t18.5 -138zM527 325q0 62 -13 115.5t-40 92.5t-67 61.5t-94 22.5t-94 -22
t-66.5 -60.5t-39.5 -92t-13 -116.5q0 -60 13 -113t39 -92.5t66.5 -63t94.5 -23.5q52 0 91 21l-48 76l37 23l46 -73q47 41 67.5 105t20.5 139z" />
    <glyph glyph-name="R" unicode="R" horiz-adv-x="560" 
d="M448 0l-120 265h-215v-265h-50v651h259q43 0 80 -12t63.5 -35.5t41.5 -59.5t15 -84q0 -75 -37.5 -123t-105.5 -65l126 -272h-57zM472 459q0 35 -11.5 62.5t-32 46t-48 28.5t-60.5 10h-207v-296h208q70 0 110.5 40t40.5 109z" />
    <glyph glyph-name="S" unicode="S" horiz-adv-x="513" 
d="M253 -10q-62 0 -114 21t-92 58l33 36q38 -34 83 -52.5t95 -18.5q37 0 69 7t56 22.5t37.5 40.5t13.5 61q0 37 -16.5 61t-42.5 40.5t-57.5 27l-61.5 20.5q-41 14 -76.5 28.5t-61 34t-40 47.5t-14.5 69q0 37 15 68t41.5 53.5t64 34.5t82.5 12q53 0 101 -15.5t89 -46.5
q-9 -10 -16 -19t-15 -18q-38 27 -76.5 40t-89.5 13q-69 0 -107 -34t-38 -86q0 -26 10.5 -45t27 -33t38 -24t44.5 -18q38 -14 82 -27.5t81.5 -35.5t62 -56.5t24.5 -89.5q0 -39 -14 -71t-42.5 -55.5t-72.5 -36.5t-103 -13z" />
    <glyph glyph-name="T" unicode="T" horiz-adv-x="478" 
d="M265 605v-605h-49v605h-202v46h454v-46h-203z" />
    <glyph glyph-name="U" unicode="U" horiz-adv-x="597" 
d="M537 267q0 -141 -62 -209t-177 -68q-113 0 -173 69.5t-60 209.5v382h49v-379q0 -53 11.5 -96.5t34.5 -74.5t58 -48t82 -17q49 0 84 16.5t58 46.5t34 72.5t11 94.5v385h50v-384z" />
    <glyph glyph-name="V" unicode="V" horiz-adv-x="566" 
d="M256 0l-232 651h53l208 -584h2l74 212l132 372h52l-229 -651h-60z" />
    <glyph glyph-name="W" unicode="W" horiz-adv-x="727" 
d="M507 0l-91 362q-1 6 -5 21.5t-9 35.5t-11 43t-11 43t-9.5 35t-5.5 21h-1q-13 -50 -25.5 -98.5t-24.5 -99.5q-24 -91 -47 -181.5t-46 -181.5h-61l-138 651h50q20 -94 38.5 -186t37.5 -185l43 -207h1l54 207l95 371h48q24 -94 48.5 -186.5t47.5 -186.5l51 -205h1l44 205
l78 373h48q-35 -164 -69.5 -325.5t-69.5 -325.5h-61z" />
    <glyph glyph-name="X" unicode="X" horiz-adv-x="514" 
d="M426 0l-170 292l-170 -292h-56l201 335l-187 316h58l155 -271l158 271h55l-186 -314l200 -337h-58z" />
    <glyph glyph-name="Y" unicode="Y" horiz-adv-x="530" 
d="M289 234v-234h-49v234l-229 417h55l198 -370l200 370h54z" />
    <glyph glyph-name="Z" unicode="Z" horiz-adv-x="531" 
d="M504 604l-413 -558h410v-46h-469v45l414 560h-395v46h453v-47z" />
    <glyph glyph-name="bracketleft" unicode="[" horiz-adv-x="290" 
d="M68 -106v818h182v-42h-134v-733h134v-43h-182z" />
    <glyph glyph-name="backslash" unicode="\" horiz-adv-x="370" 
d="M321 -82l-314 814h44l315 -814h-45z" />
    <glyph glyph-name="bracketright" unicode="]" horiz-adv-x="300" 
d="M63 -106v43h134v733h-134v42h182v-818h-182z" />
    <glyph glyph-name="asciicircum" unicode="^" horiz-adv-x="501" 
d="M399 350l-146 257l-147 -257h-45l172 300h41l171 -300h-46z" />
    <glyph glyph-name="underscore" unicode="_" horiz-adv-x="493" 
d="M0 -108v38h493v-38h-493z" />
    <glyph glyph-name="grave" unicode="`" horiz-adv-x="470" 
d="M152 709l60 12l70 -148l-26 -9z" />
    <glyph glyph-name="a" unicode="a" horiz-adv-x="461" 
d="M361 57h-1q-24 -23 -46.5 -36t-43.5 -19.5t-40 -8.5t-37 -2q-29 0 -57 8t-50.5 26t-36.5 46t-14 69q0 33 12 61.5t35 49.5t56.5 32.5t75.5 11.5q32 0 69 -7.5t78 -31.5v78q0 66 -33 93.5t-96 27.5q-35 0 -67.5 -8.5t-61.5 -22.5l-16 39q34 15 70 24t81 9q81 0 125 -38
t44 -114v-344h-46v57zM361 216q-36 20 -69.5 31t-79.5 11q-28 0 -52 -7.5t-42 -22.5t-28 -36.5t-10 -49.5q0 -56 33.5 -85t93.5 -29q49 2 86.5 23.5t67.5 52.5v112z" />
    <glyph glyph-name="b" unicode="b" horiz-adv-x="485" 
d="M254 -10q-16 0 -34 1.5t-37 8t-39 19t-41 34.5h-1v-53h-47v660l47 21v-253h1q47 43 86 55.5t68 12.5q35 0 68 -13.5t58.5 -44t40.5 -79.5t15 -121q0 -64 -16.5 -110.5t-43 -77t-59.5 -45.5t-66 -15zM246 456q-20 0 -41 -7t-40.5 -18t-36 -25t-27.5 -28v-274
q24 -31 62 -53t83 -22q31 0 58.5 15.5t47 43t31 65t11.5 82.5q0 102 -36 161.5t-112 59.5z" />
    <glyph glyph-name="c" unicode="c" horiz-adv-x="420" 
d="M242 496q45 0 80.5 -13.5t67.5 -44.5l-31 -32q-29 27 -58.5 38t-61.5 11q-35 0 -62 -17t-46 -45.5t-29 -67.5t-10 -82q0 -45 10 -83.5t29.5 -67t47.5 -44.5t64 -16q35 0 61.5 12t55.5 38l30 -29q-27 -29 -62 -46t-88 -17q-39 0 -74.5 16t-62.5 48t-42.5 79t-15.5 110
t15.5 110t42.5 79t63 48t76 16z" />
    <glyph glyph-name="d" unicode="d" horiz-adv-x="481" 
d="M382 0v54h-1q-21 -22 -42 -35t-41 -19.5t-39 -8t-35 -1.5q-32 0 -64.5 14.5t-58 45t-41.5 77.5t-16 111q0 72 18 121t47 79.5t64.5 44t71.5 13.5q30 0 62.5 -11.5t73.5 -48.5h1v224l46 21v-681h-46zM383 381q-11 15 -26.5 28.5t-33 24t-37 16.5t-38.5 6
q-75 0 -116.5 -59.5t-41.5 -159.5q0 -45 11 -83.5t30.5 -66t46 -43t58.5 -15.5q45 0 84 22t63 53v277z" />
    <glyph glyph-name="e" unicode="e" horiz-adv-x="473" 
d="M242 496q46 0 82.5 -17.5t62 -49.5t38.5 -77t13 -99v-27h-348q1 -49 14.5 -85.5t35 -61t49.5 -37t60 -12.5t63 13t57 36l27 -30q-65 -59 -153 -59q-39 0 -74.5 15t-63.5 46.5t-44.5 78.5t-16.5 112q0 59 15 106t42 80t63 50.5t78 17.5zM393 263q0 39 -9 74t-27.5 61.5
t-47.5 42t-69 15.5q-31 0 -57.5 -14t-46 -39.5t-32 -61t-14.5 -78.5h303z" />
    <glyph glyph-name="f" unicode="f" horiz-adv-x="258" 
d="M142 0h-47v450h-66v38h66v94q0 52 27.5 75t72.5 23q10 0 24 -0.5t25 -2.5l-2 -39q-9 1 -17.5 1h-15.5q-33 0 -50 -12.5t-17 -50.5v-88h100v-38h-100v-450z" />
    <glyph glyph-name="g" unicode="g" horiz-adv-x="483" 
d="M429 28q0 -83 -42.5 -141.5t-138.5 -89.5l-16 39q45 16 74.5 36.5t46.5 43.5t23.5 47.5t6.5 49.5v46h-1q-47 -43 -86.5 -55t-67.5 -12q-36 0 -69 13t-58.5 42.5t-40.5 78t-15 120.5q0 64 16.5 111t43.5 78t60 46t66 15q16 0 33.5 -2t37 -8.5t39.5 -19t40 -34.5h1v56h47
v-460zM238 31q21 0 42 7t40 18t35.5 25t27.5 29v270q-23 31 -61.5 54t-82.5 23q-32 0 -59 -16t-46.5 -43.5t-31 -65.5t-11.5 -82q0 -102 35.5 -160.5t111.5 -58.5z" />
    <glyph glyph-name="h" unicode="h" horiz-adv-x="467" 
d="M421 0h-47v293q0 85 -33 123.5t-99 38.5q-25 0 -47.5 -10t-40.5 -26.5t-30.5 -38.5t-18.5 -46q-3 -10 -4 -21.5t-1 -22.5v-290h-46v661l46 21v-278h2q14 25 33 43t39.5 28.5t41 15.5t38.5 5q83 0 125 -47.5t42 -148.5v-300z" />
    <glyph glyph-name="i" unicode="i" horiz-adv-x="210" 
d="M137 626q0 -14 -9.5 -23.5t-22.5 -9.5q-14 0 -23 9.5t-9 23.5q0 13 9 22t22 9q14 0 23.5 -9t9.5 -22zM82 0v489h46v-489h-46z" />
    <glyph glyph-name="j" unicode="j" horiz-adv-x="211" 
d="M145 626q0 -14 -9 -23.5t-22 -9.5q-14 0 -23 9.5t-9 23.5q0 13 9 22t22 9q14 0 23 -9t9 -22zM135 -7q0 -42 -4.5 -75.5t-19.5 -57t-44 -37.5t-78 -18l-4 41q36 5 57 16t31.5 28.5t13 41.5t2.5 55v502h46v-496z" />
    <glyph glyph-name="k" unicode="k" horiz-adv-x="409" 
d="M218 290l-119 -154v-136h-46v660l46 21v-478h1q9 12 20.5 27l23 30t22 29.5t19.5 25.5q34 43 67 86t67 87h57q-32 -40 -62.5 -80t-62.5 -81l146 -327h-51z" />
    <glyph glyph-name="l" unicode="l" horiz-adv-x="183" 
d="M69 0v661l45 21v-682h-45z" />
    <glyph glyph-name="m" unicode="m" horiz-adv-x="735" 
d="M98 408l2 -1q13 27 31 44t37.5 26.5t39 13t37.5 3.5q49 0 85.5 -25t49.5 -74h2q28 49 65.5 74.5t88.5 25.5q83 0 117.5 -48t34.5 -147v-300h-47v293q0 80 -26 120.5t-90 40.5q-25 0 -46 -10t-37.5 -26.5t-28 -39t-16.5 -46.5q-4 -17 -4 -40v-292h-47v302
q0 75 -27.5 113.5t-89.5 38.5q-49 0 -81 -33t-44 -80q-2 -12 -4 -25t-2 -26v-290h-46v488h46v-80v0z" />
    <glyph glyph-name="n" unicode="n" horiz-adv-x="466" 
d="M419 0h-47v293q0 85 -32.5 123.5t-98.5 38.5q-26 0 -48 -9.5t-40 -26t-30.5 -38t-18.5 -45.5q-6 -21 -6 -46v-290h-46v489h46v-87l2 -1q14 26 32.5 44t39 29.5t41.5 16.5t39 5q83 0 125 -47.5t42 -148.5v-300z" />
    <glyph glyph-name="o" unicode="o" horiz-adv-x="497" 
d="M453 247q0 -62 -16 -109.5t-43.5 -80.5t-65.5 -50t-83 -17q-43 0 -79.5 17t-63.5 50t-42.5 80t-15.5 107q0 63 15.5 110t42.5 78.5t64.5 47.5t81.5 16t81.5 -16.5t65 -48.5t43 -78.5t15.5 -105.5zM407 244q0 44 -10 83t-30 67.5t-50.5 45t-71.5 16.5q-38 0 -67 -17
t-48.5 -45.5t-29 -66.5t-9.5 -80q0 -48 10.5 -88t31 -68.5t50 -44t67.5 -15.5q39 0 68 17.5t49 46.5t30 68t10 81z" />
    <glyph glyph-name="p" unicode="p" horiz-adv-x="483" 
d="M101 489v-56h1q38 39 78.5 51t72.5 12q34 0 67.5 -14.5t59.5 -44.5t42 -77t16 -111q0 -71 -18 -120t-46.5 -80t-64 -44.5t-71.5 -13.5q-30 0 -64 11t-73 49h-1v-216l-46 -21v675h47zM100 106q23 -30 59.5 -52.5t74.5 -22.5q76 0 117.5 58.5t41.5 161.5q0 45 -11 83
t-30.5 65t-46.5 42.5t-59 15.5q-46 0 -84.5 -22t-61.5 -53v-276z" />
    <glyph glyph-name="q" unicode="q" horiz-adv-x="482" 
d="M229 496q16 0 34 -1.5t37.5 -8t39.5 -19t40 -33.5h1v54h46v-653l-46 -21v244h-1q-47 -42 -86 -54.5t-68 -12.5q-35 0 -68 13.5t-58.5 43.5t-41 79t-15.5 121q0 64 16.5 110.5t43.5 77t60 45.5t66 15zM237 30q20 0 41 7t40.5 18t35.5 25t27 29v271q-23 31 -61 54t-83 23
q-31 0 -58 -15.5t-47 -43t-31.5 -65t-11.5 -81.5q0 -51 9 -92t27 -70t46 -44.5t66 -15.5z" />
    <glyph glyph-name="r" unicode="r" horiz-adv-x="326" 
d="M118 408q20 46 61 67t85 21q14 0 28.5 -1.5t28.5 -6.5l-10 -46q-29 6 -53 6q-35 0 -61 -12t-44 -33t-27 -49.5t-9 -61.5v-292h-47v488h47l-1 -79z" />
    <glyph glyph-name="s" unicode="s" horiz-adv-x="419" 
d="M382 123q0 -33 -14 -58t-38.5 -41.5t-57.5 -25t-70 -8.5q-42 0 -85 10t-81 30l19 38q38 -20 76.5 -29t72.5 -9q23 0 46.5 5t42.5 16t31 28t12 41t-10.5 41.5t-29 30t-44 22.5t-55.5 19q-34 10 -62 22.5t-48 29t-31 37.5t-11 48q0 55 45 90t125 35q36 0 73.5 -7t70.5 -24
l-16 -39q-35 17 -69.5 23.5t-59.5 6.5q-56 0 -90 -24t-34 -57q0 -14 5.5 -27.5t19.5 -26t37 -24.5t59 -22q36 -11 67 -23.5t54.5 -29.5t36.5 -41t13 -57z" />
    <glyph glyph-name="t" unicode="t" horiz-adv-x="283" 
d="M142 488h105v-39h-105v-353q0 -35 14.5 -48t42.5 -13q14 0 29 2t35 5l4 -35q-15 -6 -39.5 -9.5t-42.5 -3.5q-51 0 -69 26t-18 74v355h-75v39h75v124l44 19v-143z" />
    <glyph glyph-name="u" unicode="u" horiz-adv-x="464" 
d="M48 489h47v-296q0 -87 31 -125t97 -38q25 0 46.5 9.5t39 25.5t30 37t18.5 45q7 22 7 49v293h46v-489h-46v84h-2q-14 -26 -32 -44.5t-38.5 -29.5t-41 -16t-38.5 -5q-82 0 -123 46t-41 148v306z" />
    <glyph glyph-name="v" unicode="v" horiz-adv-x="435" 
d="M193 0l-178 488h49q26 -74 51.5 -146t51.5 -145l49 -140h2l48 140l101 291h48q-45 -123 -88 -244t-87 -244h-47z" />
    <glyph glyph-name="w" unicode="w" horiz-adv-x="605" 
d="M407 0q-4 15 -13 48.5t-20 75.5t-23 88t-22.5 87t-18.5 71.5t-11 41.5h-1q-9 -35 -19 -70.5t-20 -71.5l-73 -270h-43l-126 488h47l63 -257q10 -41 19 -81.5t19 -80.5h2q3 13 11.5 44.5t19 72.5t23 87t23.5 88.5t20 76t14 50.5h44q17 -66 34 -130.5t34 -130.5
q9 -40 19 -79.5t20 -78.5h1q11 39 20 78t20 80q17 66 33.5 130.5t33.5 130.5h47l-132 -488h-45z" />
    <glyph glyph-name="x" unicode="x" horiz-adv-x="398" 
d="M318 0l-120 212l-123 -212h-51l149 251l-138 237h51l113 -195l113 195h51l-139 -234l149 -254h-55z" />
    <glyph glyph-name="y" unicode="y" horiz-adv-x="445" 
d="M136 -183l64 177q-46 124 -91 246.5t-90 247.5h48l96 -268q14 -42 28.5 -83.5t29.5 -83.5h1l59 167l97 268h47q-61 -167 -122.5 -336t-122.5 -335h-44z" />
    <glyph glyph-name="z" unicode="z" horiz-adv-x="432" 
d="M37 39q75 103 148.5 204t148.5 204v2h-276v39h331v-38l-296 -409v-1h296v-40h-352v39z" />
    <glyph glyph-name="braceleft" unicode="{" horiz-adv-x="290" 
d="M222 -106q-46 0 -72 30t-26 88v123q0 23 -3.5 46.5t-12 43t-22.5 33.5t-36 18v30q22 4 36.5 17.5t22.5 33.5t11.5 44t3.5 48v121q0 58 26 88t73 30h41v-35h-36q-20 0 -32 -9.5t-18.5 -24.5t-9 -34.5t-2.5 -39.5v-107q0 -33 -6.5 -58t-17 -43t-22.5 -29.5t-24 -16.5v-4
q25 -7 47.5 -41.5t22.5 -104.5v-104q0 -21 2.5 -40.5t9 -34.5t18.5 -24t31 -9h37v-35h-42z" />
    <glyph glyph-name="bar" unicode="|" horiz-adv-x="213" 
d="M90 -123v871h40v-871h-40z" />
    <glyph glyph-name="braceright" unicode="}" horiz-adv-x="290" 
d="M51 -106v35h37q19 0 30.5 9t18.5 24t9.5 34.5t2.5 40.5v104q0 70 22.5 104.5t47.5 41.5v4q-12 5 -24 16.5t-22.5 29.5t-17 43t-6.5 58v107q0 20 -2.5 39.5t-9 34.5t-19 24.5t-31.5 9.5h-36v35h41q47 0 73 -30t26 -88v-121q0 -24 3.5 -48t11.5 -44t22.5 -33.5t36.5 -17.5
v-30q-22 -4 -36 -18t-22.5 -33.5t-12 -43t-3.5 -46.5v-123q0 -58 -26 -88t-72 -30h-42z" />
    <glyph glyph-name="asciitilde" unicode="~" horiz-adv-x="588" 
d="M518 362q-38 -88 -116 -88q-27 0 -54.5 11.5t-54.5 26t-52.5 26t-48.5 11.5q-29 0 -49 -18.5t-37 -41.5l-30 16q23 47 56 67.5t61 20.5q25 0 53 -12t55 -26t53 -26t49 -12q32 0 50 17t35 46z" />
    <glyph glyph-name="dieresistonos" unicode="&#x385;" horiz-adv-x="470" 
d="M382 632q0 -13 -10 -22.5t-22 -9.5q-13 0 -23 9.5t-10 22.5q0 14 9.5 23.5t23.5 9.5q12 0 22 -9.5t10 -23.5zM171 632q0 -13 -10 -22.5t-22 -9.5q-14 0 -23.5 9.5t-9.5 22.5q0 14 9.5 23.5t23.5 9.5q12 0 22 -9.5t10 -23.5zM215 565l-26 10l57 143l60 -12z" />
    <glyph glyph-name="tonos" unicode="&#x384;" horiz-adv-x="470" 
d="M232 564l-26 9l64 149l60 -12z" />
    <glyph glyph-name="dieresis" unicode="&#xa8;" horiz-adv-x="470" 
d="M372 632q0 -13 -9.5 -22.5t-22.5 -9.5t-23 9.5t-10 22.5q0 14 9.5 23.5t23.5 9.5q13 0 22.5 -9.5t9.5 -23.5zM186 632q0 -13 -10 -22.5t-22 -9.5q-14 0 -23.5 9.5t-9.5 22.5q0 14 9.5 23.5t23.5 9.5q12 0 22 -9.5t10 -23.5z" />
    <glyph glyph-name="sterling" unicode="&#xa3;" horiz-adv-x="588" 
d="M78 45q46 46 66.5 100.5t20.5 130.5h-89v41h85q-5 27 -13.5 48.5t-16 42t-13 40.5t-5.5 43q0 34 14 64.5t39.5 54t61 37.5t79.5 14q68 0 116.5 -23.5t78.5 -63.5l-38 -31q-26 33 -65.5 53t-90.5 20q-23 0 -48.5 -7t-47 -23t-35.5 -40.5t-14 -60.5q0 -17 6 -35.5
t13.5 -39.5t15.5 -44t12 -48h155v-42h-150q0 -11 -0.5 -20.5t-1.5 -20.5q-3 -53 -20.5 -100.5t-56.5 -90.5h374v-44h-432v45z" />
    <glyph glyph-name="trademark" unicode="&#x2122;" horiz-adv-x="757" 
d="M557 443l93 208h47v-364h-37v305l-55 -124l-78 -175q-25 58 -50.5 115t-51.5 114q-8 17 -14.5 33t-14.5 32v-300h-36v364h46l93 -207l29 -66zM194 287h-38v327h-118v36h274v-36h-118v-327z" />
    <glyph glyph-name="bullet" unicode="&#x2022;" horiz-adv-x="331" 
d="M252 292q0 -36 -24.5 -60.5t-59.5 -24.5t-59.5 24.5t-24.5 60.5t24.5 61.5t59.5 25.5q17 0 32.5 -7t27 -18.5t18 -27.5t6.5 -34z" />
    <glyph glyph-name="sfthyphen" unicode="&#xad;" horiz-adv-x="317" 
d="M52 285v51h212v-51h-212z" />
    <glyph glyph-name="dagger" unicode="&#x2020;" horiz-adv-x="502" 
d="M285 389v-482h-46v482h-188v39h188v223h46v-222h187v-40h-187z" />
    <glyph glyph-name="Gamma" unicode="&#x393;" horiz-adv-x="468" 
d="M116 605v-605h-50v651h398v-46h-348z" />
    <glyph glyph-name="Delta" unicode="&#x394;" horiz-adv-x="593" 
d="M269 651h54q64 -164 127.5 -325.5t126.5 -325.5h-563zM293 590l-75 -196l-135 -350h425q-35 88 -68.5 175t-68.5 175l-76 196h-2z" />
    <glyph glyph-name="Delta" unicode="&#x2206;" horiz-adv-x="593" 
d="M269 651h54q64 -164 127.5 -325.5t126.5 -325.5h-563zM293 590l-75 -196l-135 -350h425q-35 88 -68.5 175t-68.5 175l-76 196h-2z" />
    <glyph glyph-name="Theta" unicode="&#x398;" horiz-adv-x="632" 
d="M589 325q0 -77 -20 -138.5t-56.5 -105.5t-87 -67.5t-110.5 -23.5q-62 0 -112 24t-86 68t-55.5 105.5t-19.5 137.5q0 75 19.5 136.5t55 105.5t86 68.5t112.5 24.5q60 0 110.5 -24t87 -67.5t56.5 -105.5t20 -138zM538 325q0 61 -14.5 114.5t-43 93t-70 62t-95.5 22.5
t-95.5 -22t-70 -61t-43 -92.5t-14.5 -116.5q0 -58 14.5 -111t42.5 -93t70 -63.5t96 -23.5t96 23.5t70 63.5t42.5 93t14.5 111zM142 358h351v-45h-351v45z" />
    <glyph glyph-name="Lambda" unicode="&#x39b;" horiz-adv-x="582" 
d="M292 586l-65 -183l-144 -403h-54q60 164 119 325.5t119 325.5h54l240 -651h-53l-147 404q-17 45 -33 90.5t-32 91.5h-4z" />
    <glyph glyph-name="Xi" unicode="&#x39e;" horiz-adv-x="497" 
d="M28 0v46h192v280h-121v46h121v233h-177v46h414v-46h-188v-233h133v-46h-133v-280h202v-46h-443z" />
    <glyph glyph-name="Pi" unicode="&#x3a0;" horiz-adv-x="603" 
d="M488 0v605h-372v-605h-50v651h472v-651h-50z" />
    <glyph glyph-name="germandbls" unicode="&#xdf;" horiz-adv-x="491" 
d="M251 392q16 2 35 11.5t35.5 25.5t27 38t10.5 49q0 21 -8 42.5t-23 39t-37.5 28t-52.5 10.5t-53.5 -12t-39 -32t-23.5 -46t-8 -53v-496l-45 -21v513q0 39 12 73t34 59t53 39.5t70 14.5q38 0 68.5 -12.5t52 -34.5t33 -50.5t11.5 -60.5q0 -18 -5 -38t-16.5 -39t-30 -35.5
t-45.5 -27.5v-2q30 -5 56 -21.5t44.5 -41t29.5 -56t11 -67.5q0 -42 -12.5 -78.5t-35.5 -63.5t-56 -43t-75 -16q-11 0 -24.5 1.5t-22.5 3.5l8 37q19 -3 35 -3q33 0 59 14t43 36t26 50t9 57q0 34 -10.5 64.5t-30 53.5t-47.5 36.5t-62 15.5v38z" />
    <glyph glyph-name="registered" unicode="&#xae;" horiz-adv-x="519" 
d="M261 268q-41 0 -76 15.5t-61 42.5t-41 63.5t-15 79.5t15 79.5t41 63.5t61 42t76 15q42 0 77.5 -15t61.5 -42t40.5 -63.5t14.5 -79.5t-15 -79.5t-41 -63.5t-61.5 -42.5t-76.5 -15.5zM261 647q-36 0 -66.5 -14t-53 -38t-35.5 -56.5t-13 -69.5q0 -38 13 -70.5t35.5 -56.5
t53 -38t66.5 -14t67 14t53.5 38t35.5 56.5t13 70.5q0 37 -13 69.5t-35.5 56.5t-53.5 38t-67 14zM279 443h-63v-90h-27v231h93q31 0 50.5 -17.5t19.5 -52.5q0 -44 -44 -67q1 -3 8 -17t14.5 -30t14 -30t8.5 -17h-31zM216 560v-92h65q23 0 34 12.5t11 33.5q0 22 -12.5 34
t-32.5 12h-65z" />
    <glyph glyph-name="copyright" unicode="&#xa9;" horiz-adv-x="741" 
d="M375 -10q-69 0 -128.5 25.5t-103 70.5t-68.5 106.5t-25 132.5q0 72 25 133.5t68.5 106.5t103 70.5t128.5 25.5t128 -25.5t103 -70.5t69 -106.5t25 -133.5q0 -71 -25 -132.5t-69 -106.5t-103 -70.5t-128 -25.5zM375 628q-62 0 -115 -23.5t-92 -64t-61.5 -96t-22.5 -119.5
t22.5 -119.5t61.5 -96.5t92 -64.5t115 -23.5q61 0 114.5 23.5t92.5 64.5t61.5 96.5t22.5 119.5t-22.5 119.5t-61.5 96t-92.5 64t-114.5 23.5zM379 125q-37 0 -66.5 14t-50.5 40.5t-32 63t-11 81.5q0 46 11.5 83t32.5 63t50.5 40.5t65.5 14.5q76 0 120 -61l-29 -19
q-18 23 -40 34.5t-51 11.5q-31 0 -54 -12.5t-38.5 -35t-23.5 -53t-8 -66.5t8 -66t23.5 -52t38.5 -34.5t54 -12.5q32 0 53.5 11t41.5 34l27 -19q-28 -33 -59 -46.5t-63 -13.5z" />
    <glyph glyph-name="Sigma" unicode="&#x3a3;" horiz-adv-x="544" 
d="M517 605h-398l199 -267l-218 -292h411v-46h-470v46l219 292l-197 266v47h454v-46z" />
    <glyph glyph-name="section" unicode="&#xa7;" horiz-adv-x="536" 
d="M219 363q-37 -9 -58.5 -29.5t-21.5 -45.5q0 -29 30 -53.5t100 -47.5q37 -12 71.5 -25t60.5 -30.5t41.5 -40.5t15.5 -55q0 -33 -15.5 -58t-42.5 -42t-62.5 -25.5t-74.5 -8.5q-43 0 -92 10.5t-89 30.5l20 38q40 -19 84 -29.5t79 -10.5q24 0 50 5t47 16.5t34.5 29t13.5 41.5
q0 22 -12.5 39t-33.5 30t-49.5 23.5t-60.5 20.5q-35 11 -64.5 24.5t-51.5 30t-34 37t-12 46.5q0 42 29.5 73.5t83.5 44.5zM337 253q28 11 47 30t19 49q0 22 -11 39t-30.5 29.5t-46.5 23t-58 20.5q-35 11 -64.5 24t-50.5 29.5t-33 37t-12 47.5q0 55 47 90t132 35
q38 0 77 -7.5t74 -24.5l-18 -38q-36 16 -72 23.5t-62 7.5q-60 0 -95.5 -24.5t-35.5 -58.5q0 -29 28.5 -53t98.5 -47q38 -12 70.5 -25t56.5 -30.5t38 -40t14 -54.5q0 -45 -26.5 -75t-70.5 -45z" />
    <glyph glyph-name="degree" unicode="&#xb0;" horiz-adv-x="426" 
d="M343 513q0 -30 -10.5 -55t-28.5 -43.5t-42.5 -28.5t-52.5 -10t-52.5 10t-43 28.5t-29 43.5t-10.5 55q0 29 10.5 54t29 43t43 28t52.5 10t52.5 -10t42.5 -28t28.5 -43t10.5 -54zM311 513q0 21 -8 40t-21.5 33.5t-32.5 22.5t-40 8t-39.5 -8t-32.5 -22.5t-22 -33.5t-8 -40
q0 -23 8 -42.5t22 -33.5t32.5 -22.5t39.5 -8.5q43 0 72.5 29.5t29.5 77.5z" />
    <glyph glyph-name="periodcentered" unicode="&#xb7;" horiz-adv-x="211" 
d="M146 292q0 -17 -11 -28t-28 -11q-16 0 -26.5 11t-10.5 28t10.5 28.5t26.5 11.5t27.5 -11.5t11.5 -28.5z" />
    <glyph glyph-name="plusminus" unicode="&#xb1;" horiz-adv-x="588" 
d="M316 377v-171h-44v171h-171v44h171v181h44v-181h171v-44h-171zM101 84v42h385v-42h-385z" />
    <glyph glyph-name="yen" unicode="&#xa5;" horiz-adv-x="588" 
d="M79 285h176l-54 95h-122v41h100l-129 230h57l189 -348l189 348h55l-129 -230h103v-41h-126l-54 -95h180v-40h-195v-245h-49v245h-191v40z" />
    <glyph glyph-name="Phi" unicode="&#x3a6;" horiz-adv-x="690" 
d="M644 329q0 -58 -18.5 -108t-54 -88.5t-86.5 -61.5t-117 -27v-44h-47v44q-65 5 -115.5 29t-85 61.5t-53 87.5t-18.5 107q0 54 17.5 103.5t52 87.5t85 63t117.5 30v38h47v-38q69 -5 120.5 -29.5t86 -62.5t52 -87.5t17.5 -104.5zM595 329q0 45 -13.5 87t-41.5 75.5t-71 55
t-101 26.5v-489q58 5 101 27t71 55t41.5 75.5t13.5 87.5zM321 572q-54 -5 -96 -26t-70.5 -53.5t-43 -74.5t-14.5 -89q0 -45 13.5 -86.5t41 -74.5t69.5 -55t100 -28v487z" />
    <glyph glyph-name="Psi" unicode="&#x3a8;" horiz-adv-x="648" 
d="M595 431q0 -133 -65 -200.5t-183 -76.5v-154h-48v154q-117 11 -179.5 79t-62.5 200v218h49v-216q0 -104 46.5 -164t146.5 -72v452h48v-451q105 9 152 67.5t47 162.5v221h49v-220v0z" />
    <glyph glyph-name="Omega" unicode="&#x3a9;" horiz-adv-x="639" 
d="M373 0v59q44 13 74 40t49 63.5t27 81.5t8 95q0 58 -14 108.5t-41 88t-66.5 59.5t-91.5 22q-55 0 -95.5 -22.5t-67.5 -60.5t-40 -88.5t-13 -105.5q0 -47 7.5 -92t26.5 -83t49.5 -66t77.5 -40v-59h-215v44h150q-46 18 -74.5 51.5t-44 75t-21 85.5t-5.5 83q0 73 19 132.5
t53.5 101.5t83.5 65t109 23q58 0 106.5 -22.5t83.5 -64.5t54.5 -101.5t19.5 -132.5q0 -39 -5.5 -82.5t-21.5 -84t-44 -74.5t-74 -55h153v-44h-217z" />
    <glyph glyph-name="guillemotleft" unicode="&#xab;" horiz-adv-x="442" 
d="M355 40l-134 205l134 205h48l-134 -205l134 -205h-48zM185 40l-133 205l133 205h49l-134 -205l134 -205h-49z" />
    <glyph glyph-name="guillemotright" unicode="&#xbb;" horiz-adv-x="442" 
d="M271 40h-49l134 205l-134 205h49l133 -205zM101 40h-48l134 205l-134 205h49l133 -205z" />
    <glyph glyph-name="ellipsis" unicode="&#x2026;" horiz-adv-x="648" 
d="M584 33q0 -17 -10.5 -27.5t-25.5 -10.5t-26 10.5t-11 27.5q0 16 11 27t26 11t25.5 -11t10.5 -27zM364 33q0 -17 -10 -27.5t-26 -10.5t-26.5 10.5t-10.5 27.5q0 16 10.5 27t26.5 11q15 0 25.5 -11t10.5 -27zM142 33q0 -17 -11 -27.5t-26 -10.5t-26 10.5t-11 27.5
q0 16 11 27t26 11t26 -11t11 -27z" />
    <glyph glyph-name="oe" unicode="&#x153;" horiz-adv-x="837" 
d="M605 496q46 0 83 -17.5t62 -49.5t38.5 -77t13.5 -99v-27h-349q2 -50 15 -87t34.5 -61t50 -36t60.5 -12q65 0 119 48l27 -29q-65 -59 -152 -59q-56 0 -105.5 32.5t-72.5 102.5q-23 -66 -72 -100.5t-112 -34.5q-43 0 -79.5 17t-63.5 50t-42.5 80t-15.5 107q0 63 15.5 110
t42.5 78.5t64.5 47.5t81.5 16q63 0 111 -34.5t71 -100.5q23 64 69.5 99.5t105.5 35.5zM406 244q0 44 -10 83t-30 67.5t-50.5 45t-71.5 16.5q-38 0 -67 -17t-48.5 -45.5t-29 -66.5t-9.5 -80q0 -48 10.5 -88t31 -68.5t50 -44t67.5 -15.5q39 0 68 17.5t49 46.5t30 68t10 81z
M757 263q0 39 -9 74t-28 62t-48 42.5t-69 15.5q-30 0 -56.5 -14t-46.5 -39.5t-32 -61.5t-14 -79h303z" />
    <glyph glyph-name="endash" unicode="&#x2013;" horiz-adv-x="500" 
d="M33 270v45h434v-45h-434z" />
    <glyph glyph-name="afii00208" unicode="&#x2015;" horiz-adv-x="993" 
d="M30 274v45h933v-45h-933z" />
    <glyph glyph-name="quotedblleft" unicode="&#x201c;" horiz-adv-x="314" 
d="M130 634q-15 -11 -24.5 -28.5t-11.5 -36.5q17 0 30 -8.5t13 -28.5q0 -17 -12.5 -28.5t-26.5 -11.5q-15 0 -30 13t-15 41q0 33 17.5 60t46.5 46zM251 634q-15 -11 -24.5 -28.5t-11.5 -36.5q17 0 30 -8.5t13 -28.5q0 -17 -12.5 -28.5t-26.5 -11.5q-15 0 -30 13t-15 41
q0 33 17.5 60t46.5 46z" />
    <glyph glyph-name="quotedblright" unicode="&#x201d;" horiz-adv-x="314" 
d="M182 510q15 11 24.5 28.5t11.5 36.5q-17 0 -30 8.5t-13 28.5q0 17 12.5 28.5t26.5 11.5q15 0 30 -13t15 -41q0 -33 -17.5 -60t-46.5 -46zM61 510q15 11 24.5 28.5t11.5 36.5q-17 0 -30 8.5t-13 28.5q0 17 12.5 28.5t26.5 11.5q15 0 30 -13t15 -41q0 -33 -17.5 -60
t-46.5 -46z" />
    <glyph glyph-name="quoteleft" unicode="&#x2018;" horiz-adv-x="207" 
d="M136 634q-15 -11 -24.5 -28.5t-11.5 -36.5q17 0 30 -8.5t13 -28.5q0 -17 -12.5 -28.5t-26.5 -11.5q-15 0 -30 13t-15 41q0 33 17.5 60t46.5 46z" />
    <glyph glyph-name="quoteright" unicode="&#x2019;" horiz-adv-x="207" 
d="M66 510q15 11 24.5 28.5t11.5 36.5q-17 0 -30 8.5t-13 28.5q0 17 12.5 28.5t26.5 11.5q15 0 30 -13t15 -41q0 -33 -17.5 -60t-46.5 -46z" />
    <glyph glyph-name="alpha" unicode="&#x3b1;" horiz-adv-x="488" 
d="M229 496q16 0 34 -1.5t37.5 -8t40 -19t40.5 -33.5h1v54h45v-488h-36q-2 14 -4 29l-4 30h-1q-34 -32 -74.5 -50t-85.5 -18q-46 0 -79.5 20t-55.5 54.5t-33 81.5t-11 101q0 64 16.5 110.5t43.5 77t60 45.5t66 15zM233 30q21 0 42.5 7t41.5 18t36.5 25t27.5 29v271
q-23 31 -61 54t-83 23q-31 0 -58 -15.5t-47 -43t-31.5 -65t-11.5 -81.5q0 -48 8.5 -89t26 -70.5t44.5 -46t65 -16.5z" />
    <glyph glyph-name="beta" unicode="&#x3b2;" horiz-adv-x="482" 
d="M251 -6q-82 0 -145 62h-1v-199l-45 -20v655q0 39 12.5 73t35 58.5t54.5 38.5t71 14q41 0 71.5 -13t50.5 -34.5t29.5 -49.5t9.5 -59q0 -18 -6.5 -39t-19 -40.5t-32.5 -35t-47 -22.5q36 -5 63.5 -22.5t46 -43t28.5 -57.5t10 -67q0 -42 -14.5 -78.5t-39.5 -63t-59 -42
t-73 -15.5zM176 362v36h39q20 0 44 7.5t44.5 23t34 38.5t13.5 54q0 23 -8 44t-24 36.5t-38.5 25t-50.5 9.5q-30 0 -53.5 -11.5t-39 -30.5t-24 -44t-8.5 -52v-390q10 -13 24.5 -26t32 -23.5t39 -17.5t46.5 -7q36 0 63 14.5t45 37t27 51t9 55.5q0 38 -13.5 69t-36.5 53.5
t-54 35t-66 12.5h-45z" />
    <glyph glyph-name="psi" unicode="&#x3c8;" horiz-adv-x="561" 
d="M509 212q0 -99 -52.5 -154t-154.5 -62v-164l-46 -20v184q-95 8 -151 59.5t-56 159.5v274h47v-272q0 -89 41.5 -131t118.5 -49v503l46 20v-522q73 3 117 46t44 133v261l46 20v-286v0z" />
    <glyph glyph-name="delta" unicode="&#x3b4;" horiz-adv-x="480" 
d="M255 676q39 0 75.5 -8t65.5 -22l-16 -40q-35 17 -65.5 24t-59.5 7q-18 0 -37.5 -6.5t-35 -18t-25.5 -27.5t-10 -35q0 -35 27 -60.5t90 -53.5q81 -37 127 -93t46 -136q0 -50 -15.5 -89.5t-42 -68t-62.5 -43.5t-76 -15q-45 0 -82 15t-63 42.5t-40 66t-14 84.5q0 28 10 60
t30 62t50.5 54t72.5 38v1q-32 16 -52.5 32t-32 33t-16 34t-4.5 35q0 25 11 48.5t31.5 41t49 28t63.5 10.5zM249 391q-35 -6 -64.5 -26.5t-50.5 -48t-33 -58.5t-12 -59q0 -33 10 -63.5t29.5 -54t47.5 -37.5t64 -14q41 0 70 17t47 43t26 56.5t8 57.5q0 59 -35 110t-107 77z
" />
    <glyph glyph-name="epsilon" unicode="&#x3b5;" horiz-adv-x="415" 
d="M227 -10q-32 0 -64.5 7.5t-58 24t-41.5 43.5t-16 67q0 36 25 71t73 48v1q-26 7 -43.5 19.5t-28 28t-15 32t-4.5 31.5q0 29 14.5 53.5t38.5 42.5t56 28t68 10q44 0 82.5 -12.5t72.5 -41.5l-29 -32q-25 21 -56.5 33.5t-66.5 12.5q-34 0 -58.5 -9.5t-41 -23t-24.5 -30
t-8 -29.5q0 -23 9 -40t24 -28.5t35 -17t42 -5.5h62v-37h-47q-21 0 -44.5 -6t-43.5 -18.5t-33 -31.5t-13 -45q0 -48 36 -77t99 -29q26 0 64.5 9.5t74.5 41.5l28 -32q-42 -35 -85 -47t-83 -12z" />
    <glyph glyph-name="phi" unicode="&#x3c6;" horiz-adv-x="607" 
d="M563 255q0 -60 -17 -107.5t-48.5 -80.5t-76 -51t-98.5 -19v-164l-45 -20v184q-54 2 -97 20t-73.5 51t-47 80t-16.5 107q0 43 10.5 78.5t27 62.5t37 46.5t41.5 31.5l18 -38q-13 -9 -28.5 -24t-28.5 -37.5t-21.5 -53t-8.5 -69.5q0 -65 20.5 -106.5t49.5 -65.5t61 -33
t56 -10v460h49q51 0 94 -16.5t74.5 -47.5t49.5 -76t18 -102zM323 37q22 1 54.5 8t63.5 29.5t53 64.5t22 113q0 44 -12 81t-36 64t-60 42.5t-85 16.5v-419z" />
    <glyph glyph-name="gamma" unicode="&#x3b3;" horiz-adv-x="416" 
d="M229 -165l-45 -21v224l-175 450h48q23 -61 45.5 -121t45.5 -120q15 -38 29.5 -76t29.5 -76h1q14 38 28.5 76.5t29.5 76.5q3 8 10 26.5t16.5 42.5t19.5 51t19 51t16 42.5t10 26.5h48l-176 -454v-199z" />
    <glyph glyph-name="eta" unicode="&#x3b7;" horiz-adv-x="464" 
d="M419 0h-47v293q0 85 -32.5 123.5t-98.5 38.5q-26 0 -48 -9.5t-40 -26t-30.5 -38t-18.5 -45.5q-6 -21 -6 -46v-290h-46v489h46v-87l2 -1q14 26 32.5 44t39 29.5t41.5 16.5t39 5q83 0 125 -47.5t42 -148.5v-300z" />
    <glyph glyph-name="iota" unicode="&#x3b9;" horiz-adv-x="212" 
d="M82 0v488h47v-488h-47z" />
    <glyph glyph-name="xi" unicode="&#x3be;" horiz-adv-x="377" 
d="M41 185q0 25 8 53t24 53.5t40.5 45.5t57.5 30v1q-33 9 -55 25.5t-35 36.5t-18 41.5t-5 42.5q0 39 14.5 69.5t39 52t56.5 32.5t67 11q38 0 79.5 -10.5t73.5 -40.5l-26 -34q-55 45 -127 45q-29 0 -53 -10.5t-41.5 -27.5t-27 -39.5t-9.5 -46.5q0 -30 12 -54t31.5 -40
t45 -24.5t51.5 -8.5h88v-39h-88q-37 0 -66.5 -14.5t-50 -38t-31.5 -52.5t-11 -57q0 -31 12 -53.5t36 -40.5t61 -33.5t87 -30.5q47 -14 64.5 -26.5t17.5 -37.5q0 -13 -7 -29t-18 -32.5t-24.5 -32t-25.5 -28.5l-29 22q24 31 38.5 57.5t14.5 37.5q0 8 -4.5 11.5t-18.5 8.5
q-50 16 -95 32t-79 37.5t-54 53.5t-20 82z" />
    <glyph glyph-name="kappa" unicode="&#x3ba;" horiz-adv-x="426" 
d="M221 290l-117 -154v-136h-46v488h46v-284h1l85 111l135 173h56q-32 -40 -63 -79.5t-62 -80.5l146 -328h-51z" />
    <glyph glyph-name="lambda" unicode="&#x3bb;" horiz-adv-x="435" 
d="M336 47q-14 45 -29.5 89.5t-29.5 89.5l-56 171h-1l-167 -397h-49l196 458l-43 137q-9 28 -18 37.5t-35 9.5h-8t-9 -1l-2 39q19 3 34 3q29 0 46.5 -9t27.5 -40l184 -567q6 -19 15.5 -24.5t26.5 -5.5v-37q-8 -1 -14 -1h-11q-23 0 -36.5 10.5t-21.5 37.5z" />
    <glyph glyph-name="mu" unicode="&#xb5;" horiz-adv-x="474" 
d="M101 193q0 -87 31 -125t97 -38q25 0 46.5 9.5t39 25.5t30 37t18.5 45q7 22 7 49v293h46v-489h-46v84h-2q-14 -26 -32 -44.5t-38.5 -29.5t-41 -16t-38.5 -5q-74 0 -118 47v-201l-46 -21v675h47v-296z" />
    <glyph glyph-name="mu" unicode="&#x3bc;" horiz-adv-x="474" 
d="M101 193q0 -87 31 -125t97 -38q25 0 46.5 9.5t39 25.5t30 37t18.5 45q7 22 7 49v293h46v-489h-46v84h-2q-14 -26 -32 -44.5t-38.5 -29.5t-41 -16t-38.5 -5q-74 0 -118 47v-201l-46 -21v675h47v-296z" />
    <glyph glyph-name="nu" unicode="&#x3bd;" horiz-adv-x="435" 
d="M194 0l-177 488h48q27 -74 52 -146t51 -145q13 -35 25 -70l24 -70h2l48 140l101 291h48q-44 -123 -87 -244t-88 -244h-47z" />
    <glyph glyph-name="pi" unicode="&#x3c0;" horiz-adv-x="480" 
d="M381 0v446h-281v-446h-48v489h376v-489h-47z" />
    <glyph glyph-name="rho" unicode="&#x3c1;" horiz-adv-x="502" 
d="M457 244q0 -58 -16 -104t-42.5 -78.5t-60.5 -49.5t-69 -17q-24 0 -44.5 3t-40.5 11.5t-40.5 23.5t-43.5 38v-237l-46 -20v423q0 132 54 196t145 64q41 0 78 -15t65 -46.5t44.5 -79t16.5 -112.5zM410 239q0 45 -9.5 84.5t-29 69t-48.5 47t-67 17.5q-41 0 -70.5 -15.5
t-49 -44t-28.5 -68t-9 -87.5v-120q12 -16 29.5 -31.5t38.5 -27.5t44 -19.5t47 -7.5q34 0 62.5 16t48 44t30.5 65t11 78z" />
    <glyph glyph-name="sigma" unicode="&#x3c3;" horiz-adv-x="515" 
d="M245 -10q-43 0 -79.5 17t-63.5 49.5t-42.5 79.5t-15.5 108q0 63 15.5 109t42.5 76t64.5 44.5t81.5 14.5h245v-42h-135v-1q45 -26 70 -76.5t25 -122.5q0 -63 -16 -111t-43.5 -80.5t-65.5 -48.5t-83 -16zM245 448q-38 0 -67 -15.5t-48.5 -42.5t-29 -64t-9.5 -80
q0 -48 10.5 -87.5t31 -68t50 -44.5t67.5 -16q39 0 68 17.5t49 47t30 68.5t10 81q0 44 -10.5 81.5t-31 64.5t-51 42.5t-69.5 15.5z" />
    <glyph glyph-name="tau" unicode="&#x3c4;" horiz-adv-x="308" 
d="M287 488v-42h-130v-350q0 -35 14 -48t41 -13q14 0 29.5 2t35.5 5l5 -35q-16 -6 -40.5 -9.5t-42.5 -3.5q-50 0 -68 26.5t-18 73.5v352h-103v42h277z" />
    <glyph glyph-name="theta" unicode="&#x3b8;" horiz-adv-x="497" 
d="M453 347q0 -61 -9 -124.5t-32.5 -115t-63.5 -84.5t-102 -33q-47 0 -84.5 24t-63.5 69t-40 109.5t-14 146.5q0 86 14.5 149.5t41.5 105.5t64.5 62.5t83.5 20.5q45 0 82.5 -22t65 -64t42.5 -103.5t15 -140.5zM407 371q-1 59 -12.5 108t-32.5 84t-50.5 54.5t-65.5 19.5
q-72 0 -112 -70.5t-42 -195.5h315zM92 332q0 -146 39.5 -224t117.5 -78q41 0 71 22t49.5 62t29 95.5t9.5 122.5h-316z" />
    <glyph glyph-name="omega" unicode="&#x3c9;" horiz-adv-x="723" 
d="M494 -9q-39 0 -76 17.5t-57 65.5q-25 -48 -60 -65.5t-74 -17.5t-72.5 15.5t-58 46.5t-38 78.5t-13.5 111.5q0 43 11.5 83t32 73.5t48.5 57t60 33.5l16 -38q-29 -11 -51 -32t-38 -49t-24 -61t-8 -67q0 -47 9 -86t26 -67t43 -44t61 -16q28 0 48.5 11.5t34 30.5t20.5 42
t7 46v137h43v-137q0 -24 6 -47.5t19 -42t33 -29.5t49 -11q36 0 62 15.5t43 43t25.5 66.5t8.5 86q0 35 -8.5 67.5t-24 60t-37.5 48.5t-49 33l16 38q34 -11 62 -35.5t47.5 -57.5t30 -72.5t10.5 -81.5q0 -63 -14 -110t-38.5 -78t-58 -46.5t-72.5 -15.5z" />
    <glyph glyph-name="sigma1" unicode="&#x3c2;" horiz-adv-x="411" 
d="M45 243q0 57 14.5 103.5t41 79.5t63.5 50.5t82 17.5t83 -13.5t69 -44.5l-30 -32q-28 26 -58.5 37t-64.5 11q-35 0 -63 -15.5t-48 -43t-31 -66t-11 -83.5t10 -76.5t32 -54.5t58 -41t89 -35q47 -15 64.5 -28t17.5 -38q0 -13 -7 -29t-18 -32.5t-24 -33t-26 -29.5l-31 24
q20 27 35 52.5t18 39.5q2 8 -3 13t-21 10q-53 19 -97 37.5t-76 46t-50 68.5t-18 105z" />
    <glyph glyph-name="upsilon" unicode="&#x3c5;" horiz-adv-x="466" 
d="M420 208q0 -116 -47.5 -167t-137.5 -51t-139 51.5t-49 166.5v281h48v-277q0 -88 31.5 -135t106.5 -47q40 0 67 12t43.5 35.5t23 57t6.5 77.5v277h47v-281v0z" />
    <glyph glyph-name="zeta" unicode="&#x3b6;" horiz-adv-x="377" 
d="M40 198q0 54 26 112t68 114.5t95 108.5t108 94v1h-263v37h326v-35q-50 -37 -105 -87t-102 -107t-77.5 -117.5t-30.5 -118.5q0 -35 8.5 -60.5t31.5 -46t63.5 -37.5t103.5 -33q46 -12 65 -22t19 -35q0 -13 -6.5 -29.5t-17 -34.5t-23.5 -35t-26 -31l-30 22q17 24 29.5 48
t20.5 41q5 12 1.5 17.5t-21.5 10.5q-56 15 -104 30.5t-83 39.5t-55.5 60.5t-20.5 92.5z" />
    <glyph glyph-name="space" unicode=" " horiz-adv-x="213" 
 />
    <glyph glyph-name="Euro" unicode="&#x20ac;" horiz-adv-x="588" 
d="M107 390q7 64 29 114.5t56.5 85t79.5 53t98 18.5q104 0 169 -57l-34 -39q-28 26 -61 37.5t-75 11.5q-46 0 -82.5 -16.5t-62.5 -46.5t-42 -71t-22 -90h293v-40h-404v40h58zM163 250q7 -48 24 -87.5t43 -67.5t61.5 -43.5t78.5 -15.5q85 0 145 57l32 -36q-34 -32 -78 -49.5
t-100 -17.5q-106 0 -175.5 66.5t-84.5 193.5h-60v40h404v-40h-290z" />
    <glyph glyph-name="emdash" unicode="&#x2014;" horiz-adv-x="1000" 
d="M33 274v45h934v-45h-934z" />
    <glyph glyph-name="Eth" unicode="&#xd0;" horiz-adv-x="594" 
d="M73 0v308h-64v34h64v309h152q65 0 123 -18t101.5 -57.5t69 -101.5t25.5 -149t-26 -149t-70 -101t-102 -57t-122 -18h-151zM122 605v-263h165v-34h-165v-263h103q68 0 118 20.5t83 58t49.5 88.5t16.5 113q0 61 -16.5 112.5t-49.5 88.5t-83 58t-118 21h-103z" />
    <glyph glyph-name="Oslash" unicode="&#xd8;" horiz-adv-x="619" 
d="M573 325q0 -77 -18.5 -138.5t-53 -105.5t-83.5 -67.5t-109 -23.5q-57 0 -102 19.5t-78 56.5l-58 -76l-24 18l62 82q-63 89 -63 235q0 75 18 136.5t52 105.5t82.5 68.5t110.5 24.5q54 0 99 -19.5t79 -55.5l63 82l25 -20l-67 -88q31 -44 48 -103t17 -131zM522 325
q0 57 -11 106.5t-34 88.5l-318 -414q26 -34 63.5 -53t86.5 -19q55 0 95 23.5t66 63.5t39 93t13 111zM96 325q0 -55 11.5 -104.5t34.5 -88.5l316 415q-26 33 -63 51.5t-86 18.5q-53 0 -93 -22t-66.5 -61t-40 -92.5t-13.5 -116.5z" />
    <glyph glyph-name="Thorn" unicode="&#xde;" horiz-adv-x="547" 
d="M524 332q0 -49 -15 -85.5t-42 -61t-64.5 -37t-83.5 -12.5h-203v-136h-49v651h50v-127h209q43 0 79.5 -12t63 -36t41 -60t14.5 -84zM116 479v-297h209q72 0 110 39.5t38 109.5q0 72 -40.5 110t-106.5 38h-210z" />
    <glyph glyph-name="ae" unicode="&#xe6;" horiz-adv-x="798" 
d="M564 494q46 0 82.5 -18t61.5 -50t38.5 -76.5t13.5 -97.5v-27h-348q1 -49 13.5 -85.5t34 -61t49.5 -36.5t60 -12t63 13t57 36l28 -30q-38 -33 -73.5 -46t-80.5 -13q-48 0 -90.5 22.5t-70.5 73.5q-33 -33 -61.5 -52.5t-53 -29t-46.5 -12t-43 -2.5q-29 0 -57 8.5t-50.5 26.5
t-36.5 46.5t-14 69.5q0 33 12 61t35.5 48.5t57 32t75.5 11.5q33 0 69 -7.5t78 -26.5v29t1 32q3 65 -32 100t-98 35q-36 0 -65.5 -8t-58.5 -22l-16 39q34 15 67 23.5t78 8.5q68 0 107.5 -31t51.5 -83q23 52 67 81.5t95 29.5zM386 121q-8 20 -13 46.5t-6 54.5q-35 16 -71 26
t-77 10q-28 0 -52.5 -7.5t-43 -22t-29.5 -36t-11 -49.5q0 -56 34.5 -86.5t94.5 -30.5q46 0 92 25t82 70zM715 261q0 39 -9 74t-28 61.5t-48 42t-69 15.5q-30 0 -56 -14t-46 -39.5t-32.5 -61t-14.5 -78.5h303z" />
    <glyph glyph-name="oslash" unicode="&#xf8;" horiz-adv-x="497" 
d="M453 247q0 -62 -16 -109.5t-43.5 -80.5t-65.5 -50t-83 -17q-78 0 -132 54l-44 -57l-24 16l49 64q-24 32 -37 76.5t-13 100.5q0 63 15.5 110t42.5 78.5t64.5 47.5t81.5 16q78 0 133 -52l43 57l25 -19l-47 -61q24 -32 37.5 -75.5t13.5 -98.5zM407 244q0 41 -8 76.5
t-25 63.5l-234 -304q20 -23 47.5 -36t62.5 -13q39 0 68 17.5t49 46.5t30 68t10 81zM91 247q0 -86 32 -142l232 305q-20 22 -47.5 34t-62.5 12q-38 0 -67 -17t-48.5 -45.5t-29 -66.5t-9.5 -80z" />
    <glyph glyph-name="thorn" unicode="&#xfe;" horiz-adv-x="482" 
d="M100 650l1 -218q22 22 43 35t41 19.5t38 8t35 1.5q32 0 64.5 -14.5t58 -45t41.5 -77t16 -110.5q0 -71 -18 -120t-46.5 -80t-64 -44.5t-71.5 -13.5q-30 0 -64 11t-73 49l-1 -206l-47 -21v826h47zM99 105q11 -15 26.5 -28.5t33 -24t37 -16.5t38.5 -6q38 0 67.5 16t49.5 45
t30.5 69.5t10.5 90.5q0 45 -11 83t-30.5 65t-46 42.5t-58.5 15.5q-45 0 -84 -22t-63 -53v-277z" />
    <glyph glyph-name="OE" unicode="&#x152;" horiz-adv-x="832" 
d="M384 0q-33 -10 -74 -10q-62 0 -110.5 24t-82.5 68t-52 105.5t-18 137.5q0 75 18 136.5t51.5 105.5t82.5 68.5t111 24.5q37 0 70 -9h395v-46h-346v-233h248v-46h-248v-280h360v-46h-405zM310 34q37 0 69 12v559q-32 12 -69 12q-54 0 -94 -22t-66.5 -61t-40 -92.5
t-13.5 -116.5q0 -58 13 -111t39.5 -93t67 -63.5t94.5 -23.5z" />
    <glyph glyph-name="cent" unicode="&#xa2;" horiz-adv-x="588" 
d="M300 -8q-38 4 -70.5 21t-56.5 48t-37.5 76.5t-13.5 105.5q0 58 13.5 102.5t37.5 76t56.5 49.5t70.5 23v106h38v-105q37 -2 72 -17.5t65 -44.5l-29 -31q-34 29 -60 41t-63 12t-65.5 -16.5t-48 -44.5t-29.5 -66.5t-10 -81.5q0 -45 9 -84t28.5 -68.5t48.5 -46t70 -16.5
q38 0 64 13.5t54 39.5l30 -27q-23 -29 -56.5 -46.5t-79.5 -19.5v-110h-38v111z" />
    <glyph glyph-name="florin" unicode="&#x192;" horiz-adv-x="588" 
d="M185 398h98l14 98q5 38 15 70.5t27.5 56.5t43.5 38t63 14q21 0 40 -3.5t38 -9.5l-11 -42q-17 6 -33 9t-33 3q-45 0 -68.5 -36.5t-32.5 -99.5q-3 -22 -7 -49.5t-6 -48.5h103v-42h-108q-3 -19 -8.5 -57.5t-11 -79.5t-10.5 -76.5t-8 -49.5q-14 -91 -50 -137t-102 -46
q-19 0 -38.5 4t-37.5 13l15 42q31 -14 56 -14t42.5 9t29.5 26t20 43t15 61q5 26 10.5 60.5t10 70.5t9 70.5t8.5 60.5h-93v42z" />
    <glyph glyph-name="quotesinglbase" unicode="&#x201a;" horiz-adv-x="184" 
d="M52 -67q15 12 24.5 29.5t11.5 36.5q-18 0 -30.5 8t-12.5 27t12.5 30t26.5 11q16 0 30.5 -13t14.5 -41q0 -34 -17.5 -60.5t-46.5 -44.5z" />
    <glyph glyph-name="quotedblbase" unicode="&#x201e;" horiz-adv-x="320" 
d="M55 -67q15 12 24.5 29.5t11.5 36.5q-18 0 -30.5 8t-12.5 27t12.5 30t26.5 11q16 0 30.5 -13t14.5 -41q0 -34 -17.5 -60.5t-46.5 -44.5zM198 -67q15 12 24.5 29.5t11.5 36.5q-17 0 -30 7.5t-13 27.5q0 19 12.5 30t26.5 11q15 0 30 -13t15 -41q0 -33 -17.5 -60t-46.5 -45z
" />
    <glyph glyph-name="daggerdbl" unicode="&#x2021;" horiz-adv-x="502" 
d="M285 127v-220h-46v220h-188v40h188v229h-188v40h188v215h46v-215h187v-40h-187v-229h187v-40h-187z" />
    <glyph glyph-name="questiondown" unicode="&#xbf;" horiz-adv-x="470" 
d="M33 -12q0 35 18 69t38 55t39 39.5t35 39.5t26.5 45t13.5 55h47q-2 -31 -11.5 -55.5t-23.5 -46t-32.5 -42t-39.5 -43.5q-10 -10 -20.5 -23.5t-19.5 -28.5t-14.5 -31t-5.5 -32q0 -17 7 -38.5t23.5 -40t45 -31.5t70.5 -13q39 0 66 13t44.5 32t27 40.5t13.5 38.5h48
q-6 -40 -24.5 -71.5t-45.5 -53t-61.5 -32.5t-72.5 -11q-43 0 -78 13t-60 35.5t-39 53t-14 64.5zM267 449q0 -17 -11.5 -27.5t-26.5 -10.5t-25.5 11t-10.5 27t11 26.5t26 10.5t26 -10t11 -27z" />
    <glyph glyph-name="exclamdown" unicode="&#xa1;" horiz-adv-x="229" 
d="M108 301h26l9 -182v-288h-46v288zM156 450q0 -17 -11 -27.5t-25 -10.5q-16 0 -26.5 11t-10.5 27t10.5 26.5t26.5 10.5t26 -10t10 -27z" />
    <glyph glyph-name="guilsinglright" unicode="&#x203a;" horiz-adv-x="353" 
d="M131 40h-48l134 205l-134 205h49l133 -205z" />
    <glyph glyph-name="guilsinglleft" unicode="&#x2039;" horiz-adv-x="353" 
d="M213 37l-133 205l133 205h49l-134 -205l134 -205h-49z" />
    <glyph glyph-name="brokenbar" unicode="&#xa6;" horiz-adv-x="213" 
d="M90 327v421h40v-421h-40zM90 -152v416h40v-416h-40z" />
    <glyph glyph-name="logicalnot" unicode="&#xac;" horiz-adv-x="588" 
d="M440 293h-338v45h383v-214h-45v169z" />
    <glyph glyph-name="macron" unicode="&#xaf;" horiz-adv-x="464" 
d="M136 618v39h233v-39h-233z" />
    <glyph glyph-name="Dcroat" unicode="&#x110;" horiz-adv-x="594" 
d="M226 651q65 0 122.5 -18t101 -57t69 -101t25.5 -150q0 -87 -26 -148.5t-70 -101t-101.5 -57.5t-121.5 -18h-152v308h-64v34h64v309h153zM122 605v-263h165v-34h-165v-262h104q68 0 118 20.5t83 57.5t49 88.5t16 112.5t-16 112.5t-49 88.5t-83 58t-118 21h-104z" />
    <glyph glyph-name="Lslash" unicode="&#x141;" horiz-adv-x="467" 
d="M66 0v235l-71 -41l-18 30l89 52v375h50v-346l119 70l17 -32l-136 -79v-217h347v-47h-397z" />
    <glyph glyph-name="lslash" unicode="&#x142;" horiz-adv-x="236" 
d="M81 0v235l-72 -41l-18 30l90 52v385l45 21v-379l101 59l17 -32l-118 -69v-261h-45z" />
    <glyph glyph-name="dcroat" unicode="&#x111;" horiz-adv-x="502" 
d="M382 0v54h-1q-21 -22 -42 -35t-41 -19.5t-39 -8t-35 -1.5q-32 0 -64.5 13.5t-58 42t-41.5 74t-16 110.5q0 71 18 119t47 77.5t64.5 42t71.5 12.5q30 0 62.5 -11.5t73.5 -48.5h1v113h-146v34h146v92l46 21v-113h55v-34h-55v-534h-46zM383 366q-11 15 -26.5 28.5t-33 24
t-37 16.5t-38.5 6q-75 0 -116.5 -57t-41.5 -156q0 -45 11 -81.5t30.5 -63t46 -40.5t58.5 -14q45 0 84 22t63 53v262z" />
    <glyph glyph-name="dotaccent" unicode="&#x2d9;" horiz-adv-x="327" 
d="M202 632q0 -14 -10 -23.5t-23 -9.5q-14 0 -23.5 9.5t-9.5 23.5t9.5 24t23.5 10q13 0 23 -10t10 -24z" />
    <glyph glyph-name="multiply" unicode="&#xd7;" horiz-adv-x="588" 
d="M325 316l142 -141q-5 -5 -15.5 -16t-15.5 -16l-142 141l-145 -145l-32 32l145 145l-142 142l32 31l142 -141l146 146l32 -31z" />
    <glyph glyph-name="divide" unicode="&#xf7;" horiz-adv-x="588" 
d="M331 474q0 -16 -10.5 -27t-26.5 -11q-14 0 -24.5 10.5t-10.5 27.5q0 16 10.5 26.5t24.5 10.5q15 0 26 -10.5t11 -26.5zM331 147q0 -16 -10.5 -26.5t-26.5 -10.5q-14 0 -24.5 10t-10.5 27q0 16 10.5 27t24.5 11q15 0 26 -11t11 -27zM101 289v44h386v-44h-386z" />
    <glyph glyph-name="cedilla" unicode="&#xb8;" horiz-adv-x="450" 
d="M240 -198q-12 0 -29.5 3t-40.5 12l9 26q15 -5 31.5 -8.5t30.5 -3.5q24 0 38.5 10t16.5 32q0 23 -18.5 35t-40.5 12h-5l-15 16l27 80l29 -1l-22 -65q25 -4 41 -12.5t25 -19t12.5 -22.5t3.5 -22q0 -12 -5 -25t-16.5 -23.5t-29 -17t-42.5 -6.5z" />
    <glyph glyph-name="acute" unicode="&#xb4;" horiz-adv-x="470" 
d="M232 564l-26 9l64 149l60 -12z" />
    <glyph glyph-name="hungarumlaut" unicode="&#x2dd;" horiz-adv-x="496" 
d="M252 565l-26 10l58 143l59 -12zM155 565l-25 10l57 143l60 -12z" />
    <glyph glyph-name="currency" unicode="&#xa4;" horiz-adv-x="588" 
d="M121 338q0 -33 12.5 -62t34 -50t50.5 -33.5t62 -12.5t61.5 12.5t50.5 33.5t34.5 50t12.5 62t-12.5 62t-34 50.5t-50.5 34t-62 12.5t-62 -12.5t-50.5 -34t-34 -50.5t-12.5 -62zM57 533l29 30l69 -68q26 21 58.5 32.5t68.5 11.5q35 0 66 -11.5t59 -32.5l68 68l31 -31
l-70 -67q21 -29 32.5 -60t11.5 -66t-11.5 -66t-31.5 -60l69 -64l-31 -33l-69 68q-30 -26 -61.5 -35t-63.5 -9t-63 9t-62 35l-69 -69l-31 32l69 66q-26 34 -35.5 65.5t-9.5 58.5q0 34 12.5 67.5t32.5 60.5z" />
    <glyph glyph-name="paragraph" unicode="&#xb6;" horiz-adv-x="471" 
d="M217 299q-38 0 -70 13.5t-55 37t-36 55.5t-13 68t13.5 67.5t36.5 55t55 37.5t69 14h91v-348h-91zM400 -9q0 -42 -6 -74t-24.5 -54.5t-52.5 -36t-89 -19.5l-3 39q51 6 78.5 19.5t40.5 33.5t15.5 45.5t2.5 55.5v647h38v-656z" />
    <glyph glyph-name="eth" unicode="&#xf0;" horiz-adv-x="501" 
d="M396 711l25 -20l-59 -68q22 -24 40.5 -52.5t31 -66t19.5 -87t7 -115.5q0 -71 -13.5 -128.5t-39.5 -98.5t-65.5 -63t-91.5 -22q-47 0 -84.5 18t-63.5 50.5t-40.5 78.5t-14.5 103q0 58 16.5 102t44.5 73t64.5 44t76.5 15q19 0 41.5 -5.5t45 -17.5t42 -30.5t31.5 -43.5h4
q-1 60 -21 116t-58 97l-58 -68l-25 21l58 68q-52 42 -131 51l5 41q47 -5 84.5 -19t71.5 -40zM407 241q0 43 -12.5 78.5t-34 61t-50.5 39t-62 13.5q-37 0 -66 -14t-49.5 -39.5t-31 -61t-10.5 -77.5q0 -47 11.5 -86t32.5 -67t50 -43t64 -15q37 0 66.5 17t50 46t31 67.5
t10.5 80.5z" />
    <glyph glyph-name="tilde" unicode="&#x2dc;" horiz-adv-x="491" 
d="M395 650q-15 -32 -39 -46t-50 -14q-17 0 -33 5.5t-31.5 12t-30.5 12t-29 5.5q-18 0 -32.5 -6.5t-31.5 -25.5l-23 15q17 32 40 45t47 13q17 0 33 -6t31 -12.5t30.5 -12.5t32.5 -6t31 7.5t30 27.5z" />
    <glyph glyph-name="circumflex" unicode="&#x2c6;" horiz-adv-x="497" 
d="M248 654l-122 -89l-18 15l115 115h53l114 -117l-17 -15z" />
    <glyph glyph-name="ogonek" unicode="&#x2db;" horiz-adv-x="475" 
d="M250 1q-26 -32 -36.5 -56.5t-10.5 -43.5q0 -26 17.5 -39t43.5 -13q19 0 46 12l8 -28q-35 -18 -69 -18q-38 0 -62.5 21.5t-24.5 55.5q0 23 13.5 50t43.5 61h31v-2z" />
    <glyph glyph-name="caron" unicode="&#x2c7;" horiz-adv-x="432" 
d="M344 697l18 -15l-114 -118h-53l-115 116l18 15l122 -89z" />
    <glyph glyph-name="breve" unicode="&#x2d8;" horiz-adv-x="478" 
d="M180 675q4 -29 24.5 -48t55.5 -19t55.5 19.5t23.5 47.5h39q-2 -18 -9.5 -36.5t-21 -32.5t-35 -23.5t-51.5 -9.5q-31 0 -53 9t-36.5 23.5t-21.5 33t-9 36.5h39z" />
    <glyph glyph-name="uni1FBD" unicode="&#x1fbd;" horiz-adv-x="489" 
d="M225 567q12 18 21.5 38t9.5 40q0 23 -13.5 41t-48.5 26l15 49q48 -11 71 -34.5t23 -56.5q0 -25 -13.5 -54t-41.5 -58z" />
    <glyph glyph-name="uni1FBE" unicode="&#x1fbe;" horiz-adv-x="489" 
d="M275 -62v-94q0 -23 8.5 -30.5t31.5 -7.5h13v-36q-8 -2 -19 -3.5t-19 -1.5q-26 0 -42 12t-16 46v115h43z" />
    <glyph glyph-name="uni1FC1" unicode="&#x1fc1;" horiz-adv-x="478" 
d="M360 590q0 -14 -10 -23.5t-23 -9.5q-14 0 -24 9.5t-10 23.5t10 24t24 10q13 0 23 -10t10 -24zM193 590q0 -14 -10 -23.5t-23 -9.5q-14 0 -24 9.5t-10 23.5t10 24t24 10q13 0 23 -10t10 -24zM395 718q-16 -32 -39.5 -46t-49.5 -14q-17 0 -33 5.5t-31.5 12t-30.5 12
t-29 5.5q-18 0 -32.5 -6.5t-31.5 -25.5l-23 15q17 32 40 44.5t47 12.5q17 0 33 -5.5t31 -12.5t30.5 -12.5t32.5 -5.5t31 7.5t30 27.5z" />
    <glyph glyph-name="uni1FCD" unicode="&#x1fcd;" horiz-adv-x="489" 
d="M147 570q12 18 21.5 38t9.5 40q0 23 -14 41t-49 26l15 48q48 -11 71.5 -34.5t23.5 -55.5q0 -25 -14 -54.5t-41 -57.5zM236 744l67 12l70 -184l-26 -8z" />
    <glyph glyph-name="uni1FCE" unicode="&#x1fce;" horiz-adv-x="497" 
d="M188 570q12 18 21.5 38t9.5 40q0 23 -14 41t-49 26l15 48q48 -11 71.5 -34.5t23.5 -55.5q0 -25 -14 -54.5t-41 -57.5zM304 561l-26 8l70 184l67 -11z" />
    <glyph glyph-name="uni1FCF" unicode="&#x1fcf;" horiz-adv-x="489" 
d="M232 566q14 15 23 27.5t9 26.5t-11.5 27t-46.5 18l13 39q50 -7 69 -27.5t19 -41.5q0 -17 -12 -37.5t-43 -42.5zM405 776q-15 -32 -39 -46.5t-50 -14.5q-16 0 -32 5.5t-31 12t-30 12t-29 5.5q-18 0 -32 -6.5t-32 -25.5l-22 16q17 32 39.5 45.5t46.5 13.5q17 0 33.5 -6
t32.5 -12.5t30.5 -12.5t28.5 -6t29 7t33 28z" />
    <glyph glyph-name="uni1FDD" unicode="&#x1fdd;" horiz-adv-x="489" 
d="M234 744l68 12l70 -184l-26 -8zM170 559q-28 28 -41.5 57.5t-13.5 53.5q0 33 23 56.5t71 34.5q1 -3 3.5 -10t4.5 -14.5t4 -14.5t3 -10q-35 -8 -48.5 -25.5t-13.5 -40.5q0 -20 9.5 -40t21.5 -39z" />
    <glyph glyph-name="uni1FDE" unicode="&#x1fde;" horiz-adv-x="497" 
d="M219 563q-27 28 -41 57.5t-14 54.5q0 33 23 56.5t71 34.5l16 -49q-35 -8 -49 -26t-14 -41q0 -20 9.5 -40t21.5 -38zM302 564l-25 8l70 184l67 -12z" />
    <glyph glyph-name="uni1FDF" unicode="&#x1fdf;" horiz-adv-x="489" 
d="M255 556q-33 19 -45 38.5t-12 36.5q0 21 18.5 43t69.5 29l11 -38q-33 -6 -44.5 -18.5t-11.5 -26.5t9.5 -27t23.5 -27zM405 776q-15 -32 -39 -46.5t-50 -14.5q-16 0 -32 5.5t-31 12t-30 12t-29 5.5q-18 0 -32 -6t-32 -26l-22 16q17 32 39.5 45.5t46.5 13.5q17 0 33.5 -6
t32 -12.5t30.5 -12.5t29 -6t29 7t33 28z" />
    <glyph glyph-name="uni1FED" unicode="&#x1fed;" horiz-adv-x="387" 
d="M59 625q0 14 9.5 23.5t22.5 9.5t23 -9.5t10 -23.5q0 -13 -10 -22.5t-23 -9.5t-22.5 9.5t-9.5 22.5zM256 625q0 14 9.5 23.5t22.5 9.5t23 -9.5t10 -23.5q0 -13 -10 -22.5t-23 -9.5t-22.5 9.5t-9.5 22.5zM100 744l67 12l70 -184l-25 -8z" />
    <glyph glyph-name="uni1FEE" unicode="&#x1fee;" horiz-adv-x="387" 
d="M322 625q0 -13 -9.5 -22.5t-21.5 -9.5q-13 0 -23 9.5t-10 22.5q0 14 9.5 23.5t23.5 9.5q12 0 21.5 -9.5t9.5 -23.5zM126 625q0 -13 -10 -22.5t-22 -9.5q-14 0 -23.5 9.5t-9.5 22.5q0 14 9.5 23.5t23.5 9.5q12 0 22 -9.5t10 -23.5zM170 564l-26 8l70 184l67 -12z" />
    <glyph glyph-name="uni1FFE" unicode="&#x1ffe;" horiz-adv-x="489" 
d="M249 558q-28 29 -41.5 58t-13.5 54q0 33 23 56.5t71 34.5l15 -49q-35 -8 -48.5 -26t-13.5 -41q0 -20 9.5 -40t21.5 -38z" />
    <glyph glyph-name="less" unicode="&#x3c;" horiz-adv-x="588" 
d="M112 298v41q10 5 38.5 20t65.5 35.5t78 43t78 43t65 35.5t38 20v-46l-315 -171q7 -4 31.5 -17.5t57 -31.5t69 -39t69 -39t56.5 -31.5t32 -16.5v-46z" />
    <glyph glyph-name="equal" unicode="=" horiz-adv-x="588" 
d="M102 382v44h384v-44h-384zM102 197v44h384v-44h-384z" />
    <glyph glyph-name="greater" unicode="&#x3e;" horiz-adv-x="588" 
d="M112 98v46l315 175q-7 3 -31.5 16t-57 31t-69 38.5t-69 38.5t-57 31t-31.5 16v46q10 -5 38.5 -20t65 -35.5t78 -43t78 -43t64.5 -35.5t39 -20v-41z" />
    <glyph glyph-name="afii10051" unicode="&#x402;" horiz-adv-x="715" 
d="M260 398q16 13 39 22.5t48.5 16t50 9.5t43.5 3q110 0 169 -62.5t59 -170.5q0 -48 -13 -93t-40 -80t-69.5 -57.5t-101.5 -26.5v40q50 4 83.5 25t54 51.5t29 67.5t8.5 73q0 91 -47 140.5t-134 49.5q-45 0 -94 -15t-85 -42v-349h-49v605h-198v46h545v-46h-298v-207v0z" />
    <glyph glyph-name="afii10053" unicode="&#x404;" horiz-adv-x="534" 
d="M471 108q8 -8 17.5 -15.5t18.5 -15.5q-35 -42 -84 -64.5t-112 -22.5q-60 0 -109.5 23t-84 66.5t-53.5 105.5t-19 140t19 140.5t54 106t84 66.5t109 23q64 0 110.5 -20t81.5 -60l-36 -36q-32 36 -69 53t-87 17t-88.5 -19t-65 -52.5t-41.5 -80t-19 -100.5h318v-46h-319v-1
q0 -53 13.5 -103t40.5 -90t67.5 -64t94.5 -24q47 0 87 19t72 54z" />
    <glyph glyph-name="afii10058" unicode="&#x409;" horiz-adv-x="883" 
d="M402 0v605h-221q1 -57 1 -113.5v-113.5q0 -66 -3.5 -131t-20 -119t-50 -90.5t-94.5 -44.5q-1 11 -2.5 22t-2.5 22q43 9 68 35.5t38 69t16.5 101t3.5 132.5v275h316v-282h205q94 0 146.5 -47t52.5 -139q0 -91 -51 -136.5t-141 -45.5h-261zM451 325v-282h207
q69 0 109.5 34.5t40.5 105.5q0 68 -39.5 105t-111.5 37h-206z" />
    <glyph glyph-name="afii10059" unicode="&#x40a;" horiz-adv-x="881" 
d="M860 183q0 -47 -14.5 -81.5t-41 -57t-63 -33.5t-79.5 -11h-258v326h-292v-326h-48v651h48v-282h292v282h50v-282h204q94 0 148 -47t54 -139zM810 183q0 66 -38 104.5t-110 38.5h-208v-282h208q69 0 108.5 34t39.5 105z" />
    <glyph glyph-name="afii10060" unicode="&#x40b;" horiz-adv-x="699" 
d="M600 0v248q0 36 -8.5 66.5t-28 52.5t-51 34t-78.5 12q-23 0 -47.5 -5t-48 -13t-44.5 -19t-37 -23v-353h-48v606h-197v45h541v-45h-296v-204h2q16 10 37.5 20t45.5 17.5t49.5 12t49.5 4.5q58 0 97.5 -16t63.5 -43.5t34.5 -64.5t10.5 -79v-253h-47z" />
    <glyph glyph-name="afii10145" unicode="&#x40f;" horiz-adv-x="604" 
d="M327 0v-168h-53v168h-208v650h49v-605h375v605h48v-650h-211z" />
    <glyph glyph-name="afii10018" unicode="&#x411;" horiz-adv-x="559" 
d="M323 368q93 0 147 -45.5t55 -139.5q0 -91 -53 -137t-144 -46h-262v651h398v-45h-350v-238h209zM476 183q0 66 -38.5 103.5t-110.5 37.5h-213v-279h213q72 0 110.5 34.5t38.5 103.5z" />
    <glyph glyph-name="afii10021" unicode="&#x414;" horiz-adv-x="661" 
d="M583 -155v155h-517v-155h-50v199h51q26 24 43.5 67t28 97.5t15.5 117t7 125.5l6 199h407v-607h58v-198h-49zM214 606l-6 -168q-2 -51 -5.5 -105.5t-11.5 -106.5t-22 -99t-36 -83h392v562h-311z" />
    <glyph glyph-name="afii10024" unicode="&#x416;" horiz-adv-x="752" 
d="M742 0h-62l-278 316l-3 -1v-315h-47v315l-3 1l-279 -316h-61l296 334l-290 317h56l278 -302l3 1v301h47v-301l3 -1l277 302h57l-291 -317z" />
    <glyph glyph-name="afii10025" unicode="&#x417;" horiz-adv-x="508" 
d="M243 661q105 0 156 -46t51 -118q0 -22 -8 -45.5t-24 -45.5t-40 -39t-56 -25v-1q39 -7 64.5 -24.5t40.5 -40.5t21.5 -48t6.5 -46q0 -45 -17.5 -81t-49 -60.5t-74.5 -37.5t-95 -13q-60 0 -115.5 22t-91.5 60q1 1 6 5.5t10.5 10t10 10.5t5.5 6q37 -35 82 -53t92 -18
q88 0 137 40t49 109q0 36 -13.5 62.5t-36 43t-51.5 24.5t-60 8h-99v42h95q32 0 61 10.5t50.5 28t34 40.5t12.5 49q0 25 -8.5 48t-27 40.5t-48.5 28t-72 10.5q-21 0 -45 -4.5t-46.5 -12t-42.5 -18t-34 -21.5q-1 1 -5.5 6t-9.5 11t-9 11t-5 6q19 16 43.5 28.5t50.5 20.5
t53 12.5t52 4.5z" />
    <glyph glyph-name="afii10026" unicode="&#x418;" horiz-adv-x="616" 
d="M501 0v569l-2 1l-107 -159l-279 -411h-48v651h48v-569h3l102 152l283 417h49v-651h-49z" />
    <glyph glyph-name="afii10029" unicode="&#x41b;" horiz-adv-x="578" 
d="M182 606v-260q0 -74 -6.5 -136.5t-25 -109t-51.5 -75t-86 -34.5l-5 44q36 7 60.5 27.5t39 57.5t21 90.5t6.5 127.5v313h374v-651h-50v606h-277z" />
    <glyph glyph-name="afii10037" unicode="&#x423;" horiz-adv-x="505" 
d="M266 109q-26 -62 -58 -90t-85 -28h-30v44h19q31 0 54.5 12.5t38.5 44.5q5 11 9.5 21t9.5 21l-213 513h50l188 -460l198 460h49z" />
    <glyph glyph-name="afii10040" unicode="&#x426;" horiz-adv-x="604" 
d="M544 -156v156h-479v650h48v-605h374v605h49v-606h57v-200h-49z" />
    <glyph glyph-name="afii10041" unicode="&#x427;" horiz-adv-x="577" 
d="M462 0v304l-1 1q-35 -21 -89 -38t-110 -17q-64 0 -105 18t-64.5 47t-32.5 67t-9 77v192h46v-182q0 -50 11.5 -84t33.5 -55t53.5 -30t71.5 -9q53 0 106.5 18t88.5 42v300h48v-651h-48z" />
    <glyph glyph-name="afii10042" unicode="&#x428;" horiz-adv-x="820" 
d="M65 0v651h49v-606h271v606h50v-606h271v606h48v-651h-689z" />
    <glyph glyph-name="afii10043" unicode="&#x429;" horiz-adv-x="825" 
d="M812 -156h-50v156h-696v651h48v-607h272v607h49v-607h271v606h49v-606h57v-200z" />
    <glyph glyph-name="afii10044" unicode="&#x42a;" horiz-adv-x="764" 
d="M7 651h320v-283h205q94 0 147.5 -47t53.5 -139q0 -91 -53 -136.5t-141 -45.5h-262v605h-270v46zM683 182q0 67 -39.5 103.5t-109.5 36.5h-207v-276h208q31 0 58.5 8t47 24.5t31 42.5t11.5 61z" />
    <glyph glyph-name="afii10045" unicode="&#x42b;" horiz-adv-x="709" 
d="M593 0v651h49v-651h-49zM66 651h49v-282h205q93 0 146 -47t53 -139q0 -91 -52.5 -137t-140.5 -46h-260v651zM470 183q0 66 -39.5 103t-108.5 37h-207v-277h207q31 0 58.5 8t47 25t31 43t11.5 61z" />
    <glyph glyph-name="afii10046" unicode="&#x42c;" horiz-adv-x="549" 
d="M66 651h49v-283h205q93 0 146 -47t53 -139q0 -91 -52.5 -136.5t-140.5 -45.5h-260v651zM470 182q0 67 -39.5 103.5t-108.5 36.5h-207v-276h207q31 0 58.5 8t47 24.5t31 42.5t11.5 61z" />
    <glyph glyph-name="afii10047" unicode="&#x42d;" horiz-adv-x="541" 
d="M125 363h316q-3 53 -18.5 99t-42 80t-64 53.5t-86.5 19.5q-47 0 -84 -15.5t-72 -50.5l-33 34q38 40 82 59t109 19q60 0 108.5 -23t82.5 -66.5t52.5 -106t18.5 -140.5t-19.5 -140t-54.5 -105.5t-85 -66.5t-110 -23q-64 0 -112 22t-83 64q8 8 17.5 16t17.5 16
q32 -35 72.5 -54t88.5 -19q54 0 94 23t67 62t41 90t16 107h-319v46z" />
    <glyph glyph-name="afii10048" unicode="&#x42e;" horiz-adv-x="736" 
d="M690 325q0 -161 -65.5 -247.5t-181.5 -86.5q-113 0 -178 82t-67 246h-85v-319h-48v651h48v-288h87q5 68 23 123t49 93.5t73.5 59.5t97.5 21t101 -22.5t78 -65t50 -105t18 -142.5zM642 325q0 64 -12.5 118t-37.5 93t-62.5 60.5t-86.5 21.5t-86 -22.5t-61.5 -62t-36.5 -93
t-12 -115.5q0 -63 11.5 -116.5t35.5 -92.5t61 -61t88 -22q52 0 89.5 22.5t62 62t36 93t11.5 114.5z" />
    <glyph glyph-name="afii10049" unicode="&#x42f;" horiz-adv-x="569" 
d="M44 453q0 48 15 85t42 62t64 38t80 13h258v-651h-49v265h-215l-127 -265h-57l132 271q-68 17 -105.5 62t-37.5 120zM248 607q-33 0 -61 -11t-48.5 -31t-32 -48.5t-11.5 -63.5q0 -69 41 -106.5t110 -37.5h208v298h-206z" />
    <glyph glyph-name="afii10066" unicode="&#x431;" horiz-adv-x="511" 
d="M264 442q-32 0 -61.5 -14t-52.5 -42t-36.5 -68.5t-13.5 -93.5q0 -40 10 -75.5t30.5 -62t50 -42t68.5 -15.5q40 0 70 16.5t50 45.5t30 68t10 84q0 95 -40 147t-115 52zM95 355q10 27 27 50t39.5 40t50 26.5t57.5 9.5q97 0 147 -63.5t50 -177.5q0 -57 -15 -103.5t-42 -79.5
t-65.5 -50.5t-86.5 -17.5q-54 0 -94 21.5t-66.5 61.5t-39 98t-12.5 130q0 55 8 105.5t27 92.5t50.5 75t79.5 54q47 22 102 33t106 26q0 -2 2 -7.5t4 -11.5t3.5 -12t1.5 -7q-29 -10 -56.5 -16t-53.5 -11.5t-51.5 -13t-49.5 -20.5q-34 -18 -57.5 -43.5t-38.5 -56t-22 -64.5
t-8 -67z" />
    <glyph glyph-name="afii10067" unicode="&#x432;" horiz-adv-x="461" 
d="M322 264q48 -10 74.5 -44.5t26.5 -76.5q0 -71 -44.5 -107t-125.5 -36h-202v488h206q64 0 103 -31t39 -89q0 -15 -4.5 -30.5t-13.5 -30t-23.5 -26t-35.5 -17.5zM97 241v-202h159q60 0 89.5 27.5t29.5 73.5q0 49 -35 75t-87 26h-156zM97 448v-165h154q48 0 74 24t26 58
q0 36 -22.5 59.5t-72.5 23.5h-159z" />
    <glyph glyph-name="afii10068" unicode="&#x433;" horiz-adv-x="380" 
d="M98 448v-448h-46v488h325v-40h-279z" />
    <glyph glyph-name="afii10069" unicode="&#x434;" horiz-adv-x="522" 
d="M452 -138v138h-395v-138h-44v176h40q18 20 30.5 50.5t20 69.5t12 84.5t6.5 94.5l7 151h322v-450h45v-176h-44zM172 450l-6 -127q-2 -35 -5.5 -72.5t-10 -75t-16.5 -72.5t-26 -65h298v412h-234z" />
    <glyph glyph-name="afii10072" unicode="&#x436;" horiz-adv-x="593" 
d="M586 487l-221 -226l222 -261h-59l-207 249v-249h-46v249l-207 -249h-59l222 261l-221 226h56l209 -216v216h46v-216l209 216h56z" />
    <glyph glyph-name="afii10073" unicode="&#x437;" horiz-adv-x="431" 
d="M195 -9q-49 0 -93.5 16.5t-75.5 46.5q7 8 13.5 15t13.5 15q29 -27 65 -41t77 -14q68 0 106 29t38 80q0 25 -10 43.5t-27 30t-39 17t-46 5.5h-84v38h78q54 0 86.5 27t32.5 64q0 19 -7 35.5t-22 29t-38 20t-56 7.5q-36 0 -70.5 -13t-58.5 -31q-7 8 -12.5 15.5t-12.5 15.5
q33 26 74.5 39t83.5 13q85 0 125 -36.5t40 -88.5q0 -15 -5 -32t-16 -32.5t-27.5 -29t-39.5 -21.5q28 -6 46.5 -19.5t30 -30t16 -34t4.5 -32.5q0 -72 -52 -109.5t-138 -37.5z" />
    <glyph glyph-name="afii10074" unicode="&#x438;" horiz-adv-x="478" 
d="M376 409l-70 -103l-209 -306h-46v489h46v-413h3l84 124l195 289h48v-489h-47v408z" />
    <glyph glyph-name="afii10077" unicode="&#x43b;" horiz-adv-x="475" 
d="M371 449h-218v-178q0 -50 -4.5 -97.5t-19.5 -85t-43.5 -63t-76.5 -32.5l-5 38q34 8 54.5 28t31.5 52t15 75.5t4 99.5v202h307v-488h-45v449z" />
    <glyph glyph-name="afii10078" unicode="&#x43c;" horiz-adv-x="555" 
d="M280 106l51 110l126 273h47v-489h-47v381l-3 1l-45 -96l-133 -280l-133 283l-44 94l-2 -1v-382h-46v489h46l128 -274l51 -109h4z" />
    <glyph glyph-name="afii10079" unicode="&#x43d;" horiz-adv-x="487" 
d="M389 0v237h-291v-237h-46v489h46v-211h291v211h46v-489h-46z" />
    <glyph glyph-name="afii10084" unicode="&#x442;" horiz-adv-x="387" 
d="M218 448v-448h-47v448h-160v41h368v-41h-161z" />
    <glyph glyph-name="afii10086" unicode="&#x444;" horiz-adv-x="630" 
d="M338 -161q-11 -5 -23 -9.5t-23 -9.5v173q-115 2 -182 65.5t-67 189.5q0 57 19.5 102t53 76.5t79 48.5t97.5 19v165l46 19q0 -46 -0.5 -92t-0.5 -92q54 -2 100 -18t79.5 -47t52 -76t18.5 -105q0 -61 -19 -108t-52 -79t-78.5 -49.5t-99.5 -18.5v-154zM338 27
q26 2 61.5 11.5t67 33.5t53.5 65.5t22 107.5q0 94 -52 150t-152 60v-428zM292 455q-96 -5 -150 -60.5t-54 -149.5q0 -66 21.5 -108t53 -66t67 -33t62.5 -10v427z" />
    <glyph glyph-name="afii10088" unicode="&#x446;" horiz-adv-x="506" 
d="M478 -138h-45v138h-382v489h46v-450h291v450h47v-450h43v-177z" />
    <glyph glyph-name="afii10089" unicode="&#x447;" horiz-adv-x="444" 
d="M344 250q-33 -38 -75.5 -55.5t-76.5 -17.5q-78 0 -119.5 40.5t-41.5 137.5v133h47v-128q0 -77 29 -109.5t91 -32.5q37 0 77 19.5t71 60.5v190h46v-488h-46v250h-2z" />
    <glyph glyph-name="afii10090" unicode="&#x448;" horiz-adv-x="683" 
d="M52 0v489h45v-450h219v450h45v-450h225v450h45v-489h-579z" />
    <glyph glyph-name="afii10091" unicode="&#x449;" horiz-adv-x="700" 
d="M52 489h45v-450h219v450h45v-450h224v450h46v-450h43v-177h-45v138h-577v489z" />
    <glyph glyph-name="afii10092" unicode="&#x44a;" horiz-adv-x="599" 
d="M573 142q0 -71 -43.5 -106.5t-116.5 -35.5h-203v448h-203v41h249v-206h150q79 0 123 -36t44 -105zM526 141q0 48 -29.5 75t-83.5 27h-157v-203h158q50 0 81 25t31 76z" />
    <glyph glyph-name="afii10093" unicode="&#x44b;" horiz-adv-x="576" 
d="M477 0v489h45v-489h-45zM422 140q0 -71 -45 -105.5t-117 -34.5h-205v489h45v-208h157q77 0 121 -36t44 -105zM373 140q0 48 -30 75t-83 27h-160v-203h161q50 0 81 25t31 76z" />
    <glyph glyph-name="afii10094" unicode="&#x44c;" horiz-adv-x="448" 
d="M419 141q0 -72 -44.5 -106.5t-117.5 -34.5h-205v489h47v-207h155q77 0 121 -36t44 -105zM371 141q0 48 -30 75t-84 27h-158v-203h160q50 0 81 25t31 76z" />
    <glyph glyph-name="afii10095" unicode="&#x44d;" horiz-adv-x="426" 
d="M191 496q41 0 75.5 -15t60 -44.5t40 -74t14.5 -102.5q0 -67 -15.5 -117.5t-42 -84.5t-62.5 -51t-78 -17q-53 0 -89 17t-62 47l30 29q29 -27 56 -39.5t62 -12.5q36 0 64.5 16t48 43.5t29.5 64t11 78.5h-242v41h241q0 37 -10 70t-28 57.5t-44 39t-59 14.5q-31 0 -62.5 -10
t-62.5 -37l-29 32q33 29 71 42.5t83 13.5z" />
    <glyph glyph-name="afii10096" unicode="&#x44e;" horiz-adv-x="600" 
d="M555 244q0 -57 -13 -103t-38.5 -79t-62 -51t-82.5 -18q-54 0 -90 22t-58.5 57t-32.5 78t-12 85h-66v-235h-45v489h45v-214h68q3 39 14.5 78.5t34.5 70.5t58 50.5t84 19.5q47 0 83.5 -18t61.5 -51t38 -79t13 -102zM511 243q0 43 -9 82t-27.5 68t-47.5 46t-68 17t-67 -16.5
t-46 -45t-26.5 -67.5t-8.5 -83q0 -42 8 -80.5t26 -68t46 -47.5t68 -18t69 17.5t47.5 47t27 68t8.5 80.5z" />
    <glyph glyph-name="afii10097" unicode="&#x44f;" horiz-adv-x="466" 
d="M48 0l105 202q-53 13 -82 46t-29 89q0 36 12 64.5t34 48t51 29.5t64 10h212v-489h-47v196h-169l-100 -196h-51zM88 337q0 -51 32.5 -76t84.5 -25h163v213h-163q-24 0 -45.5 -8t-37.5 -22.5t-25 -35.5t-9 -46z" />
    <glyph glyph-name="afii10099" unicode="&#x452;" horiz-adv-x="514" 
d="M135 0h-46v539h-71v35h71v87l46 21v-108h231v-35h-231v-158h2q14 27 33 45t39.5 29t41.5 16t39 5q82 0 130 -58.5t48 -167.5q0 -51 -12 -95.5t-37.5 -81t-66 -63.5t-96.5 -42l-10 42q84 23 129.5 82.5t45.5 153.5q0 95 -39 142t-104 47q-30 0 -56.5 -14t-45.5 -37.5
t-30 -53.5t-11 -62v-268z" />
    <glyph glyph-name="afii10100" unicode="&#x453;" horiz-adv-x="381" 
d="M98 448v-448h-46v488h325v-40h-279zM192 564l-26 9l64 149l60 -12z" />
    <glyph glyph-name="afii10101" unicode="&#x454;" horiz-adv-x="430" 
d="M243 496q46 0 81 -13.5t67 -45.5l-30 -32q-29 28 -59 39t-62 11t-57.5 -14t-44.5 -38.5t-30 -58t-14 -71.5h239v-42h-240q1 -42 12 -78.5t30.5 -63.5t47.5 -42.5t63 -15.5t62.5 12.5t56.5 39.5l31 -28q-27 -30 -63.5 -47.5t-89.5 -17.5q-38 0 -74 16t-63.5 48t-44 79
t-16.5 110t16 110t43 79t63 48t76 16z" />
    <glyph glyph-name="afii10106" unicode="&#x459;" horiz-adv-x="699" 
d="M319 0v447h-166v-175q0 -51 -4 -98.5t-18.5 -85t-43.5 -63t-79 -31.5l-7 39q33 7 54 23.5t33.5 46.5t17 75.5t4.5 108.5v201h255v-207h148q76 0 122 -34.5t46 -106.5q0 -35 -12 -61.5t-34 -44t-51.5 -26t-63.5 -8.5h-201zM365 241v-201h159q48 0 79 25.5t31 75.5
q0 46 -29 73t-81 27h-159z" />
    <glyph glyph-name="afii10107" unicode="&#x45a;" horiz-adv-x="703" 
d="M684 142q0 -72 -43 -107t-118 -35h-202v242h-223v-242h-46v488h46v-205h223v205h48v-205h159q33 0 61.5 -8.5t49.5 -26t33 -44t12 -62.5zM638 142q0 46 -29.5 73t-82.5 27h-157v-200h157q52 0 82 24.5t30 75.5z" />
    <glyph glyph-name="afii10108" unicode="&#x45b;" horiz-adv-x="485" 
d="M391 269q0 85 -32.5 123.5t-98.5 38.5q-35 0 -63.5 -18t-45.5 -47q-16 -21 -24.5 -47.5t-8.5 -52.5v-266h-46v538h-59v35h59v87l46 21v-108h230v-35h-230v-161h1q14 26 32.5 44t39 29.5t41.5 16.5t39 5q84 0 125.5 -47.5t41.5 -148.5v-276h-47v269z" />
    <glyph glyph-name="afii10050" unicode="&#x490;" horiz-adv-x="468" 
d="M65 651h351v130h48v-175h-349v-606h-50v651z" />
    <glyph glyph-name="afii10098" unicode="&#x491;" horiz-adv-x="385" 
d="M378 448h-281v-448h-45v488l282 -1v111h44v-150z" />
    <glyph glyph-name="afii61352" unicode="&#x2116;" horiz-adv-x="874" 
d="M549 238v36h252v-36h-252zM427 0l-318 568v-568h-45v651h49l314 -560v560h45v-651h-45zM819 492q0 -84 -42 -127t-105 -43q-61 0 -101.5 44.5t-40.5 125.5q0 83 40.5 124.5t102.5 41.5q63 0 104.5 -43t41.5 -123zM775 492q0 27 -6.5 50.5t-20 41t-33 27.5t-44.5 10
t-43.5 -10.5t-31 -28t-18.5 -41t-6 -49.5q0 -59 27 -95.5t75 -36.5q25 0 43.5 11t31.5 29t19.5 42t6.5 50z" />
    <glyph glyph-name="afii10193" unicode="&#x45f;" horiz-adv-x="479" 
d="M261 0v-150h-45v150h-164v489h45v-449h283v449h47v-489h-166z" />
    <glyph glyph-name="exclam" unicode="!" horiz-adv-x="229" 
d="M132 154h-27l-9 181v316h47v-315zM83 32q0 18 11 28t25 10q16 0 26.5 -11t10.5 -26q0 -17 -10.5 -27.5t-26.5 -10.5q-15 0 -25.5 10.5t-10.5 26.5z" />
    <glyph glyph-name="Hbar" unicode="&#x126;" horiz-adv-x="605" 
d="M489 0v318h-374v-318h-49v523h-45v35h45v93h49v-93h374v93h49v-93h49v-35h-49v-523h-49zM489 364v159h-374v-159h374z" />
    <glyph glyph-name="hbar" unicode="&#x127;" horiz-adv-x="468" 
d="M421 0h-47v274q0 85 -33 123.5t-99 38.5q-25 0 -47.5 -10t-40.5 -26.5t-30.5 -38t-18.5 -45.5q-3 -11 -4 -22.5t-1 -22.5v-271h-46v546h-43v33h43v82l46 21v-103h223v-33h-223v-161h2q14 25 33 43t39.5 28.5t41 15.5t38.5 5q83 0 125 -47.5t42 -148.5v-281z" />
    <glyph glyph-name="Tbar" unicode="&#x166;" horiz-adv-x="478" 
d="M265 605v-212h200v-38h-200v-355h-49v355h-202v38h202v212h-202v46h454v-46h-203z" />
    <glyph glyph-name="tbar" unicode="&#x167;" horiz-adv-x="283" 
d="M142 488h105v-39h-105v-152h102v-34h-102v-167q0 -35 14.5 -48t42.5 -13q14 0 29 2t35 5l4 -35q-15 -6 -39.5 -9.5t-42.5 -3.5q-51 0 -69 26t-18 74v169h-79v34h79v152h-75v39h75v124l44 19v-143z" />
    <glyph glyph-name="Hungarumlaut" unicode="&#xe296;" horiz-adv-x="597" 
d="M349 694l-19 19l118 98l48 -36zM227 694l-18 19l118 98l48 -36z" />
    <glyph glyph-name="Caron" unicode="&#xe297;" horiz-adv-x="513" 
d="M390 810l18 -15l-115 -101h-52l-115 99l18 15l122 -72z" />
    <glyph glyph-name="Circumflex" unicode="&#xe298;" horiz-adv-x="602" 
d="M303 766l-122 -72l-18 15l115 98h53l114 -100l-18 -15z" />
    <glyph glyph-name="ring" unicode="&#x2da;" horiz-adv-x="464" 
d="M333 635q0 -35 -23.5 -57.5t-56.5 -22.5q-34 0 -57 22.5t-23 57.5q0 34 23 56.5t57 22.5q33 0 56.5 -22.5t23.5 -56.5zM305 635q0 22 -15 37t-37 15q-23 0 -38 -15.5t-15 -36.5q0 -22 15 -37.5t38 -15.5q22 0 37 15.5t15 37.5z" />
    <glyph glyph-name="UniE29A" unicode="&#xe29a;" horiz-adv-x="779" 
d="M704 488v-394q0 -37 6 -48t29 -11q4 0 8 0.5t9 0.5v-34q-8 -3 -18.5 -4.5t-17.5 -1.5q-28 0 -45 16.5t-17 64.5v411h46z" />
    <glyph glyph-name="commaaccent" unicode="&#xe29b;" horiz-adv-x="575" 
d="M275 -181q14 12 23 23.5t10 28.5q-3 -1 -8 -1q-14 0 -23.5 10.5t-9.5 27.5q0 18 12 28.5t26 10.5t28 -12.5t14 -38.5q0 -35 -17 -57.5t-43 -35.5z" />
    <glyph glyph-name="Grave" unicode="&#xe29c;" horiz-adv-x="602" 
d="M188 759l43 43l128 -85l-16 -22z" />
    <glyph glyph-name="Acute" unicode="&#xe29d;" horiz-adv-x="602" 
d="M253 695l-16 22l128 85l43 -43z" />
    <glyph glyph-name="uniE29E" unicode="&#xe29e;" horiz-adv-x="480" 
d="M125 744l67 12l70 -184l-26 -8z" />
    <glyph glyph-name="uniE29F" unicode="&#xe29f;" horiz-adv-x="480" 
d="M249 564l-26 8l71 184l67 -12z" />
    <glyph glyph-name="uniE2A0" unicode="&#xe2a0;" horiz-adv-x="491" 
d="M414 652q-30 -61 -90 -61q-18 0 -36.5 6.5t-36.5 14t-34.5 14t-30.5 6.5q-18 0 -32.5 -6.5t-31.5 -25.5l-23 16q17 32 40 44.5t47 12.5q17 0 35 -6.5t36 -14.5t35 -14.5t32 -6.5q21 0 35.5 8t31.5 28z" />
    <glyph glyph-name="Scaron" unicode="&#x160;" horiz-adv-x="513" 
d="M253 -10q-62 0 -114 21t-92 58l33 36q38 -34 83 -52.5t95 -18.5q37 0 69 7t56 22.5t37.5 40.5t13.5 61q0 37 -16.5 61t-42.5 40.5t-57.5 27l-61.5 20.5q-41 14 -76.5 28.5t-61 34t-40 47.5t-14.5 69q0 37 15 68t41.5 53.5t64 34.5t82.5 12q53 0 101 -15.5t89 -46.5
q-9 -10 -16 -19t-15 -18q-38 27 -76.5 40t-89.5 13q-69 0 -107 -34t-38 -86q0 -26 10.5 -45t27 -33t38 -24t44.5 -18q38 -14 82 -27.5t81.5 -35.5t62 -56.5t24.5 -89.5q0 -39 -14 -71t-42.5 -55.5t-72.5 -36.5t-103 -13zM390 810l18 -15l-115 -101h-52l-115 99l18 15
l122 -72z" />
    <glyph glyph-name="Zcaron" unicode="&#x17d;" horiz-adv-x="531" 
d="M504 604l-413 -558h410v-46h-469v45l414 560h-395v46h453v-47zM412 810l18 -15l-115 -101h-52l-115 99l18 15l122 -72z" />
    <glyph glyph-name="scaron" unicode="&#x161;" horiz-adv-x="419" 
d="M382 123q0 -33 -14 -58t-38.5 -41.5t-57.5 -25t-70 -8.5q-42 0 -85 10t-81 30l19 38q38 -20 76.5 -29t72.5 -9q23 0 46.5 5t42.5 16t31 28t12 41t-10.5 41.5t-29 30t-44 22.5t-55.5 19q-34 10 -62 22.5t-48 29t-31 37.5t-11 48q0 55 45 90t125 35q36 0 73.5 -7t70.5 -24
l-16 -39q-35 17 -69.5 23.5t-59.5 6.5q-56 0 -90 -24t-34 -57q0 -14 5.5 -27.5t19.5 -26t37 -24.5t59 -22q36 -11 67 -23.5t54.5 -29.5t36.5 -41t13 -57zM325 697l18 -15l-114 -118h-53l-115 116l18 15l122 -89z" />
    <glyph glyph-name="zcaron" unicode="&#x17e;" horiz-adv-x="432" 
d="M37 39q75 103 148.5 204t148.5 204v2h-276v39h331v-38l-296 -409v-1h296v-40h-352v39zM350 697l18 -15l-114 -118h-53l-115 116l18 15l122 -89z" />
    <glyph glyph-name="Ydieresis" unicode="&#x178;" horiz-adv-x="530" 
d="M289 234v-234h-49v234l-229 417h55l198 -370l200 370h54zM402 744q0 -13 -9.5 -22.5t-22.5 -9.5t-23 9.5t-10 22.5q0 14 9.5 23.5t23.5 9.5q13 0 22.5 -9.5t9.5 -23.5zM216 744q0 -13 -10 -22.5t-22 -9.5q-14 0 -23.5 9.5t-9.5 22.5q0 14 9.5 23.5t23.5 9.5q12 0 22 -9.5
t10 -23.5z" />
    <glyph glyph-name="Agrave" unicode="&#xc0;" horiz-adv-x="592" 
d="M128 162q-15 -41 -31 -81t-31 -81h-53l257 651h54l257 -651h-52q-16 41 -32 81t-31 81h-338zM448 208l-110 281q-11 26 -20.5 51.5t-20.5 53.5h-3l-71 -186l-78 -200h303zM141 759l43 43l128 -85l-16 -22z" />
    <glyph glyph-name="Aacute" unicode="&#xc1;" horiz-adv-x="592" 
d="M128 162q-15 -41 -31 -81t-31 -81h-53l257 651h54l257 -651h-52q-16 41 -32 81t-31 81h-338zM448 208l-110 281q-11 26 -20.5 51.5t-20.5 53.5h-3l-71 -186l-78 -200h303zM294 695l-16 22l128 85l43 -43z" />
    <glyph glyph-name="Acircumflex" unicode="&#xc2;" horiz-adv-x="592" 
d="M128 162q-15 -41 -31 -81t-31 -81h-53l257 651h54l257 -651h-52q-16 41 -32 81t-31 81h-338zM448 208l-110 281q-11 26 -20.5 51.5t-20.5 53.5h-3l-71 -186l-78 -200h303zM296 766l-122 -72l-18 15l115 98h53l114 -100l-18 -15z" />
    <glyph glyph-name="Atilde" unicode="&#xc3;" horiz-adv-x="592" 
d="M128 162q-15 -41 -31 -81t-31 -81h-53l257 651h54l257 -651h-52q-16 41 -32 81t-31 81h-338zM448 208l-110 281q-11 26 -20.5 51.5t-20.5 53.5h-3l-71 -186l-78 -200h303zM444 771q-15 -32 -39 -46t-50 -14q-17 0 -33 5.5t-31.5 12t-30.5 12t-29 5.5q-18 0 -32.5 -6.5
t-31.5 -25.5l-23 15q17 32 40 45t47 13q17 0 33 -6t31 -12.5t30.5 -12.5t32.5 -6t31 7.5t30 27.5z" />
    <glyph glyph-name="Adieresis" unicode="&#xc4;" horiz-adv-x="592" 
d="M128 162q-15 -41 -31 -81t-31 -81h-53l257 651h54l257 -651h-52q-16 41 -32 81t-31 81h-338zM448 208l-110 281q-11 26 -20.5 51.5t-20.5 53.5h-3l-71 -186l-78 -200h303zM422 751q0 -13 -9.5 -22.5t-22.5 -9.5t-23 9.5t-10 22.5q0 14 9.5 23.5t23.5 9.5q13 0 22.5 -9.5
t9.5 -23.5zM236 751q0 -13 -10 -22.5t-22 -9.5q-14 0 -23.5 9.5t-9.5 22.5q0 14 9.5 23.5t23.5 9.5q12 0 22 -9.5t10 -23.5z" />
    <glyph glyph-name="Aring" unicode="&#xc5;" horiz-adv-x="592" 
d="M128 162q-15 -41 -31 -81t-31 -81h-53l257 651h54l257 -651h-52q-16 41 -32 81t-31 81h-338zM448 208l-110 281q-11 26 -20.5 51.5t-20.5 53.5h-3l-71 -186l-78 -200h303zM377 751q0 -35 -23.5 -57.5t-56.5 -22.5q-34 0 -57 22.5t-23 57.5q0 34 23 56.5t57 22.5
q33 0 56.5 -22.5t23.5 -56.5zM349 751q0 22 -15 37t-37 15q-23 0 -38 -15.5t-15 -36.5q0 -22 15 -37.5t38 -15.5q22 0 37 15.5t15 37.5z" />
    <glyph glyph-name="Egrave" unicode="&#xc8;" horiz-adv-x="492" 
d="M66 0v651h396v-46h-346v-233h248v-46h-248v-280h360v-46h-410zM150 759l43 43l128 -85l-16 -22z" />
    <glyph glyph-name="Eacute" unicode="&#xc9;" horiz-adv-x="492" 
d="M66 0v651h396v-46h-346v-233h248v-46h-248v-280h360v-46h-410zM246 695l-16 22l128 85l43 -43z" />
    <glyph glyph-name="Ecircumflex" unicode="&#xca;" horiz-adv-x="492" 
d="M66 0v651h396v-46h-346v-233h248v-46h-248v-280h360v-46h-410zM267 766l-122 -72l-18 15l115 98h53l114 -100l-18 -15z" />
    <glyph glyph-name="Edieresis" unicode="&#xcb;" horiz-adv-x="492" 
d="M66 0v651h396v-46h-346v-233h248v-46h-248v-280h360v-46h-410zM394 743q0 -13 -9.5 -22.5t-22.5 -9.5t-23 9.5t-10 22.5q0 14 9.5 23.5t23.5 9.5q13 0 22.5 -9.5t9.5 -23.5zM208 743q0 -13 -10 -22.5t-22 -9.5q-14 0 -23.5 9.5t-9.5 22.5q0 14 9.5 23.5t23.5 9.5
q12 0 22 -9.5t10 -23.5z" />
    <glyph glyph-name="Igrave" unicode="&#xcc;" horiz-adv-x="224" 
d="M87 0v651h50v-651h-50zM-39 759l43 43l128 -85l-16 -22z" />
    <glyph glyph-name="Iacute" unicode="&#xcd;" horiz-adv-x="224" 
d="M87 0v651h50v-651h-50zM111 695l-16 22l128 85l43 -43z" />
    <glyph glyph-name="Icircumflex" unicode="&#xce;" horiz-adv-x="224" 
d="M87 0v651h50v-651h-50zM112 766l-122 -72l-18 15l115 98h53l114 -100l-18 -15z" />
    <glyph glyph-name="Idieresis" unicode="&#xcf;" horiz-adv-x="224" 
d="M87 0v651h50v-651h-50zM241 743q0 -13 -9.5 -22.5t-22.5 -9.5t-23 9.5t-10 22.5q0 14 9.5 23.5t23.5 9.5q13 0 22.5 -9.5t9.5 -23.5zM55 743q0 -13 -10 -22.5t-22 -9.5q-14 0 -23.5 9.5t-9.5 22.5q0 14 9.5 23.5t23.5 9.5q12 0 22 -9.5t10 -23.5z" />
    <glyph glyph-name="Ntilde" unicode="&#xd1;" horiz-adv-x="590" 
d="M478 0q-9 14 -28.5 44.5t-45.5 70.5t-56.5 87t-61 95t-60 93.5t-53 82.5t-39.5 62t-21 33h-1v-568h-49v651h52l242 -372q30 -48 60.5 -96.5t59.5 -92.5h1v561h49v-651h-49zM445 769q-15 -32 -39 -46t-50 -14q-17 0 -33 5.5t-31.5 12t-30.5 12t-29 5.5q-18 0 -32.5 -6.5
t-31.5 -25.5l-23 15q17 32 40 45t47 13q17 0 33 -6t31 -12.5t30.5 -12.5t32.5 -6t31 7.5t30 27.5z" />
    <glyph glyph-name="Ograve" unicode="&#xd2;" horiz-adv-x="619" 
d="M573 325q0 -77 -18.5 -138.5t-53 -105.5t-83.5 -67.5t-109 -23.5q-62 0 -110.5 24t-82.5 68t-52 105.5t-18 137.5q0 75 18 136.5t52 105.5t82.5 68.5t110.5 24.5q60 0 109 -24t83.5 -67.5t53 -105.5t18.5 -138zM522 325q0 61 -13 114.5t-39.5 93t-66.5 62t-94 22.5
q-53 0 -93 -22t-66.5 -61t-40 -92.5t-13.5 -116.5q0 -58 13 -111t39.5 -93t66.5 -63.5t94 -23.5q55 0 95 23.5t66 63.5t39 93t13 111zM181 759l43 43l128 -85l-16 -22z" />
    <glyph glyph-name="Oacute" unicode="&#xd3;" horiz-adv-x="619" 
d="M573 325q0 -77 -18.5 -138.5t-53 -105.5t-83.5 -67.5t-109 -23.5q-62 0 -110.5 24t-82.5 68t-52 105.5t-18 137.5q0 75 18 136.5t52 105.5t82.5 68.5t110.5 24.5q60 0 109 -24t83.5 -67.5t53 -105.5t18.5 -138zM522 325q0 61 -13 114.5t-39.5 93t-66.5 62t-94 22.5
q-53 0 -93 -22t-66.5 -61t-40 -92.5t-13.5 -116.5q0 -58 13 -111t39.5 -93t66.5 -63.5t94 -23.5q55 0 95 23.5t66 63.5t39 93t13 111zM280 695l-16 22l128 85l43 -43z" />
    <glyph glyph-name="Ocircumflex" unicode="&#xd4;" horiz-adv-x="619" 
d="M573 325q0 -77 -18.5 -138.5t-53 -105.5t-83.5 -67.5t-109 -23.5q-62 0 -110.5 24t-82.5 68t-52 105.5t-18 137.5q0 75 18 136.5t52 105.5t82.5 68.5t110.5 24.5q60 0 109 -24t83.5 -67.5t53 -105.5t18.5 -138zM522 325q0 61 -13 114.5t-39.5 93t-66.5 62t-94 22.5
q-53 0 -93 -22t-66.5 -61t-40 -92.5t-13.5 -116.5q0 -58 13 -111t39.5 -93t66.5 -63.5t94 -23.5q55 0 95 23.5t66 63.5t39 93t13 111zM314 766l-122 -72l-18 15l115 98h53l114 -100l-18 -15z" />
    <glyph glyph-name="Otilde" unicode="&#xd5;" horiz-adv-x="619" 
d="M573 325q0 -77 -18.5 -138.5t-53 -105.5t-83.5 -67.5t-109 -23.5q-62 0 -110.5 24t-82.5 68t-52 105.5t-18 137.5q0 75 18 136.5t52 105.5t82.5 68.5t110.5 24.5q60 0 109 -24t83.5 -67.5t53 -105.5t18.5 -138zM522 325q0 61 -13 114.5t-39.5 93t-66.5 62t-94 22.5
q-53 0 -93 -22t-66.5 -61t-40 -92.5t-13.5 -116.5q0 -58 13 -111t39.5 -93t66.5 -63.5t94 -23.5q55 0 95 23.5t66 63.5t39 93t13 111zM457 772q-15 -32 -39 -46t-50 -14q-17 0 -33 5.5t-31.5 12t-30.5 12t-29 5.5q-18 0 -32.5 -6.5t-31.5 -25.5l-23 15q17 32 40 45t47 13
q17 0 33 -6t31 -12.5t30.5 -12.5t32.5 -6t31 7.5t30 27.5z" />
    <glyph glyph-name="Odieresis" unicode="&#xd6;" horiz-adv-x="619" 
d="M573 325q0 -77 -18.5 -138.5t-53 -105.5t-83.5 -67.5t-109 -23.5q-62 0 -110.5 24t-82.5 68t-52 105.5t-18 137.5q0 75 18 136.5t52 105.5t82.5 68.5t110.5 24.5q60 0 109 -24t83.5 -67.5t53 -105.5t18.5 -138zM522 325q0 61 -13 114.5t-39.5 93t-66.5 62t-94 22.5
q-53 0 -93 -22t-66.5 -61t-40 -92.5t-13.5 -116.5q0 -58 13 -111t39.5 -93t66.5 -63.5t94 -23.5q55 0 95 23.5t66 63.5t39 93t13 111zM436 746q0 -13 -9.5 -22.5t-22.5 -9.5t-23 9.5t-10 22.5q0 14 9.5 23.5t23.5 9.5q13 0 22.5 -9.5t9.5 -23.5zM250 746q0 -13 -10 -22.5
t-22 -9.5q-14 0 -23.5 9.5t-9.5 22.5q0 14 9.5 23.5t23.5 9.5q12 0 22 -9.5t10 -23.5z" />
    <glyph glyph-name="Ugrave" unicode="&#xd9;" horiz-adv-x="597" 
d="M537 267q0 -141 -62 -209t-177 -68q-113 0 -173 69.5t-60 209.5v382h49v-379q0 -53 11.5 -96.5t34.5 -74.5t58 -48t82 -17q49 0 84 16.5t58 46.5t34 72.5t11 94.5v385h50v-384zM183 759l43 43l128 -85l-16 -22z" />
    <glyph glyph-name="Uacute" unicode="&#xda;" horiz-adv-x="597" 
d="M537 267q0 -141 -62 -209t-177 -68q-113 0 -173 69.5t-60 209.5v382h49v-379q0 -53 11.5 -96.5t34.5 -74.5t58 -48t82 -17q49 0 84 16.5t58 46.5t34 72.5t11 94.5v385h50v-384zM270 695l-16 22l128 85l43 -43z" />
    <glyph glyph-name="Ucircumflex" unicode="&#xdb;" horiz-adv-x="597" 
d="M537 267q0 -141 -62 -209t-177 -68q-113 0 -173 69.5t-60 209.5v382h49v-379q0 -53 11.5 -96.5t34.5 -74.5t58 -48t82 -17q49 0 84 16.5t58 46.5t34 72.5t11 94.5v385h50v-384zM304 766l-122 -72l-18 15l115 98h53l114 -100l-18 -15z" />
    <glyph glyph-name="Udieresis" unicode="&#xdc;" horiz-adv-x="597" 
d="M537 267q0 -141 -62 -209t-177 -68q-113 0 -173 69.5t-60 209.5v382h49v-379q0 -53 11.5 -96.5t34.5 -74.5t58 -48t82 -17q49 0 84 16.5t58 46.5t34 72.5t11 94.5v385h50v-384zM430 746q0 -13 -9.5 -22.5t-22.5 -9.5t-23 9.5t-10 22.5q0 14 9.5 23.5t23.5 9.5
q13 0 22.5 -9.5t9.5 -23.5zM244 746q0 -13 -10 -22.5t-22 -9.5q-14 0 -23.5 9.5t-9.5 22.5q0 14 9.5 23.5t23.5 9.5q12 0 22 -9.5t10 -23.5z" />
    <glyph glyph-name="Yacute" unicode="&#xdd;" horiz-adv-x="530" 
d="M289 234v-234h-49v234l-229 417h55l198 -370l200 370h54zM249 695l-16 22l128 85l43 -43z" />
    <glyph glyph-name="agrave" unicode="&#xe0;" horiz-adv-x="461" 
d="M361 57h-1q-24 -23 -46.5 -36t-43.5 -19.5t-40 -8.5t-37 -2q-29 0 -57 8t-50.5 26t-36.5 46t-14 69q0 33 12 61.5t35 49.5t56.5 32.5t75.5 11.5q32 0 69 -7.5t78 -31.5v78q0 66 -33 93.5t-96 27.5q-35 0 -67.5 -8.5t-61.5 -22.5l-16 39q34 15 70 24t81 9q81 0 125 -38
t44 -114v-344h-46v57zM361 216q-36 20 -69.5 31t-79.5 11q-28 0 -52 -7.5t-42 -22.5t-28 -36.5t-10 -49.5q0 -56 33.5 -85t93.5 -29q49 2 86.5 23.5t67.5 52.5v112zM155 709l60 12l70 -148l-26 -9z" />
    <glyph glyph-name="aacute" unicode="&#xe1;" horiz-adv-x="461" 
d="M361 57h-1q-24 -23 -46.5 -36t-43.5 -19.5t-40 -8.5t-37 -2q-29 0 -57 8t-50.5 26t-36.5 46t-14 69q0 33 12 61.5t35 49.5t56.5 32.5t75.5 11.5q32 0 69 -7.5t78 -31.5v78q0 66 -33 93.5t-96 27.5q-35 0 -67.5 -8.5t-61.5 -22.5l-16 39q34 15 70 24t81 9q81 0 125 -38
t44 -114v-344h-46v57zM361 216q-36 20 -69.5 31t-79.5 11q-28 0 -52 -7.5t-42 -22.5t-28 -36.5t-10 -49.5q0 -56 33.5 -85t93.5 -29q49 2 86.5 23.5t67.5 52.5v112zM247 564l-26 9l64 149l60 -12z" />
    <glyph glyph-name="acircumflex" unicode="&#xe2;" horiz-adv-x="461" 
d="M361 57h-1q-24 -23 -46.5 -36t-43.5 -19.5t-40 -8.5t-37 -2q-29 0 -57 8t-50.5 26t-36.5 46t-14 69q0 33 12 61.5t35 49.5t56.5 32.5t75.5 11.5q32 0 69 -7.5t78 -31.5v78q0 66 -33 93.5t-96 27.5q-35 0 -67.5 -8.5t-61.5 -22.5l-16 39q34 15 70 24t81 9q81 0 125 -38
t44 -114v-344h-46v57zM361 216q-36 20 -69.5 31t-79.5 11q-28 0 -52 -7.5t-42 -22.5t-28 -36.5t-10 -49.5q0 -56 33.5 -85t93.5 -29q49 2 86.5 23.5t67.5 52.5v112zM248 664l-122 -89l-18 15l115 115h53l114 -117l-17 -15z" />
    <glyph glyph-name="atilde" unicode="&#xe3;" horiz-adv-x="461" 
d="M361 57h-1q-24 -23 -46.5 -36t-43.5 -19.5t-40 -8.5t-37 -2q-29 0 -57 8t-50.5 26t-36.5 46t-14 69q0 33 12 61.5t35 49.5t56.5 32.5t75.5 11.5q32 0 69 -7.5t78 -31.5v78q0 66 -33 93.5t-96 27.5q-35 0 -67.5 -8.5t-61.5 -22.5l-16 39q34 15 70 24t81 9q81 0 125 -38
t44 -114v-344h-46v57zM361 216q-36 20 -69.5 31t-79.5 11q-28 0 -52 -7.5t-42 -22.5t-28 -36.5t-10 -49.5q0 -56 33.5 -85t93.5 -29q49 2 86.5 23.5t67.5 52.5v112zM405 650q-15 -32 -39 -46t-50 -14q-17 0 -33 5.5t-31.5 12t-30.5 12t-29 5.5q-18 0 -32.5 -6.5t-31.5 -25.5
l-23 15q17 32 40 45t47 13q17 0 33 -6t31 -12.5t30.5 -12.5t32.5 -6t31 7.5t30 27.5z" />
    <glyph glyph-name="adieresis" unicode="&#xe4;" horiz-adv-x="461" 
d="M361 57h-1q-24 -23 -46.5 -36t-43.5 -19.5t-40 -8.5t-37 -2q-29 0 -57 8t-50.5 26t-36.5 46t-14 69q0 33 12 61.5t35 49.5t56.5 32.5t75.5 11.5q32 0 69 -7.5t78 -31.5v78q0 66 -33 93.5t-96 27.5q-35 0 -67.5 -8.5t-61.5 -22.5l-16 39q34 15 70 24t81 9q81 0 125 -38
t44 -114v-344h-46v57zM361 216q-36 20 -69.5 31t-79.5 11q-28 0 -52 -7.5t-42 -22.5t-28 -36.5t-10 -49.5q0 -56 33.5 -85t93.5 -29q49 2 86.5 23.5t67.5 52.5v112zM376 632q0 -13 -9.5 -22.5t-22.5 -9.5t-23 9.5t-10 22.5q0 14 9.5 23.5t23.5 9.5q13 0 22.5 -9.5t9.5 -23.5
zM190 632q0 -13 -10 -22.5t-22 -9.5q-14 0 -23.5 9.5t-9.5 22.5q0 14 9.5 23.5t23.5 9.5q12 0 22 -9.5t10 -23.5z" />
    <glyph glyph-name="aring" unicode="&#xe5;" horiz-adv-x="461" 
d="M361 57h-1q-24 -23 -46.5 -36t-43.5 -19.5t-40 -8.5t-37 -2q-29 0 -57 8t-50.5 26t-36.5 46t-14 69q0 33 12 61.5t35 49.5t56.5 32.5t75.5 11.5q32 0 69 -7.5t78 -31.5v78q0 66 -33 93.5t-96 27.5q-35 0 -67.5 -8.5t-61.5 -22.5l-16 39q34 15 70 24t81 9q81 0 125 -38
t44 -114v-344h-46v57zM361 216q-36 20 -69.5 31t-79.5 11q-28 0 -52 -7.5t-42 -22.5t-28 -36.5t-10 -49.5q0 -56 33.5 -85t93.5 -29q49 2 86.5 23.5t67.5 52.5v112zM331 630q0 -35 -23.5 -57.5t-56.5 -22.5q-34 0 -57 22.5t-23 57.5q0 34 23 56.5t57 22.5q33 0 56.5 -22.5
t23.5 -56.5zM303 630q0 22 -15 37t-37 15q-23 0 -38 -15.5t-15 -36.5q0 -22 15 -37.5t38 -15.5q22 0 37 15.5t15 37.5z" />
    <glyph glyph-name="ccedilla" unicode="&#xe7;" horiz-adv-x="420" 
d="M226 -199q-12 0 -29.5 3t-40.5 12l9 26q15 -5 31.5 -8.5t30.5 -3.5q24 0 38.5 10t16.5 32q0 23 -18.5 35t-40.5 12h-5l-15 16l19 56q-36 3 -68.5 21t-56.5 49.5t-38 77t-14 104.5q0 63 15.5 110t42.5 79t63 48t76 16q45 0 80.5 -13.5t67.5 -44.5l-31 -32q-29 27 -58.5 38
t-61.5 11q-35 0 -62 -17t-46 -45.5t-29 -67.5t-10 -82q0 -45 10 -83.5t29.5 -67t47.5 -44.5t64 -16q35 0 61.5 12t55.5 38l30 -29q-26 -28 -58.5 -44.5t-80.5 -18.5l-14 -41q25 -4 41 -12.5t25 -19t12.5 -22.5t3.5 -22q0 -12 -5 -25t-16.5 -23.5t-29 -17t-42.5 -6.5z" />
    <glyph glyph-name="egrave" unicode="&#xe8;" horiz-adv-x="473" 
d="M242 496q46 0 82.5 -17.5t62 -49.5t38.5 -77t13 -99v-27h-348q1 -49 14.5 -85.5t35 -61t49.5 -37t60 -12.5t63 13t57 36l27 -30q-65 -59 -153 -59q-39 0 -74.5 15t-63.5 46.5t-44.5 78.5t-16.5 112q0 59 15 106t42 80t63 50.5t78 17.5zM393 263q0 39 -9 74t-27.5 61.5
t-47.5 42t-69 15.5q-31 0 -57.5 -14t-46 -39.5t-32 -61t-14.5 -78.5h303zM154 709l60 12l70 -148l-26 -9z" />
    <glyph glyph-name="eacute" unicode="&#xe9;" horiz-adv-x="473" 
d="M242 496q46 0 82.5 -17.5t62 -49.5t38.5 -77t13 -99v-27h-348q1 -49 14.5 -85.5t35 -61t49.5 -37t60 -12.5t63 13t57 36l27 -30q-65 -59 -153 -59q-39 0 -74.5 15t-63.5 46.5t-44.5 78.5t-16.5 112q0 59 15 106t42 80t63 50.5t78 17.5zM393 263q0 39 -9 74t-27.5 61.5
t-47.5 42t-69 15.5q-31 0 -57.5 -14t-46 -39.5t-32 -61t-14.5 -78.5h303zM243 564l-26 9l64 149l60 -12z" />
    <glyph glyph-name="ecircumflex" unicode="&#xea;" horiz-adv-x="473" 
d="M242 496q46 0 82.5 -17.5t62 -49.5t38.5 -77t13 -99v-27h-348q1 -49 14.5 -85.5t35 -61t49.5 -37t60 -12.5t63 13t57 36l27 -30q-65 -59 -153 -59q-39 0 -74.5 15t-63.5 46.5t-44.5 78.5t-16.5 112q0 59 15 106t42 80t63 50.5t78 17.5zM393 263q0 39 -9 74t-27.5 61.5
t-47.5 42t-69 15.5q-31 0 -57.5 -14t-46 -39.5t-32 -61t-14.5 -78.5h303zM247 664l-122 -89l-18 15l115 115h53l114 -117l-17 -15z" />
    <glyph glyph-name="edieresis" unicode="&#xeb;" horiz-adv-x="473" 
d="M242 496q46 0 82.5 -17.5t62 -49.5t38.5 -77t13 -99v-27h-348q1 -49 14.5 -85.5t35 -61t49.5 -37t60 -12.5t63 13t57 36l27 -30q-65 -59 -153 -59q-39 0 -74.5 15t-63.5 46.5t-44.5 78.5t-16.5 112q0 59 15 106t42 80t63 50.5t78 17.5zM393 263q0 39 -9 74t-27.5 61.5
t-47.5 42t-69 15.5q-31 0 -57.5 -14t-46 -39.5t-32 -61t-14.5 -78.5h303zM375 629q0 -13 -9.5 -22.5t-22.5 -9.5t-23 9.5t-10 22.5q0 14 9.5 23.5t23.5 9.5q13 0 22.5 -9.5t9.5 -23.5zM189 629q0 -13 -10 -22.5t-22 -9.5q-14 0 -23.5 9.5t-9.5 22.5q0 14 9.5 23.5t23.5 9.5
q12 0 22 -9.5t10 -23.5z" />
    <glyph glyph-name="igrave" unicode="&#xec;" horiz-adv-x="210" 
d="M82 0v488h47v-488h-47zM3 709l60 12l70 -148l-26 -9z" />
    <glyph glyph-name="iacute" unicode="&#xed;" horiz-adv-x="210" 
d="M82 0v488h47v-488h-47zM107 564l-26 9l64 149l60 -12z" />
    <glyph glyph-name="icircumflex" unicode="&#xee;" horiz-adv-x="262" 
d="M109 0v488h47v-488h-47zM130 654l-122 -89l-18 15l115 115h53l114 -117l-17 -15z" />
    <glyph glyph-name="idieresis" unicode="&#xef;" horiz-adv-x="231" 
d="M91 0v488h47v-488h-47zM241 632q0 -13 -9.5 -22.5t-22.5 -9.5t-23 9.5t-10 22.5q0 14 9.5 23.5t23.5 9.5q13 0 22.5 -9.5t9.5 -23.5zM55 632q0 -13 -10 -22.5t-22 -9.5q-14 0 -23.5 9.5t-9.5 22.5q0 14 9.5 23.5t23.5 9.5q12 0 22 -9.5t10 -23.5z" />
    <glyph glyph-name="ntilde" unicode="&#xf1;" horiz-adv-x="466" 
d="M419 0h-47v293q0 85 -32.5 123.5t-98.5 38.5q-26 0 -48 -9.5t-40 -26t-30.5 -38t-18.5 -45.5q-6 -21 -6 -46v-290h-46v489h46v-87l2 -1q14 26 32.5 44t39 29.5t41.5 16.5t39 5q83 0 125 -47.5t42 -148.5v-300zM384 650q-15 -32 -39 -46t-50 -14q-17 0 -33 5.5t-31.5 12
t-30.5 12t-29 5.5q-18 0 -32.5 -6.5t-31.5 -25.5l-23 15q17 32 40 45t47 13q17 0 33 -6t31 -12.5t30.5 -12.5t32.5 -6t31 7.5t30 27.5z" />
    <glyph glyph-name="ugrave" unicode="&#xf9;" horiz-adv-x="464" 
d="M48 489h47v-296q0 -87 31 -125t97 -38q25 0 46.5 9.5t39 25.5t30 37t18.5 45q7 22 7 49v293h46v-489h-46v84h-2q-14 -26 -32 -44.5t-38.5 -29.5t-41 -16t-38.5 -5q-82 0 -123 46t-41 148v306zM140 709l60 12l70 -148l-26 -9z" />
    <glyph glyph-name="uacute" unicode="&#xfa;" horiz-adv-x="464" 
d="M48 489h47v-296q0 -87 31 -125t97 -38q25 0 46.5 9.5t39 25.5t30 37t18.5 45q7 22 7 49v293h46v-489h-46v84h-2q-14 -26 -32 -44.5t-38.5 -29.5t-41 -16t-38.5 -5q-82 0 -123 46t-41 148v306zM238 564l-26 9l64 149l60 -12z" />
    <glyph glyph-name="ucircumflex" unicode="&#xfb;" horiz-adv-x="464" 
d="M48 489h47v-296q0 -87 31 -125t97 -38q25 0 46.5 9.5t39 25.5t30 37t18.5 45q7 22 7 49v293h46v-489h-46v84h-2q-14 -26 -32 -44.5t-38.5 -29.5t-41 -16t-38.5 -5q-82 0 -123 46t-41 148v306zM239 658l-122 -89l-18 15l115 115h53l114 -117l-17 -15z" />
    <glyph glyph-name="udieresis" unicode="&#xfc;" horiz-adv-x="464" 
d="M48 489h47v-296q0 -87 31 -125t97 -38q25 0 46.5 9.5t39 25.5t30 37t18.5 45q7 22 7 49v293h46v-489h-46v84h-2q-14 -26 -32 -44.5t-38.5 -29.5t-41 -16t-38.5 -5q-82 0 -123 46t-41 148v306zM362 635q0 -13 -9.5 -22.5t-22.5 -9.5t-23 9.5t-10 22.5q0 14 9.5 23.5
t23.5 9.5q13 0 22.5 -9.5t9.5 -23.5zM176 635q0 -13 -10 -22.5t-22 -9.5q-14 0 -23.5 9.5t-9.5 22.5q0 14 9.5 23.5t23.5 9.5q12 0 22 -9.5t10 -23.5z" />
    <glyph glyph-name="yacute" unicode="&#xfd;" horiz-adv-x="445" 
d="M136 -183l64 177q-46 124 -91 246.5t-90 247.5h48l96 -268q14 -42 28.5 -83.5t29.5 -83.5h1l59 167l97 268h47q-61 -167 -122.5 -336t-122.5 -335h-44zM226 564l-26 9l64 149l60 -12z" />
    <glyph glyph-name="ydieresis" unicode="&#xff;" horiz-adv-x="445" 
d="M136 -183l64 177q-46 124 -91 246.5t-90 247.5h48l96 -268q14 -42 28.5 -83.5t29.5 -83.5h1l59 167l97 268h47q-61 -167 -122.5 -336t-122.5 -335h-44zM359 632q0 -13 -9.5 -22.5t-22.5 -9.5t-23 9.5t-10 22.5q0 14 9.5 23.5t23.5 9.5q13 0 22.5 -9.5t9.5 -23.5zM173 632
q0 -13 -10 -22.5t-22 -9.5q-14 0 -23.5 9.5t-9.5 22.5q0 14 9.5 23.5t23.5 9.5q12 0 22 -9.5t10 -23.5z" />
    <glyph glyph-name="Amacron" unicode="&#x100;" horiz-adv-x="592" 
d="M128 162q-15 -41 -31 -81t-31 -81h-53l257 651h54l257 -651h-52q-16 41 -32 81t-31 81h-338zM448 208l-110 281q-11 26 -20.5 51.5t-20.5 53.5h-3l-71 -186l-78 -200h303zM180 728v39h233v-39h-233z" />
    <glyph glyph-name="amacron" unicode="&#x101;" horiz-adv-x="461" 
d="M361 57h-1q-24 -23 -46.5 -36t-43.5 -19.5t-40 -8.5t-37 -2q-29 0 -57 8t-50.5 26t-36.5 46t-14 69q0 33 12 61.5t35 49.5t56.5 32.5t75.5 11.5q32 0 69 -7.5t78 -31.5v78q0 66 -33 93.5t-96 27.5q-35 0 -67.5 -8.5t-61.5 -22.5l-16 39q34 15 70 24t81 9q81 0 125 -38
t44 -114v-344h-46v57zM361 216q-36 20 -69.5 31t-79.5 11q-28 0 -52 -7.5t-42 -22.5t-28 -36.5t-10 -49.5q0 -56 33.5 -85t93.5 -29q49 2 86.5 23.5t67.5 52.5v112zM136 618v39h233v-39h-233z" />
    <glyph glyph-name="Abreve" unicode="&#x102;" horiz-adv-x="592" 
d="M128 162q-15 -41 -31 -81t-31 -81h-53l257 651h54l257 -651h-52q-16 41 -32 81t-31 81h-338zM448 208l-110 281q-11 26 -20.5 51.5t-20.5 53.5h-3l-71 -186l-78 -200h303zM217 798q4 -29 24.5 -48t55.5 -19t55.5 19.5t23.5 47.5h39q-2 -18 -9.5 -36.5t-21 -32.5
t-35 -23.5t-51.5 -9.5q-31 0 -53 9t-36.5 23.5t-21.5 33t-9 36.5h39z" />
    <glyph glyph-name="abreve" unicode="&#x103;" horiz-adv-x="461" 
d="M361 57h-1q-24 -23 -46.5 -36t-43.5 -19.5t-40 -8.5t-37 -2q-29 0 -57 8t-50.5 26t-36.5 46t-14 69q0 33 12 61.5t35 49.5t56.5 32.5t75.5 11.5q32 0 69 -7.5t78 -31.5v78q0 66 -33 93.5t-96 27.5q-35 0 -67.5 -8.5t-61.5 -22.5l-16 39q34 15 70 24t81 9q81 0 125 -38
t44 -114v-344h-46v57zM361 216q-36 20 -69.5 31t-79.5 11q-28 0 -52 -7.5t-42 -22.5t-28 -36.5t-10 -49.5q0 -56 33.5 -85t93.5 -29q49 2 86.5 23.5t67.5 52.5v112zM176 675q4 -29 24.5 -48t55.5 -19t55.5 19.5t23.5 47.5h39q-2 -18 -9.5 -36.5t-21 -32.5t-35 -23.5
t-51.5 -9.5q-31 0 -53 9t-36.5 23.5t-21.5 33t-9 36.5h39z" />
    <glyph glyph-name="Aogonek" unicode="&#x104;" horiz-adv-x="592" 
d="M128 162q-15 -41 -31 -81t-31 -81h-53l257 651h54l257 -651h-20q-26 -32 -36 -56t-10 -43q0 -26 17.5 -39t43.5 -13q19 0 46 12l8 -28q-35 -18 -69 -18q-38 0 -62.5 21.5t-24.5 55.5q0 23 13 49.5t42 58.5q-16 41 -32 81t-31 81h-338zM448 208l-110 281
q-11 26 -20.5 51.5t-20.5 53.5h-3l-71 -186l-78 -200h303z" />
    <glyph glyph-name="aogonek" unicode="&#x105;" horiz-adv-x="461" 
d="M361 57h-1q-24 -23 -46.5 -36t-43.5 -19.5t-40 -8.5t-37 -2q-29 0 -57 8t-50.5 26t-36.5 46t-14 69q0 33 12 61.5t35 49.5t56.5 32.5t75.5 11.5q32 0 69 -7.5t78 -31.5v78q0 66 -33 93.5t-96 27.5q-35 0 -67.5 -8.5t-61.5 -22.5l-16 39q34 15 70 24t81 9q81 0 125 -38
t44 -114v-344h-11q-26 -32 -36 -56t-10 -43q0 -26 17.5 -39t43.5 -13q19 0 46 12l8 -28q-35 -18 -69 -18q-38 0 -62.5 21.5t-24.5 55.5q0 23 12.5 49.5t41.5 58.5h-2v57zM361 216q-36 20 -69.5 31t-79.5 11q-28 0 -52 -7.5t-42 -22.5t-28 -36.5t-10 -49.5q0 -56 33.5 -85
t93.5 -29q49 2 86.5 23.5t67.5 52.5v112z" />
    <glyph glyph-name="Cacute" unicode="&#x106;" horiz-adv-x="537" 
d="M312 661q64 0 110.5 -19.5t81.5 -59.5l-35 -35q-32 36 -69.5 52.5t-87.5 16.5q-52 0 -92 -22.5t-67.5 -61.5t-41.5 -92t-14 -114t13.5 -114t40.5 -92t67.5 -61.5t94.5 -22.5q95 0 159 73l36 -32q-35 -42 -83.5 -64.5t-112.5 -22.5q-60 0 -109.5 23t-84 66.5t-53.5 105.5
t-19 140q0 76 19.5 138.5t54.5 106t84 67.5t108 24zM285 695l-16 22l128 85l43 -43z" />
    <glyph glyph-name="cacute" unicode="&#x107;" horiz-adv-x="420" 
d="M242 496q45 0 80.5 -13.5t67.5 -44.5l-31 -32q-29 27 -58.5 38t-61.5 11q-35 0 -62 -17t-46 -45.5t-29 -67.5t-10 -82q0 -45 10 -83.5t29.5 -67t47.5 -44.5t64 -16q35 0 61.5 12t55.5 38l30 -29q-27 -29 -62 -46t-88 -17q-39 0 -74.5 16t-62.5 48t-42.5 79t-15.5 110
t15.5 110t42.5 79t63 48t76 16zM238 564l-26 9l64 149l60 -12z" />
    <glyph glyph-name="Ccircumflex" unicode="&#x108;" horiz-adv-x="537" 
d="M312 661q64 0 110.5 -19.5t81.5 -59.5l-35 -35q-32 36 -69.5 52.5t-87.5 16.5q-52 0 -92 -22.5t-67.5 -61.5t-41.5 -92t-14 -114t13.5 -114t40.5 -92t67.5 -61.5t94.5 -22.5q95 0 159 73l36 -32q-35 -42 -83.5 -64.5t-112.5 -22.5q-60 0 -109.5 23t-84 66.5t-53.5 105.5
t-19 140q0 76 19.5 138.5t54.5 106t84 67.5t108 24zM312 766l-122 -72l-18 15l115 98h53l114 -100l-18 -15z" />
    <glyph glyph-name="ccircumflex" unicode="&#x109;" horiz-adv-x="420" 
d="M242 496q45 0 80.5 -13.5t67.5 -44.5l-31 -32q-29 27 -58.5 38t-61.5 11q-35 0 -62 -17t-46 -45.5t-29 -67.5t-10 -82q0 -45 10 -83.5t29.5 -67t47.5 -44.5t64 -16q35 0 61.5 12t55.5 38l30 -29q-27 -29 -62 -46t-88 -17q-39 0 -74.5 16t-62.5 48t-42.5 79t-15.5 110
t15.5 110t42.5 79t63 48t76 16zM236 654l-122 -89l-18 15l115 115h53l114 -117l-17 -15z" />
    <glyph glyph-name="Cdotaccent" unicode="&#x10a;" horiz-adv-x="537" 
d="M312 661q64 0 110.5 -19.5t81.5 -59.5l-35 -35q-32 36 -69.5 52.5t-87.5 16.5q-52 0 -92 -22.5t-67.5 -61.5t-41.5 -92t-14 -114t13.5 -114t40.5 -92t67.5 -61.5t94.5 -22.5q95 0 159 73l36 -32q-35 -42 -83.5 -64.5t-112.5 -22.5q-60 0 -109.5 23t-84 66.5t-53.5 105.5
t-19 140q0 76 19.5 138.5t54.5 106t84 67.5t108 24zM347 750q0 -14 -10 -23.5t-23 -9.5q-14 0 -23.5 9.5t-9.5 23.5t9.5 24t23.5 10q13 0 23 -10t10 -24z" />
    <glyph glyph-name="cdotaccent" unicode="&#x10b;" horiz-adv-x="420" 
d="M242 496q45 0 80.5 -13.5t67.5 -44.5l-31 -32q-29 27 -58.5 38t-61.5 11q-35 0 -62 -17t-46 -45.5t-29 -67.5t-10 -82q0 -45 10 -83.5t29.5 -67t47.5 -44.5t64 -16q35 0 61.5 12t55.5 38l30 -29q-27 -29 -62 -46t-88 -17q-39 0 -74.5 16t-62.5 48t-42.5 79t-15.5 110
t15.5 110t42.5 79t63 48t76 16zM282 632q0 -14 -10 -23.5t-23 -9.5q-14 0 -23.5 9.5t-9.5 23.5t9.5 24t23.5 10q13 0 23 -10t10 -24z" />
    <glyph glyph-name="Ccaron" unicode="&#x10c;" horiz-adv-x="537" 
d="M312 661q64 0 110.5 -19.5t81.5 -59.5l-35 -35q-32 36 -69.5 52.5t-87.5 16.5q-52 0 -92 -22.5t-67.5 -61.5t-41.5 -92t-14 -114t13.5 -114t40.5 -92t67.5 -61.5t94.5 -22.5q95 0 159 73l36 -32q-35 -42 -83.5 -64.5t-112.5 -22.5q-60 0 -109.5 23t-84 66.5t-53.5 105.5
t-19 140q0 76 19.5 138.5t54.5 106t84 67.5t108 24zM436 810l18 -15l-115 -101h-52l-115 99l18 15l122 -72z" />
    <glyph glyph-name="ccaron" unicode="&#x10d;" horiz-adv-x="420" 
d="M242 496q45 0 80.5 -13.5t67.5 -44.5l-31 -32q-29 27 -58.5 38t-61.5 11q-35 0 -62 -17t-46 -45.5t-29 -67.5t-10 -82q0 -45 10 -83.5t29.5 -67t47.5 -44.5t64 -16q35 0 61.5 12t55.5 38l30 -29q-27 -29 -62 -46t-88 -17q-39 0 -74.5 16t-62.5 48t-42.5 79t-15.5 110
t15.5 110t42.5 79t63 48t76 16zM366 697l18 -15l-114 -118h-53l-115 116l18 15l122 -89z" />
    <glyph glyph-name="Dcaron" unicode="&#x10e;" horiz-adv-x="594" 
d="M226 651q65 0 122.5 -18t101 -57t69 -101t25.5 -150q0 -87 -26 -148.5t-70 -101t-101.5 -57.5t-121.5 -18h-152v651h153zM122 605v-559h104q68 0 118 20.5t83 57.5t49 88.5t16 112.5t-16 112.5t-49 88.5t-83 58t-118 21h-104zM359 810l18 -15l-115 -101h-52l-115 99
l18 15l122 -72z" />
    <glyph glyph-name="Emacron" unicode="&#x112;" horiz-adv-x="492" 
d="M66 0v651h396v-46h-346v-233h248v-46h-248v-280h360v-46h-410zM155 727v39h233v-39h-233z" />
    <glyph glyph-name="emacron" unicode="&#x113;" horiz-adv-x="473" 
d="M242 496q46 0 82.5 -17.5t62 -49.5t38.5 -77t13 -99v-27h-348q1 -49 14.5 -85.5t35 -61t49.5 -37t60 -12.5t63 13t57 36l27 -30q-65 -59 -153 -59q-39 0 -74.5 15t-63.5 46.5t-44.5 78.5t-16.5 112q0 59 15 106t42 80t63 50.5t78 17.5zM393 263q0 39 -9 74t-27.5 61.5
t-47.5 42t-69 15.5q-31 0 -57.5 -14t-46 -39.5t-32 -61t-14.5 -78.5h303zM132 618v39h233v-39h-233z" />
    <glyph glyph-name="Ebreve" unicode="&#x114;" horiz-adv-x="492" 
d="M66 0v651h396v-46h-346v-233h248v-46h-248v-280h360v-46h-410zM189 799q4 -29 24.5 -48t55.5 -19t55.5 19.5t23.5 47.5h39q-2 -18 -9.5 -36.5t-21 -32.5t-35 -23.5t-51.5 -9.5q-31 0 -53 9t-36.5 23.5t-21.5 33t-9 36.5h39z" />
    <glyph glyph-name="ebreve" unicode="&#x115;" horiz-adv-x="473" 
d="M242 496q46 0 82.5 -17.5t62 -49.5t38.5 -77t13 -99v-27h-348q1 -49 14.5 -85.5t35 -61t49.5 -37t60 -12.5t63 13t57 36l27 -30q-65 -59 -153 -59q-39 0 -74.5 15t-63.5 46.5t-44.5 78.5t-16.5 112q0 59 15 106t42 80t63 50.5t78 17.5zM393 263q0 39 -9 74t-27.5 61.5
t-47.5 42t-69 15.5q-31 0 -57.5 -14t-46 -39.5t-32 -61t-14.5 -78.5h303zM169 675q4 -29 24.5 -48t55.5 -19t55.5 19.5t23.5 47.5h39q-2 -18 -9.5 -36.5t-21 -32.5t-35 -23.5t-51.5 -9.5q-31 0 -53 9t-36.5 23.5t-21.5 33t-9 36.5h39z" />
    <glyph glyph-name="Edotaccent" unicode="&#x116;" horiz-adv-x="492" 
d="M66 0v651h396v-46h-346v-233h248v-46h-248v-280h360v-46h-410zM310 749q0 -14 -10 -23.5t-23 -9.5q-14 0 -23.5 9.5t-9.5 23.5t9.5 24t23.5 10q13 0 23 -10t10 -24z" />
    <glyph glyph-name="edotaccent" unicode="&#x117;" horiz-adv-x="473" 
d="M242 496q46 0 82.5 -17.5t62 -49.5t38.5 -77t13 -99v-27h-348q1 -49 14.5 -85.5t35 -61t49.5 -37t60 -12.5t63 13t57 36l27 -30q-65 -59 -153 -59q-39 0 -74.5 15t-63.5 46.5t-44.5 78.5t-16.5 112q0 59 15 106t42 80t63 50.5t78 17.5zM393 263q0 39 -9 74t-27.5 61.5
t-47.5 42t-69 15.5q-31 0 -57.5 -14t-46 -39.5t-32 -61t-14.5 -78.5h303zM280 626q0 -14 -10 -23.5t-23 -9.5q-14 0 -23.5 9.5t-9.5 23.5t9.5 24t23.5 10q13 0 23 -10t10 -24z" />
    <glyph glyph-name="Eogonek" unicode="&#x118;" horiz-adv-x="492" 
d="M474 0q-26 -32 -36 -56t-10 -43q0 -26 17.5 -39t43.5 -13q19 0 46 12l8 -28q-35 -18 -69 -18q-38 0 -62.5 21.5t-24.5 55.5q0 23 12.5 49.5t41.5 58.5h-375v651h396v-46h-346v-233h248v-46h-248v-280h360v-46h-2z" />
    <glyph glyph-name="eogonek" unicode="&#x119;" horiz-adv-x="473" 
d="M242 496q46 0 82.5 -17.5t62 -49.5t38.5 -77t13 -99v-27h-348q1 -49 14.5 -85.5t35 -61t49.5 -37t60 -12.5t63 13t57 36l27 -30q-19 -18 -43 -32q-23 -29 -31.5 -51t-8.5 -40q0 -26 17.5 -39t43.5 -13q19 0 46 12l8 -28q-35 -18 -69 -18q-38 0 -62.5 21.5t-24.5 55.5
q0 18 7.5 38t24.5 43q-30 -8 -61 -8q-39 0 -74.5 15t-63.5 46.5t-44.5 78.5t-16.5 112q0 59 15 106t42 80t63 50.5t78 17.5zM393 263q0 39 -9 74t-27.5 61.5t-47.5 42t-69 15.5q-31 0 -57.5 -14t-46 -39.5t-32 -61t-14.5 -78.5h303z" />
    <glyph glyph-name="Ecaron" unicode="&#x11a;" horiz-adv-x="492" 
d="M66 0v651h396v-46h-346v-233h248v-46h-248v-280h360v-46h-410zM390 810l18 -15l-115 -101h-52l-115 99l18 15l122 -72z" />
    <glyph glyph-name="ecaron" unicode="&#x11b;" horiz-adv-x="473" 
d="M242 496q46 0 82.5 -17.5t62 -49.5t38.5 -77t13 -99v-27h-348q1 -49 14.5 -85.5t35 -61t49.5 -37t60 -12.5t63 13t57 36l27 -30q-65 -59 -153 -59q-39 0 -74.5 15t-63.5 46.5t-44.5 78.5t-16.5 112q0 59 15 106t42 80t63 50.5t78 17.5zM393 263q0 39 -9 74t-27.5 61.5
t-47.5 42t-69 15.5q-31 0 -57.5 -14t-46 -39.5t-32 -61t-14.5 -78.5h303zM366 697l18 -15l-114 -118h-53l-115 116l18 15l122 -89z" />
    <glyph glyph-name="Gcircumflex" unicode="&#x11c;" horiz-adv-x="575" 
d="M306 661q64 0 112 -20.5t84 -64.5l-36 -34q-64 73 -161 73q-54 0 -94.5 -22.5t-67 -61.5t-40 -92t-13.5 -114q0 -62 13.5 -115t40.5 -92t68 -61t95 -22q51 0 86.5 18t58 46t32.5 62t10 65v34h-112v45h163v-52q0 -63 -17.5 -112t-49 -82.5t-75.5 -51t-97 -17.5
q-62 0 -111.5 23.5t-84 67t-53 105.5t-18.5 139q0 78 19.5 140.5t54.5 106t84 66.5t109 23zM304 766l-122 -72l-18 15l115 98h53l114 -100l-18 -15z" />
    <glyph glyph-name="gcircumflex" unicode="&#x11d;" horiz-adv-x="483" 
d="M429 28q0 -83 -42.5 -141.5t-138.5 -89.5l-16 39q45 16 74.5 36.5t46.5 43.5t23.5 47.5t6.5 49.5v46h-1q-47 -43 -86.5 -55t-67.5 -12q-36 0 -69 13t-58.5 42.5t-40.5 78t-15 120.5q0 64 16.5 111t43.5 78t60 46t66 15q16 0 33.5 -2t37 -8.5t39.5 -19t40 -34.5h1v56h47
v-460zM238 31q21 0 42 7t40 18t35.5 25t27.5 29v270q-23 31 -61.5 54t-82.5 23q-32 0 -59 -16t-46.5 -43.5t-31 -65.5t-11.5 -82q0 -102 35.5 -160.5t111.5 -58.5zM259 654l-122 -89l-18 15l115 115h53l114 -117l-17 -15z" />
    <glyph glyph-name="Gbreve" unicode="&#x11e;" horiz-adv-x="575" 
d="M306 661q64 0 112 -20.5t84 -64.5l-36 -34q-64 73 -161 73q-54 0 -94.5 -22.5t-67 -61.5t-40 -92t-13.5 -114q0 -62 13.5 -115t40.5 -92t68 -61t95 -22q51 0 86.5 18t58 46t32.5 62t10 65v34h-112v45h163v-52q0 -63 -17.5 -112t-49 -82.5t-75.5 -51t-97 -17.5
q-62 0 -111.5 23.5t-84 67t-53 105.5t-18.5 139q0 78 19.5 140.5t54.5 106t84 66.5t109 23zM227 801q4 -29 24.5 -48t55.5 -19t55.5 19.5t23.5 47.5h39q-2 -18 -9.5 -36.5t-21 -32.5t-35 -23.5t-51.5 -9.5q-31 0 -53 9t-36.5 23.5t-21.5 33t-9 36.5h39z" />
    <glyph glyph-name="gbreve" unicode="&#x11f;" horiz-adv-x="483" 
d="M429 28q0 -83 -42.5 -141.5t-138.5 -89.5l-16 39q45 16 74.5 36.5t46.5 43.5t23.5 47.5t6.5 49.5v46h-1q-47 -43 -86.5 -55t-67.5 -12q-36 0 -69 13t-58.5 42.5t-40.5 78t-15 120.5q0 64 16.5 111t43.5 78t60 46t66 15q16 0 33.5 -2t37 -8.5t39.5 -19t40 -34.5h1v56h47
v-460zM238 31q21 0 42 7t40 18t35.5 25t27.5 29v270q-23 31 -61.5 54t-82.5 23q-32 0 -59 -16t-46.5 -43.5t-31 -65.5t-11.5 -82q0 -102 35.5 -160.5t111.5 -58.5zM171 675q4 -29 24.5 -48t55.5 -19t55.5 19.5t23.5 47.5h39q-2 -18 -9.5 -36.5t-21 -32.5t-35 -23.5
t-51.5 -9.5q-31 0 -53 9t-36.5 23.5t-21.5 33t-9 36.5h39z" />
    <glyph glyph-name="Gdotaccent" unicode="&#x120;" horiz-adv-x="575" 
d="M306 661q64 0 112 -20.5t84 -64.5l-36 -34q-64 73 -161 73q-54 0 -94.5 -22.5t-67 -61.5t-40 -92t-13.5 -114q0 -62 13.5 -115t40.5 -92t68 -61t95 -22q51 0 86.5 18t58 46t32.5 62t10 65v34h-112v45h163v-52q0 -63 -17.5 -112t-49 -82.5t-75.5 -51t-97 -17.5
q-62 0 -111.5 23.5t-84 67t-53 105.5t-18.5 139q0 78 19.5 140.5t54.5 106t84 66.5t109 23zM347 749q0 -14 -10 -23.5t-23 -9.5q-14 0 -23.5 9.5t-9.5 23.5t9.5 24t23.5 10q13 0 23 -10t10 -24z" />
    <glyph glyph-name="gdotaccent" unicode="&#x121;" horiz-adv-x="483" 
d="M429 28q0 -83 -42.5 -141.5t-138.5 -89.5l-16 39q45 16 74.5 36.5t46.5 43.5t23.5 47.5t6.5 49.5v46h-1q-47 -43 -86.5 -55t-67.5 -12q-36 0 -69 13t-58.5 42.5t-40.5 78t-15 120.5q0 64 16.5 111t43.5 78t60 46t66 15q16 0 33.5 -2t37 -8.5t39.5 -19t40 -34.5h1v56h47
v-460zM238 31q21 0 42 7t40 18t35.5 25t27.5 29v270q-23 31 -61.5 54t-82.5 23q-32 0 -59 -16t-46.5 -43.5t-31 -65.5t-11.5 -82q0 -102 35.5 -160.5t111.5 -58.5zM306 632q0 -14 -10 -23.5t-23 -9.5q-14 0 -23.5 9.5t-9.5 23.5t9.5 24t23.5 10q13 0 23 -10t10 -24z" />
    <glyph glyph-name="Gcommaaccent" unicode="&#x122;" horiz-adv-x="575" 
d="M306 661q64 0 112 -20.5t84 -64.5l-36 -34q-64 73 -161 73q-54 0 -94.5 -22.5t-67 -61.5t-40 -92t-13.5 -114q0 -62 13.5 -115t40.5 -92t68 -61t95 -22q51 0 86.5 18t58 46t32.5 62t10 65v34h-112v45h163v-52q0 -63 -17.5 -112t-49 -82.5t-75.5 -51t-97 -17.5
q-62 0 -111.5 23.5t-84 67t-53 105.5t-18.5 139q0 78 19.5 140.5t54.5 106t84 66.5t109 23zM265 -181q14 12 23 23.5t10 28.5q-3 -1 -8 -1q-14 0 -23.5 10.5t-9.5 27.5q0 18 12 28.5t26 10.5t28 -12.5t14 -38.5q0 -35 -17 -57.5t-43 -35.5z" />
    <glyph glyph-name="gcommaaccent" unicode="&#x123;" horiz-adv-x="483" 
d="M306 685q-35 -21 -36 -54q2 0 3 0.5t2 0.5q14 0 24 -10t10 -27q0 -18 -12 -27.5t-26 -9.5t-27 11.5t-13 37.5q0 29 17.5 55t46.5 40zM429 28q0 -83 -42.5 -141.5t-138.5 -89.5l-16 39q45 16 74.5 36.5t46.5 43.5t23.5 47.5t6.5 49.5v46h-1q-47 -43 -86.5 -55t-67.5 -12
q-36 0 -69 13t-58.5 42.5t-40.5 78t-15 120.5q0 64 16.5 111t43.5 78t60 46t66 15q16 0 33.5 -2t37 -8.5t39.5 -19t40 -34.5h1v56h47v-460zM238 31q21 0 42 7t40 18t35.5 25t27.5 29v270q-23 31 -61.5 54t-82.5 23q-32 0 -59 -16t-46.5 -43.5t-31 -65.5t-11.5 -82
q0 -102 35.5 -160.5t111.5 -58.5z" />
    <glyph glyph-name="Hcircumflex" unicode="&#x124;" horiz-adv-x="605" 
d="M489 0v318h-374v-318h-49v651h49v-287h374v287h49v-651h-49zM302 766l-122 -72l-18 15l115 98h53l114 -100l-18 -15z" />
    <glyph glyph-name="hcircumflex" unicode="&#x125;" horiz-adv-x="467" 
d="M421 0h-47v293q0 85 -33 123.5t-99 38.5q-25 0 -47.5 -10t-40.5 -26.5t-30.5 -38.5t-18.5 -46q-3 -10 -4 -21.5t-1 -22.5v-290h-46v661l46 21v-278h2q14 25 33 43t39.5 28.5t41 15.5t38.5 5q83 0 125 -47.5t42 -148.5v-300zM80 766l-122 -72l-18 15l115 98h53l114 -100
l-18 -15z" />
    <glyph glyph-name="Itilde" unicode="&#x128;" horiz-adv-x="280" 
d="M115 0v651h50v-651h-50zM290 769q-15 -32 -39 -46t-50 -14q-17 0 -33 5.5t-31.5 12t-30.5 12t-29 5.5q-18 0 -32.5 -6.5t-31.5 -25.5l-23 15q17 32 40 45t47 13q17 0 33 -6t31 -12.5t30.5 -12.5t32.5 -6t31 7.5t30 27.5z" />
    <glyph glyph-name="Imacron" unicode="&#x12a;" horiz-adv-x="224" 
d="M87 0v651h50v-651h-50zM-4 723v39h233v-39h-233z" />
    <glyph glyph-name="Ibreve" unicode="&#x12c;" horiz-adv-x="227" 
d="M87 0v651h50v-651h-50zM34 798q4 -29 24.5 -48t55.5 -19t55.5 19.5t23.5 47.5h39q-2 -18 -9.5 -36.5t-21 -32.5t-35 -23.5t-51.5 -9.5q-31 0 -53 9t-36.5 23.5t-21.5 33t-9 36.5h39z" />
    <glyph glyph-name="ibreve" unicode="&#x12d;" horiz-adv-x="227" 
d="M34 675q4 -29 24.5 -48t55.5 -19t55.5 19.5t23.5 47.5h39q-2 -18 -9.5 -36.5t-21 -32.5t-35 -23.5t-51.5 -9.5q-31 0 -53 9t-36.5 23.5t-21.5 33t-9 36.5h39zM88 0v488h47v-488h-47z" />
    <glyph glyph-name="Iogonek" unicode="&#x12e;" horiz-adv-x="224" 
d="M126 0q-26 -32 -36 -56t-10 -43q0 -26 17.5 -39t43.5 -13q19 0 46 12l8 -28q-35 -18 -69 -18q-38 0 -62.5 21.5t-24.5 55.5q0 23 12.5 49.5t41.5 58.5h-6v651h50v-651h-11z" />
    <glyph glyph-name="iogonek" unicode="&#x12f;" horiz-adv-x="210" 
d="M119 0q-26 -32 -36 -56t-10 -43q0 -26 17.5 -39t43.5 -13q19 0 46 12l8 -28q-35 -18 -69 -18q-38 0 -62.5 21.5t-24.5 55.5q0 23 12.5 49.5t41.5 58.5h-4v489h46v-489h-9zM137 626q0 -14 -9.5 -23.5t-22.5 -9.5q-14 0 -23 9.5t-9 23.5q0 13 9 22t22 9q14 0 23.5 -9
t9.5 -22z" />
    <glyph glyph-name="Idotaccent" unicode="&#x130;" horiz-adv-x="224" 
d="M87 0v651h50v-651h-50zM146 749q0 -14 -10 -23.5t-23 -9.5q-14 0 -23.5 9.5t-9.5 23.5t9.5 24t23.5 10q13 0 23 -10t10 -24z" />
    <glyph glyph-name="dotlessi" unicode="&#x131;" horiz-adv-x="210" 
d="M82 0v488h47v-488h-47z" />
    <glyph glyph-name="IJ" unicode="&#x132;" horiz-adv-x="679" 
d="M87 0v651h50v-651h-50zM614 251q0 -135 -54.5 -198t-166.5 -63q-82 0 -131 35.5t-75 102.5l47 18q23 -53 60 -81.5t102 -28.5q48 0 80 16t51.5 45.5t28 72t8.5 95.5v386h50v-400z" />
    <glyph glyph-name="ij" unicode="&#x133;" horiz-adv-x="376" 
d="M137 626q0 -14 -9.5 -23.5t-22.5 -9.5q-14 0 -23 9.5t-9 23.5q0 13 9 22t22 9q14 0 23.5 -9t9.5 -22zM82 0v489h46v-489h-46zM310 626q0 -14 -9 -23.5t-22 -9.5q-14 0 -23 9.5t-9 23.5q0 13 9 22t22 9q14 0 23 -9t9 -22zM300 -7q0 -42 -4.5 -75.5t-19.5 -57t-44 -37.5
t-78 -18l-4 41q36 5 57 16t31.5 28.5t13 41.5t2.5 55v502h46v-496z" />
    <glyph glyph-name="Jcircumflex" unicode="&#x134;" horiz-adv-x="541" 
d="M451 252q0 -135 -54.5 -198t-166.5 -63q-82 0 -131 35.5t-75 102.5l47 18q23 -53 60 -81.5t102 -28.5q48 0 80 16t51.5 45.5t28 72t8.5 95.5v386h50v-400zM424 766l-122 -72l-18 15l115 98h53l114 -100l-18 -15z" />
    <glyph glyph-name="jcircumflex" unicode="&#x135;" horiz-adv-x="272" 
d="M158 -7q0 -42 -4.5 -75.5t-19.5 -57t-44 -37.5t-78 -18l-4 41q36 5 57 16.5t31.5 29t13 41.5t2.5 55v501h46v-496zM135 654l-121 -89l-19 15l115 115h53l114 -117l-17 -15z" />
    <glyph glyph-name="Kcommaaccent" unicode="&#x136;" horiz-adv-x="570" 
d="M477 0q-51 96 -101.5 191.5t-101.5 192.5q-41 -52 -80 -104t-80 -104v-176h-49v651h49v-405h1l99 132l208 273h57l-173 -225q57 -107 113 -213t113 -213h-55zM243 -181q14 12 23 23.5t10 28.5q-3 -1 -8 -1q-14 0 -23.5 10.5t-9.5 27.5q0 18 12 28.5t26 10.5t28 -12.5
t14 -38.5q0 -35 -17 -57.5t-43 -35.5z" />
    <glyph glyph-name="kcommaaccent" unicode="&#x137;" horiz-adv-x="409" 
d="M218 290l-119 -154v-136h-46v660l46 21v-478h1q9 12 20.5 27l23 30t22 29.5t19.5 25.5q34 43 67 86t67 87h57q-32 -40 -62.5 -80t-62.5 -81l146 -327h-51zM182 -181q14 12 23 23.5t10 28.5q-3 -1 -8 -1q-14 0 -23.5 10.5t-9.5 27.5q0 18 12 28.5t26 10.5t28 -12.5
t14 -38.5q0 -35 -17 -57.5t-43 -35.5z" />
    <glyph glyph-name="kgreenlandic" unicode="&#x138;" horiz-adv-x="426" 
d="M221 290l-117 -154v-136h-46v488h46v-284h1l85 111l135 173h56q-32 -40 -63 -79.5t-62 -80.5l146 -328h-51z" />
    <glyph glyph-name="Lacute" unicode="&#x139;" horiz-adv-x="467" 
d="M66 0v651h50v-604h347v-47h-397zM94 695l-16 22l128 85l43 -43z" />
    <glyph glyph-name="lacute" unicode="&#x13a;" horiz-adv-x="183" 
d="M69 0v661l45 21v-682h-45zM90 698l-16 22l128 85l43 -43z" />
    <glyph glyph-name="Lcommaaccent" unicode="&#x13b;" horiz-adv-x="467" 
d="M66 0v651h50v-604h347v-47h-397zM226 -181q14 12 23 23.5t10 28.5q-3 -1 -8 -1q-14 0 -23.5 10.5t-9.5 27.5q0 18 12 28.5t26 10.5t28 -12.5t14 -38.5q0 -35 -17 -57.5t-43 -35.5z" />
    <glyph glyph-name="lcommaaccent" unicode="&#x13c;" horiz-adv-x="183" 
d="M69 0v661l45 21v-682h-45zM59 -173q14 12 23 23.5t10 28.5q-3 -1 -8 -1q-14 0 -23.5 10.5t-9.5 27.5q0 18 12 28.5t26 10.5t28 -12.5t14 -38.5q0 -35 -17 -57.5t-43 -35.5z" />
    <glyph glyph-name="Ldot" unicode="&#x13f;" horiz-adv-x="467" 
d="M66 0v651h50v-604h347v-47h-397zM309 335q0 -14 -10 -23.5t-23 -9.5q-14 0 -23.5 9.5t-9.5 23.5t9.5 24t23.5 10q13 0 23 -10t10 -24z" />
    <glyph glyph-name="ldot" unicode="&#x140;" horiz-adv-x="239" 
d="M233 347q0 -14 -10 -23.5t-23 -9.5q-14 0 -23.5 9.5t-9.5 23.5t9.5 24t23.5 10q13 0 23 -10t10 -24zM69 0v661l45 21v-682h-45z" />
    <glyph glyph-name="Nacute" unicode="&#x143;" horiz-adv-x="590" 
d="M478 0q-9 14 -28.5 44.5t-45.5 70.5t-56.5 87t-61 95t-60 93.5t-53 82.5t-39.5 62t-21 33h-1v-568h-49v651h52l242 -372q30 -48 60.5 -96.5t59.5 -92.5h1v561h49v-651h-49zM282 695l-16 22l128 85l43 -43z" />
    <glyph glyph-name="nacute" unicode="&#x144;" horiz-adv-x="466" 
d="M419 0h-47v293q0 85 -32.5 123.5t-98.5 38.5q-26 0 -48 -9.5t-40 -26t-30.5 -38t-18.5 -45.5q-6 -21 -6 -46v-290h-46v489h46v-87l2 -1q14 26 32.5 44t39 29.5t41.5 16.5t39 5q83 0 125 -47.5t42 -148.5v-300zM227 564l-26 9l64 149l60 -12z" />
    <glyph glyph-name="Ncommaaccent" unicode="&#x145;" horiz-adv-x="590" 
d="M478 0q-9 14 -28.5 44.5t-45.5 70.5t-56.5 87t-61 95t-60 93.5t-53 82.5t-39.5 62t-21 33h-1v-568h-49v651h52l242 -372q30 -48 60.5 -96.5t59.5 -92.5h1v561h49v-651h-49zM254 -151q14 12 23 23.5t10 28.5q-3 -1 -8 -1q-14 0 -23.5 10.5t-9.5 27.5q0 18 12 28.5t26 10.5
t28 -12.5t14 -38.5q0 -35 -17 -57.5t-43 -35.5z" />
    <glyph glyph-name="ncommaaccent" unicode="&#x146;" horiz-adv-x="466" 
d="M419 0h-47v293q0 85 -32.5 123.5t-98.5 38.5q-26 0 -48 -9.5t-40 -26t-30.5 -38t-18.5 -45.5q-6 -21 -6 -46v-290h-46v489h46v-87l2 -1q14 26 32.5 44t39 29.5t41.5 16.5t39 5q83 0 125 -47.5t42 -148.5v-300zM201 -182q14 12 23 23.5t10 28.5q-3 -1 -8 -1
q-14 0 -23.5 10.5t-9.5 27.5q0 18 12 28.5t26 10.5t28 -12.5t14 -38.5q0 -35 -17 -57.5t-43 -35.5z" />
    <glyph glyph-name="Ncaron" unicode="&#x147;" horiz-adv-x="590" 
d="M478 0q-9 14 -28.5 44.5t-45.5 70.5t-56.5 87t-61 95t-60 93.5t-53 82.5t-39.5 62t-21 33h-1v-568h-49v651h52l242 -372q30 -48 60.5 -96.5t59.5 -92.5h1v561h49v-651h-49zM420 810l18 -15l-115 -101h-52l-115 99l18 15l122 -72z" />
    <glyph glyph-name="ncaron" unicode="&#x148;" horiz-adv-x="466" 
d="M419 0h-47v293q0 85 -32.5 123.5t-98.5 38.5q-26 0 -48 -9.5t-40 -26t-30.5 -38t-18.5 -45.5q-6 -21 -6 -46v-290h-46v489h46v-87l2 -1q14 26 32.5 44t39 29.5t41.5 16.5t39 5q83 0 125 -47.5t42 -148.5v-300zM350 697l18 -15l-114 -118h-53l-115 116l18 15l122 -89z" />
    <glyph glyph-name="napostrophe" unicode="&#x149;" horiz-adv-x="502" 
d="M455 0h-47v293q0 85 -32.5 123.5t-98.5 38.5q-26 0 -48 -9.5t-40 -26t-30.5 -38t-18.5 -45.5q-6 -21 -6 -46v-290h-46v489h46v-87l2 -1q14 26 32.5 44t39 29.5t41.5 16.5t39 5q83 0 125 -47.5t42 -148.5v-300zM11 531q14 12 23 23.5t10 28.5q-3 -1 -8 -1
q-14 0 -23.5 10.5t-9.5 27.5q0 18 12 28.5t26 10.5t28 -12.5t14 -38.5q0 -35 -17 -57.5t-43 -35.5z" />
    <glyph glyph-name="Omacron" unicode="&#x14c;" horiz-adv-x="619" 
d="M573 325q0 -77 -18.5 -138.5t-53 -105.5t-83.5 -67.5t-109 -23.5q-62 0 -110.5 24t-82.5 68t-52 105.5t-18 137.5q0 75 18 136.5t52 105.5t82.5 68.5t110.5 24.5q60 0 109 -24t83.5 -67.5t53 -105.5t18.5 -138zM522 325q0 61 -13 114.5t-39.5 93t-66.5 62t-94 22.5
q-53 0 -93 -22t-66.5 -61t-40 -92.5t-13.5 -116.5q0 -58 13 -111t39.5 -93t66.5 -63.5t94 -23.5q55 0 95 23.5t66 63.5t39 93t13 111zM192 733v39h233v-39h-233z" />
    <glyph glyph-name="omacron" unicode="&#x14d;" horiz-adv-x="497" 
d="M453 247q0 -62 -16 -109.5t-43.5 -80.5t-65.5 -50t-83 -17q-43 0 -79.5 17t-63.5 50t-42.5 80t-15.5 107q0 63 15.5 110t42.5 78.5t64.5 47.5t81.5 16t81.5 -16.5t65 -48.5t43 -78.5t15.5 -105.5zM407 244q0 44 -10 83t-30 67.5t-50.5 45t-71.5 16.5q-38 0 -67 -17
t-48.5 -45.5t-29 -66.5t-9.5 -80q0 -48 10.5 -88t31 -68.5t50 -44t67.5 -15.5q39 0 68 17.5t49 46.5t30 68t10 81zM129 618v39h233v-39h-233z" />
    <glyph glyph-name="Obreve" unicode="&#x14e;" horiz-adv-x="619" 
d="M573 325q0 -77 -18.5 -138.5t-53 -105.5t-83.5 -67.5t-109 -23.5q-62 0 -110.5 24t-82.5 68t-52 105.5t-18 137.5q0 75 18 136.5t52 105.5t82.5 68.5t110.5 24.5q60 0 109 -24t83.5 -67.5t53 -105.5t18.5 -138zM522 325q0 61 -13 114.5t-39.5 93t-66.5 62t-94 22.5
q-53 0 -93 -22t-66.5 -61t-40 -92.5t-13.5 -116.5q0 -58 13 -111t39.5 -93t66.5 -63.5t94 -23.5q55 0 95 23.5t66 63.5t39 93t13 111zM230 798q4 -29 24.5 -48t55.5 -19t55.5 19.5t23.5 47.5h39q-2 -18 -9.5 -36.5t-21 -32.5t-35 -23.5t-51.5 -9.5q-31 0 -53 9t-36.5 23.5
t-21.5 33t-9 36.5h39z" />
    <glyph glyph-name="obreve" unicode="&#x14f;" horiz-adv-x="497" 
d="M453 247q0 -62 -16 -109.5t-43.5 -80.5t-65.5 -50t-83 -17q-43 0 -79.5 17t-63.5 50t-42.5 80t-15.5 107q0 63 15.5 110t42.5 78.5t64.5 47.5t81.5 16t81.5 -16.5t65 -48.5t43 -78.5t15.5 -105.5zM407 244q0 44 -10 83t-30 67.5t-50.5 45t-71.5 16.5q-38 0 -67 -17
t-48.5 -45.5t-29 -66.5t-9.5 -80q0 -48 10.5 -88t31 -68.5t50 -44t67.5 -15.5q39 0 68 17.5t49 46.5t30 68t10 81zM166 675q4 -29 24.5 -48t55.5 -19t55.5 19.5t23.5 47.5h39q-2 -18 -9.5 -36.5t-21 -32.5t-35 -23.5t-51.5 -9.5q-31 0 -53 9t-36.5 23.5t-21.5 33t-9 36.5h39
z" />
    <glyph glyph-name="Ohungarumlaut" unicode="&#x150;" horiz-adv-x="619" 
d="M573 325q0 -77 -18.5 -138.5t-53 -105.5t-83.5 -67.5t-109 -23.5q-62 0 -110.5 24t-82.5 68t-52 105.5t-18 137.5q0 75 18 136.5t52 105.5t82.5 68.5t110.5 24.5q60 0 109 -24t83.5 -67.5t53 -105.5t18.5 -138zM522 325q0 61 -13 114.5t-39.5 93t-66.5 62t-94 22.5
q-53 0 -93 -22t-66.5 -61t-40 -92.5t-13.5 -116.5q0 -58 13 -111t39.5 -93t66.5 -63.5t94 -23.5q55 0 95 23.5t66 63.5t39 93t13 111zM353 694l-19 19l118 98l48 -36zM231 694l-18 19l118 98l48 -36z" />
    <glyph glyph-name="ohungarumlaut" unicode="&#x151;" horiz-adv-x="497" 
d="M453 247q0 -62 -16 -109.5t-43.5 -80.5t-65.5 -50t-83 -17q-43 0 -79.5 17t-63.5 50t-42.5 80t-15.5 107q0 63 15.5 110t42.5 78.5t64.5 47.5t81.5 16t81.5 -16.5t65 -48.5t43 -78.5t15.5 -105.5zM407 244q0 44 -10 83t-30 67.5t-50.5 45t-71.5 16.5q-38 0 -67 -17
t-48.5 -45.5t-29 -66.5t-9.5 -80q0 -48 10.5 -88t31 -68.5t50 -44t67.5 -15.5q39 0 68 17.5t49 46.5t30 68t10 81zM291 565l-26 10l58 143l59 -12zM194 565l-25 10l57 143l60 -12z" />
    <glyph glyph-name="Racute" unicode="&#x154;" horiz-adv-x="560" 
d="M448 0l-120 265h-215v-265h-50v651h259q43 0 80 -12t63.5 -35.5t41.5 -59.5t15 -84q0 -75 -37.5 -123t-105.5 -65l126 -272h-57zM472 459q0 35 -11.5 62.5t-32 46t-48 28.5t-60.5 10h-207v-296h208q70 0 110.5 40t40.5 109zM229 695l-16 22l128 85l43 -43z" />
    <glyph glyph-name="racute" unicode="&#x155;" horiz-adv-x="326" 
d="M118 408q20 46 61 67t85 21q14 0 28.5 -1.5t28.5 -6.5l-10 -46q-29 6 -53 6q-35 0 -61 -12t-44 -33t-27 -49.5t-9 -61.5v-292h-47v488h47l-1 -79zM150 564l-26 9l64 149l60 -12z" />
    <glyph glyph-name="Rcommaaccent" unicode="&#x156;" horiz-adv-x="560" 
d="M448 0l-120 265h-215v-265h-50v651h259q43 0 80 -12t63.5 -35.5t41.5 -59.5t15 -84q0 -75 -37.5 -123t-105.5 -65l126 -272h-57zM472 459q0 35 -11.5 62.5t-32 46t-48 28.5t-60.5 10h-207v-296h208q70 0 110.5 40t40.5 109zM237 -149q14 12 23 23.5t10 28.5q-3 -1 -8 -1
q-14 0 -23.5 10.5t-9.5 27.5q0 18 12 28.5t26 10.5t28 -12.5t14 -38.5q0 -35 -17 -57.5t-43 -35.5z" />
    <glyph glyph-name="rcommaaccent" unicode="&#x157;" horiz-adv-x="326" 
d="M118 408q20 46 61 67t85 21q14 0 28.5 -1.5t28.5 -6.5l-10 -46q-29 6 -53 6q-35 0 -61 -12t-44 -33t-27 -49.5t-9 -61.5v-292h-47v488h47l-1 -79zM61 -181q14 12 23 23.5t10 28.5q-3 -1 -8 -1q-14 0 -23.5 10.5t-9.5 27.5q0 18 12 28.5t26 10.5t28 -12.5t14 -38.5
q0 -35 -17 -57.5t-43 -35.5z" />
    <glyph glyph-name="Rcaron" unicode="&#x158;" horiz-adv-x="560" 
d="M448 0l-120 265h-215v-265h-50v651h259q43 0 80 -12t63.5 -35.5t41.5 -59.5t15 -84q0 -75 -37.5 -123t-105.5 -65l126 -272h-57zM472 459q0 35 -11.5 62.5t-32 46t-48 28.5t-60.5 10h-207v-296h208q70 0 110.5 40t40.5 109zM384 810l18 -15l-115 -101h-52l-115 99l18 15
l122 -72z" />
    <glyph glyph-name="rcaron" unicode="&#x159;" horiz-adv-x="326" 
d="M118 408q20 46 61 67t85 21q14 0 28.5 -1.5t28.5 -6.5l-10 -46q-29 6 -53 6q-35 0 -61 -12t-44 -33t-27 -49.5t-9 -61.5v-292h-47v488h47l-1 -79zM273 697l18 -15l-114 -118h-53l-115 116l18 15l122 -89z" />
    <glyph glyph-name="Sacute" unicode="&#x15a;" horiz-adv-x="513" 
d="M253 -10q-62 0 -114 21t-92 58l33 36q38 -34 83 -52.5t95 -18.5q37 0 69 7t56 22.5t37.5 40.5t13.5 61q0 37 -16.5 61t-42.5 40.5t-57.5 27l-61.5 20.5q-41 14 -76.5 28.5t-61 34t-40 47.5t-14.5 69q0 37 15 68t41.5 53.5t64 34.5t82.5 12q53 0 101 -15.5t89 -46.5
q-9 -10 -16 -19t-15 -18q-38 27 -76.5 40t-89.5 13q-69 0 -107 -34t-38 -86q0 -26 10.5 -45t27 -33t38 -24t44.5 -18q38 -14 82 -27.5t81.5 -35.5t62 -56.5t24.5 -89.5q0 -39 -14 -71t-42.5 -55.5t-72.5 -36.5t-103 -13zM235 695l-16 22l128 85l43 -43z" />
    <glyph glyph-name="sacute" unicode="&#x15b;" horiz-adv-x="419" 
d="M382 123q0 -33 -14 -58t-38.5 -41.5t-57.5 -25t-70 -8.5q-42 0 -85 10t-81 30l19 38q38 -20 76.5 -29t72.5 -9q23 0 46.5 5t42.5 16t31 28t12 41t-10.5 41.5t-29 30t-44 22.5t-55.5 19q-34 10 -62 22.5t-48 29t-31 37.5t-11 48q0 55 45 90t125 35q36 0 73.5 -7t70.5 -24
l-16 -39q-35 17 -69.5 23.5t-59.5 6.5q-56 0 -90 -24t-34 -57q0 -14 5.5 -27.5t19.5 -26t37 -24.5t59 -22q36 -11 67 -23.5t54.5 -29.5t36.5 -41t13 -57zM198 564l-26 9l64 149l60 -12z" />
    <glyph glyph-name="Scircumflex" unicode="&#x15c;" horiz-adv-x="513" 
d="M253 -10q-62 0 -114 21t-92 58l33 36q38 -34 83 -52.5t95 -18.5q37 0 69 7t56 22.5t37.5 40.5t13.5 61q0 37 -16.5 61t-42.5 40.5t-57.5 27l-61.5 20.5q-41 14 -76.5 28.5t-61 34t-40 47.5t-14.5 69q0 37 15 68t41.5 53.5t64 34.5t82.5 12q53 0 101 -15.5t89 -46.5
q-9 -10 -16 -19t-15 -18q-38 27 -76.5 40t-89.5 13q-69 0 -107 -34t-38 -86q0 -26 10.5 -45t27 -33t38 -24t44.5 -18q38 -14 82 -27.5t81.5 -35.5t62 -56.5t24.5 -89.5q0 -39 -14 -71t-42.5 -55.5t-72.5 -36.5t-103 -13zM259 766l-122 -72l-18 15l115 98h53l114 -100
l-18 -15z" />
    <glyph glyph-name="scircumflex" unicode="&#x15d;" horiz-adv-x="419" 
d="M382 123q0 -33 -14 -58t-38.5 -41.5t-57.5 -25t-70 -8.5q-42 0 -85 10t-81 30l19 38q38 -20 76.5 -29t72.5 -9q23 0 46.5 5t42.5 16t31 28t12 41t-10.5 41.5t-29 30t-44 22.5t-55.5 19q-34 10 -62 22.5t-48 29t-31 37.5t-11 48q0 55 45 90t125 35q36 0 73.5 -7t70.5 -24
l-16 -39q-35 17 -69.5 23.5t-59.5 6.5q-56 0 -90 -24t-34 -57q0 -14 5.5 -27.5t19.5 -26t37 -24.5t59 -22q36 -11 67 -23.5t54.5 -29.5t36.5 -41t13 -57zM202 654l-122 -89l-18 15l115 115h53l114 -117l-17 -15z" />
    <glyph glyph-name="Scedilla" unicode="&#x15e;" horiz-adv-x="513" 
d="M247 -198q-12 0 -29.5 3t-40.5 12l9 26q15 -5 31.5 -8.5t30.5 -3.5q24 0 38.5 10t16.5 32q0 23 -18.5 35t-40.5 12h-5l-15 16l18 54q-59 2 -108 23t-87 56l33 36q38 -34 83 -52.5t95 -18.5q37 0 69 7t56 22.5t37.5 40.5t13.5 61q0 37 -16.5 61t-42.5 40.5t-57.5 27
l-61.5 20.5q-41 14 -76.5 28.5t-61 34t-40 47.5t-14.5 69q0 37 15 68t41.5 53.5t64 34.5t82.5 12q53 0 101 -15.5t89 -46.5q-9 -10 -16 -19t-15 -18q-38 27 -76.5 40t-89.5 13q-69 0 -107 -34t-38 -86q0 -26 10.5 -45t27 -33t38 -24t44.5 -18q38 -14 82 -27.5t81.5 -35.5
t62 -56.5t24.5 -89.5q0 -75 -52.5 -123t-161.5 -52l-13 -41q25 -4 41 -12.5t25 -19t12.5 -22.5t3.5 -22q0 -12 -5 -25t-16.5 -23.5t-29 -17t-42.5 -6.5z" />
    <glyph glyph-name="scedilla" unicode="&#x15f;" horiz-adv-x="419" 
d="M189 -198q-12 0 -29.5 3t-40.5 12l9 26q15 -5 31.5 -8.5t30.5 -3.5q24 0 38.5 10t16.5 32q0 23 -18.5 35t-40.5 12h-5l-15 16l18 55q-38 2 -76 11.5t-72 27.5l19 38q38 -20 76.5 -29t72.5 -9q23 0 46.5 5t42.5 16t31 28t12 41t-10.5 41.5t-29 30t-44 22.5t-55.5 19
q-34 10 -62 22.5t-48 29t-31 37.5t-11 48q0 55 45 90t125 35q36 0 73.5 -7t70.5 -24l-16 -39q-35 17 -69.5 23.5t-59.5 6.5q-56 0 -90 -24t-34 -57q0 -14 5.5 -27.5t19.5 -26t37 -24.5t59 -22q36 -11 67 -23.5t54.5 -29.5t36.5 -41t13 -57q0 -32 -13 -56t-36 -40.5
t-53.5 -25.5t-66.5 -10l-13 -41q25 -4 41 -12.5t25 -19t12.5 -22.5t3.5 -22q0 -12 -5 -25t-16.5 -23.5t-29 -17t-42.5 -6.5z" />
    <glyph glyph-name="Tcommaaccent" unicode="&#x162;" horiz-adv-x="478" 
d="M265 605v-605h-49v605h-202v46h454v-46h-203zM210 -181q14 12 23 23.5t10 28.5q-3 -1 -8 -1q-14 0 -23.5 10.5t-9.5 27.5q0 18 12 28.5t26 10.5t28 -12.5t14 -38.5q0 -35 -17 -57.5t-43 -35.5z" />
    <glyph glyph-name="tcommaaccent" unicode="&#x163;" horiz-adv-x="283" 
d="M142 488h105v-39h-105v-353q0 -35 14.5 -48t42.5 -13q14 0 29 2t35 5l4 -35q-15 -6 -39.5 -9.5t-42.5 -3.5q-51 0 -69 26t-18 74v355h-75v39h75v124l44 19v-143zM117 -181q14 12 23 23.5t10 28.5q-3 -1 -8 -1q-14 0 -23.5 10.5t-9.5 27.5q0 18 12 28.5t26 10.5t28 -12.5
t14 -38.5q0 -35 -17 -57.5t-43 -35.5z" />
    <glyph glyph-name="Tcaron" unicode="&#x164;" horiz-adv-x="478" 
d="M265 605v-605h-49v605h-202v46h454v-46h-203zM365 810l18 -15l-115 -101h-52l-115 99l18 15l122 -72z" />
    <glyph glyph-name="Utilde" unicode="&#x168;" horiz-adv-x="597" 
d="M537 267q0 -141 -62 -209t-177 -68q-113 0 -173 69.5t-60 209.5v382h49v-379q0 -53 11.5 -96.5t34.5 -74.5t58 -48t82 -17q49 0 84 16.5t58 46.5t34 72.5t11 94.5v385h50v-384zM449 770q-15 -32 -39 -46t-50 -14q-17 0 -33 5.5t-31.5 12t-30.5 12t-29 5.5
q-18 0 -32.5 -6.5t-31.5 -25.5l-23 15q17 32 40 45t47 13q17 0 33 -6t31 -12.5t30.5 -12.5t32.5 -6t31 7.5t30 27.5z" />
    <glyph glyph-name="utilde" unicode="&#x169;" horiz-adv-x="464" 
d="M48 489h47v-296q0 -87 31 -125t97 -38q25 0 46.5 9.5t39 25.5t30 37t18.5 45q7 22 7 49v293h46v-489h-46v84h-2q-14 -26 -32 -44.5t-38.5 -29.5t-41 -16t-38.5 -5q-82 0 -123 46t-41 148v306zM383 650q-15 -32 -39 -46t-50 -14q-17 0 -33 5.5t-31.5 12t-30.5 12t-29 5.5
q-18 0 -32.5 -6.5t-31.5 -25.5l-23 15q17 32 40 45t47 13q17 0 33 -6t31 -12.5t30.5 -12.5t32.5 -6t31 7.5t30 27.5z" />
    <glyph glyph-name="Umacron" unicode="&#x16a;" horiz-adv-x="597" 
d="M537 267q0 -141 -62 -209t-177 -68q-113 0 -173 69.5t-60 209.5v382h49v-379q0 -53 11.5 -96.5t34.5 -74.5t58 -48t82 -17q49 0 84 16.5t58 46.5t34 72.5t11 94.5v385h50v-384zM184 727v39h233v-39h-233z" />
    <glyph glyph-name="umacron" unicode="&#x16b;" horiz-adv-x="464" 
d="M48 489h47v-296q0 -87 31 -125t97 -38q25 0 46.5 9.5t39 25.5t30 37t18.5 45q7 22 7 49v293h46v-489h-46v84h-2q-14 -26 -32 -44.5t-38.5 -29.5t-41 -16t-38.5 -5q-82 0 -123 46t-41 148v306zM121 618v39h233v-39h-233z" />
    <glyph glyph-name="Ubreve" unicode="&#x16c;" horiz-adv-x="597" 
d="M537 267q0 -141 -62 -209t-177 -68q-113 0 -173 69.5t-60 209.5v382h49v-379q0 -53 11.5 -96.5t34.5 -74.5t58 -48t82 -17q49 0 84 16.5t58 46.5t34 72.5t11 94.5v385h50v-384zM229 799q4 -29 24.5 -48t55.5 -19t55.5 19.5t23.5 47.5h39q-2 -18 -9.5 -36.5t-21 -32.5
t-35 -23.5t-51.5 -9.5q-31 0 -53 9t-36.5 23.5t-21.5 33t-9 36.5h39z" />
    <glyph glyph-name="ubreve" unicode="&#x16d;" horiz-adv-x="464" 
d="M48 489h47v-296q0 -87 31 -125t97 -38q25 0 46.5 9.5t39 25.5t30 37t18.5 45q7 22 7 49v293h46v-489h-46v84h-2q-14 -26 -32 -44.5t-38.5 -29.5t-41 -16t-38.5 -5q-82 0 -123 46t-41 148v306zM158 675q4 -29 24.5 -48t55.5 -19t55.5 19.5t23.5 47.5h39q-2 -18 -9.5 -36.5
t-21 -32.5t-35 -23.5t-51.5 -9.5q-31 0 -53 9t-36.5 23.5t-21.5 33t-9 36.5h39z" />
    <glyph glyph-name="Uring" unicode="&#x16e;" horiz-adv-x="597" 
d="M537 267q0 -141 -62 -209t-177 -68q-113 0 -173 69.5t-60 209.5v382h49v-379q0 -53 11.5 -96.5t34.5 -74.5t58 -48t82 -17q49 0 84 16.5t58 46.5t34 72.5t11 94.5v385h50v-384zM388 740q0 -35 -23.5 -57.5t-56.5 -22.5q-34 0 -57 22.5t-23 57.5q0 34 23 56.5t57 22.5
q33 0 56.5 -22.5t23.5 -56.5zM360 740q0 22 -15 37t-37 15q-23 0 -38 -15.5t-15 -36.5q0 -22 15 -37.5t38 -15.5q22 0 37 15.5t15 37.5z" />
    <glyph glyph-name="uring" unicode="&#x16f;" horiz-adv-x="464" 
d="M48 489h47v-296q0 -87 31 -125t97 -38q25 0 46.5 9.5t39 25.5t30 37t18.5 45q7 22 7 49v293h46v-489h-46v84h-2q-14 -26 -32 -44.5t-38.5 -29.5t-41 -16t-38.5 -5q-82 0 -123 46t-41 148v306zM316 635q0 -35 -23.5 -57.5t-56.5 -22.5q-34 0 -57 22.5t-23 57.5
q0 34 23 56.5t57 22.5q33 0 56.5 -22.5t23.5 -56.5zM288 635q0 22 -15 37t-37 15q-23 0 -38 -15.5t-15 -36.5q0 -22 15 -37.5t38 -15.5q22 0 37 15.5t15 37.5z" />
    <glyph glyph-name="Uhungarumlaut" unicode="&#x170;" horiz-adv-x="597" 
d="M537 267q0 -141 -62 -209t-177 -68q-113 0 -173 69.5t-60 209.5v382h49v-379q0 -53 11.5 -96.5t34.5 -74.5t58 -48t82 -17q49 0 84 16.5t58 46.5t34 72.5t11 94.5v385h50v-384zM343 693l-19 19l118 98l48 -36zM221 693l-18 19l118 98l48 -36z" />
    <glyph glyph-name="uhungarumlaut" unicode="&#x171;" horiz-adv-x="464" 
d="M48 489h47v-296q0 -87 31 -125t97 -38q25 0 46.5 9.5t39 25.5t30 37t18.5 45q7 22 7 49v293h46v-489h-46v84h-2q-14 -26 -32 -44.5t-38.5 -29.5t-41 -16t-38.5 -5q-82 0 -123 46t-41 148v306zM265 565l-26 10l58 143l59 -12zM168 565l-25 10l57 143l60 -12z" />
    <glyph glyph-name="Uogonek" unicode="&#x172;" horiz-adv-x="597" 
d="M537 267q0 -132 -55 -200t-156 -76q-22 -29 -30.5 -51t-8.5 -39q0 -26 17.5 -39t43.5 -13q19 0 46 12l8 -28q-35 -18 -69 -18q-38 0 -62.5 21.5t-24.5 55.5q0 21 10.5 45t34.5 53q-110 2 -168 71t-58 208v382h49v-379q0 -53 11.5 -96.5t34.5 -74.5t58 -48t82 -17
q49 0 84 16.5t58 46.5t34 72.5t11 94.5v385h50v-384z" />
    <glyph glyph-name="uogonek" unicode="&#x173;" horiz-adv-x="464" 
d="M48 489h47v-296q0 -87 31 -125t97 -38q25 0 46.5 9.5t39 25.5t30 37t18.5 45q7 22 7 49v293h46v-489h-15q-26 -32 -36 -56t-10 -43q0 -26 17.5 -39t43.5 -13q19 0 46 12l8 -28q-35 -18 -69 -18q-38 0 -62.5 21.5t-24.5 55.5q0 23 13 50t43 60v82h-2q-14 -26 -32 -44.5
t-38.5 -29.5t-41 -16t-38.5 -5q-82 0 -123 46t-41 148v306z" />
    <glyph glyph-name="Wcircumflex" unicode="&#x174;" horiz-adv-x="727" 
d="M507 0l-91 362q-1 6 -5 21.5t-9 35.5t-11 43t-11 43t-9.5 35t-5.5 21h-1q-13 -50 -25.5 -98.5t-24.5 -99.5q-24 -91 -47 -181.5t-46 -181.5h-61l-138 651h50q20 -94 38.5 -186t37.5 -185l43 -207h1l54 207l95 371h48q24 -94 48.5 -186.5t47.5 -186.5l51 -205h1l44 205
l78 373h48q-35 -164 -69.5 -325.5t-69.5 -325.5h-61zM364 766l-122 -72l-18 15l115 98h53l114 -100l-18 -15z" />
    <glyph glyph-name="wcircumflex" unicode="&#x175;" horiz-adv-x="605" 
d="M407 0q-4 15 -13 48.5t-20 75.5t-23 88t-22.5 87t-18.5 71.5t-11 41.5h-1q-9 -35 -19 -70.5t-20 -71.5l-73 -270h-43l-126 488h47l63 -257q10 -41 19 -81.5t19 -80.5h2q3 13 11.5 44.5t19 72.5t23 87t23.5 88.5t20 76t14 50.5h44q17 -66 34 -130.5t34 -130.5
q9 -40 19 -79.5t20 -78.5h1q11 39 20 78t20 80q17 66 33.5 130.5t33.5 130.5h47l-132 -488h-45zM304 654l-122 -89l-18 15l115 115h53l114 -117l-17 -15z" />
    <glyph glyph-name="Ycircumflex" unicode="&#x176;" horiz-adv-x="530" 
d="M289 234v-234h-49v234l-229 417h55l198 -370l200 370h54zM274 766l-122 -72l-18 15l115 98h53l114 -100l-18 -15z" />
    <glyph glyph-name="ycircumflex" unicode="&#x177;" horiz-adv-x="445" 
d="M136 -183l64 177q-46 124 -91 246.5t-90 247.5h48l96 -268q14 -42 28.5 -83.5t29.5 -83.5h1l59 167l97 268h47q-61 -167 -122.5 -336t-122.5 -335h-44zM227 654l-122 -89l-18 15l115 115h53l114 -117l-17 -15z" />
    <glyph glyph-name="Zacute" unicode="&#x179;" horiz-adv-x="531" 
d="M504 604l-413 -558h410v-46h-469v45l414 560h-395v46h453v-47zM254 695l-16 22l128 85l43 -43z" />
    <glyph glyph-name="zacute" unicode="&#x17a;" horiz-adv-x="432" 
d="M37 39q75 103 148.5 204t148.5 204v2h-276v39h331v-38l-296 -409v-1h296v-40h-352v39zM224 566l-26 9l64 149l60 -12z" />
    <glyph glyph-name="Zdotaccent" unicode="&#x17b;" horiz-adv-x="531" 
d="M504 604l-413 -558h410v-46h-469v45l414 560h-395v46h453v-47zM314 753q0 -14 -10 -23.5t-23 -9.5q-14 0 -23.5 9.5t-9.5 23.5t9.5 24t23.5 10q13 0 23 -10t10 -24z" />
    <glyph glyph-name="zdotaccent" unicode="&#x17c;" horiz-adv-x="432" 
d="M37 39q75 103 148.5 204t148.5 204v2h-276v39h331v-38l-296 -409v-1h296v-40h-352v39zM267 632q0 -14 -10 -23.5t-23 -9.5q-14 0 -23.5 9.5t-9.5 23.5t9.5 24t23.5 10q13 0 23 -10t10 -24z" />
    <glyph glyph-name="AEacute" unicode="&#x1fc;" horiz-adv-x="904" 
d="M471 197h-268l-131 -197h-56l431 651h420v-46h-347v-233h249v-46h-249v-280h361v-46h-410v197zM231 243h239v359zM567 695l-16 22l128 85l43 -43z" />
    <glyph glyph-name="aeacute" unicode="&#x1fd;" horiz-adv-x="798" 
d="M564 494q46 0 82.5 -18t61.5 -50t38.5 -76.5t13.5 -97.5v-27h-348q1 -49 13.5 -85.5t34 -61t49.5 -36.5t60 -12t63 13t57 36l28 -30q-38 -33 -73.5 -46t-80.5 -13q-48 0 -90.5 22.5t-70.5 73.5q-33 -33 -61.5 -52.5t-53 -29t-46.5 -12t-43 -2.5q-29 0 -57 8.5t-50.5 26.5
t-36.5 46.5t-14 69.5q0 33 12 61t35.5 48.5t57 32t75.5 11.5q33 0 69 -7.5t78 -26.5v29t1 32q3 65 -32 100t-98 35q-36 0 -65.5 -8t-58.5 -22l-16 39q34 15 67 23.5t78 8.5q68 0 107.5 -31t51.5 -83q23 52 67 81.5t95 29.5zM386 121q-8 20 -13 46.5t-6 54.5q-35 16 -71 26
t-77 10q-28 0 -52.5 -7.5t-43 -22t-29.5 -36t-11 -49.5q0 -56 34.5 -86.5t94.5 -30.5q46 0 92 25t82 70zM715 261q0 39 -9 74t-28 61.5t-48 42t-69 15.5q-30 0 -56 -14t-46 -39.5t-32.5 -61t-14.5 -78.5h303zM433 564l-26 9l64 149l60 -12z" />
    <glyph glyph-name="Oslashacute" unicode="&#x1fe;" horiz-adv-x="619" 
d="M573 325q0 -77 -18.5 -138.5t-53 -105.5t-83.5 -67.5t-109 -23.5q-57 0 -102 19.5t-78 56.5l-58 -76l-24 18l62 82q-63 89 -63 235q0 75 18 136.5t52 105.5t82.5 68.5t110.5 24.5q54 0 99 -19.5t79 -55.5l63 82l25 -20l-67 -88q31 -44 48 -103t17 -131zM522 325
q0 57 -11 106.5t-34 88.5l-318 -414q26 -34 63.5 -53t86.5 -19q55 0 95 23.5t66 63.5t39 93t13 111zM96 325q0 -55 11.5 -104.5t34.5 -88.5l316 415q-26 33 -63 51.5t-86 18.5q-53 0 -93 -22t-66.5 -61t-40 -92.5t-13.5 -116.5zM290 695l-16 22l128 85l43 -43z" />
    <glyph glyph-name="oslashacute" unicode="&#x1ff;" horiz-adv-x="497" 
d="M453 247q0 -62 -16 -109.5t-43.5 -80.5t-65.5 -50t-83 -17q-78 0 -132 54l-44 -57l-24 16l49 64q-24 32 -37 76.5t-13 100.5q0 63 15.5 110t42.5 78.5t64.5 47.5t81.5 16q78 0 133 -52l43 57l25 -19l-47 -61q24 -32 37.5 -75.5t13.5 -98.5zM407 244q0 41 -8 76.5
t-25 63.5l-234 -304q20 -23 47.5 -36t62.5 -13q39 0 68 17.5t49 46.5t30 68t10 81zM91 247q0 -86 32 -142l232 305q-20 22 -47.5 34t-62.5 12q-38 0 -67 -17t-48.5 -45.5t-29 -66.5t-9.5 -80zM251 564l-26 9l64 149l60 -12z" />
    <glyph glyph-name="Alphatonos" unicode="&#x386;" horiz-adv-x="592" 
d="M128 162q-15 -41 -31 -81t-31 -81h-53l257 651h54l257 -651h-52q-16 41 -32 81t-31 81h-338zM448 208l-110 281q-11 26 -20.5 51.5t-20.5 53.5h-3l-71 -186l-78 -200h303zM59 514l-26 9l64 149l60 -12z" />
    <glyph glyph-name="Epsilontonos" unicode="&#x388;" horiz-adv-x="492" 
d="M66 0v651h396v-46h-346v-233h248v-46h-248v-280h360v-46h-410zM-80 513l-26 9l64 149l60 -12z" />
    <glyph glyph-name="Etatonos" unicode="&#x389;" horiz-adv-x="605" 
d="M489 0v318h-374v-318h-49v651h49v-287h374v287h49v-651h-49zM-82 515l-26 9l64 149l60 -12z" />
    <glyph glyph-name="Iotatonos" unicode="&#x38a;" horiz-adv-x="221" 
d="M87 0v651h50v-651h-50zM-71 515l-26 9l64 149l60 -12z" />
    <glyph glyph-name="Omicrontonos" unicode="&#x38c;" horiz-adv-x="619" 
d="M573 325q0 -77 -18.5 -138.5t-53 -105.5t-83.5 -67.5t-109 -23.5q-62 0 -110.5 24t-82.5 68t-52 105.5t-18 137.5q0 75 18 136.5t52 105.5t82.5 68.5t110.5 24.5q60 0 109 -24t83.5 -67.5t53 -105.5t18.5 -138zM522 325q0 61 -13 114.5t-39.5 93t-66.5 62t-94 22.5
q-53 0 -93 -22t-66.5 -61t-40 -92.5t-13.5 -116.5q0 -58 13 -111t39.5 -93t66.5 -63.5t94 -23.5q55 0 95 23.5t66 63.5t39 93t13 111zM-26 515l-26 9l64 149l60 -12z" />
    <glyph glyph-name="Upsilontonos" unicode="&#x38e;" horiz-adv-x="535" 
d="M289 234v-234h-49v234l-229 417h55l198 -370l200 370h54zM-112 514l-26 9l64 149l60 -12z" />
    <glyph glyph-name="Omegatonos" unicode="&#x38f;" horiz-adv-x="639" 
d="M373 0v59q44 13 74 40t49 63.5t27 81.5t8 95q0 58 -14 108.5t-41 88t-66.5 59.5t-91.5 22q-55 0 -95.5 -22.5t-67.5 -60.5t-40 -88.5t-13 -105.5q0 -47 7.5 -92t26.5 -83t49.5 -66t77.5 -40v-59h-215v44h150q-46 18 -74.5 51.5t-44 75t-21 85.5t-5.5 83q0 73 19 132.5
t53.5 101.5t83.5 65t109 23q58 0 106.5 -22.5t83.5 -64.5t54.5 -101.5t19.5 -132.5q0 -39 -5.5 -82.5t-21.5 -84t-44 -74.5t-74 -55h153v-44h-217zM-31 514l-26 9l64 149l60 -12z" />
    <glyph glyph-name="iotadieresistonos" unicode="&#x390;" horiz-adv-x="212" 
d="M246 632q0 -13 -9.5 -22.5t-22.5 -9.5t-22.5 9.5t-9.5 22.5q0 14 9.5 23.5t22.5 9.5t22.5 -9.5t9.5 -23.5zM36 632q0 -13 -10 -22.5t-23 -9.5t-23 9.5t-10 22.5q0 14 10 23.5t23 9.5t23 -9.5t10 -23.5zM79 565l-25 10l57 143l60 -12zM82 0v488h47v-488h-47z" />
    <glyph glyph-name="Alpha" unicode="&#x391;" horiz-adv-x="592" 
d="M128 162q-15 -41 -31 -81t-31 -81h-53l257 651h54l257 -651h-52q-16 41 -32 81t-31 81h-338zM448 208l-110 281q-11 26 -20.5 51.5t-20.5 53.5h-3l-71 -186l-78 -200h303z" />
    <glyph glyph-name="Beta" unicode="&#x392;" horiz-adv-x="577" 
d="M526 189q0 -93 -53.5 -141t-154.5 -48h-251v651h256q80 0 126.5 -41t46.5 -117q0 -21 -6.5 -42.5t-19 -40.5t-32 -34.5t-46.5 -22.5v-2q62 -11 98 -56.5t36 -105.5zM115 606v-234h202q31 0 55 9.5t41 25.5t26 37.5t9 45.5q0 52 -30 84t-93 32h-210zM115 328v-283h208
q77 0 115.5 38t38.5 104q0 33 -12.5 59.5t-34 44.5t-50.5 27.5t-62 9.5h-203z" />
    <glyph glyph-name="Epsilon" unicode="&#x395;" horiz-adv-x="492" 
d="M66 0v651h396v-46h-346v-233h248v-46h-248v-280h360v-46h-410z" />
    <glyph glyph-name="Zeta" unicode="&#x396;" horiz-adv-x="531" 
d="M504 604l-413 -558h410v-46h-469v45l414 560h-395v46h453v-47z" />
    <glyph glyph-name="Eta" unicode="&#x397;" horiz-adv-x="605" 
d="M489 0v318h-374v-318h-49v651h49v-287h374v287h49v-651h-49z" />
    <glyph glyph-name="Iota" unicode="&#x399;" horiz-adv-x="224" 
d="M87 0v651h50v-651h-50z" />
    <glyph glyph-name="Kappa" unicode="&#x39a;" horiz-adv-x="563" 
d="M477 0q-51 96 -101.5 191.5t-101.5 192.5q-41 -52 -80 -104t-80 -104v-176h-49v651h49v-405h1l99 132l208 273h57l-173 -225q57 -107 113 -213t113 -213h-55v0z" />
    <glyph glyph-name="Mu" unicode="&#x39c;" horiz-adv-x="694" 
d="M577 543h-1l-79 -186q-24 -56 -48.5 -112t-45.5 -103.5t-36.5 -82.5t-21.5 -47q-27 57 -53 118q-23 51 -49.5 112.5t-49.5 118.5q-12 28 -24.5 58t-23 56t-18 45t-9.5 25h-1v-545h-48v651h52q30 -71 68 -156.5t73 -169.5l83 -198h4l83 198q35 81 71.5 164.5t69.5 161.5
h51v-651h-47v543z" />
    <glyph glyph-name="Nu" unicode="&#x39d;" horiz-adv-x="590" 
d="M478 0q-9 14 -28.5 44.5t-45.5 70.5t-56.5 87t-61 95t-60 93.5t-53 82.5t-39.5 62t-21 33h-1v-568h-49v651h52l242 -372q30 -48 60.5 -96.5t59.5 -92.5h1v561h49v-651h-49v0z" />
    <glyph glyph-name="Omicron" unicode="&#x39f;" horiz-adv-x="619" 
d="M573 325q0 -77 -18.5 -138.5t-53 -105.5t-83.5 -67.5t-109 -23.5q-62 0 -110.5 24t-82.5 68t-52 105.5t-18 137.5q0 75 18 136.5t52 105.5t82.5 68.5t110.5 24.5q60 0 109 -24t83.5 -67.5t53 -105.5t18.5 -138zM522 325q0 61 -13 114.5t-39.5 93t-66.5 62t-94 22.5
q-53 0 -93 -22t-66.5 -61t-40 -92.5t-13.5 -116.5q0 -58 13 -111t39.5 -93t66.5 -63.5t94 -23.5q55 0 95 23.5t66 63.5t39 93t13 111z" />
    <glyph glyph-name="Rho" unicode="&#x3a1;" horiz-adv-x="537" 
d="M525 459q0 -49 -15 -85.5t-42 -61t-65 -37t-84 -12.5h-203v-263h-49v651h259q43 0 80 -12t63 -36t41 -60t15 -84zM116 606v-297h210q72 0 110 40t38 109q0 72 -41 110t-107 38h-210z" />
    <glyph glyph-name="Tau" unicode="&#x3a4;" horiz-adv-x="478" 
d="M265 605v-605h-49v605h-202v46h454v-46h-203z" />
    <glyph glyph-name="Upsilon" unicode="&#x3a5;" horiz-adv-x="530" 
d="M289 234v-234h-49v234l-229 417h55l198 -370l200 370h54z" />
    <glyph glyph-name="Chi" unicode="&#x3a7;" horiz-adv-x="514" 
d="M426 0l-170 292l-170 -292h-56l201 335l-187 316h58l155 -271l158 271h55l-186 -314l200 -337h-58z" />
    <glyph glyph-name="Iotadieresis" unicode="&#x3aa;" horiz-adv-x="224" 
d="M87 0v651h50v-651h-50zM240 754q0 -13 -9.5 -22.5t-22.5 -9.5t-23 9.5t-10 22.5q0 14 9.5 23.5t23.5 9.5q13 0 22.5 -9.5t9.5 -23.5zM54 754q0 -13 -10 -22.5t-22 -9.5q-14 0 -23.5 9.5t-9.5 22.5q0 14 9.5 23.5t23.5 9.5q12 0 22 -9.5t10 -23.5z" />
    <glyph glyph-name="Upsilondieresis" unicode="&#x3ab;" horiz-adv-x="530" 
d="M289 234v-234h-49v234l-229 417h55l198 -370l200 370h54zM401 752q0 -13 -9.5 -22.5t-22.5 -9.5t-23 9.5t-10 22.5q0 14 9.5 23.5t23.5 9.5q13 0 22.5 -9.5t9.5 -23.5zM215 752q0 -13 -10 -22.5t-22 -9.5q-14 0 -23.5 9.5t-9.5 22.5q0 14 9.5 23.5t23.5 9.5q12 0 22 -9.5
t10 -23.5z" />
    <glyph glyph-name="alphatonos" unicode="&#x3ac;" horiz-adv-x="488" 
d="M229 496q16 0 34 -1.5t37.5 -8t40 -19t40.5 -33.5h1v54h45v-488h-36q-2 14 -4 29l-4 30h-1q-34 -32 -74.5 -50t-85.5 -18q-46 0 -79.5 20t-55.5 54.5t-33 81.5t-11 101q0 64 16.5 110.5t43.5 77t60 45.5t66 15zM233 30q21 0 42.5 7t41.5 18t36.5 25t27.5 29v271
q-23 31 -61 54t-83 23q-31 0 -58 -15.5t-47 -43t-31.5 -65t-11.5 -81.5q0 -48 8.5 -89t26 -70.5t44.5 -46t65 -16.5zM262 564l-26 9l64 149l60 -12z" />
    <glyph glyph-name="epsilontonos" unicode="&#x3ad;" horiz-adv-x="415" 
d="M227 -10q-32 0 -64.5 7.5t-58 24t-41.5 43.5t-16 67q0 36 25 71t73 48v1q-26 7 -43.5 19.5t-28 28t-15 32t-4.5 31.5q0 29 14.5 53.5t38.5 42.5t56 28t68 10q44 0 82.5 -12.5t72.5 -41.5l-29 -32q-25 21 -56.5 33.5t-66.5 12.5q-34 0 -58.5 -9.5t-41 -23t-24.5 -30
t-8 -29.5q0 -23 9 -40t24 -28.5t35 -17t42 -5.5h62v-37h-47q-21 0 -44.5 -6t-43.5 -18.5t-33 -31.5t-13 -45q0 -48 36 -77t99 -29q26 0 64.5 9.5t74.5 41.5l28 -32q-42 -35 -85 -47t-83 -12zM224 564l-26 9l64 149l60 -12z" />
    <glyph glyph-name="etatonos" unicode="&#x3ae;" horiz-adv-x="464" 
d="M419 0h-47v293q0 85 -32.5 123.5t-98.5 38.5q-26 0 -48 -9.5t-40 -26t-30.5 -38t-18.5 -45.5q-6 -21 -6 -46v-290h-46v489h46v-87l2 -1q14 26 32.5 44t39 29.5t41.5 16.5t39 5q83 0 125 -47.5t42 -148.5v-300zM216 564l-26 9l64 149l60 -12z" />
    <glyph glyph-name="iotatonos" unicode="&#x3af;" horiz-adv-x="212" 
d="M82 0v488h47v-488h-47zM111 564l-26 9l64 149l60 -12z" />
    <glyph glyph-name="upsilondieresistonos" unicode="&#x3b0;" horiz-adv-x="466" 
d="M420 208q0 -116 -47.5 -167t-137.5 -51t-139 51.5t-49 166.5v281h48v-277q0 -88 31.5 -135t106.5 -47q40 0 67 12t43.5 35.5t23 57t6.5 77.5v277h47v-281zM378 634q0 -13 -10 -22.5t-22 -9.5q-13 0 -23 9.5t-10 22.5q0 14 9.5 23.5t23.5 9.5q12 0 22 -9.5t10 -23.5z
M167 634q0 -13 -10 -22.5t-22 -9.5q-14 0 -23.5 9.5t-9.5 22.5q0 14 9.5 23.5t23.5 9.5q12 0 22 -9.5t10 -23.5zM211 567l-26 10l57 143l60 -12z" />
    <glyph glyph-name="omicron" unicode="&#x3bf;" horiz-adv-x="497" 
d="M453 247q0 -62 -16 -109.5t-43.5 -80.5t-65.5 -50t-83 -17q-43 0 -79.5 17t-63.5 50t-42.5 80t-15.5 107q0 63 15.5 110t42.5 78.5t64.5 47.5t81.5 16t81.5 -16.5t65 -48.5t43 -78.5t15.5 -105.5zM407 244q0 44 -10 83t-30 67.5t-50.5 45t-71.5 16.5q-38 0 -67 -17
t-48.5 -45.5t-29 -66.5t-9.5 -80q0 -48 10.5 -88t31 -68.5t50 -44t67.5 -15.5q39 0 68 17.5t49 46.5t30 68t10 81z" />
    <glyph glyph-name="chi" unicode="&#x3c7;" horiz-adv-x="398" 
d="M318 0l-120 212l-123 -212h-51l149 251l-138 237h51l113 -195l113 195h51l-139 -234l149 -254h-55z" />
    <glyph glyph-name="iotadieresis" unicode="&#x3ca;" horiz-adv-x="212" 
d="M82 0v488h47v-488h-47zM230 632q0 -13 -9.5 -22.5t-22.5 -9.5t-23 9.5t-10 22.5q0 14 9.5 23.5t23.5 9.5q13 0 22.5 -9.5t9.5 -23.5zM44 632q0 -13 -10 -22.5t-22 -9.5q-14 0 -23.5 9.5t-9.5 22.5q0 14 9.5 23.5t23.5 9.5q12 0 22 -9.5t10 -23.5z" />
    <glyph glyph-name="upsilondieresis" unicode="&#x3cb;" horiz-adv-x="466" 
d="M420 208q0 -116 -47.5 -167t-137.5 -51t-139 51.5t-49 166.5v281h48v-277q0 -88 31.5 -135t106.5 -47q40 0 67 12t43.5 35.5t23 57t6.5 77.5v277h47v-281zM363 632q0 -13 -9.5 -22.5t-22.5 -9.5t-23 9.5t-10 22.5q0 14 9.5 23.5t23.5 9.5q13 0 22.5 -9.5t9.5 -23.5z
M177 632q0 -13 -10 -22.5t-22 -9.5q-14 0 -23.5 9.5t-9.5 22.5q0 14 9.5 23.5t23.5 9.5q12 0 22 -9.5t10 -23.5z" />
    <glyph glyph-name="omicrontonos" unicode="&#x3cc;" horiz-adv-x="497" 
d="M453 247q0 -62 -16 -109.5t-43.5 -80.5t-65.5 -50t-83 -17q-43 0 -79.5 17t-63.5 50t-42.5 80t-15.5 107q0 63 15.5 110t42.5 78.5t64.5 47.5t81.5 16t81.5 -16.5t65 -48.5t43 -78.5t15.5 -105.5zM407 244q0 44 -10 83t-30 67.5t-50.5 45t-71.5 16.5q-38 0 -67 -17
t-48.5 -45.5t-29 -66.5t-9.5 -80q0 -48 10.5 -88t31 -68.5t50 -44t67.5 -15.5q39 0 68 17.5t49 46.5t30 68t10 81zM248 564l-26 9l64 149l60 -12z" />
    <glyph glyph-name="upsilontonos" unicode="&#x3cd;" horiz-adv-x="466" 
d="M420 208q0 -116 -47.5 -167t-137.5 -51t-139 51.5t-49 166.5v281h48v-277q0 -88 31.5 -135t106.5 -47q40 0 67 12t43.5 35.5t23 57t6.5 77.5v277h47v-281zM236 564l-26 9l64 149l60 -12z" />
    <glyph glyph-name="omegatonos" unicode="&#x3ce;" horiz-adv-x="723" 
d="M494 -9q-39 0 -76 17.5t-57 65.5q-25 -48 -60 -65.5t-74 -17.5t-72.5 15.5t-58 46.5t-38 78.5t-13.5 111.5q0 43 11.5 83t32 73.5t48.5 57t60 33.5l16 -38q-29 -11 -51 -32t-38 -49t-24 -61t-8 -67q0 -47 9 -86t26 -67t43 -44t61 -16q28 0 48.5 11.5t34 30.5t20.5 42
t7 46v137h43v-137q0 -24 6 -47.5t19 -42t33 -29.5t49 -11q36 0 62 15.5t43 43t25.5 66.5t8.5 86q0 35 -8.5 67.5t-24 60t-37.5 48.5t-49 33l16 38q34 -11 62 -35.5t47.5 -57.5t30 -72.5t10.5 -81.5q0 -63 -14 -110t-38.5 -78t-58 -46.5t-72.5 -15.5zM357 564l-26 9l64 149
l60 -12z" />
    <glyph glyph-name="afii10023" unicode="&#x401;" horiz-adv-x="492" 
d="M66 0v651h396v-46h-346v-233h248v-46h-248v-280h360v-46h-410zM396 750q0 -13 -9.5 -22.5t-22.5 -9.5t-23 9.5t-10 22.5q0 14 9.5 23.5t23.5 9.5q13 0 22.5 -9.5t9.5 -23.5zM210 750q0 -13 -10 -22.5t-22 -9.5q-14 0 -23.5 9.5t-9.5 22.5q0 14 9.5 23.5t23.5 9.5
q12 0 22 -9.5t10 -23.5z" />
    <glyph glyph-name="afii10052" unicode="&#x403;" horiz-adv-x="468" 
d="M116 605v-605h-50v651h398v-46h-348zM224 695l-16 22l128 85l43 -43z" />
    <glyph glyph-name="afii10054" unicode="&#x405;" horiz-adv-x="513" 
d="M253 -10q-62 0 -114 21t-92 58l33 36q38 -34 83 -52.5t95 -18.5q37 0 69 7t56 22.5t37.5 40.5t13.5 61q0 37 -16.5 61t-42.5 40.5t-57.5 27l-61.5 20.5q-41 14 -76.5 28.5t-61 34t-40 47.5t-14.5 69q0 37 15 68t41.5 53.5t64 34.5t82.5 12q53 0 101 -15.5t89 -46.5
q-9 -10 -16 -19t-15 -18q-38 27 -76.5 40t-89.5 13q-69 0 -107 -34t-38 -86q0 -26 10.5 -45t27 -33t38 -24t44.5 -18q38 -14 82 -27.5t81.5 -35.5t62 -56.5t24.5 -89.5q0 -39 -14 -71t-42.5 -55.5t-72.5 -36.5t-103 -13z" />
    <glyph glyph-name="afii10055" unicode="&#x406;" horiz-adv-x="224" 
d="M87 0v651h50v-651h-50z" />
    <glyph glyph-name="afii10056" unicode="&#x407;" horiz-adv-x="224" 
d="M87 0v651h50v-651h-50zM239 750q0 -13 -9.5 -22.5t-22.5 -9.5t-23 9.5t-10 22.5q0 14 9.5 23.5t23.5 9.5q13 0 22.5 -9.5t9.5 -23.5zM53 750q0 -13 -10 -22.5t-22 -9.5q-14 0 -23.5 9.5t-9.5 22.5q0 14 9.5 23.5t23.5 9.5q12 0 22 -9.5t10 -23.5z" />
    <glyph glyph-name="afii10057" unicode="&#x408;" horiz-adv-x="516" 
d="M451 251q0 -135 -54.5 -198t-166.5 -63q-82 0 -131 35.5t-75 102.5l47 18q23 -53 60 -81.5t102 -28.5q48 0 80 16t51.5 45.5t28 72t8.5 95.5v386h50v-400z" />
    <glyph glyph-name="afii10017" unicode="&#x410;" horiz-adv-x="592" 
d="M128 162q-15 -41 -31 -81t-31 -81h-53l257 651h54l257 -651h-52q-16 41 -32 81t-31 81h-338zM448 208l-110 281q-11 26 -20.5 51.5t-20.5 53.5h-3l-71 -186l-78 -200h303z" />
    <glyph glyph-name="afii10019" unicode="&#x412;" horiz-adv-x="577" 
d="M526 189q0 -93 -53.5 -141t-154.5 -48h-251v651h256q80 0 126.5 -41t46.5 -117q0 -21 -6.5 -42.5t-19 -40.5t-32 -34.5t-46.5 -22.5v-2q62 -11 98 -56.5t36 -105.5zM115 606v-234h202q31 0 55 9.5t41 25.5t26 37.5t9 45.5q0 52 -30 84t-93 32h-210zM115 328v-283h208
q77 0 115.5 38t38.5 104q0 33 -12.5 59.5t-34 44.5t-50.5 27.5t-62 9.5h-203z" />
    <glyph glyph-name="afii10020" unicode="&#x413;" horiz-adv-x="468" 
d="M116 605v-605h-50v651h398v-46h-348z" />
    <glyph glyph-name="afii10022" unicode="&#x415;" horiz-adv-x="492" 
d="M66 0v651h396v-46h-346v-233h248v-46h-248v-280h360v-46h-410z" />
    <glyph glyph-name="afii10028" unicode="&#x41a;" horiz-adv-x="476" 
d="M460 0h-62l-281 316l-3 -1v-315h-49v651h49v-301l3 -1l289 302h56l-302 -317z" />
    <glyph glyph-name="afii10030" unicode="&#x41c;" horiz-adv-x="694" 
d="M577 543h-1l-79 -186q-24 -56 -48.5 -112t-45.5 -103.5t-36.5 -82.5t-21.5 -47q-27 57 -53 118q-23 51 -49.5 112.5t-49.5 118.5q-12 28 -24.5 58t-23 56t-18 45t-9.5 25h-1v-545h-48v651h52q30 -71 68 -156.5t73 -169.5l83 -198h4l83 198q35 81 71.5 164.5t69.5 161.5
h51v-651h-47v543z" />
    <glyph glyph-name="afii10031" unicode="&#x41d;" horiz-adv-x="605" 
d="M489 0v318h-374v-318h-49v651h49v-287h374v287h49v-651h-49z" />
    <glyph glyph-name="afii10032" unicode="&#x41e;" horiz-adv-x="619" 
d="M573 325q0 -77 -18.5 -138.5t-53 -105.5t-83.5 -67.5t-109 -23.5q-62 0 -110.5 24t-82.5 68t-52 105.5t-18 137.5q0 75 18 136.5t52 105.5t82.5 68.5t110.5 24.5q60 0 109 -24t83.5 -67.5t53 -105.5t18.5 -138zM522 325q0 61 -13 114.5t-39.5 93t-66.5 62t-94 22.5
q-53 0 -93 -22t-66.5 -61t-40 -92.5t-13.5 -116.5q0 -58 13 -111t39.5 -93t66.5 -63.5t94 -23.5q55 0 95 23.5t66 63.5t39 93t13 111z" />
    <glyph glyph-name="afii10033" unicode="&#x41f;" horiz-adv-x="603" 
d="M488 0v605h-372v-605h-50v651h472v-651h-50z" />
    <glyph glyph-name="afii10034" unicode="&#x420;" horiz-adv-x="537" 
d="M525 459q0 -49 -15 -85.5t-42 -61t-65 -37t-84 -12.5h-203v-263h-49v651h259q43 0 80 -12t63 -36t41 -60t15 -84zM116 606v-297h210q72 0 110 40t38 109q0 72 -41 110t-107 38h-210z" />
    <glyph glyph-name="afii10035" unicode="&#x421;" horiz-adv-x="537" 
d="M312 661q64 0 110.5 -19.5t81.5 -59.5l-35 -35q-32 36 -69.5 52.5t-87.5 16.5q-52 0 -92 -22.5t-67.5 -61.5t-41.5 -92t-14 -114t13.5 -114t40.5 -92t67.5 -61.5t94.5 -22.5q95 0 159 73l36 -32q-35 -42 -83.5 -64.5t-112.5 -22.5q-60 0 -109.5 23t-84 66.5t-53.5 105.5
t-19 140q0 76 19.5 138.5t54.5 106t84 67.5t108 24z" />
    <glyph glyph-name="afii10036" unicode="&#x422;" horiz-adv-x="478" 
d="M265 605v-605h-49v605h-202v46h454v-46h-203z" />
    <glyph glyph-name="afii10038" unicode="&#x424;" horiz-adv-x="690" 
d="M644 329q0 -58 -18.5 -108t-54 -88.5t-86.5 -61.5t-117 -27v-44h-47v44q-65 5 -115.5 29t-85 61.5t-53 87.5t-18.5 107q0 54 17.5 103.5t52 87.5t85 63t117.5 30v38h47v-38q69 -5 120.5 -29.5t86 -62.5t52 -87.5t17.5 -104.5zM595 329q0 45 -13.5 87t-41.5 75.5t-71 55
t-101 26.5v-489q58 5 101 27t71 55t41.5 75.5t13.5 87.5zM321 572q-54 -5 -96 -26t-70.5 -53.5t-43 -74.5t-14.5 -89q0 -45 13.5 -86.5t41 -74.5t69.5 -55t100 -28v487z" />
    <glyph glyph-name="afii10039" unicode="&#x425;" horiz-adv-x="514" 
d="M426 0l-170 292l-170 -292h-56l201 335l-187 316h58l155 -271l158 271h55l-186 -314l200 -337h-58z" />
    <glyph glyph-name="afii10065" unicode="&#x430;" horiz-adv-x="461" 
d="M361 57h-1q-24 -23 -46.5 -36t-43.5 -19.5t-40 -8.5t-37 -2q-29 0 -57 8t-50.5 26t-36.5 46t-14 69q0 33 12 61.5t35 49.5t56.5 32.5t75.5 11.5q32 0 69 -7.5t78 -31.5v78q0 66 -33 93.5t-96 27.5q-35 0 -67.5 -8.5t-61.5 -22.5l-16 39q34 15 70 24t81 9q81 0 125 -38
t44 -114v-344h-46v57zM361 216q-36 20 -69.5 31t-79.5 11q-28 0 -52 -7.5t-42 -22.5t-28 -36.5t-10 -49.5q0 -56 33.5 -85t93.5 -29q49 2 86.5 23.5t67.5 52.5v112z" />
    <glyph glyph-name="afii10070" unicode="&#x435;" horiz-adv-x="473" 
d="M242 496q46 0 82.5 -17.5t62 -49.5t38.5 -77t13 -99v-27h-348q1 -49 14.5 -85.5t35 -61t49.5 -37t60 -12.5t63 13t57 36l27 -30q-65 -59 -153 -59q-39 0 -74.5 15t-63.5 46.5t-44.5 78.5t-16.5 112q0 59 15 106t42 80t63 50.5t78 17.5zM393 263q0 39 -9 74t-27.5 61.5
t-47.5 42t-69 15.5q-31 0 -57.5 -14t-46 -39.5t-32 -61t-14.5 -78.5h303z" />
    <glyph glyph-name="afii10076" unicode="&#x43a;" horiz-adv-x="388" 
d="M376 487l-232 -226l233 -261h-59l-221 249v-249h-46v487h46v-216l223 216h56z" />
    <glyph glyph-name="afii10080" unicode="&#x43e;" horiz-adv-x="497" 
d="M453 247q0 -62 -16 -109.5t-43.5 -80.5t-65.5 -50t-83 -17q-43 0 -79.5 17t-63.5 50t-42.5 80t-15.5 107q0 63 15.5 110t42.5 78.5t64.5 47.5t81.5 16t81.5 -16.5t65 -48.5t43 -78.5t15.5 -105.5zM407 244q0 44 -10 83t-30 67.5t-50.5 45t-71.5 16.5q-38 0 -67 -17
t-48.5 -45.5t-29 -66.5t-9.5 -80q0 -48 10.5 -88t31 -68.5t50 -44t67.5 -15.5q39 0 68 17.5t49 46.5t30 68t10 81z" />
    <glyph glyph-name="afii10082" unicode="&#x440;" horiz-adv-x="483" 
d="M101 489v-56h1q38 39 78.5 51t72.5 12q34 0 67.5 -14.5t59.5 -44.5t42 -77t16 -111q0 -71 -18 -120t-46.5 -80t-64 -44.5t-71.5 -13.5q-30 0 -64 11t-73 49h-1v-216l-46 -21v675h47zM100 106q23 -30 59.5 -52.5t74.5 -22.5q76 0 117.5 58.5t41.5 161.5q0 45 -11 83
t-30.5 65t-46.5 42.5t-59 15.5q-46 0 -84.5 -22t-61.5 -53v-276z" />
    <glyph glyph-name="afii10083" unicode="&#x441;" horiz-adv-x="420" 
d="M242 496q45 0 80.5 -13.5t67.5 -44.5l-31 -32q-29 27 -58.5 38t-61.5 11q-35 0 -62 -17t-46 -45.5t-29 -67.5t-10 -82q0 -45 10 -83.5t29.5 -67t47.5 -44.5t64 -16q35 0 61.5 12t55.5 38l30 -29q-27 -29 -62 -46t-88 -17q-39 0 -74.5 16t-62.5 48t-42.5 79t-15.5 110
t15.5 110t42.5 79t63 48t76 16z" />
    <glyph glyph-name="afii10085" unicode="&#x443;" horiz-adv-x="445" 
d="M136 -183l64 177q-46 124 -91 246.5t-90 247.5h48l96 -268q14 -42 28.5 -83.5t29.5 -83.5h1l59 167l97 268h47q-61 -167 -122.5 -336t-122.5 -335h-44z" />
    <glyph glyph-name="afii10087" unicode="&#x445;" horiz-adv-x="398" 
d="M318 0l-120 212l-123 -212h-51l149 251l-138 237h51l113 -195l113 195h51l-139 -234l149 -254h-55z" />
    <glyph glyph-name="afii10071" unicode="&#x451;" horiz-adv-x="473" 
d="M242 496q46 0 82.5 -17.5t62 -49.5t38.5 -77t13 -99v-27h-348q1 -49 14.5 -85.5t35 -61t49.5 -37t60 -12.5t63 13t57 36l27 -30q-65 -59 -153 -59q-39 0 -74.5 15t-63.5 46.5t-44.5 78.5t-16.5 112q0 59 15 106t42 80t63 50.5t78 17.5zM393 263q0 39 -9 74t-27.5 61.5
t-47.5 42t-69 15.5q-31 0 -57.5 -14t-46 -39.5t-32 -61t-14.5 -78.5h303zM371 628q0 -13 -9.5 -22.5t-22.5 -9.5t-23 9.5t-10 22.5q0 14 9.5 23.5t23.5 9.5q13 0 22.5 -9.5t9.5 -23.5zM185 628q0 -13 -10 -22.5t-22 -9.5q-14 0 -23.5 9.5t-9.5 22.5q0 14 9.5 23.5t23.5 9.5
q12 0 22 -9.5t10 -23.5z" />
    <glyph glyph-name="afii10102" unicode="&#x455;" horiz-adv-x="419" 
d="M382 123q0 -33 -14 -58t-38.5 -41.5t-57.5 -25t-70 -8.5q-42 0 -85 10t-81 30l19 38q38 -20 76.5 -29t72.5 -9q23 0 46.5 5t42.5 16t31 28t12 41t-10.5 41.5t-29 30t-44 22.5t-55.5 19q-34 10 -62 22.5t-48 29t-31 37.5t-11 48q0 55 45 90t125 35q36 0 73.5 -7t70.5 -24
l-16 -39q-35 17 -69.5 23.5t-59.5 6.5q-56 0 -90 -24t-34 -57q0 -14 5.5 -27.5t19.5 -26t37 -24.5t59 -22q36 -11 67 -23.5t54.5 -29.5t36.5 -41t13 -57z" />
    <glyph glyph-name="afii10103" unicode="&#x456;" horiz-adv-x="210" 
d="M137 626q0 -14 -9.5 -23.5t-22.5 -9.5q-14 0 -23 9.5t-9 23.5q0 13 9 22t22 9q14 0 23.5 -9t9.5 -22zM82 0v489h46v-489h-46z" />
    <glyph glyph-name="afii10104" unicode="&#x457;" horiz-adv-x="210" 
d="M82 0v488h47v-488h-47zM233 632q0 -13 -9.5 -22.5t-22.5 -9.5t-23 9.5t-10 22.5q0 14 9.5 23.5t23.5 9.5q13 0 22.5 -9.5t9.5 -23.5zM47 632q0 -13 -10 -22.5t-22 -9.5q-14 0 -23.5 9.5t-9.5 22.5q0 14 9.5 23.5t23.5 9.5q12 0 22 -9.5t10 -23.5z" />
    <glyph glyph-name="afii10105" unicode="&#x458;" horiz-adv-x="211" 
d="M145 626q0 -14 -9 -23.5t-22 -9.5q-14 0 -23 9.5t-9 23.5q0 13 9 22t22 9q14 0 23 -9t9 -22zM135 -7q0 -42 -4.5 -75.5t-19.5 -57t-44 -37.5t-78 -18l-4 41q36 5 57 16t31.5 28.5t13 41.5t2.5 55v502h46v-496z" />
    <glyph glyph-name="afii10109" unicode="&#x45c;" horiz-adv-x="383" 
d="M183 564l-26 9l64 149l60 -12zM376 487l-232 -226l233 -261h-59l-221 249v-249h-46v487h46v-216l223 216h56z" />
    <glyph glyph-name="afii10110" unicode="&#x45e;" horiz-adv-x="445" 
d="M136 -183l64 177q-46 124 -91 246.5t-90 247.5h48l96 -268q14 -42 28.5 -83.5t29.5 -83.5h1l59 167l97 268h47q-61 -167 -122.5 -336t-122.5 -335h-44zM153 675q4 -29 24.5 -48t55.5 -19t55.5 19.5t23.5 47.5h39q-2 -18 -9.5 -36.5t-21 -32.5t-35 -23.5t-51.5 -9.5
q-31 0 -53 9t-36.5 23.5t-21.5 33t-9 36.5h39z" />
    <glyph glyph-name="Ccedilla" unicode="&#xc7;" horiz-adv-x="537" 
d="M291 -198q-12 0 -29.5 3t-40.5 12l9 26q15 -5 31.5 -8.5t30.5 -3.5q24 0 38.5 10t16.5 32q0 23 -18.5 35t-40.5 12h-5l-15 16l18 55q-55 5 -99 30t-75.5 68t-48.5 102.5t-17 133.5q0 76 19.5 138.5t54.5 106t84 67.5t108 24q64 0 110.5 -19.5t81.5 -59.5l-35 -35
q-32 36 -69.5 52.5t-87.5 16.5q-52 0 -92 -22.5t-67.5 -61.5t-41.5 -92t-14 -114t13.5 -114t40.5 -92t67.5 -61.5t94.5 -22.5q95 0 159 73l36 -32q-35 -41 -82.5 -63.5t-110.5 -23.5l-13 -40q25 -4 41 -12.5t25 -19t12.5 -22.5t3.5 -22q0 -12 -5 -25t-16.5 -23.5t-29 -17
t-42.5 -6.5z" />
    <glyph glyph-name="uni1F00" unicode="&#x1f00;" horiz-adv-x="488" 
d="M229 496q16 0 34 -1.5t37.5 -8t40 -19t40.5 -33.5h1v54h45v-488h-36q-2 14 -4 29l-4 30h-1q-34 -32 -74.5 -50t-85.5 -18q-46 0 -79.5 20t-55.5 54.5t-33 81.5t-11 101q0 64 16.5 110.5t43.5 77t60 45.5t66 15zM233 30q21 0 42.5 7t41.5 18t36.5 25t27.5 29v271
q-23 31 -61 54t-83 23q-31 0 -58 -15.5t-47 -43t-31.5 -65t-11.5 -81.5q0 -48 8.5 -89t26 -70.5t44.5 -46t65 -16.5zM230 567q12 18 21.5 38t9.5 40q0 23 -13.5 41t-48.5 26l15 49q48 -11 71 -34.5t23 -56.5q0 -25 -13.5 -54t-41.5 -58z" />
    <glyph glyph-name="uni1F01" unicode="&#x1f01;" horiz-adv-x="488" 
d="M229 496q16 0 34 -1.5t37.5 -8t40 -19t40.5 -33.5h1v54h45v-488h-36q-2 14 -4 29l-4 30h-1q-34 -32 -74.5 -50t-85.5 -18q-46 0 -79.5 20t-55.5 54.5t-33 81.5t-11 101q0 64 16.5 110.5t43.5 77t60 45.5t66 15zM233 30q21 0 42.5 7t41.5 18t36.5 25t27.5 29v271
q-23 31 -61 54t-83 23q-31 0 -58 -15.5t-47 -43t-31.5 -65t-11.5 -81.5q0 -48 8.5 -89t26 -70.5t44.5 -46t65 -16.5zM267 558q-28 29 -41.5 58t-13.5 54q0 33 23 56.5t71 34.5l15 -49q-35 -8 -48.5 -26t-13.5 -41q0 -20 9.5 -40t21.5 -38z" />
    <glyph glyph-name="uni1F02" unicode="&#x1f02;" horiz-adv-x="488" 
d="M229 496q16 0 34 -1.5t37.5 -8t40 -19t40.5 -33.5h1v54h45v-488h-36q-2 14 -4 29l-4 30h-1q-34 -32 -74.5 -50t-85.5 -18q-46 0 -79.5 20t-55.5 54.5t-33 81.5t-11 101q0 64 16.5 110.5t43.5 77t60 45.5t66 15zM233 30q21 0 42.5 7t41.5 18t36.5 25t27.5 29v271
q-23 31 -61 54t-83 23q-31 0 -58 -15.5t-47 -43t-31.5 -65t-11.5 -81.5q0 -48 8.5 -89t26 -70.5t44.5 -46t65 -16.5zM145 570q12 18 21.5 38t9.5 40q0 23 -14 41t-49 26l15 48q48 -11 71.5 -34.5t23.5 -55.5q0 -25 -14 -54.5t-41 -57.5zM234 744l67 12l70 -184l-26 -8z" />
    <glyph glyph-name="uni1F03" unicode="&#x1f03;" horiz-adv-x="488" 
d="M229 496q16 0 34 -1.5t37.5 -8t40 -19t40.5 -33.5h1v54h45v-488h-36q-2 14 -4 29l-4 30h-1q-34 -32 -74.5 -50t-85.5 -18q-46 0 -79.5 20t-55.5 54.5t-33 81.5t-11 101q0 64 16.5 110.5t43.5 77t60 45.5t66 15zM233 30q21 0 42.5 7t41.5 18t36.5 25t27.5 29v271
q-23 31 -61 54t-83 23q-31 0 -58 -15.5t-47 -43t-31.5 -65t-11.5 -81.5q0 -48 8.5 -89t26 -70.5t44.5 -46t65 -16.5zM234 744l68 12l70 -184l-26 -8zM170 559q-28 28 -41.5 57.5t-13.5 53.5q0 33 23 56.5t71 34.5q1 -3 3.5 -10t4.5 -14.5t4 -14.5t3 -10q-35 -8 -48.5 -25.5
t-13.5 -40.5q0 -20 9.5 -40t21.5 -39z" />
    <glyph glyph-name="uni1F04" unicode="&#x1f04;" horiz-adv-x="488" 
d="M229 496q16 0 34 -1.5t37.5 -8t40 -19t40.5 -33.5h1v54h45v-488h-36q-2 14 -4 29l-4 30h-1q-34 -32 -74.5 -50t-85.5 -18q-46 0 -79.5 20t-55.5 54.5t-33 81.5t-11 101q0 64 16.5 110.5t43.5 77t60 45.5t66 15zM233 30q21 0 42.5 7t41.5 18t36.5 25t27.5 29v271
q-23 31 -61 54t-83 23q-31 0 -58 -15.5t-47 -43t-31.5 -65t-11.5 -81.5q0 -48 8.5 -89t26 -70.5t44.5 -46t65 -16.5zM193 568q12 18 21.5 38t9.5 40q0 23 -14 41t-49 26l15 48q48 -11 71.5 -34.5t23.5 -55.5q0 -25 -14 -54.5t-41 -57.5zM309 559l-26 8l70 184l67 -11z" />
    <glyph glyph-name="uni1F05" unicode="&#x1f05;" horiz-adv-x="488" 
d="M229 496q16 0 34 -1.5t37.5 -8t40 -19t40.5 -33.5h1v54h45v-488h-36q-2 14 -4 29l-4 30h-1q-34 -32 -74.5 -50t-85.5 -18q-46 0 -79.5 20t-55.5 54.5t-33 81.5t-11 101q0 64 16.5 110.5t43.5 77t60 45.5t66 15zM233 30q21 0 42.5 7t41.5 18t36.5 25t27.5 29v271
q-23 31 -61 54t-83 23q-31 0 -58 -15.5t-47 -43t-31.5 -65t-11.5 -81.5q0 -48 8.5 -89t26 -70.5t44.5 -46t65 -16.5zM221 564q-27 28 -41 57.5t-14 54.5q0 33 23 56.5t71 34.5l16 -49q-35 -8 -49 -26t-14 -41q0 -20 9.5 -40t21.5 -38zM304 565l-25 8l70 184l67 -12z" />
    <glyph glyph-name="uni1F06" unicode="&#x1f06;" horiz-adv-x="488" 
d="M229 496q16 0 34 -1.5t37.5 -8t40 -19t40.5 -33.5h1v54h45v-488h-36q-2 14 -4 29l-4 30h-1q-34 -32 -74.5 -50t-85.5 -18q-46 0 -79.5 20t-55.5 54.5t-33 81.5t-11 101q0 64 16.5 110.5t43.5 77t60 45.5t66 15zM233 30q21 0 42.5 7t41.5 18t36.5 25t27.5 29v271
q-23 31 -61 54t-83 23q-31 0 -58 -15.5t-47 -43t-31.5 -65t-11.5 -81.5q0 -48 8.5 -89t26 -70.5t44.5 -46t65 -16.5zM233 571q14 15 23 27.5t9 26.5t-11.5 27t-46.5 18l13 39q50 -7 69 -27.5t19 -41.5q0 -17 -12 -37.5t-43 -42.5zM406 781q-15 -32 -39 -46.5t-50 -14.5
q-16 0 -32 5.5t-31 12t-30 12t-29 5.5q-18 0 -32 -6.5t-32 -25.5l-22 16q17 32 39.5 45.5t46.5 13.5q17 0 33.5 -6t32.5 -12.5t30.5 -12.5t28.5 -6t29 7t33 28z" />
    <glyph glyph-name="uni1F07" unicode="&#x1f07;" horiz-adv-x="488" 
d="M229 496q16 0 34 -1.5t37.5 -8t40 -19t40.5 -33.5h1v54h45v-488h-36q-2 14 -4 29l-4 30h-1q-34 -32 -74.5 -50t-85.5 -18q-46 0 -79.5 20t-55.5 54.5t-33 81.5t-11 101q0 64 16.5 110.5t43.5 77t60 45.5t66 15zM233 30q21 0 42.5 7t41.5 18t36.5 25t27.5 29v271
q-23 31 -61 54t-83 23q-31 0 -58 -15.5t-47 -43t-31.5 -65t-11.5 -81.5q0 -48 8.5 -89t26 -70.5t44.5 -46t65 -16.5zM255 558q-33 19 -45 38.5t-12 36.5q0 21 18.5 43t69.5 29l11 -38q-33 -6 -44.5 -18.5t-11.5 -26.5t9.5 -27t23.5 -27zM405 778q-15 -32 -39 -46.5
t-50 -14.5q-16 0 -32 5.5t-31 12t-30 12t-29 5.5q-18 0 -32 -6t-32 -26l-22 16q17 32 39.5 45.5t46.5 13.5q17 0 33.5 -6t32 -12.5t30.5 -12.5t29 -6t29 7t33 28z" />
    <glyph glyph-name="uni1F08" unicode="&#x1f08;" horiz-adv-x="592" 
d="M128 162q-15 -41 -31 -81t-31 -81h-53l257 651h54l257 -651h-52q-16 41 -32 81t-31 81h-338zM448 208l-110 281q-11 26 -20.5 51.5t-20.5 53.5h-3l-71 -186l-78 -200h303zM24 460q12 18 21.5 38t9.5 40q0 23 -13.5 41t-48.5 26l15 49q48 -11 71 -34.5t23 -56.5
q0 -25 -13.5 -54t-41.5 -58z" />
    <glyph glyph-name="uni1F09" unicode="&#x1f09;" horiz-adv-x="592" 
d="M128 162q-15 -41 -31 -81t-31 -81h-53l257 651h54l257 -651h-52q-16 41 -32 81t-31 81h-338zM448 208l-110 281q-11 26 -20.5 51.5t-20.5 53.5h-3l-71 -186l-78 -200h303zM49 459q-28 29 -41.5 58t-13.5 54q0 33 23 56.5t71 34.5l15 -49q-35 -8 -48.5 -26t-13.5 -41
q0 -20 9.5 -40t21.5 -38z" />
    <glyph glyph-name="uni1F0A" unicode="&#x1f0a;" horiz-adv-x="592" 
d="M128 162q-15 -41 -31 -81t-31 -81h-53l257 651h54l257 -651h-52q-16 41 -32 81t-31 81h-338zM448 208l-110 281q-11 26 -20.5 51.5t-20.5 53.5h-3l-71 -186l-78 -200h303zM-74 479q12 18 21.5 38t9.5 40q0 23 -14 41t-49 26l15 48q48 -11 71.5 -34.5t23.5 -55.5
q0 -25 -14 -54.5t-41 -57.5zM15 653l67 12l70 -184l-26 -8z" />
    <glyph glyph-name="uni1F0B" unicode="&#x1f0b;" horiz-adv-x="592" 
d="M128 162q-15 -41 -31 -81t-31 -81h-53l257 651h54l257 -651h-52q-16 41 -32 81t-31 81h-338zM448 208l-110 281q-11 26 -20.5 51.5t-20.5 53.5h-3l-71 -186l-78 -200h303zM-43 465q-28 28 -41.5 57.5t-13.5 53.5q0 33 23 56.5t71 34.5q1 -3 3.5 -10t4.5 -14.5t4 -14.5
t3 -10q-35 -8 -48.5 -25.5t-13.5 -40.5q0 -20 9.5 -40t21.5 -39zM21 650l68 12l70 -184l-26 -8z" />
    <glyph glyph-name="uni1F0C" unicode="&#x1f0c;" horiz-adv-x="592" 
d="M128 162q-15 -41 -31 -81t-31 -81h-53l257 651h54l257 -651h-52q-16 41 -32 81t-31 81h-338zM448 208l-110 281q-11 26 -20.5 51.5t-20.5 53.5h-3l-71 -186l-78 -200h303zM-40 477q12 18 21.5 38t9.5 40q0 23 -14 41t-49 26l15 48q48 -11 71.5 -34.5t23.5 -55.5
q0 -25 -14 -54.5t-41 -57.5zM76 468l-26 8l70 184l67 -11z" />
    <glyph glyph-name="uni1F0D" unicode="&#x1f0d;" horiz-adv-x="592" 
d="M128 162q-15 -41 -31 -81t-31 -81h-53l257 651h54l257 -651h-52q-16 41 -32 81t-31 81h-338zM448 208l-110 281q-11 26 -20.5 51.5t-20.5 53.5h-3l-71 -186l-78 -200h303zM0 471q-27 28 -41 57.5t-14 54.5q0 33 23 56.5t71 34.5l16 -49q-35 -8 -49 -26t-14 -41
q0 -20 9.5 -40t21.5 -38zM83 472l-25 8l70 184l67 -12z" />
    <glyph glyph-name="uni1F0E" unicode="&#x1f0e;" horiz-adv-x="592" 
d="M128 162q-15 -41 -31 -81t-31 -81h-53l257 651h54l257 -651h-52q-16 41 -32 81t-31 81h-338zM448 208l-110 281q-11 26 -20.5 51.5t-20.5 53.5h-3l-71 -186l-78 -200h303zM186 677q-15 -32 -39 -46.5t-50 -14.5q-16 0 -32 5.5t-31 12t-30 12t-29 5.5q-18 0 -32 -6.5
t-32 -25.5l-22 16q17 32 39.5 45.5t46.5 13.5q17 0 33.5 -6t32.5 -12.5t30.5 -12.5t28.5 -6t29 7t33 28zM13 467q14 15 23 27.5t9 26.5t-11.5 27t-46.5 18l13 39q50 -7 69 -27.5t19 -41.5q0 -17 -12 -37.5t-43 -42.5z" />
    <glyph glyph-name="uni1F0F" unicode="&#x1f0f;" horiz-adv-x="592" 
d="M128 162q-15 -41 -31 -81t-31 -81h-53l257 651h54l257 -651h-52q-16 41 -32 81t-31 81h-338zM448 208l-110 281q-11 26 -20.5 51.5t-20.5 53.5h-3l-71 -186l-78 -200h303zM191 677q-15 -32 -39 -46.5t-50 -14.5q-16 0 -32 5.5t-31 12t-30 12t-29 5.5q-18 0 -32 -6
t-32 -26l-22 16q17 32 39.5 45.5t46.5 13.5q17 0 33.5 -6t32 -12.5t30.5 -12.5t29 -6t29 7t33 28zM41 457q-33 19 -45 38.5t-12 36.5q0 21 18.5 43t69.5 29l11 -38q-33 -6 -44.5 -18.5t-11.5 -26.5t9.5 -27t23.5 -27z" />
    <glyph glyph-name="uni1F10" unicode="&#x1f10;" horiz-adv-x="415" 
d="M227 -10q-32 0 -64.5 7.5t-58 24t-41.5 43.5t-16 67q0 36 25 71t73 48v1q-26 7 -43.5 19.5t-28 28t-15 32t-4.5 31.5q0 29 14.5 53.5t38.5 42.5t56 28t68 10q44 0 82.5 -12.5t72.5 -41.5l-29 -32q-25 21 -56.5 33.5t-66.5 12.5q-34 0 -58.5 -9.5t-41 -23t-24.5 -30
t-8 -29.5q0 -23 9 -40t24 -28.5t35 -17t42 -5.5h62v-37h-47q-21 0 -44.5 -6t-43.5 -18.5t-33 -31.5t-13 -45q0 -48 36 -77t99 -29q26 0 64.5 9.5t74.5 41.5l28 -32q-42 -35 -85 -47t-83 -12zM210 567q12 18 21.5 38t9.5 40q0 23 -13.5 41t-48.5 26l15 49q48 -11 71 -34.5
t23 -56.5q0 -25 -13.5 -54t-41.5 -58z" />
    <glyph glyph-name="uni1F11" unicode="&#x1f11;" horiz-adv-x="415" 
d="M227 -10q-32 0 -64.5 7.5t-58 24t-41.5 43.5t-16 67q0 36 25 71t73 48v1q-26 7 -43.5 19.5t-28 28t-15 32t-4.5 31.5q0 29 14.5 53.5t38.5 42.5t56 28t68 10q44 0 82.5 -12.5t72.5 -41.5l-29 -32q-25 21 -56.5 33.5t-66.5 12.5q-34 0 -58.5 -9.5t-41 -23t-24.5 -30
t-8 -29.5q0 -23 9 -40t24 -28.5t35 -17t42 -5.5h62v-37h-47q-21 0 -44.5 -6t-43.5 -18.5t-33 -31.5t-13 -45q0 -48 36 -77t99 -29q26 0 64.5 9.5t74.5 41.5l28 -32q-42 -35 -85 -47t-83 -12zM237 558q-28 29 -41.5 58t-13.5 54q0 33 23 56.5t71 34.5l15 -49
q-35 -8 -48.5 -26t-13.5 -41q0 -20 9.5 -40t21.5 -38z" />
    <glyph glyph-name="uni1F12" unicode="&#x1f12;" horiz-adv-x="415" 
d="M227 -10q-32 0 -64.5 7.5t-58 24t-41.5 43.5t-16 67q0 36 25 71t73 48v1q-26 7 -43.5 19.5t-28 28t-15 32t-4.5 31.5q0 29 14.5 53.5t38.5 42.5t56 28t68 10q44 0 82.5 -12.5t72.5 -41.5l-29 -32q-25 21 -56.5 33.5t-66.5 12.5q-34 0 -58.5 -9.5t-41 -23t-24.5 -30
t-8 -29.5q0 -23 9 -40t24 -28.5t35 -17t42 -5.5h62v-37h-47q-21 0 -44.5 -6t-43.5 -18.5t-33 -31.5t-13 -45q0 -48 36 -77t99 -29q26 0 64.5 9.5t74.5 41.5l28 -32q-42 -35 -85 -47t-83 -12zM120 570q12 18 21.5 38t9.5 40q0 23 -14 41t-49 26l15 48q48 -11 71.5 -34.5
t23.5 -55.5q0 -25 -14 -54.5t-41 -57.5zM209 744l67 12l70 -184l-26 -8z" />
    <glyph glyph-name="uni1F13" unicode="&#x1f13;" horiz-adv-x="415" 
d="M227 -10q-32 0 -64.5 7.5t-58 24t-41.5 43.5t-16 67q0 36 25 71t73 48v1q-26 7 -43.5 19.5t-28 28t-15 32t-4.5 31.5q0 29 14.5 53.5t38.5 42.5t56 28t68 10q44 0 82.5 -12.5t72.5 -41.5l-29 -32q-25 21 -56.5 33.5t-66.5 12.5q-34 0 -58.5 -9.5t-41 -23t-24.5 -30
t-8 -29.5q0 -23 9 -40t24 -28.5t35 -17t42 -5.5h62v-37h-47q-21 0 -44.5 -6t-43.5 -18.5t-33 -31.5t-13 -45q0 -48 36 -77t99 -29q26 0 64.5 9.5t74.5 41.5l28 -32q-42 -35 -85 -47t-83 -12zM202 744l68 12l70 -184l-26 -8zM138 559q-28 28 -41.5 57.5t-13.5 53.5
q0 33 23 56.5t71 34.5q1 -3 3.5 -10t4.5 -14.5t4 -14.5t3 -10q-35 -8 -48.5 -25.5t-13.5 -40.5q0 -20 9.5 -40t21.5 -39z" />
    <glyph glyph-name="uni1F14" unicode="&#x1f14;" horiz-adv-x="415" 
d="M227 -10q-32 0 -64.5 7.5t-58 24t-41.5 43.5t-16 67q0 36 25 71t73 48v1q-26 7 -43.5 19.5t-28 28t-15 32t-4.5 31.5q0 29 14.5 53.5t38.5 42.5t56 28t68 10q44 0 82.5 -12.5t72.5 -41.5l-29 -32q-25 21 -56.5 33.5t-66.5 12.5q-34 0 -58.5 -9.5t-41 -23t-24.5 -30
t-8 -29.5q0 -23 9 -40t24 -28.5t35 -17t42 -5.5h62v-37h-47q-21 0 -44.5 -6t-43.5 -18.5t-33 -31.5t-13 -45q0 -48 36 -77t99 -29q26 0 64.5 9.5t74.5 41.5l28 -32q-42 -35 -85 -47t-83 -12zM159 568q12 18 21.5 38t9.5 40q0 23 -14 41t-49 26l15 48q48 -11 71.5 -34.5
t23.5 -55.5q0 -25 -14 -54.5t-41 -57.5zM275 559l-26 8l70 184l67 -11z" />
    <glyph glyph-name="uni1F15" unicode="&#x1f15;" horiz-adv-x="415" 
d="M227 -10q-32 0 -64.5 7.5t-58 24t-41.5 43.5t-16 67q0 36 25 71t73 48v1q-26 7 -43.5 19.5t-28 28t-15 32t-4.5 31.5q0 29 14.5 53.5t38.5 42.5t56 28t68 10q44 0 82.5 -12.5t72.5 -41.5l-29 -32q-25 21 -56.5 33.5t-66.5 12.5q-34 0 -58.5 -9.5t-41 -23t-24.5 -30
t-8 -29.5q0 -23 9 -40t24 -28.5t35 -17t42 -5.5h62v-37h-47q-21 0 -44.5 -6t-43.5 -18.5t-33 -31.5t-13 -45q0 -48 36 -77t99 -29q26 0 64.5 9.5t74.5 41.5l28 -32q-42 -35 -85 -47t-83 -12zM181 557q-27 28 -41 57.5t-14 54.5q0 33 23 56.5t71 34.5l16 -49q-35 -8 -49 -26
t-14 -41q0 -20 9.5 -40t21.5 -38zM264 558l-25 8l70 184l67 -12z" />
    <glyph glyph-name="uni1F18" unicode="&#x1f18;" horiz-adv-x="492" 
d="M66 0v651h396v-46h-346v-233h248v-46h-248v-280h360v-46h-410zM-73 470q12 18 21.5 38t9.5 40q0 23 -13.5 41t-48.5 26l15 49q48 -11 71 -34.5t23 -56.5q0 -25 -13.5 -54t-41.5 -58z" />
    <glyph glyph-name="uni1F19" unicode="&#x1f19;" horiz-adv-x="492" 
d="M66 0v651h396v-46h-346v-233h248v-46h-248v-280h360v-46h-410zM-51 459q-28 29 -41.5 58t-13.5 54q0 33 23 56.5t71 34.5l15 -49q-35 -8 -48.5 -26t-13.5 -41q0 -20 9.5 -40t21.5 -38z" />
    <glyph glyph-name="uni1F1A" unicode="&#x1f1a;" horiz-adv-x="492" 
d="M66 0v651h396v-46h-346v-233h248v-46h-248v-280h360v-46h-410zM-220 484q12 18 21.5 38t9.5 40q0 23 -14 41t-49 26l15 48q48 -11 71.5 -34.5t23.5 -55.5q0 -25 -14 -54.5t-41 -57.5zM-131 658l67 12l70 -184l-26 -8z" />
    <glyph glyph-name="uni1F1B" unicode="&#x1f1b;" horiz-adv-x="492" 
d="M66 0v651h396v-46h-346v-233h248v-46h-248v-280h360v-46h-410zM-134 660l68 12l70 -184l-26 -8zM-198 475q-28 28 -41.5 57.5t-13.5 53.5q0 33 23 56.5t71 34.5q1 -3 3.5 -10t4.5 -14.5t4 -14.5t3 -10q-35 -8 -48.5 -25.5t-13.5 -40.5q0 -20 9.5 -40t21.5 -39z" />
    <glyph glyph-name="uni1F1C" unicode="&#x1f1c;" horiz-adv-x="492" 
d="M66 0v651h396v-46h-346v-233h248v-46h-248v-280h360v-46h-410zM-222 483q12 18 21.5 38t9.5 40q0 23 -14 41t-49 26l15 48q48 -11 71.5 -34.5t23.5 -55.5q0 -25 -14 -54.5t-41 -57.5zM-106 474l-26 8l70 184l67 -11z" />
    <glyph glyph-name="uni1F1D" unicode="&#x1f1d;" horiz-adv-x="492" 
d="M66 0v651h396v-46h-346v-233h248v-46h-248v-280h360v-46h-410zM-189 479q-27 28 -41 57.5t-14 54.5q0 33 23 56.5t71 34.5l16 -49q-35 -8 -49 -26t-14 -41q0 -20 9.5 -40t21.5 -38zM-106 480l-25 8l70 184l67 -12z" />
    <glyph glyph-name="uni1F20" unicode="&#x1f20;" horiz-adv-x="464" 
d="M419 0h-47v293q0 85 -32.5 123.5t-98.5 38.5q-26 0 -48 -9.5t-40 -26t-30.5 -38t-18.5 -45.5q-6 -21 -6 -46v-290h-46v489h46v-87l2 -1q14 26 32.5 44t39 29.5t41.5 16.5t39 5q83 0 125 -47.5t42 -148.5v-300zM191 567q12 18 21.5 38t9.5 40q0 23 -13.5 41t-48.5 26
l15 49q48 -11 71 -34.5t23 -56.5q0 -25 -13.5 -54t-41.5 -58z" />
    <glyph glyph-name="uni1F21" unicode="&#x1f21;" horiz-adv-x="464" 
d="M419 0h-47v293q0 85 -32.5 123.5t-98.5 38.5q-26 0 -48 -9.5t-40 -26t-30.5 -38t-18.5 -45.5q-6 -21 -6 -46v-290h-46v489h46v-87l2 -1q14 26 32.5 44t39 29.5t41.5 16.5t39 5q83 0 125 -47.5t42 -148.5v-300zM226 558q-28 29 -41.5 58t-13.5 54q0 33 23 56.5t71 34.5
l15 -49q-35 -8 -48.5 -26t-13.5 -41q0 -20 9.5 -40t21.5 -38z" />
    <glyph glyph-name="uni1F22" unicode="&#x1f22;" horiz-adv-x="464" 
d="M419 0h-47v293q0 85 -32.5 123.5t-98.5 38.5q-26 0 -48 -9.5t-40 -26t-30.5 -38t-18.5 -45.5q-6 -21 -6 -46v-290h-46v489h46v-87l2 -1q14 26 32.5 44t39 29.5t41.5 16.5t39 5q83 0 125 -47.5t42 -148.5v-300zM114 570q12 18 21.5 38t9.5 40q0 23 -14 41t-49 26l15 48
q48 -11 71.5 -34.5t23.5 -55.5q0 -25 -14 -54.5t-41 -57.5zM203 744l67 12l70 -184l-26 -8z" />
    <glyph glyph-name="uni1F23" unicode="&#x1f23;" horiz-adv-x="464" 
d="M419 0h-47v293q0 85 -32.5 123.5t-98.5 38.5q-26 0 -48 -9.5t-40 -26t-30.5 -38t-18.5 -45.5q-6 -21 -6 -46v-290h-46v489h46v-87l2 -1q14 26 32.5 44t39 29.5t41.5 16.5t39 5q83 0 125 -47.5t42 -148.5v-300zM204 749l68 12l70 -184l-26 -8zM140 564q-28 28 -41.5 57.5
t-13.5 53.5q0 33 23 56.5t71 34.5q1 -3 3.5 -10t4.5 -14.5t4 -14.5t3 -10q-35 -8 -48.5 -25.5t-13.5 -40.5q0 -20 9.5 -40t21.5 -39z" />
    <glyph glyph-name="uni1F24" unicode="&#x1f24;" horiz-adv-x="464" 
d="M419 0h-47v293q0 85 -32.5 123.5t-98.5 38.5q-26 0 -48 -9.5t-40 -26t-30.5 -38t-18.5 -45.5q-6 -21 -6 -46v-290h-46v489h46v-87l2 -1q14 26 32.5 44t39 29.5t41.5 16.5t39 5q83 0 125 -47.5t42 -148.5v-300zM161 569q12 18 21.5 38t9.5 40q0 23 -14 41t-49 26l15 48
q48 -11 71.5 -34.5t23.5 -55.5q0 -25 -14 -54.5t-41 -57.5zM277 560l-26 8l70 184l67 -11z" />
    <glyph glyph-name="uni1F25" unicode="&#x1f25;" horiz-adv-x="464" 
d="M419 0h-47v293q0 85 -32.5 123.5t-98.5 38.5q-26 0 -48 -9.5t-40 -26t-30.5 -38t-18.5 -45.5q-6 -21 -6 -46v-290h-46v489h46v-87l2 -1q14 26 32.5 44t39 29.5t41.5 16.5t39 5q83 0 125 -47.5t42 -148.5v-300zM189 561q-27 28 -41 57.5t-14 54.5q0 33 23 56.5t71 34.5
l16 -49q-35 -8 -49 -26t-14 -41q0 -20 9.5 -40t21.5 -38zM272 562l-25 8l70 184l67 -12z" />
    <glyph glyph-name="uni1F26" unicode="&#x1f26;" horiz-adv-x="464" 
d="M419 0h-47v293q0 85 -32.5 123.5t-98.5 38.5q-26 0 -48 -9.5t-40 -26t-30.5 -38t-18.5 -45.5q-6 -21 -6 -46v-290h-46v489h46v-87l2 -1q14 26 32.5 44t39 29.5t41.5 16.5t39 5q83 0 125 -47.5t42 -148.5v-300zM203 570q14 15 23 27.5t9 26.5t-11.5 27t-46.5 18l13 39
q50 -7 69 -27.5t19 -41.5q0 -17 -12 -37.5t-43 -42.5zM376 780q-15 -32 -39 -46.5t-50 -14.5q-16 0 -32 5.5t-31 12t-30 12t-29 5.5q-18 0 -32 -6.5t-32 -25.5l-22 16q17 32 39.5 45.5t46.5 13.5q17 0 33.5 -6t32.5 -12.5t30.5 -12.5t28.5 -6t29 7t33 28z" />
    <glyph glyph-name="uni1F27" unicode="&#x1f27;" horiz-adv-x="464" 
d="M419 0h-47v293q0 85 -32.5 123.5t-98.5 38.5q-26 0 -48 -9.5t-40 -26t-30.5 -38t-18.5 -45.5q-6 -21 -6 -46v-290h-46v489h46v-87l2 -1q14 26 32.5 44t39 29.5t41.5 16.5t39 5q83 0 125 -47.5t42 -148.5v-300zM225 559q-33 19 -45 38.5t-12 36.5q0 21 18.5 43t69.5 29
l11 -38q-33 -6 -44.5 -18.5t-11.5 -26.5t9.5 -27t23.5 -27zM375 779q-15 -32 -39 -46.5t-50 -14.5q-16 0 -32 5.5t-31 12t-30 12t-29 5.5q-18 0 -32 -6t-32 -26l-22 16q17 32 39.5 45.5t46.5 13.5q17 0 33.5 -6t32 -12.5t30.5 -12.5t29 -6t29 7t33 28z" />
    <glyph glyph-name="uni1F28" unicode="&#x1f28;" horiz-adv-x="605" 
d="M489 0v318h-374v-318h-49v651h49v-287h374v287h49v-651h-49zM-72 468q12 18 21.5 38t9.5 40q0 23 -13.5 41t-48.5 26l15 49q48 -11 71 -34.5t23 -56.5q0 -25 -13.5 -54t-41.5 -58z" />
    <glyph glyph-name="uni1F29" unicode="&#x1f29;" horiz-adv-x="605" 
d="M489 0v318h-374v-318h-49v651h49v-287h374v287h49v-651h-49zM-52 462q-28 29 -41.5 58t-13.5 54q0 33 23 56.5t71 34.5l15 -49q-35 -8 -48.5 -26t-13.5 -41q0 -20 9.5 -40t21.5 -38z" />
    <glyph glyph-name="uni1F2A" unicode="&#x1f2a;" horiz-adv-x="605" 
d="M489 0v318h-374v-318h-49v651h49v-287h374v287h49v-651h-49zM-222 476q12 18 21.5 38t9.5 40q0 23 -14 41t-49 26l15 48q48 -11 71.5 -34.5t23.5 -55.5q0 -25 -14 -54.5t-41 -57.5zM-133 650l67 12l70 -184l-26 -8z" />
    <glyph glyph-name="uni1F2B" unicode="&#x1f2b;" horiz-adv-x="605" 
d="M489 0v318h-374v-318h-49v651h49v-287h374v287h49v-651h-49zM-135 650l68 12l70 -184l-26 -8zM-199 465q-28 28 -41.5 57.5t-13.5 53.5q0 33 23 56.5t71 34.5q1 -3 3.5 -10t4.5 -14.5t4 -14.5t3 -10q-35 -8 -48.5 -25.5t-13.5 -40.5q0 -20 9.5 -40t21.5 -39z" />
    <glyph glyph-name="uni1F2C" unicode="&#x1f2c;" horiz-adv-x="605" 
d="M489 0v318h-374v-318h-49v651h49v-287h374v287h49v-651h-49zM-224 472q12 18 21.5 38t9.5 40q0 23 -14 41t-49 26l15 48q48 -11 71.5 -34.5t23.5 -55.5q0 -25 -14 -54.5t-41 -57.5zM-108 463l-26 8l70 184l67 -11z" />
    <glyph glyph-name="uni1F2D" unicode="&#x1f2d;" horiz-adv-x="605" 
d="M489 0v318h-374v-318h-49v651h49v-287h374v287h49v-651h-49zM-190 468q-27 28 -41 57.5t-14 54.5q0 33 23 56.5t71 34.5l16 -49q-35 -8 -49 -26t-14 -41q0 -20 9.5 -40t21.5 -38zM-107 469l-25 8l70 184l67 -12z" />
    <glyph glyph-name="uni1F2E" unicode="&#x1f2e;" horiz-adv-x="605" 
d="M489 0v318h-374v-318h-49v651h49v-287h374v287h49v-651h-49zM-152 447q14 15 23 27.5t9 26.5t-11.5 27t-46.5 18l13 39q50 -7 69 -27.5t19 -41.5q0 -17 -12 -37.5t-43 -42.5zM21 657q-15 -32 -39 -46.5t-50 -14.5q-16 0 -32 5.5t-31 12t-30 12t-29 5.5q-18 0 -32 -6.5
t-32 -25.5l-22 16q17 32 39.5 45.5t46.5 13.5q17 0 33.5 -6t32.5 -12.5t30.5 -12.5t28.5 -6t29 7t33 28z" />
    <glyph glyph-name="uni1F2F" unicode="&#x1f2f;" horiz-adv-x="605" 
d="M489 0v318h-374v-318h-49v651h49v-287h374v287h49v-651h-49zM-129 435q-33 19 -45 38.5t-12 36.5q0 21 18.5 43t69.5 29l11 -38q-33 -6 -44.5 -18.5t-11.5 -26.5t9.5 -27t23.5 -27zM21 655q-15 -32 -39 -46.5t-50 -14.5q-16 0 -32 5.5t-31 12t-30 12t-29 5.5
q-18 0 -32 -6t-32 -26l-22 16q17 32 39.5 45.5t46.5 13.5q17 0 33.5 -6t32 -12.5t30.5 -12.5t29 -6t29 7t33 28z" />
    <glyph glyph-name="uni1F30" unicode="&#x1f30;" horiz-adv-x="212" 
d="M82 0v488h47v-488h-47zM80 568q12 18 21.5 38t9.5 40q0 23 -13.5 41t-48.5 26l15 49q48 -11 71 -34.5t23 -56.5q0 -25 -13.5 -54t-41.5 -58z" />
    <glyph glyph-name="uni1F31" unicode="&#x1f31;" horiz-adv-x="212" 
d="M82 0v488h47v-488h-47zM110 558q-28 29 -41.5 58t-13.5 54q0 33 23 56.5t71 34.5l15 -49q-35 -8 -48.5 -26t-13.5 -41q0 -20 9.5 -40t21.5 -38z" />
    <glyph glyph-name="uni1F32" unicode="&#x1f32;" horiz-adv-x="212" 
d="M82 0v488h47v-488h-47zM4 570q12 18 21.5 38t9.5 40q0 23 -14 41t-49 26l15 48q48 -11 71.5 -34.5t23.5 -55.5q0 -25 -14 -54.5t-41 -57.5zM93 744l67 12l70 -184l-26 -8z" />
    <glyph glyph-name="uni1F33" unicode="&#x1f33;" horiz-adv-x="212" 
d="M82 0v488h47v-488h-47zM94 746l68 12l70 -184l-26 -8zM30 561q-28 28 -41.5 57.5t-13.5 53.5q0 33 23 56.5t71 34.5q1 -3 3.5 -10t4.5 -14.5t4 -14.5t3 -10q-35 -8 -48.5 -25.5t-13.5 -40.5q0 -20 9.5 -40t21.5 -39z" />
    <glyph glyph-name="uni1F34" unicode="&#x1f34;" horiz-adv-x="212" 
d="M82 0v488h47v-488h-47zM34 570q12 18 21.5 38t9.5 40q0 23 -14 41t-49 26l15 48q48 -11 71.5 -34.5t23.5 -55.5q0 -25 -14 -54.5t-41 -57.5zM150 561l-26 8l70 184l67 -11z" />
    <glyph glyph-name="uni1F35" unicode="&#x1f35;" horiz-adv-x="212" 
d="M82 0v488h47v-488h-47zM66 563q-27 28 -41 57.5t-14 54.5q0 33 23 56.5t71 34.5l16 -49q-35 -8 -49 -26t-14 -41q0 -20 9.5 -40t21.5 -38zM149 564l-25 8l70 184l67 -12z" />
    <glyph glyph-name="uni1F36" unicode="&#x1f36;" horiz-adv-x="212" 
d="M82 0v488h47v-488h-47zM80 568q14 15 23 27.5t9 26.5t-11.5 27t-46.5 18l13 39q50 -7 69 -27.5t19 -41.5q0 -17 -12 -37.5t-43 -42.5zM253 778q-15 -32 -39 -46.5t-50 -14.5q-16 0 -32 5.5t-31 12t-30 12t-29 5.5q-18 0 -32 -6.5t-32 -25.5l-22 16q17 32 39.5 45.5
t46.5 13.5q17 0 33.5 -6t32.5 -12.5t30.5 -12.5t28.5 -6t29 7t33 28z" />
    <glyph glyph-name="uni1F37" unicode="&#x1f37;" horiz-adv-x="212" 
d="M82 0v488h47v-488h-47zM105 556q-33 19 -45 38.5t-12 36.5q0 21 18.5 43t69.5 29l11 -38q-33 -6 -44.5 -18.5t-11.5 -26.5t9.5 -27t23.5 -27zM255 776q-15 -32 -39 -46.5t-50 -14.5q-16 0 -32 5.5t-31 12t-30 12t-29 5.5q-18 0 -32 -6t-32 -26l-22 16q17 32 39.5 45.5
t46.5 13.5q17 0 33.5 -6t32 -12.5t30.5 -12.5t29 -6t29 7t33 28z" />
    <glyph glyph-name="uni1F38" unicode="&#x1f38;" horiz-adv-x="224" 
d="M87 0v651h50v-651h-50zM-68 472q12 18 21.5 38t9.5 40q0 23 -13.5 41t-48.5 26l15 49q48 -11 71 -34.5t23 -56.5q0 -25 -13.5 -54t-41.5 -58z" />
    <glyph glyph-name="uni1F39" unicode="&#x1f39;" horiz-adv-x="224" 
d="M87 0v651h50v-651h-50zM-34 458q-28 29 -41.5 58t-13.5 54q0 33 23 56.5t71 34.5l15 -49q-35 -8 -48.5 -26t-13.5 -41q0 -20 9.5 -40t21.5 -38z" />
    <glyph glyph-name="uni1F3A" unicode="&#x1f3a;" horiz-adv-x="224" 
d="M87 0v651h50v-651h-50zM-205 471q12 18 21.5 38t9.5 40q0 23 -14 41t-49 26l15 48q48 -11 71.5 -34.5t23.5 -55.5q0 -25 -14 -54.5t-41 -57.5zM-116 645l67 12l70 -184l-26 -8z" />
    <glyph glyph-name="uni1F3B" unicode="&#x1f3b;" horiz-adv-x="224" 
d="M87 0v651h50v-651h-50zM-121 647l68 12l70 -184l-26 -8zM-185 462q-28 28 -41.5 57.5t-13.5 53.5q0 33 23 56.5t71 34.5q1 -3 3.5 -10t4.5 -14.5t4 -14.5t3 -10q-35 -8 -48.5 -25.5t-13.5 -40.5q0 -20 9.5 -40t21.5 -39z" />
    <glyph glyph-name="uni1F3C" unicode="&#x1f3c;" horiz-adv-x="224" 
d="M87 0v651h50v-651h-50zM-215 472q12 18 21.5 38t9.5 40q0 23 -14 41t-49 26l15 48q48 -11 71.5 -34.5t23.5 -55.5q0 -25 -14 -54.5t-41 -57.5zM-99 463l-26 8l70 184l67 -11z" />
    <glyph glyph-name="uni1F3D" unicode="&#x1f3d;" horiz-adv-x="224" 
d="M87 0v651h50v-651h-50zM-170 460q-27 28 -41 57.5t-14 54.5q0 33 23 56.5t71 34.5l16 -49q-35 -8 -49 -26t-14 -41q0 -20 9.5 -40t21.5 -38zM-87 461l-25 8l70 184l67 -12z" />
    <glyph glyph-name="uni1F3E" unicode="&#x1f3e;" horiz-adv-x="224" 
d="M87 0v651h50v-651h-50zM-131 466q14 15 23 27.5t9 26.5t-11.5 27t-46.5 18l13 39q50 -7 69 -27.5t19 -41.5q0 -17 -12 -37.5t-43 -42.5zM42 676q-15 -32 -39 -46.5t-50 -14.5q-16 0 -32 5.5t-31 12t-30 12t-29 5.5q-18 0 -32 -6.5t-32 -25.5l-22 16q17 32 39.5 45.5
t46.5 13.5q17 0 33.5 -6t32.5 -12.5t30.5 -12.5t28.5 -6t29 7t33 28z" />
    <glyph glyph-name="uni1F3F" unicode="&#x1f3f;" horiz-adv-x="224" 
d="M87 0v651h50v-651h-50zM-99 457q-33 19 -45 38.5t-12 36.5q0 21 18.5 43t69.5 29l11 -38q-33 -6 -44.5 -18.5t-11.5 -26.5t9.5 -27t23.5 -27zM51 677q-15 -32 -39 -46.5t-50 -14.5q-16 0 -32 5.5t-31 12t-30 12t-29 5.5q-18 0 -32 -6t-32 -26l-22 16q17 32 39.5 45.5
t46.5 13.5q17 0 33.5 -6t32 -12.5t30.5 -12.5t29 -6t29 7t33 28z" />
    <glyph glyph-name="uni1F48" unicode="&#x1f48;" horiz-adv-x="619" 
d="M573 325q0 -77 -18.5 -138.5t-53 -105.5t-83.5 -67.5t-109 -23.5q-62 0 -110.5 24t-82.5 68t-52 105.5t-18 137.5q0 75 18 136.5t52 105.5t82.5 68.5t110.5 24.5q60 0 109 -24t83.5 -67.5t53 -105.5t18.5 -138zM522 325q0 61 -13 114.5t-39.5 93t-66.5 62t-94 22.5
q-53 0 -93 -22t-66.5 -61t-40 -92.5t-13.5 -116.5q0 -58 13 -111t39.5 -93t66.5 -63.5t94 -23.5q55 0 95 23.5t66 63.5t39 93t13 111zM-70 468q12 18 21.5 38t9.5 40q0 23 -13.5 41t-48.5 26l15 49q48 -11 71 -34.5t23 -56.5q0 -25 -13.5 -54t-41.5 -58z" />
    <glyph glyph-name="uni1F49" unicode="&#x1f49;" horiz-adv-x="619" 
d="M573 325q0 -77 -18.5 -138.5t-53 -105.5t-83.5 -67.5t-109 -23.5q-62 0 -110.5 24t-82.5 68t-52 105.5t-18 137.5q0 75 18 136.5t52 105.5t82.5 68.5t110.5 24.5q60 0 109 -24t83.5 -67.5t53 -105.5t18.5 -138zM522 325q0 61 -13 114.5t-39.5 93t-66.5 62t-94 22.5
q-53 0 -93 -22t-66.5 -61t-40 -92.5t-13.5 -116.5q0 -58 13 -111t39.5 -93t66.5 -63.5t94 -23.5q55 0 95 23.5t66 63.5t39 93t13 111zM-49 461q-28 29 -41.5 58t-13.5 54q0 33 23 56.5t71 34.5l15 -49q-35 -8 -48.5 -26t-13.5 -41q0 -20 9.5 -40t21.5 -38z" />
    <glyph glyph-name="uni1F4A" unicode="&#x1f4a;" horiz-adv-x="619" 
d="M573 325q0 -77 -18.5 -138.5t-53 -105.5t-83.5 -67.5t-109 -23.5q-62 0 -110.5 24t-82.5 68t-52 105.5t-18 137.5q0 75 18 136.5t52 105.5t82.5 68.5t110.5 24.5q60 0 109 -24t83.5 -67.5t53 -105.5t18.5 -138zM522 325q0 61 -13 114.5t-39.5 93t-66.5 62t-94 22.5
q-53 0 -93 -22t-66.5 -61t-40 -92.5t-13.5 -116.5q0 -58 13 -111t39.5 -93t66.5 -63.5t94 -23.5q55 0 95 23.5t66 63.5t39 93t13 111zM-217 476q12 18 21.5 38t9.5 40q0 23 -14 41t-49 26l15 48q48 -11 71.5 -34.5t23.5 -55.5q0 -25 -14 -54.5t-41 -57.5zM-128 650l67 12
l70 -184l-26 -8z" />
    <glyph glyph-name="uni1F4B" unicode="&#x1f4b;" horiz-adv-x="619" 
d="M573 325q0 -77 -18.5 -138.5t-53 -105.5t-83.5 -67.5t-109 -23.5q-62 0 -110.5 24t-82.5 68t-52 105.5t-18 137.5q0 75 18 136.5t52 105.5t82.5 68.5t110.5 24.5q60 0 109 -24t83.5 -67.5t53 -105.5t18.5 -138zM522 325q0 61 -13 114.5t-39.5 93t-66.5 62t-94 22.5
q-53 0 -93 -22t-66.5 -61t-40 -92.5t-13.5 -116.5q0 -58 13 -111t39.5 -93t66.5 -63.5t94 -23.5q55 0 95 23.5t66 63.5t39 93t13 111zM-129 651l68 12l70 -184l-26 -8zM-193 466q-28 28 -41.5 57.5t-13.5 53.5q0 33 23 56.5t71 34.5q1 -3 3.5 -10t4.5 -14.5t4 -14.5t3 -10
q-35 -8 -48.5 -25.5t-13.5 -40.5q0 -20 9.5 -40t21.5 -39z" />
    <glyph glyph-name="uni1F4C" unicode="&#x1f4c;" horiz-adv-x="619" 
d="M573 325q0 -77 -18.5 -138.5t-53 -105.5t-83.5 -67.5t-109 -23.5q-62 0 -110.5 24t-82.5 68t-52 105.5t-18 137.5q0 75 18 136.5t52 105.5t82.5 68.5t110.5 24.5q60 0 109 -24t83.5 -67.5t53 -105.5t18.5 -138zM522 325q0 61 -13 114.5t-39.5 93t-66.5 62t-94 22.5
q-53 0 -93 -22t-66.5 -61t-40 -92.5t-13.5 -116.5q0 -58 13 -111t39.5 -93t66.5 -63.5t94 -23.5q55 0 95 23.5t66 63.5t39 93t13 111zM-174 477q12 18 21.5 38t9.5 40q0 23 -14 41t-49 26l15 48q48 -11 71.5 -34.5t23.5 -55.5q0 -25 -14 -54.5t-41 -57.5zM-58 468l-26 8
l70 184l67 -11z" />
    <glyph glyph-name="uni1F4D" unicode="&#x1f4d;" horiz-adv-x="619" 
d="M573 325q0 -77 -18.5 -138.5t-53 -105.5t-83.5 -67.5t-109 -23.5q-62 0 -110.5 24t-82.5 68t-52 105.5t-18 137.5q0 75 18 136.5t52 105.5t82.5 68.5t110.5 24.5q60 0 109 -24t83.5 -67.5t53 -105.5t18.5 -138zM522 325q0 61 -13 114.5t-39.5 93t-66.5 62t-94 22.5
q-53 0 -93 -22t-66.5 -61t-40 -92.5t-13.5 -116.5q0 -58 13 -111t39.5 -93t66.5 -63.5t94 -23.5q55 0 95 23.5t66 63.5t39 93t13 111zM-145 469q-27 28 -41 57.5t-14 54.5q0 33 23 56.5t71 34.5l16 -49q-35 -8 -49 -26t-14 -41q0 -20 9.5 -40t21.5 -38zM-62 470l-25 8
l70 184l67 -12z" />
    <glyph glyph-name="uni1F50" unicode="&#x1f50;" horiz-adv-x="466" 
d="M420 208q0 -116 -47.5 -167t-137.5 -51t-139 51.5t-49 166.5v281h48v-277q0 -88 31.5 -135t106.5 -47q40 0 67 12t43.5 35.5t23 57t6.5 77.5v277h47v-281zM220 567q12 18 21.5 38t9.5 40q0 23 -13.5 41t-48.5 26l15 49q48 -11 71 -34.5t23 -56.5q0 -25 -13.5 -54
t-41.5 -58z" />
    <glyph glyph-name="uni1F51" unicode="&#x1f51;" horiz-adv-x="466" 
d="M420 208q0 -116 -47.5 -167t-137.5 -51t-139 51.5t-49 166.5v281h48v-277q0 -88 31.5 -135t106.5 -47q40 0 67 12t43.5 35.5t23 57t6.5 77.5v277h47v-281zM242 558q-28 29 -41.5 58t-13.5 54q0 33 23 56.5t71 34.5l15 -49q-35 -8 -48.5 -26t-13.5 -41q0 -20 9.5 -40
t21.5 -38z" />
    <glyph glyph-name="uni1F52" unicode="&#x1f52;" horiz-adv-x="466" 
d="M420 208q0 -116 -47.5 -167t-137.5 -51t-139 51.5t-49 166.5v281h48v-277q0 -88 31.5 -135t106.5 -47q40 0 67 12t43.5 35.5t23 57t6.5 77.5v277h47v-281zM126 569q12 18 21.5 38t9.5 40q0 23 -14 41t-49 26l15 48q48 -11 71.5 -34.5t23.5 -55.5q0 -25 -14 -54.5
t-41 -57.5zM215 743l67 12l70 -184l-26 -8z" />
    <glyph glyph-name="uni1F53" unicode="&#x1f53;" horiz-adv-x="466" 
d="M420 208q0 -116 -47.5 -167t-137.5 -51t-139 51.5t-49 166.5v281h48v-277q0 -88 31.5 -135t106.5 -47q40 0 67 12t43.5 35.5t23 57t6.5 77.5v277h47v-281zM215 743l68 12l70 -184l-26 -8zM151 558q-28 28 -41.5 57.5t-13.5 53.5q0 33 23 56.5t71 34.5q1 -3 3.5 -10
t4.5 -14.5t4 -14.5t3 -10q-35 -8 -48.5 -25.5t-13.5 -40.5q0 -20 9.5 -40t21.5 -39z" />
    <glyph glyph-name="uni1F54" unicode="&#x1f54;" horiz-adv-x="466" 
d="M420 208q0 -116 -47.5 -167t-137.5 -51t-139 51.5t-49 166.5v281h48v-277q0 -88 31.5 -135t106.5 -47q40 0 67 12t43.5 35.5t23 57t6.5 77.5v277h47v-281zM164 570q12 18 21.5 38t9.5 40q0 23 -14 41t-49 26l15 48q48 -11 71.5 -34.5t23.5 -55.5q0 -25 -14 -54.5
t-41 -57.5zM280 561l-26 8l70 184l67 -11z" />
    <glyph glyph-name="uni1F55" unicode="&#x1f55;" horiz-adv-x="466" 
d="M420 208q0 -116 -47.5 -167t-137.5 -51t-139 51.5t-49 166.5v281h48v-277q0 -88 31.5 -135t106.5 -47q40 0 67 12t43.5 35.5t23 57t6.5 77.5v277h47v-281zM199 560q-27 28 -41 57.5t-14 54.5q0 33 23 56.5t71 34.5l16 -49q-35 -8 -49 -26t-14 -41q0 -20 9.5 -40t21.5 -38
zM282 561l-25 8l70 184l67 -12z" />
    <glyph glyph-name="uni1F56" unicode="&#x1f56;" horiz-adv-x="466" 
d="M420 208q0 -116 -47.5 -167t-137.5 -51t-139 51.5t-49 166.5v281h48v-277q0 -88 31.5 -135t106.5 -47q40 0 67 12t43.5 35.5t23 57t6.5 77.5v277h47v-281zM209 561q14 15 23 27.5t9 26.5t-11.5 27t-46.5 18l13 39q50 -7 69 -27.5t19 -41.5q0 -17 -12 -37.5t-43 -42.5z
M382 771q-15 -32 -39 -46.5t-50 -14.5q-16 0 -32 5.5t-31 12t-30 12t-29 5.5q-18 0 -32 -6.5t-32 -25.5l-22 16q17 32 39.5 45.5t46.5 13.5q17 0 33.5 -6t32.5 -12.5t30.5 -12.5t28.5 -6t29 7t33 28z" />
    <glyph glyph-name="uni1F57" unicode="&#x1f57;" horiz-adv-x="466" 
d="M420 208q0 -116 -47.5 -167t-137.5 -51t-139 51.5t-49 166.5v281h48v-277q0 -88 31.5 -135t106.5 -47q40 0 67 12t43.5 35.5t23 57t6.5 77.5v277h47v-281zM236 553q-33 19 -45 38.5t-12 36.5q0 21 18.5 43t69.5 29l11 -38q-33 -6 -44.5 -18.5t-11.5 -26.5t9.5 -27
t23.5 -27zM386 773q-15 -32 -39 -46.5t-50 -14.5q-16 0 -32 5.5t-31 12t-30 12t-29 5.5q-18 0 -32 -6t-32 -26l-22 16q17 32 39.5 45.5t46.5 13.5q17 0 33.5 -6t32 -12.5t30.5 -12.5t29 -6t29 7t33 28z" />
    <glyph glyph-name="uni1F59" unicode="&#x1f59;" horiz-adv-x="530" 
d="M289 234v-234h-49v234l-229 417h55l198 -370l200 370h54zM-77 458q-28 29 -41.5 58t-13.5 54q0 33 23 56.5t71 34.5l15 -49q-35 -8 -48.5 -26t-13.5 -41q0 -20 9.5 -40t21.5 -38z" />
    <glyph glyph-name="uni1F5B" unicode="&#x1f5b;" horiz-adv-x="530" 
d="M289 234v-234h-49v234l-229 417h55l198 -370l200 370h54zM-137 649l68 12l70 -184l-26 -8zM-201 464q-28 28 -41.5 57.5t-13.5 53.5q0 33 23 56.5t71 34.5q1 -3 3.5 -10t4.5 -14.5t4 -14.5t3 -10q-35 -8 -48.5 -25.5t-13.5 -40.5q0 -20 9.5 -40t21.5 -39z" />
    <glyph glyph-name="uni1F5D" unicode="&#x1f5d;" horiz-adv-x="530" 
d="M289 234v-234h-49v234l-229 417h55l198 -370l200 370h54zM-199 469q-27 28 -41 57.5t-14 54.5q0 33 23 56.5t71 34.5l16 -49q-35 -8 -49 -26t-14 -41q0 -20 9.5 -40t21.5 -38zM-116 470l-25 8l70 184l67 -12z" />
    <glyph glyph-name="uni1F5F" unicode="&#x1f5f;" horiz-adv-x="530" 
d="M289 234v-234h-49v234l-229 417h55l198 -370l200 370h54zM-166 456q-33 19 -45 38.5t-12 36.5q0 21 18.5 43t69.5 29l11 -38q-33 -6 -44.5 -18.5t-11.5 -26.5t9.5 -27t23.5 -27zM-16 676q-15 -32 -39 -46.5t-50 -14.5q-16 0 -32 5.5t-31 12t-30 12t-29 5.5q-18 0 -32 -6
t-32 -26l-22 16q17 32 39.5 45.5t46.5 13.5q17 0 33.5 -6t32 -12.5t30.5 -12.5t29 -6t29 7t33 28z" />
    <glyph glyph-name="uni1F60" unicode="&#x1f60;" horiz-adv-x="723" 
d="M494 -9q-39 0 -76 17.5t-57 65.5q-25 -48 -60 -65.5t-74 -17.5t-72.5 15.5t-58 46.5t-38 78.5t-13.5 111.5q0 43 11.5 83t32 73.5t48.5 57t60 33.5l16 -38q-29 -11 -51 -32t-38 -49t-24 -61t-8 -67q0 -47 9 -86t26 -67t43 -44t61 -16q28 0 48.5 11.5t34 30.5t20.5 42
t7 46v137h43v-137q0 -24 6 -47.5t19 -42t33 -29.5t49 -11q36 0 62 15.5t43 43t25.5 66.5t8.5 86q0 35 -8.5 67.5t-24 60t-37.5 48.5t-49 33l16 38q34 -11 62 -35.5t47.5 -57.5t30 -72.5t10.5 -81.5q0 -63 -14 -110t-38.5 -78t-58 -46.5t-72.5 -15.5zM339 567q12 18 21.5 38
t9.5 40q0 23 -13.5 41t-48.5 26l15 49q48 -11 71 -34.5t23 -56.5q0 -25 -13.5 -54t-41.5 -58z" />
    <glyph glyph-name="uni1F61" unicode="&#x1f61;" horiz-adv-x="723" 
d="M494 -9q-39 0 -76 17.5t-57 65.5q-25 -48 -60 -65.5t-74 -17.5t-72.5 15.5t-58 46.5t-38 78.5t-13.5 111.5q0 43 11.5 83t32 73.5t48.5 57t60 33.5l16 -38q-29 -11 -51 -32t-38 -49t-24 -61t-8 -67q0 -47 9 -86t26 -67t43 -44t61 -16q28 0 48.5 11.5t34 30.5t20.5 42
t7 46v137h43v-137q0 -24 6 -47.5t19 -42t33 -29.5t49 -11q36 0 62 15.5t43 43t25.5 66.5t8.5 86q0 35 -8.5 67.5t-24 60t-37.5 48.5t-49 33l16 38q34 -11 62 -35.5t47.5 -57.5t30 -72.5t10.5 -81.5q0 -63 -14 -110t-38.5 -78t-58 -46.5t-72.5 -15.5zM365 558
q-28 29 -41.5 58t-13.5 54q0 33 23 56.5t71 34.5l15 -49q-35 -8 -48.5 -26t-13.5 -41q0 -20 9.5 -40t21.5 -38z" />
    <glyph glyph-name="uni1F62" unicode="&#x1f62;" horiz-adv-x="723" 
d="M494 -9q-39 0 -76 17.5t-57 65.5q-25 -48 -60 -65.5t-74 -17.5t-72.5 15.5t-58 46.5t-38 78.5t-13.5 111.5q0 43 11.5 83t32 73.5t48.5 57t60 33.5l16 -38q-29 -11 -51 -32t-38 -49t-24 -61t-8 -67q0 -47 9 -86t26 -67t43 -44t61 -16q28 0 48.5 11.5t34 30.5t20.5 42
t7 46v137h43v-137q0 -24 6 -47.5t19 -42t33 -29.5t49 -11q36 0 62 15.5t43 43t25.5 66.5t8.5 86q0 35 -8.5 67.5t-24 60t-37.5 48.5t-49 33l16 38q34 -11 62 -35.5t47.5 -57.5t30 -72.5t10.5 -81.5q0 -63 -14 -110t-38.5 -78t-58 -46.5t-72.5 -15.5zM247 570q12 18 21.5 38
t9.5 40q0 23 -14 41t-49 26l15 48q48 -11 71.5 -34.5t23.5 -55.5q0 -25 -14 -54.5t-41 -57.5zM336 744l67 12l70 -184l-26 -8z" />
    <glyph glyph-name="uni1F63" unicode="&#x1f63;" horiz-adv-x="723" 
d="M494 -9q-39 0 -76 17.5t-57 65.5q-25 -48 -60 -65.5t-74 -17.5t-72.5 15.5t-58 46.5t-38 78.5t-13.5 111.5q0 43 11.5 83t32 73.5t48.5 57t60 33.5l16 -38q-29 -11 -51 -32t-38 -49t-24 -61t-8 -67q0 -47 9 -86t26 -67t43 -44t61 -16q28 0 48.5 11.5t34 30.5t20.5 42
t7 46v137h43v-137q0 -24 6 -47.5t19 -42t33 -29.5t49 -11q36 0 62 15.5t43 43t25.5 66.5t8.5 86q0 35 -8.5 67.5t-24 60t-37.5 48.5t-49 33l16 38q34 -11 62 -35.5t47.5 -57.5t30 -72.5t10.5 -81.5q0 -63 -14 -110t-38.5 -78t-58 -46.5t-72.5 -15.5zM333 744l68 12l70 -184
l-26 -8zM269 559q-28 28 -41.5 57.5t-13.5 53.5q0 33 23 56.5t71 34.5q1 -3 3.5 -10t4.5 -14.5t4 -14.5t3 -10q-35 -8 -48.5 -25.5t-13.5 -40.5q0 -20 9.5 -40t21.5 -39z" />
    <glyph glyph-name="uni1F64" unicode="&#x1f64;" horiz-adv-x="723" 
d="M494 -9q-39 0 -76 17.5t-57 65.5q-25 -48 -60 -65.5t-74 -17.5t-72.5 15.5t-58 46.5t-38 78.5t-13.5 111.5q0 43 11.5 83t32 73.5t48.5 57t60 33.5l16 -38q-29 -11 -51 -32t-38 -49t-24 -61t-8 -67q0 -47 9 -86t26 -67t43 -44t61 -16q28 0 48.5 11.5t34 30.5t20.5 42
t7 46v137h43v-137q0 -24 6 -47.5t19 -42t33 -29.5t49 -11q36 0 62 15.5t43 43t25.5 66.5t8.5 86q0 35 -8.5 67.5t-24 60t-37.5 48.5t-49 33l16 38q34 -11 62 -35.5t47.5 -57.5t30 -72.5t10.5 -81.5q0 -63 -14 -110t-38.5 -78t-58 -46.5t-72.5 -15.5zM294 568q12 18 21.5 38
t9.5 40q0 23 -14 41t-49 26l15 48q48 -11 71.5 -34.5t23.5 -55.5q0 -25 -14 -54.5t-41 -57.5zM410 559l-26 8l70 184l67 -11z" />
    <glyph glyph-name="uni1F65" unicode="&#x1f65;" horiz-adv-x="723" 
d="M494 -9q-39 0 -76 17.5t-57 65.5q-25 -48 -60 -65.5t-74 -17.5t-72.5 15.5t-58 46.5t-38 78.5t-13.5 111.5q0 43 11.5 83t32 73.5t48.5 57t60 33.5l16 -38q-29 -11 -51 -32t-38 -49t-24 -61t-8 -67q0 -47 9 -86t26 -67t43 -44t61 -16q28 0 48.5 11.5t34 30.5t20.5 42
t7 46v137h43v-137q0 -24 6 -47.5t19 -42t33 -29.5t49 -11q36 0 62 15.5t43 43t25.5 66.5t8.5 86q0 35 -8.5 67.5t-24 60t-37.5 48.5t-49 33l16 38q34 -11 62 -35.5t47.5 -57.5t30 -72.5t10.5 -81.5q0 -63 -14 -110t-38.5 -78t-58 -46.5t-72.5 -15.5zM324 563
q-27 28 -41 57.5t-14 54.5q0 33 23 56.5t71 34.5l16 -49q-35 -8 -49 -26t-14 -41q0 -20 9.5 -40t21.5 -38zM407 564l-25 8l70 184l67 -12z" />
    <glyph glyph-name="uni1F66" unicode="&#x1f66;" horiz-adv-x="723" 
d="M494 -9q-39 0 -76 17.5t-57 65.5q-25 -48 -60 -65.5t-74 -17.5t-72.5 15.5t-58 46.5t-38 78.5t-13.5 111.5q0 43 11.5 83t32 73.5t48.5 57t60 33.5l16 -38q-29 -11 -51 -32t-38 -49t-24 -61t-8 -67q0 -47 9 -86t26 -67t43 -44t61 -16q28 0 48.5 11.5t34 30.5t20.5 42
t7 46v137h43v-137q0 -24 6 -47.5t19 -42t33 -29.5t49 -11q36 0 62 15.5t43 43t25.5 66.5t8.5 86q0 35 -8.5 67.5t-24 60t-37.5 48.5t-49 33l16 38q34 -11 62 -35.5t47.5 -57.5t30 -72.5t10.5 -81.5q0 -63 -14 -110t-38.5 -78t-58 -46.5t-72.5 -15.5zM335 548q14 15 23 27.5
t9 26.5t-11.5 27t-46.5 18l13 39q50 -7 69 -27.5t19 -41.5q0 -17 -12 -37.5t-43 -42.5zM508 758q-15 -32 -39 -46.5t-50 -14.5q-16 0 -32 5.5t-31 12t-30 12t-29 5.5q-18 0 -32 -6.5t-32 -25.5l-22 16q17 32 39.5 45.5t46.5 13.5q17 0 33.5 -6t32.5 -12.5t30.5 -12.5
t28.5 -6t29 7t33 28z" />
    <glyph glyph-name="uni1F67" unicode="&#x1f67;" horiz-adv-x="723" 
d="M494 -9q-39 0 -76 17.5t-57 65.5q-25 -48 -60 -65.5t-74 -17.5t-72.5 15.5t-58 46.5t-38 78.5t-13.5 111.5q0 43 11.5 83t32 73.5t48.5 57t60 33.5l16 -38q-29 -11 -51 -32t-38 -49t-24 -61t-8 -67q0 -47 9 -86t26 -67t43 -44t61 -16q28 0 48.5 11.5t34 30.5t20.5 42
t7 46v137h43v-137q0 -24 6 -47.5t19 -42t33 -29.5t49 -11q36 0 62 15.5t43 43t25.5 66.5t8.5 86q0 35 -8.5 67.5t-24 60t-37.5 48.5t-49 33l16 38q34 -11 62 -35.5t47.5 -57.5t30 -72.5t10.5 -81.5q0 -63 -14 -110t-38.5 -78t-58 -46.5t-72.5 -15.5zM363 539
q-33 19 -45 38.5t-12 36.5q0 21 18.5 43t69.5 29l11 -38q-33 -6 -44.5 -18.5t-11.5 -26.5t9.5 -27t23.5 -27zM513 759q-15 -32 -39 -46.5t-50 -14.5q-16 0 -32 5.5t-31 12t-30 12t-29 5.5q-18 0 -32 -6t-32 -26l-22 16q17 32 39.5 45.5t46.5 13.5q17 0 33.5 -6t32 -12.5
t30.5 -12.5t29 -6t29 7t33 28z" />
    </font>
</defs>
</svg>
