<?xml version="1.0" standalone="no"?>
<!DOCTYPE svg PUBLIC "-//W3C//DTD SVG 1.1//EN" "http://www.w3.org/Graphics/SVG/1.1/DTD/svg11.dtd" >
<svg xmlns="http://www.w3.org/2000/svg" xmlns:xlink="http://www.w3.org/1999/xlink" version="1.1">
<metadata>
Created by FontForge 20190801 at Fri Apr 13 15:21:19 2007
 By Jimmy Wärting
Copyright (c) 2001, 2005 Parachute :, www.parachute.gr.  All rights reserved.
</metadata>
<defs>
<font id="PFHighwaySansPro-Light" horiz-adv-x="1818" >
  <font-face 
    font-family="PF Highway Sans Pro Light"
    font-weight="300"
    font-stretch="normal"
    units-per-em="1000"
    panose-1="2 0 5 0 0 0 0 2 0 4"
    ascent="750"
    descent="-250"
    x-height="488"
    cap-height="651"
    bbox="-334 -246 1760 913"
    underline-thickness="50"
    underline-position="-100"
    unicode-range="U+0020-FB05"
  />
<missing-glyph horiz-adv-x="439" 
d="M0 700h439v-700h-439v700zM363 46l-144 262l-144 -262h288zM363 654h-288l144 -262zM46 86l145 264l-145 264v-528zM393 86v530l-146 -266z" />
    <glyph glyph-name="ff" unicode="ff" horiz-adv-x="511" 
d="M241 685q26 0 54 -5t49 -13q30 30 87 30q11 0 26.5 -1t27.5 -3l-3 -56q-10 1 -16 1h-13q-33 0 -50 -11.5t-17 -45.5v-93h96v-54h-96v-434h-67v434h-158v-434h-68v434h-63v54h63v69q0 66 42 97t106 31zM319 488v102q0 5 1 11.5t3 10.5q-19 4 -37 6.5t-37 2.5
q-42 0 -65 -17.5t-23 -58.5v-57h158z" />
    <glyph glyph-name="fi" unicode="fi" horiz-adv-x="435" 
d="M310 0v434h-156v-434h-66v434h-65v54h65v76q0 32 11 55t30 37.5t44.5 21.5t55.5 7q32 0 62.5 -7.5t47.5 -15.5l-13 -54q-21 5 -44.5 9t-45.5 4q-35 0 -58.5 -14.5t-23.5 -54.5v-64h152l71 17v-505h-67z" />
    <glyph glyph-name="fl" unicode="fl" horiz-adv-x="456" 
d="M327 0v607q-20 4 -41.5 7t-41.5 3q-36 0 -59.5 -15t-23.5 -54v-60h98v-54h-98v-434h-67v434h-64v54h63v72q0 33 11.5 56t31 37.5t45.5 21t55 6.5q26 0 53 -5t47 -12q2 1 10.5 4.5t18 8t18 8t10.5 5.5v-690h-66z" />
    <glyph glyph-name="ffi" unicode="ffi" horiz-adv-x="661" 
d="M238 685q29 0 60.5 -6.5t51.5 -15.5q19 17 45.5 24.5t58.5 7.5t63 -7t48 -15l-13 -54q-22 5 -45.5 8.5t-45.5 3.5q-34 0 -57.5 -14.5t-23.5 -54.5v-74h154l69 17v-505h-66v434h-157v-434h-67v434h-155v-434h-66v434h-65v54h65v71q0 65 41 95.5t105 30.5zM313 488v85
q0 22 6 39q-18 4 -36 6.5t-37 2.5q-41 0 -64 -17t-23 -57v-59h154z" />
    <glyph glyph-name="ffl" unicode="ffl" horiz-adv-x="679" 
d="M485 488v-54h-98v-434h-68v434h-156v-434h-68v434h-64v54h64v76q0 32 11 55t30.5 37.5t45.5 21.5t56 7q29 0 60.5 -6.5t50.5 -13.5q20 20 49 29t64 9q26 0 52.5 -5.5t46.5 -11.5l58 25v-711h-67v628q-20 5 -41.5 8t-40.5 3q-37 0 -60 -14.5t-23 -54.5v-82h98zM319 582
q0 8 1 15.5t3 14.5q-19 4 -39.5 6.5t-37.5 2.5q-36 0 -59.5 -14.5t-23.5 -54.5v-64h156v94z" />
    <glyph glyph-name="ft" unicode="ft" horiz-adv-x="532" 
d="M161 0h-67v434h-64v54h64v81q0 60 29.5 86.5t82.5 26.5q11 0 25.5 -0.5t28.5 -2.5l-2 -56q-8 1 -15 1h-14q-29 0 -48.5 -11.5t-19.5 -46.5v-78h166v120q14 5 31.5 12.5t31.5 14.5v-147h105v-54h-105v-315q0 -38 14 -52t43 -14q25 0 63 6l6 -51q-18 -7 -44.5 -11.5
t-47.5 -4.5q-57 0 -77 32.5t-20 89.5v320h-166v-434z" />
    <glyph glyph-name="fj" unicode="fj" horiz-adv-x="434" 
d="M375 2q0 -45 -6 -79.5t-23.5 -58.5t-50 -37t-84.5 -16l-5 56q36 6 56.5 15.5t31 25.5t13 38.5t2.5 52.5v435h-154v-434h-67v434h-65v54h65v76q0 32 11 55t30 37.5t45 21.5t55 7q32 0 63 -7.5t48 -15.5l-14 -54q-21 5 -44.5 9t-44.5 4q-35 0 -58.5 -14.5t-23.5 -54.5v-64
h152l68 17v-503z" />
    <glyph glyph-name="ffj" unicode="ffj" horiz-adv-x="653" 
d="M88 558q0 65 41 96t106 31q27 0 56 -5.5t52 -13.5q20 17 48 25.5t60 8.5t62.5 -7t47.5 -15l-13 -54q-21 5 -44 8.5t-46 3.5q-34 0 -58 -14.5t-24 -54.5v-79h149l69 17v-503q0 -45 -6 -79.5t-23.5 -58.5t-50 -37t-85.5 -16l-5 56q36 6 56.5 15.5t31 25.5t13.5 38.5t3 52.5
v435h-152v-434h-66v434h-155v-434h-67v434h-65v54h65v70zM310 579q0 18 5 33q-18 4 -36 6.5t-37 2.5q-41 0 -64 -17t-23 -57v-59h155v91z" />
    <glyph glyph-name=".notdef" horiz-adv-x="439" 
d="M0 700h439v-700h-439v700zM363 46l-144 262l-144 -262h288zM363 654h-288l144 -262zM46 86l145 264l-145 264v-528zM393 86v530l-146 -266z" />
    <glyph glyph-name="quotedbl" unicode="&#x22;" horiz-adv-x="352" 
d="M265 439h-42l-17 212h76zM130 439h-41l-17 212h75z" />
    <glyph glyph-name="numbersign" unicode="#" horiz-adv-x="609" 
d="M581 413h-114l-28 -166h113l-10 -62h-114l-33 -185h-67l32 185h-156l-32 -185h-69l33 185h-113l11 62h113l29 166h-113l10 62h114l30 176h67l-30 -176h157l30 176h67l-30 -176h114zM242 415l-29 -170h160l29 170h-160z" />
    <glyph glyph-name="dollar" unicode="$" horiz-adv-x="609" 
d="M261 6q-53 5 -98 26.5t-80 54.5l48 52q35 -32 78 -50t90 -18q67 0 107.5 25.5t40.5 81.5q0 45 -31.5 69t-91.5 44q-50 17 -91.5 32t-71 35t-45.5 49t-16 74q0 33 12 60.5t33.5 49t51 35.5t64.5 19v95h69v-93q98 -8 168 -66l-45 -52q-35 27 -72.5 40.5t-83.5 13.5
q-60 0 -92 -28t-32 -70q0 -23 10.5 -39.5t27.5 -28.5t38 -21t43 -16q35 -12 75 -25t74.5 -34.5t57 -55t22.5 -85.5q0 -73 -47.5 -119.5t-143.5 -54.5v-93h-69v93z" />
    <glyph glyph-name="ampersand" unicode="&#x26;" horiz-adv-x="729" 
d="M538 378q38 0 79 -6t68 -14l-11 -53q-24 6 -46 9t-54 5q2 -14 3 -29t1 -29q0 -69 -21 -120.5t-56.5 -85.5t-82.5 -50.5t-99 -16.5q-62 0 -107.5 18.5t-75 48.5t-44 69t-14.5 80q0 62 35 120t101 102q-74 65 -74 137q0 21 7.5 44t23.5 42.5t41.5 32t61.5 12.5
q27 0 51 -8.5t42 -24.5t28.5 -40t10.5 -55q0 -27 -10 -51t-25 -44t-33 -36t-34 -27q22 -23 38.5 -44t21.5 -53q32 36 77 51.5t97 15.5zM322 47q51 0 86.5 19t58 50t33 70t10.5 79q0 13 -1.5 26.5t-3.5 27.5q-46 -3 -85.5 -30t-71.5 -92l-47 24q8 17 12.5 30t4.5 26
q0 22 -14.5 44t-49.5 58q-49 -31 -78.5 -79.5t-29.5 -96.5q0 -23 7.5 -50t27.5 -50.5t54 -39.5t87 -16zM271 639q-9 0 -20 -3t-21 -11.5t-16.5 -23t-6.5 -37.5q0 -36 16.5 -60.5t42.5 -49.5q75 48 75 111q0 27 -16.5 50.5t-53.5 23.5z" />
    <glyph glyph-name="quotesingle" unicode="'" horiz-adv-x="228" 
d="M135 439h-42l-17 212h76z" />
    <glyph glyph-name="parenleft" unicode="(" horiz-adv-x="304" 
d="M258 667q-32 -38 -58.5 -83t-45.5 -93.5t-30 -99.5t-11 -101q0 -54 11 -106t30 -100t45.5 -91.5t56.5 -80.5l-41 -37q-36 36 -68.5 82t-56.5 99t-38.5 111t-14.5 118q0 61 14 120.5t38.5 113.5t57 101t68.5 83l43 -36v0z" />
    <glyph glyph-name="parenright" unicode=")" horiz-adv-x="304" 
d="M44 667q1 1 7.5 6.5t13.5 11.5t13.5 11.5t8.5 6.5q36 -36 68.5 -83t57 -101t38.5 -113.5t14 -120.5q0 -60 -14.5 -118t-38.5 -110.5t-56.5 -98.5t-68.5 -82l-41 36q62 74 102.5 171.5t40.5 206.5q0 50 -11 100.5t-30 99.5t-46 94t-58 83z" />
    <glyph glyph-name="asterisk" unicode="*" horiz-adv-x="445" 
d="M339 390l-47 -36l-66 108l-65 -109l-48 37l77 96l-115 32l17 57l114 -48l-8 124h56l-8 -124l114 48l18 -57l-118 -32z" />
    <glyph glyph-name="plus" unicode="+" horiz-adv-x="609" 
d="M337 279v-168h-66v168h-168v64h168v175h66v-175h169v-64h-169z" />
    <glyph glyph-name="comma" unicode="," horiz-adv-x="204" 
d="M50 -76q19 14 31.5 32t14.5 41q-22 0 -38 10.5t-16 35.5q0 23 15 38t36 15q24 0 41 -19t17 -52q0 -43 -23 -74t-58 -52z" />
    <glyph glyph-name="hyphen" unicode="-" horiz-adv-x="336" 
d="M53 274v73h232v-73h-232z" />
    <glyph glyph-name="period" unicode="." horiz-adv-x="192" 
d="M145 43q0 -21 -14.5 -36t-35.5 -15t-35.5 14.5t-14.5 36.5t14.5 37t35.5 15t35.5 -15t14.5 -37z" />
    <glyph glyph-name="slash" unicode="/" horiz-adv-x="410" 
d="M2 -80l340 809h68l-339 -809h-69z" />
    <glyph glyph-name="zero" unicode="0" horiz-adv-x="609" 
d="M578 326q0 -76 -19.5 -138t-55 -106t-85.5 -68t-112 -24q-65 0 -115 25t-84.5 69.5t-52.5 106t-18 134.5q0 72 18 133.5t52.5 106.5t84.5 70.5t115 25.5q62 0 112 -24t85.5 -68.5t55 -106t19.5 -136.5zM500 325q0 58 -12 106.5t-36.5 84t-61 55t-84.5 19.5t-84.5 -19.5
t-60.5 -54t-36 -83.5t-12 -107q0 -56 11.5 -104.5t35.5 -84.5t60.5 -57t85.5 -21t85.5 20.5t60.5 56.5t36 84.5t12 104.5z" />
    <glyph glyph-name="one" unicode="1" horiz-adv-x="609" 
d="M285 0v533h-84v49q46 4 65.5 20t30.5 49h63v-651h-75z" />
    <glyph glyph-name="two" unicode="2" horiz-adv-x="609" 
d="M69 0q5 67 27.5 118.5t57 91.5t78.5 71.5t93 60.5q33 20 56.5 36.5t37.5 33t20.5 34t6.5 39.5q0 52 -37 79.5t-106 27.5q-44 0 -87 -16t-81 -45l-43 55q45 35 99.5 55t113.5 20q103 0 160.5 -46t57.5 -124q0 -34 -9 -60.5t-28.5 -50.5t-51 -47t-75.5 -49
q-51 -29 -85.5 -54t-57 -50t-36 -52t-21.5 -60h369v-68h-459z" />
    <glyph glyph-name="three" unicode="3" horiz-adv-x="609" 
d="M518 188q0 -46 -18.5 -82.5t-51.5 -62t-78 -39.5t-98 -14q-70 0 -126 24t-96 65q2 2 9.5 9t16 15.5t16.5 15.5t10 9q35 -34 79 -51.5t92 -17.5q35 0 65.5 8.5t53 24.5t35.5 40t13 55t-12 54t-32 38t-46 22t-55 7h-43v62h44q28 0 51.5 9t40.5 24.5t26.5 36t9.5 43.5
q0 21 -8 40.5t-25.5 35t-45 25t-67.5 9.5q-39 0 -80 -15.5t-73 -41.5l-46 52q42 35 94 54t111 19q47 0 87 -11.5t69 -33.5t45.5 -53.5t16.5 -71.5q0 -46 -26 -87t-82 -64v-2q33 -8 56.5 -24t38.5 -37t22 -44.5t7 -44.5z" />
    <glyph glyph-name="four" unicode="4" horiz-adv-x="609" 
d="M479 148v-148h-70v148h-371v67l362 436h79v-436h88v-67h-88zM409 556l-284 -341h284v341z" />
    <glyph glyph-name="five" unicode="5" horiz-adv-x="609" 
d="M545 215q0 -56 -18.5 -98.5t-52.5 -70.5t-81.5 -42t-105.5 -14q-62 0 -116.5 15t-102.5 43l34 59q43 -23 92.5 -36.5t95.5 -13.5q84 0 131.5 39.5t47.5 114.5q0 34 -12 60t-32.5 43t-49 25.5t-61.5 8.5q-44 0 -85.5 -13t-69.5 -33q-3 1 -13.5 5.5t-23 9.5t-23 9t-12.5 5
q1 13 2.5 38t3.5 56t4.5 65.5t4.5 65.5t4 56.5t3 38.5h391v-67h-328q-1 -15 -2.5 -43.5t-4 -59.5t-4.5 -59.5t-3 -43.5l2 -1q45 23 85 30.5t78 7.5q52 0 93.5 -15t70 -41.5t43.5 -63.5t15 -80z" />
    <glyph glyph-name="six" unicode="6" horiz-adv-x="609" 
d="M296 -10q-49 0 -92.5 14.5t-75.5 46t-51 79.5t-19 116q0 63 19 133t64.5 130t121 102t187.5 48v-66q-128 -10 -206 -74.5t-110 -194.5h3q20 22 44 36.5t48.5 22.5t49.5 11.5t46 3.5q43 0 83 -11.5t71.5 -35.5t50.5 -61t19 -88t-18.5 -90.5t-52.5 -66.5t-80.5 -41
t-101.5 -14zM310 335q-38 0 -70.5 -9t-56 -26.5t-37 -43t-13.5 -58.5q0 -26 11 -51.5t32 -46t52.5 -33.5t72.5 -13q78 0 126 37.5t48 105.5q0 72 -46.5 105t-118.5 33z" />
    <glyph glyph-name="seven" unicode="7" horiz-adv-x="609" 
d="M523 576q-48 -52 -90 -116.5t-73.5 -138.5t-49.5 -155t-19 -166h-76q1 75 17 153t45 153.5t71.5 146t97.5 130.5h-378v68h454l1 -75v0z" />
    <glyph glyph-name="eight" unicode="8" horiz-adv-x="609" 
d="M305 -10q-122 0 -186.5 51t-64.5 142q0 25 7.5 50.5t23.5 47.5t41 39.5t61 28.5v1q-33 10 -53.5 27.5t-32 37t-15 38.5t-3.5 32q0 43 17 76t47.5 55.5t72 33.5t89.5 11q46 0 87 -11t71 -33t47.5 -55t17.5 -76q0 -12 -3.5 -30.5t-14.5 -38t-32 -38t-56 -29.5v-1
q36 -9 61.5 -26.5t42 -39.5t24.5 -48t8 -52q0 -89 -67 -141t-190 -52zM306 314q-82 0 -130.5 -33.5t-48.5 -95.5q0 -33 13 -58t37 -42t57 -26t73 -9q39 0 72 8.5t57 25.5t38 41t14 56q0 65 -47.5 99t-134.5 34zM307 601q-75 0 -112.5 -33t-37.5 -82q0 -26 11.5 -46.5
t31.5 -35t47.5 -22t60.5 -7.5q68 0 109 29.5t41 78.5q0 24 -9 45.5t-27.5 37.5t-47 25.5t-67.5 9.5z" />
    <glyph glyph-name="nine" unicode="9" horiz-adv-x="609" 
d="M308 659q49 0 92.5 -14.5t76 -45t51.5 -79t19 -117.5q0 -63 -19 -133t-64.5 -130t-121 -102t-187.5 -48v65q127 9 204.5 74t111.5 195l-2 2q-22 -24 -47.5 -38.5t-51 -22.5t-49.5 -11t-43 -3q-43 0 -83 11t-71 35t-50 61t-19 89t19.5 91.5t53 66.5t80 40.5t100.5 13.5z
M296 313q38 0 70 9.5t55.5 27.5t37 44t13.5 58q0 25 -10.5 50t-31.5 45t-52.5 33t-73.5 13q-39 0 -71 -9.5t-55.5 -27.5t-36.5 -44.5t-13 -60.5q0 -36 12.5 -62t35 -43t53.5 -25t67 -8z" />
    <glyph glyph-name="colon" unicode=":" horiz-adv-x="218" 
d="M160 369q0 -22 -14.5 -36.5t-35.5 -14.5t-35.5 14.5t-14.5 36.5q0 21 14.5 36.5t35.5 15.5t35.5 -15.5t14.5 -36.5zM160 43q0 -21 -14.5 -36t-35.5 -15t-35.5 14.5t-14.5 36.5t14.5 37t35.5 15t35.5 -15t14.5 -37z" />
    <glyph glyph-name="semicolon" unicode=";" horiz-adv-x="226" 
d="M168 369q0 -22 -15 -37t-36 -15q-22 0 -37.5 15t-15.5 37q0 21 15.5 36.5t37.5 15.5q21 0 36 -15t15 -37zM68 -77q18 14 31 32t15 41q-22 -2 -38 11t-16 37q0 23 15 38t36 15q24 0 41 -19t17 -52q0 -44 -23 -75t-58 -53z" />
    <glyph glyph-name="question" unicode="?" horiz-adv-x="488" 
d="M248 659q47 0 83.5 -13.5t61 -36.5t37 -54t12.5 -66q0 -36 -12 -65t-30 -54t-39 -47t-39.5 -45.5t-31 -50t-13.5 -58.5h-71q0 35 12.5 65.5t30.5 57.5t39 52t39 48.5t30 47t12 49.5q0 16 -6 34.5t-20.5 33.5t-38.5 25t-59 10q-34 0 -58.5 -11.5t-41 -29.5t-25.5 -39
t-12 -39h-73q4 45 23 79.5t47.5 58t65 36t77.5 12.5zM241 -7q-21 0 -35 13.5t-14 35.5q0 25 15.5 37.5t34.5 12.5q21 0 34.5 -14.5t13.5 -35.5t-14 -35t-35 -14z" />
    <glyph glyph-name="at" unicode="@" horiz-adv-x="830" 
d="M381 135q-56 0 -93 40t-37 117q0 56 14 97t36.5 67.5t50.5 39.5t57 13q22 0 47 -8.5t47 -30.5l3 32h56l-22 -263v-7q0 -22 10 -35t32 -13q24 0 46.5 14t39 39.5t26.5 60.5t10 76q0 62 -22.5 109.5t-60 80t-86.5 49t-102 16.5q-67 0 -123.5 -23t-98 -63.5t-65 -96
t-23.5 -120.5q0 -71 22.5 -127.5t63.5 -97t97.5 -62t125.5 -21.5q57 0 101.5 9t94.5 31l17 -47q-49 -18 -99 -29.5t-110 -11.5q-79 0 -146 24.5t-116 70.5t-76.5 112t-27.5 149q0 75 27.5 139t76 111t114.5 74t144 27q73 0 133.5 -21.5t103.5 -61.5t66.5 -95.5t23.5 -124.5
q0 -56 -14.5 -100t-39.5 -75.5t-58.5 -48t-70.5 -16.5q-12 0 -25.5 3t-25.5 9t-21 15.5t-13 21.5h-2q-23 -22 -51 -35t-57 -13zM396 187q23 0 44.5 13t41.5 36l14 174q-13 18 -35 32.5t-48 14.5q-25 0 -44 -13t-32 -35t-20 -51t-7 -61q0 -52 23 -81t63 -29z" />
    <glyph glyph-name="A" unicode="A" horiz-adv-x="621" 
d="M446 222q-33 87 -66.5 172.5t-65.5 173.5h-3q-14 -38 -30 -80.5t-29 -76.5q-6 -17 -16 -42t-20.5 -52.5t-20 -53t-15.5 -41.5h266zM155 154q-14 -39 -29.5 -77.5t-29.5 -76.5h-79q65 164 128 325.5t128 325.5h82q64 -164 127.5 -325.5t128.5 -325.5h-80q-15 38 -30 76.5
t-29 77.5h-317z" />
    <glyph glyph-name="B" unicode="B" horiz-adv-x="595" 
d="M545 193q0 -93 -56 -143t-159 -50h-262v651h266q82 0 132.5 -41.5t50.5 -119.5q0 -45 -25 -83t-69 -53v-3q26 -6 48.5 -20t39 -35t25.5 -47t9 -56zM140 583v-201h190q53 0 82.5 29.5t29.5 72.5q0 45 -27 72t-81 27h-194zM140 314v-245h192q69 0 102.5 33t33.5 90
q0 59 -39 90.5t-99 31.5h-190z" />
    <glyph glyph-name="C" unicode="C" horiz-adv-x="556" 
d="M320 662q66 0 116.5 -22t88.5 -67l-53 -53q-33 37 -70 54t-83 17q-47 0 -83 -19.5t-61 -55t-38 -84t-13 -105.5q0 -56 12.5 -105t37 -85t61.5 -56.5t86 -20.5q88 0 154 75l53 -49q-38 -45 -88 -70.5t-121 -25.5q-60 0 -110.5 23t-86.5 66.5t-56 105.5t-20 141
q0 78 20 140t56.5 105.5t87 67t110.5 23.5z" />
    <glyph glyph-name="D" unicode="D" horiz-adv-x="612" 
d="M238 651q66 0 124.5 -18t103 -57t70 -100.5t25.5 -149.5t-26 -150t-71 -101t-104 -57t-125 -18h-162v651h165zM148 582v-513h89q63 0 109 18.5t76.5 52t45.5 81t15 104.5t-15 104.5t-45.5 81t-76.5 52.5t-108 19h-90z" />
    <glyph glyph-name="E" unicode="E" horiz-adv-x="510" 
d="M66 0v651h415v-69h-340v-200h242v-69h-242v-244h353v-69h-428z" />
    <glyph glyph-name="F" unicode="F" horiz-adv-x="495" 
d="M146 581v-207h240v-69h-240v-305h-75v651h418v-70h-343z" />
    <glyph glyph-name="G" unicode="G" horiz-adv-x="594" 
d="M315 660q66 0 117 -22.5t90 -68.5l-54 -52q-65 72 -154 72q-48 0 -84.5 -19.5t-61 -55t-37 -84t-12.5 -105.5q0 -59 12.5 -107.5t37.5 -84t62 -55t86 -19.5q47 0 79 15.5t52 40.5t29 55.5t9 59.5v23h-110v67h187v-60q0 -63 -17.5 -113.5t-50 -85t-78 -53t-102.5 -18.5
q-64 0 -114.5 23.5t-86 67.5t-54.5 105.5t-19 138.5q0 79 20 141t56.5 105t87 66t110.5 23z" />
    <glyph glyph-name="H" unicode="H" horiz-adv-x="622" 
d="M480 0v305h-339v-305h-76v651h76v-276h339v276h76v-651h-76z" />
    <glyph glyph-name="I" unicode="I" horiz-adv-x="243" 
d="M83 0v651h77v-651h-77z" />
    <glyph glyph-name="J" unicode="J" horiz-adv-x="549" 
d="M476 254q0 -134 -56 -199t-173 -65q-90 0 -142 40t-78 112l72 27q21 -52 55.5 -80t94.5 -28q84 0 117.5 52.5t33.5 148.5v389h76v-397z" />
    <glyph glyph-name="K" unicode="K" horiz-adv-x="579" 
d="M472 0q-8 16 -23 44t-33.5 62.5t-38.5 72.5t-38.5 72.5t-33.5 63t-23 44.5q-10 -13 -29.5 -37.5t-41 -52t-41 -52t-29.5 -37.5v-180h-76v651h76v-365h2l86 115l195 250h88l-180 -228q9 -18 27 -51t40.5 -74.5t46.5 -86t46 -86t40 -74.5t27 -51h-87z" />
    <glyph glyph-name="L" unicode="L" horiz-adv-x="485" 
d="M65 0v651h76v-581h337v-70h-413z" />
    <glyph glyph-name="M" unicode="M" horiz-adv-x="713" 
d="M569 481h-2l-58 -138q-22 -48 -44 -97t-42.5 -93.5t-38 -82t-30.5 -64.5q-30 60 -58 122q-12 26 -25 55l-26 58t-25.5 57t-22.5 54q-6 14 -14.5 35t-16.5 41t-14 35.5t-7 18.5h-2v-482h-74v651h77q12 -27 28.5 -63t35.5 -77t38 -84.5t36 -83.5l70 -164h4q18 41 35.5 81
t34.5 82q4 9 15 33t25 56t30 67t30 66t24.5 54.5t14.5 32.5h76v-651h-74v481z" />
    <glyph glyph-name="N" unicode="N" horiz-adv-x="610" 
d="M478 0q-24 36 -57.5 87.5t-72 110t-78 119t-74.5 114.5q-17 26 -32.5 51t-22.5 37h-2v-519h-75v651h74q58 -89 115.5 -176t115.5 -175q12 -18 25.5 -39t27 -43t26 -42.5t23.5 -36.5h2v512h75v-651h-70v0z" />
    <glyph glyph-name="O" unicode="O" horiz-adv-x="635" 
d="M589 326q0 -76 -19.5 -138t-55 -106t-85.5 -68t-112 -24q-65 0 -115 25t-85 69.5t-53 106t-18 134.5q0 72 18.5 133.5t53 106.5t85 70.5t114.5 25.5q62 0 112 -24t85.5 -68.5t55 -106t19.5 -136.5zM511 325q0 57 -12 106t-36.5 85t-61 56t-84.5 20t-84.5 -20t-60.5 -55.5
t-36.5 -84t-12.5 -106.5q0 -55 12 -103.5t36.5 -85t61 -57.5t84.5 -21q49 0 85.5 21.5t60.5 57.5t36 84.5t12 102.5z" />
    <glyph glyph-name="P" unicode="P" horiz-adv-x="552" 
d="M540 454q0 -51 -16 -88.5t-44.5 -63t-68 -38t-87.5 -12.5h-184v-252h-74v651h265q46 0 84 -12t66 -37t43.5 -62t15.5 -86zM140 583v-262h189q64 0 99 34t35 97t-36.5 97t-96.5 34h-190z" />
    <glyph glyph-name="Q" unicode="Q" horiz-adv-x="637" 
d="M593 327q0 -91 -28 -160.5t-79 -114.5l40 -62l-56 -37l-40 62q-27 -13 -53.5 -18.5t-55.5 -5.5q-62 0 -112 23.5t-85 67t-54.5 105.5t-19.5 139q0 76 19.5 138t54.5 106t85 67.5t112 23.5t112 -23.5t85.5 -67t55 -105.5t19.5 -138zM516 326q0 58 -12.5 106.5t-37 84
t-61 55.5t-84.5 20t-84.5 -19.5t-61 -54.5t-36.5 -84t-12 -107q0 -57 12 -106.5t36 -85.5t60.5 -56.5t85.5 -20.5q17 0 36 3t36 11l-46 71l56 35l43 -67q38 40 54 95t16 120z" />
    <glyph glyph-name="R" unicode="R" horiz-adv-x="583" 
d="M447 0l-118 257h-190v-257h-74v651h268q45 0 83.5 -12t66 -36t43 -60.5t15.5 -86.5q0 -75 -36 -123t-101 -66l130 -267h-87zM465 454q0 63 -37 96t-97 33h-192v-259h192q64 0 99 34.5t35 95.5z" />
    <glyph glyph-name="S" unicode="S" horiz-adv-x="534" 
d="M508 173q0 -84 -59.5 -133.5t-179.5 -49.5q-66 0 -122.5 23t-98.5 62l50 55q37 -33 82.5 -52t93.5 -19q71 0 113.5 25.5t42.5 86.5q0 28 -12.5 48t-34.5 34.5t-52 25t-64 21.5q-47 15 -84 30t-63 35.5t-40 49.5t-14 71q0 39 16 71.5t44.5 55.5t68 35.5t85.5 12.5
q60 0 111 -18t93 -52q-2 -3 -9 -11t-14.5 -17t-14.5 -17t-9 -10q-36 29 -76 42.5t-89 13.5q-63 0 -96.5 -29t-33.5 -73q0 -24 11 -41.5t28.5 -29.5t40 -21t45.5 -17q37 -12 79 -25.5t78 -36t60 -57t24 -89.5z" />
    <glyph glyph-name="T" unicode="T" horiz-adv-x="502" 
d="M291 582v-582h-74v582h-198v69h471v-69h-199z" />
    <glyph glyph-name="U" unicode="U" horiz-adv-x="616" 
d="M556 270q0 -142 -65 -211t-183 -69q-116 0 -179 70.5t-63 210.5v380h75v-377q0 -98 42 -155.5t127 -57.5q88 0 129 55.5t41 151.5v383h76v-381z" />
    <glyph glyph-name="V" unicode="V" horiz-adv-x="595" 
d="M258 0l-231 651h81l148 -420l44 -131h3q15 44 29.5 87t28.5 87l132 377h80l-229 -651h-86z" />
    <glyph glyph-name="W" unicode="W" horiz-adv-x="753" 
d="M378 518l-36 -149q-4 -15 -11 -44t-16 -65t-18.5 -75.5t-18 -75.5t-15.5 -65t-11 -44h-87l-139 651h77l9 -45t13.5 -66.5t15 -76.5t15 -76.5t13.5 -66t9 -44.5l32 -162h2l39 161q4 15 11.5 45t16 66.5t18.5 76.5t18.5 76.5t16 66t11.5 45.5h73q4 -15 11.5 -45t16.5 -67
t19 -78t19 -78t16.5 -67t11.5 -45l37 -157h1q3 13 7.5 34.5t9 44.5t8.5 44t7 34l77 380h74q-6 -27 -16.5 -78t-24 -114.5t-28.5 -133t-28.5 -133t-24.5 -114.5t-17 -78h-88q-4 15 -11 44t-15.5 64.5t-17.5 75t-17.5 75t-15.5 64.5t-11 44q-1 4 -6 26.5t-11.5 49t-12 49
t-6.5 26.5h-2z" />
    <glyph glyph-name="X" unicode="X" horiz-adv-x="549" 
d="M431 0l-158 270l-157 -270h-87l206 334l-193 317h89l144 -249l146 249h85l-192 -315l205 -336h-88z" />
    <glyph glyph-name="Y" unicode="Y" horiz-adv-x="560" 
d="M317 231v-231h-75v231l-234 420h86l186 -351l187 351h84z" />
    <glyph glyph-name="Z" unicode="Z" horiz-adv-x="553" 
d="M523 582l-397 -513h395v-69h-484v68l398 514h-379v69h467v-69z" />
    <glyph glyph-name="bracketleft" unicode="[" horiz-adv-x="311" 
d="M69 -113v815h200v-64h-127v-686h127v-65h-200z" />
    <glyph glyph-name="backslash" unicode="\" horiz-adv-x="410" 
d="M341 -80l-339 809h68l340 -809h-69z" />
    <glyph glyph-name="bracketright" unicode="]" horiz-adv-x="319" 
d="M66 -113v65h127v686h-127v64h200v-815h-200z" />
    <glyph glyph-name="asciicircum" unicode="^" horiz-adv-x="520" 
d="M393 335l-131 251l-132 -251h-68l172 316h58l171 -316h-70z" />
    <glyph glyph-name="underscore" unicode="_" horiz-adv-x="497" 
d="M0 -124v54h497v-54h-497z" />
    <glyph glyph-name="grave" unicode="`" horiz-adv-x="483" 
d="M143 713l83 15l72 -159l-38 -13z" />
    <glyph glyph-name="a" unicode="a" horiz-adv-x="477" 
d="M245 497q85 0 130.5 -39.5t45.5 -118.5v-339h-70v48h-2q-39 -35 -77.5 -46t-73.5 -11q-29 0 -58 8.5t-52.5 27t-38 47.5t-14.5 71q0 36 13.5 65t38 49.5t58 31.5t73.5 11q32 0 64.5 -6.5t68.5 -26.5v60q0 56 -28.5 81.5t-85.5 25.5q-36 0 -67 -9t-62 -24l-24 56
q35 17 74 27.5t87 10.5zM351 209q-30 17 -60 27t-72 10q-48 0 -81 -25.5t-33 -73.5t28 -73t81 -25q39 2 74.5 21t62.5 46v93z" />
    <glyph glyph-name="b" unicode="b" horiz-adv-x="501" 
d="M270 497q35 0 68.5 -13.5t59 -43t41 -77t15.5 -114.5q0 -66 -16 -114.5t-42.5 -81t-60.5 -48t-70 -15.5q-33 0 -67 11t-69 46h-2v-47h-71v660l71 32v-255h2q40 35 74 47.5t67 12.5zM253 435q-19 0 -37 -6t-34.5 -16t-30.5 -22.5t-24 -24.5v-246q21 -27 53.5 -48.5
t73.5 -21.5q28 0 52 13.5t41 38t27 59t10 76.5q0 97 -32.5 147.5t-98.5 50.5z" />
    <glyph glyph-name="c" unicode="c" horiz-adv-x="438" 
d="M251 497q98 0 160 -69l-47 -47q-27 29 -55 41t-60 12q-31 0 -55.5 -14.5t-41.5 -40t-26 -60t-9 -75.5t8.5 -75.5t26 -60t42.5 -40t58 -14.5t59.5 12.5t53.5 40.5l47 -43q-29 -34 -67.5 -54t-95.5 -20q-42 0 -79 15.5t-64.5 47t-43.5 79.5t-16 112q0 61 15.5 108
t43.5 79.5t65 49t81 16.5z" />
    <glyph glyph-name="d" unicode="d" horiz-adv-x="498" 
d="M246 497q70 0 124 -51h2v214l71 32v-692h-71v48h-2q-36 -36 -72 -47t-70 -11q-36 0 -69 14t-58.5 44t-40.5 76t-15 110q0 71 18 121t46.5 81.5t64.5 46t72 14.5zM251 435q-64 0 -100 -51t-36 -144q0 -88 35 -139t95 -51q41 0 73.5 21.5t54.5 48.5v247q-20 27 -52.5 47.5
t-69.5 20.5z" />
    <glyph glyph-name="e" unicode="e" horiz-adv-x="489" 
d="M251 497q49 0 86.5 -17.5t63 -50t39 -78t13.5 -101.5v-33h-337q5 -81 45 -123t97 -42q32 0 62 13t53 34l42 -45q-67 -64 -164 -64q-41 0 -78.5 16t-66 48t-45 79.5t-16.5 109.5q0 59 16 106t43.5 80t65 50.5t81.5 17.5zM383 274q0 33 -8 62.5t-24.5 51t-41.5 34.5t-60 13
q-26 0 -49 -11.5t-41 -33t-29.5 -51t-13.5 -65.5h267z" />
    <glyph glyph-name="f" unicode="f" horiz-adv-x="286" 
d="M166 0h-72v429h-63v59h63v93q0 57 31.5 82.5t82.5 25.5q12 0 31 -1t31 -3l-2 -58q-11 1 -20.5 1h-17.5q-31 0 -47.5 -11t-16.5 -43v-86h103v-59h-103v-429z" />
    <glyph glyph-name="g" unicode="g" horiz-adv-x="500" 
d="M444 34q0 -88 -45.5 -150.5t-151.5 -90.5l-23 60q49 16 78.5 35t45.5 40t21 43.5t5 43.5v38h-2q-41 -36 -75 -48t-66 -12q-36 0 -69.5 13t-59 42.5t-41 77.5t-15.5 119q0 64 16.5 111t43 78.5t60.5 47t69 15.5q33 0 67.5 -11.5t67.5 -45.5h2v48h72v-454zM373 366
q-21 27 -53.5 49t-73.5 22q-28 0 -52 -14t-41 -38.5t-27 -59t-10 -76.5q0 -97 33 -146t99 -49q38 0 71.5 22t53.5 48v242z" />
    <glyph glyph-name="h" unicode="h" horiz-adv-x="487" 
d="M439 0h-72v293q0 69 -27 105.5t-88 36.5q-45 0 -77 -29.5t-43 -72.5q-5 -18 -5 -42v-291h-71v660l71 32v-272h3q27 41 67 59t76 18q85 0 125.5 -49.5t40.5 -143.5v-304z" />
    <glyph glyph-name="i" unicode="i" horiz-adv-x="229" 
d="M160 619q0 -18 -13.5 -31.5t-31.5 -13.5q-19 0 -32.5 13.5t-13.5 31.5q0 19 13.5 32t31.5 13q19 0 32.5 -13t13.5 -32zM79 0v488h71v-488h-71z" />
    <glyph glyph-name="j" unicode="j" horiz-adv-x="229" 
d="M167 619q0 -18 -13.5 -31.5t-31.5 -13.5q-19 0 -32 13.5t-13 31.5q0 19 13 32t32 13q18 0 31.5 -13t13.5 -32zM156 -5q0 -45 -6 -80t-23.5 -59t-50.5 -37t-87 -15l-6 60q35 6 55.5 15t31 23.5t13 35t2.5 49.5v501h71v-493z" />
    <glyph glyph-name="k" unicode="k" horiz-adv-x="437" 
d="M345 0l-116 270l-103 -131v-139h-70v660l70 32v-451h2q6 7 16 21t20.5 28t20 26.5t13.5 18.5l118 152h87l-125 -158q6 -14 17.5 -40t25.5 -58t29.5 -67t29.5 -67t25.5 -58t17.5 -39h-78z" />
    <glyph glyph-name="l" unicode="l" horiz-adv-x="205" 
d="M67 0v660l71 33v-693h-71z" />
    <glyph glyph-name="m" unicode="m" horiz-adv-x="757" 
d="M128 421q26 43 63.5 59t72.5 16q50 0 84.5 -22.5t49.5 -64.5h1q36 49 74.5 68t79.5 19q84 0 119 -49.5t35 -142.5v-304h-71v293q0 66 -21.5 103.5t-81.5 37.5q-21 0 -39 -8t-33 -22t-25.5 -32.5t-14.5 -39.5q-5 -18 -5 -37v-295h-71v297q0 64 -22 100.5t-81 36.5
q-43 0 -71.5 -27.5t-39.5 -69.5q-2 -11 -4 -23t-2 -24v-290h-71v488h71v-67h3z" />
    <glyph glyph-name="n" unicode="n" horiz-adv-x="487" 
d="M438 0h-72v293q0 69 -27 105.5t-88 36.5q-45 0 -77 -29.5t-43 -71.5q-5 -20 -5 -43v-291h-71v488h71v-69l2 -1q27 42 67 60.5t77 18.5q85 0 125.5 -49.5t40.5 -143.5v-304z" />
    <glyph glyph-name="o" unicode="o" horiz-adv-x="513" 
d="M468 246q0 -61 -16.5 -108.5t-45 -80.5t-67.5 -50t-85 -17q-47 0 -85.5 17.5t-66 50.5t-42.5 80t-15 106q0 61 16 108.5t44.5 79.5t67 48.5t83.5 16.5t84 -17t67.5 -49.5t44.5 -79t16 -105.5zM397 244q0 41 -9 76t-27 60.5t-45 40t-62 14.5q-33 0 -59 -15t-43 -40.5
t-26 -60t-9 -73.5q0 -88 37.5 -140.5t103.5 -52.5q35 0 61 15.5t43.5 41.5t26 60.5t8.5 73.5z" />
    <glyph glyph-name="p" unicode="p" horiz-adv-x="500" 
d="M454 248q0 -69 -17.5 -118t-46 -79.5t-63.5 -45t-71 -14.5q-35 0 -66 12t-62 43h-2v-205l-70 -33v681h71v-49h2q34 33 70 45.5t70 12.5q35 0 68.5 -14.5t59.5 -45t41.5 -77.5t15.5 -113zM384 249q0 88 -36 138t-94 50q-42 0 -74.5 -21t-53.5 -48v-247q20 -27 53 -47.5
t69 -20.5q66 0 101 50.5t35 145.5z" />
    <glyph glyph-name="q" unicode="q" horiz-adv-x="498" 
d="M45 249q0 64 16.5 110.5t43 77t60.5 45.5t69 15q33 0 67.5 -11t68.5 -46h2v48h71v-648l-71 -32v242h-2q-40 -35 -74 -47.5t-66 -12.5q-36 0 -69.5 14t-59 44.5t-41 80t-15.5 120.5zM115 253q0 -97 33 -149t99 -52q38 0 71.5 22t53.5 47v245q-21 27 -53.5 49t-73.5 22
q-28 0 -51.5 -13t-41 -37t-27.5 -58t-10 -76z" />
    <glyph glyph-name="r" unicode="r" horiz-adv-x="349" 
d="M328 416q-17 3 -32 5t-29 2q-62 0 -93.5 -36t-31.5 -102v-285h-71v488h71v-67l2 -1q20 41 56.5 59t77.5 18q31 0 66 -11z" />
    <glyph glyph-name="s" unicode="s" horiz-adv-x="438" 
d="M399 129q0 -34 -14.5 -60t-39.5 -43.5t-59 -26.5t-73 -9q-45 0 -91 12t-84 34l27 55q38 -20 77 -30.5t73 -10.5q20 0 40.5 4t37 13t26.5 23t10 34q0 21 -9.5 35.5t-26 25.5t-39 19.5t-49.5 17.5q-34 10 -62.5 23t-49.5 30t-32.5 39t-11.5 51t12.5 53.5t35.5 42t55.5 27
t73.5 9.5q83 0 154 -36l-24 -57q-36 19 -71 25.5t-60 6.5q-48 0 -77.5 -19.5t-29.5 -46.5q0 -26 22.5 -46.5t84.5 -38.5q37 -11 68.5 -24t55 -31t37 -42.5t13.5 -58.5z" />
    <glyph glyph-name="t" unicode="t" horiz-adv-x="313" 
d="M169 488h102v-60h-102v-313q0 -33 13 -45.5t41 -12.5q14 0 29 2t35 5q0 -2 1 -10t2 -17t2 -17t1 -10q-16 -7 -42 -12t-48 -5q-53 0 -77.5 27.5t-24.5 84.5v323h-74v60h75v118l67 30v-148z" />
    <glyph glyph-name="u" unicode="u" horiz-adv-x="486" 
d="M52 488h71v-294q0 -72 26 -107t87 -35q45 0 75.5 28.5t41.5 70.5q6 21 6 46v291h71v-488h-71v68h-3q-27 -42 -65.5 -60t-74.5 -18q-164 0 -164 187v311z" />
    <glyph glyph-name="v" unicode="v" horiz-adv-x="450" 
d="M186 0l-175 488h74q23 -71 47 -140t48 -139q3 -10 9 -27t12.5 -36t12 -36.5t8.5 -27.5h3q11 32 21 63.5t20 63.5q24 70 47 139t47 140h73l-173 -488h-74z" />
    <glyph glyph-name="w" unicode="w" horiz-adv-x="623" 
d="M407 0l-80 303l-19 78h-2q-6 -26 -13 -51.5t-14 -51.5l-74 -278h-63l-130 488h72l59 -240l31 -139h3l36 141l63 238h65l66 -249l31 -130h3l31 131l62 248h72q-34 -123 -67 -244t-66 -244h-66z" />
    <glyph glyph-name="x" unicode="x" horiz-adv-x="419" 
d="M316 0l-109 193l-110 -193h-80l152 252l-141 236h81l100 -176l101 176h79l-142 -233l153 -255h-84z" />
    <glyph glyph-name="y" unicode="y" horiz-adv-x="463" 
d="M135 -187l63 180l-183 495h75l90 -258l49 -147h3q13 37 25.5 73.5t24.5 73.5q8 22 20.5 56.5t26 72t25.5 72.5t20 57h72q-61 -168 -122.5 -338t-122.5 -337h-66z" />
    <glyph glyph-name="z" unicode="z" horiz-adv-x="450" 
d="M126 61h280v-61h-367v58q12 17 34 46t49.5 64t56.5 73.5t56.5 73.5t49.5 64t34 46l-1 3h-260v60h348v-57q-13 -17 -35 -46t-49 -64.5t-56.5 -73.5t-57 -73.5t-49.5 -64.5t-34 -46z" />
    <glyph glyph-name="braceleft" unicode="{" horiz-adv-x="317" 
d="M240 -112q-60 0 -89 35t-29 96v125q0 21 -3.5 41.5t-12 37.5t-22 28.5t-33.5 14.5v49q21 2 34.5 13.5t21.5 28.5t11.5 38.5t3.5 43.5v120q0 61 29 96t90 35h47v-57h-39q-17 0 -28.5 -7.5t-18 -20.5t-9 -31t-2.5 -38v-101q0 -61 -23 -96.5t-51 -46.5v-4q14 -5 27.5 -16
t24 -28.5t16.5 -42t6 -57.5v-102q0 -20 2.5 -38t9 -31t18 -20.5t28.5 -7.5h39v-57h-48z" />
    <glyph glyph-name="bar" unicode="|" horiz-adv-x="231" 
d="M88 -123v871h66v-871h-66z" />
    <glyph glyph-name="braceright" unicode="}" horiz-adv-x="317" 
d="M52 -112v57h39q34 0 46 28t12 69v102q0 66 22.5 100t51.5 44v4q-29 11 -51.5 46.5t-22.5 96.5v101q0 20 -2.5 38t-9 31t-18 20.5t-28.5 7.5h-39v57h47q60 0 89 -35t29 -96v-120q0 -22 3.5 -43.5t12 -38.5t22 -28.5t34.5 -13.5v-49q-20 -3 -34 -14.5t-22.5 -28.5
t-12 -37.5t-3.5 -41.5v-125q0 -61 -28.5 -96t-88.5 -35h-48z" />
    <glyph glyph-name="asciitilde" unicode="~" horiz-adv-x="609" 
d="M540 365q-45 -94 -130 -94q-24 0 -50.5 10.5t-52.5 22.5t-51 22.5t-47 10.5q-29 0 -48.5 -16t-38.5 -41l-43 22q12 27 28 45.5t33.5 29.5t35.5 16t34 5q26 0 53 -10t53 -22.5t50 -22.5t45 -10q29 0 49 14.5t39 43.5z" />
    <glyph glyph-name="dieresistonos" unicode="&#x385;" horiz-adv-x="483" 
d="M414 627q0 -18 -13 -31t-30 -13q-18 0 -31.5 13t-13.5 31q0 19 13 31.5t32 12.5q17 0 30 -12.5t13 -31.5zM168 627q0 -18 -13.5 -31t-30.5 -13q-18 0 -31 13t-13 31q0 19 13 31.5t31 12.5q17 0 30.5 -12.5t13.5 -31.5zM219 556l-38 14l63 151l83 -15z" />
    <glyph glyph-name="tonos" unicode="&#x384;" horiz-adv-x="483" 
d="M241 556l-38 13l70 161l82 -15z" />
    <glyph glyph-name="dieresis" unicode="&#xa8;" horiz-adv-x="483" 
d="M393 627q0 -18 -13 -31t-30 -13q-18 0 -31.5 13t-13.5 31q0 19 13 31.5t32 12.5q17 0 30 -12.5t13 -31.5zM201 627q0 -18 -13.5 -31t-30.5 -13q-18 0 -31.5 13t-13.5 31q0 19 13.5 31.5t31.5 12.5q17 0 30.5 -12.5t13.5 -31.5z" />
    <glyph glyph-name="sterling" unicode="&#xa3;" horiz-adv-x="609" 
d="M80 67q43 43 64 89.5t22 112.5h-87v60h80q-5 22 -12.5 42t-14 39t-11 38.5t-4.5 40.5q0 34 14 65t40.5 55t64 38t84.5 14q77 0 126.5 -28.5t81.5 -77.5l-61 -41q-26 37 -61 58.5t-86 21.5q-21 0 -44 -6.5t-41.5 -20t-30.5 -35t-12 -51.5q0 -16 5 -33.5t11.5 -37t13 -39.5
t10.5 -41h155v-60h-148v-13q0 -51 -18 -100t-56 -91h364v-66h-449v67z" />
    <glyph glyph-name="trademark" unicode="&#x2122;" horiz-adv-x="762" 
d="M650 563l-36 -83l-88 -195q-6 15 -20 46t-30 65.5t-30 66t-20 45.5l-22 49v-271h-51v366h61q6 -13 18 -40.5t26 -58t26.5 -57.5t18.5 -40l23 -56l25 55q6 13 18.5 40.5t26.5 58t26 58t18 40.5h61v-366h-51v277zM198 602v-316h-51v316h-116v49h283v-49h-116z" />
    <glyph glyph-name="bullet" unicode="&#x2022;" horiz-adv-x="355" 
d="M281 307q0 -21 -8 -40t-21.5 -32.5t-32 -21.5t-39.5 -8q-43 0 -72.5 29.5t-29.5 72.5q0 21 8 40t21.5 33t32.5 22t40 8t39.5 -8t32 -22t21.5 -33t8 -40z" />
    <glyph glyph-name="sfthyphen" unicode="&#xad;" horiz-adv-x="336" 
d="M53 274v73h232v-73h-232z" />
    <glyph glyph-name="dagger" unicode="&#x2020;" horiz-adv-x="514" 
d="M302 374v-467h-70v467h-182v63h182v214h70v-213h181v-64h-181z" />
    <glyph glyph-name="Gamma" unicode="&#x393;" horiz-adv-x="487" 
d="M142 582v-582h-76v651h418v-69h-342z" />
    <glyph glyph-name="Delta" unicode="&#x394;" horiz-adv-x="619" 
d="M268 651h82q64 -164 127.5 -325.5t126.5 -325.5h-591zM306 561q-11 -29 -21.5 -58.5t-21.5 -58.5q-1 -2 -10.5 -27.5t-24.5 -63.5t-32 -83t-33 -86.5t-28.5 -73t-17.5 -43.5h382q-3 7 -14.5 36.5t-27 69.5t-33 85.5t-33 84.5t-26 65.5t-11.5 30.5l-45 122h-3z" />
    <glyph glyph-name="Delta" unicode="&#x2206;" horiz-adv-x="619" 
d="M268 651h82q64 -164 127.5 -325.5t126.5 -325.5h-591zM306 561q-11 -29 -21.5 -58.5t-21.5 -58.5q-1 -2 -10.5 -27.5t-24.5 -63.5t-32 -83t-33 -86.5t-28.5 -73t-17.5 -43.5h382q-3 7 -14.5 36.5t-27 69.5t-33 85.5t-33 84.5t-26 65.5t-11.5 30.5l-45 122h-3z" />
    <glyph glyph-name="Theta" unicode="&#x398;" horiz-adv-x="651" 
d="M607 326q0 -76 -21 -138t-58.5 -106t-89 -68t-113.5 -24q-65 0 -116.5 25t-88.5 69.5t-56.5 106t-19.5 134.5q0 72 19.5 133.5t56.5 106.5t88.5 70.5t116.5 25.5q62 0 113.5 -24t89 -68.5t58.5 -106t21 -136.5zM529 325q0 57 -13.5 106t-40 85t-64.5 56t-86 20t-86 -20
t-64.5 -55.5t-40 -84t-13.5 -106.5q0 -55 13.5 -103.5t39.5 -85t64 -57.5t87 -21t87 21.5t64 57.5t39.5 84.5t13.5 102.5zM168 367h316v-67h-316v67z" />
    <glyph glyph-name="Lambda" unicode="&#x39b;" horiz-adv-x="592" 
d="M493 0l-140 397q-4 11 -11.5 32t-15 44.5t-14.5 44.5l-11 33h-5q-4 -12 -11.5 -33.5t-15 -45t-15 -45t-11.5 -33.5l-139 -394h-82l234 651h84l234 -651h-81z" />
    <glyph glyph-name="Xi" unicode="&#x39e;" horiz-adv-x="515" 
d="M31 0v69h187v244h-117v69h117v200h-173v69h430v-69h-181v-200h126v-69h-126v-244h194v-69h-457z" />
    <glyph glyph-name="Pi" unicode="&#x3a0;" horiz-adv-x="621" 
d="M480 0v582h-338v-582h-76v651h490v-651h-76z" />
    <glyph glyph-name="germandbls" unicode="&#xdf;" horiz-adv-x="502" 
d="M255 410q16 1 33 9t30.5 22.5t22.5 34t9 43.5q0 19 -7 38.5t-20.5 35.5t-33 25.5t-45.5 9.5t-46 -10.5t-33.5 -28t-20.5 -41t-7 -48.5v-500q-18 -8 -35.5 -15.5t-34.5 -15.5v528q0 42 12.5 77t35.5 60.5t56 40t74 14.5q40 0 71.5 -14t54 -37.5t34.5 -53.5t12 -62
q0 -40 -22 -77t-66 -57v-4q27 -6 51 -22t42 -40.5t28.5 -55.5t10.5 -67q0 -43 -12.5 -81t-36.5 -66.5t-58.5 -45.5t-77.5 -17q-11 0 -27 2t-27 6q4 14 7 28l6 28q19 -3 36 -3q29 0 51 13t37 34t23 46.5t8 51.5q0 36 -11 64.5t-29.5 49t-43 32t-51.5 13.5v56z" />
    <glyph glyph-name="registered" unicode="&#xae;" horiz-adv-x="526" 
d="M263 269q-42 0 -78 15t-62.5 41.5t-41.5 63t-15 79.5t15 79.5t41.5 63.5t62.5 42t78 15t78 -15t62.5 -42t41.5 -63.5t15 -79.5t-15 -79.5t-41.5 -63t-62.5 -41.5t-78 -15zM263 638q-35 0 -65 -13t-52 -35.5t-34.5 -54t-12.5 -67.5t12.5 -66.5t34.5 -53.5t52 -36t65 -13
t65 13t51.5 36t34 53.5t12.5 66.5t-12.5 67t-34 54t-51.5 36t-65 13zM274 440h-51v-88h-36v233h94q33 0 54 -18t21 -54q0 -47 -43 -68q4 -7 10 -19.5t13 -26.5t13 -27t10 -20h-43zM223 551v-78h57q20 0 30 10.5t10 28.5q0 39 -40 39h-57z" />
    <glyph glyph-name="copyright" unicode="&#xa9;" horiz-adv-x="753" 
d="M380 -10q-70 0 -130 25.5t-104 70.5t-69 106.5t-25 132.5q0 72 25 133.5t69 106.5t104 70.5t130 25.5t130 -25.5t104 -70.5t69.5 -106.5t25.5 -133.5q0 -71 -25.5 -132.5t-69.5 -106.5t-104 -70.5t-130 -25.5zM380 614q-60 0 -111.5 -22t-89 -61t-59 -92t-21.5 -114
t21.5 -114t59 -92t89 -61t111.5 -22t111.5 22t89 61t59 92t21.5 114t-21.5 114t-59 92t-89 61t-111.5 22zM384 121q-38 0 -69 14.5t-52.5 41t-33 64t-11.5 82.5q0 46 12 83.5t34 64t52.5 41t67.5 14.5q45 0 76.5 -18t53.5 -53l-43 -25q-17 24 -37.5 36.5t-49.5 12.5
q-57 0 -85.5 -43.5t-28.5 -112.5q0 -68 28.5 -111.5t85.5 -43.5q32 0 52 12t39 36l41 -26q-52 -69 -132 -69z" />
    <glyph glyph-name="Sigma" unicode="&#x3a3;" horiz-adv-x="559" 
d="M531 582h-382l191 -245l-209 -268h396v-69h-484v68l209 269l-190 245v69h469v-69z" />
    <glyph glyph-name="section" unicode="&#xa7;" horiz-adv-x="554" 
d="M229 340q-28 -8 -44.5 -24t-16.5 -35q0 -26 26.5 -45.5t88.5 -39.5q39 -12 74 -25.5t62 -31.5t43 -42t16 -57q0 -34 -16.5 -60t-44.5 -44t-65 -27t-78 -9q-47 0 -97.5 12.5t-91.5 34.5l29 56q40 -20 83 -31.5t79 -11.5q22 0 45 4t42 13t30.5 23.5t11.5 34.5
q0 18 -11 32.5t-30.5 25.5t-45.5 21t-56 19q-36 11 -66 24.5t-52 30.5t-34.5 38.5t-12.5 49.5q0 45 29.5 77t82.5 46zM341 272q23 9 38 24.5t15 39.5q0 19 -10 32.5t-27 24.5t-41 20.5t-52 18.5q-36 12 -66 24.5t-51.5 29t-34 38.5t-12.5 51q0 59 48.5 95.5t137.5 36.5
q87 0 162 -36l-27 -57q-38 19 -74 26t-62 7q-53 0 -83.5 -20t-30.5 -47q0 -26 25.5 -45.5t88.5 -39.5q39 -13 72.5 -26.5t58 -30.5t38 -40.5t13.5 -56.5q0 -47 -28 -78t-74 -47z" />
    <glyph glyph-name="degree" unicode="&#xb0;" horiz-adv-x="432" 
d="M351 512q0 -31 -10.5 -57t-29 -44.5t-44 -29t-54.5 -10.5t-54.5 10.5t-44.5 29t-30 44.5t-11 57q0 30 11 56t30 45t44.5 29.5t54.5 10.5t54.5 -10.5t44 -29.5t29 -45t10.5 -56zM304 512q0 20 -7 37.5t-19.5 30t-29 20t-35.5 7.5t-36 -7.5t-29.5 -20t-19.5 -30t-7 -37.5
t7 -37.5t19.5 -30.5t29.5 -20.5t36 -7.5q38 0 64.5 27t26.5 69z" />
    <glyph glyph-name="periodcentered" unicode="&#xb7;" horiz-adv-x="233" 
d="M170 309q0 -23 -15 -38t-38 -15q-22 0 -37 15t-15 38t15 38.5t37 15.5t37.5 -15.5t15.5 -38.5z" />
    <glyph glyph-name="plusminus" unicode="&#xb1;" horiz-adv-x="609" 
d="M338 378v-167h-67v167h-168v64h168v176h67v-176h168v-64h-168zM103 92v60h402v-60h-402z" />
    <glyph glyph-name="yen" unicode="&#xa5;" horiz-adv-x="609" 
d="M77 293h169l-42 75h-127v58h96l-124 225h87l171 -334l172 334h85l-125 -225h99v-58h-131l-42 -75h173v-58h-195v-235h-75v235h-191v58z" />
    <glyph glyph-name="Phi" unicode="&#x3a6;" horiz-adv-x="703" 
d="M658 330q0 -59 -18.5 -109t-53.5 -87.5t-85 -60.5t-114 -28v-45h-73v46q-61 6 -110.5 29.5t-84 60.5t-53 86t-18.5 107q0 56 18 105t52 87t83.5 62t112.5 29v39h73v-39q66 -6 116.5 -29.5t85 -60.5t52 -86t17.5 -106zM583 329q0 41 -11 78.5t-35 67t-61 49.5t-89 26v-444
q51 6 88 26.5t61 50.5t35.5 67.5t11.5 78.5zM314 549q-47 -6 -82.5 -25t-60 -48.5t-37 -66.5t-12.5 -79q0 -41 11.5 -78.5t35 -67.5t59.5 -50t86 -27v442z" />
    <glyph glyph-name="Psi" unicode="&#x3a8;" horiz-adv-x="673" 
d="M619 421q0 -131 -64.5 -199.5t-182.5 -78.5v-143h-72v143q-121 11 -182.5 79.5t-61.5 199.5v229h74v-228q0 -94 41 -146.5t128 -63.5v438h73v-438q92 10 132.5 61.5t40.5 145.5v231h74v-230v0z" />
    <glyph glyph-name="Omega" unicode="&#x3a9;" horiz-adv-x="658" 
d="M383 0v84q37 12 63.5 35.5t43.5 56.5t25 74t8 87q0 55 -13 101.5t-38 80.5t-61.5 53.5t-83.5 19.5q-49 0 -86 -20t-62 -54.5t-37.5 -80.5t-12.5 -99q0 -45 8 -86t25 -74.5t44.5 -58t65.5 -35.5v-84h-225v65h129q-37 19 -60.5 50t-37 68t-19 76.5t-5.5 77.5q0 74 19.5 134
t55.5 102t86 65t112 23q61 0 111.5 -23t86.5 -65t56 -102t20 -133q0 -38 -5.5 -77.5t-19.5 -75.5t-38 -67.5t-61 -52.5h131v-65h-225z" />
    <glyph glyph-name="guillemotleft" unicode="&#xab;" horiz-adv-x="476" 
d="M369 40l-137 205l137 206h67l-135 -206l135 -205h-67zM189 40l-137 205l137 206h68l-136 -206l136 -205h-68z" />
    <glyph glyph-name="guillemotright" unicode="&#xbb;" horiz-adv-x="476" 
d="M302 40h-68l135 205l-135 206h68l137 -206zM122 40h-68l136 205l-136 206h69l136 -206z" />
    <glyph glyph-name="ellipsis" unicode="&#x2026;" horiz-adv-x="701" 
d="M641 43q0 -21 -14.5 -36t-34.5 -15t-35 15t-15 36t15 36t35 15t34.5 -14.5t14.5 -36.5zM403 43q0 -21 -14 -36t-35 -15t-35 15t-14 36t14 36t35 15t35 -14.5t14 -36.5zM169 43q0 -21 -15 -36t-35 -15t-34.5 15t-14.5 36t14.5 36t34.5 15t35 -14.5t15 -36.5z" />
    <glyph glyph-name="oe" unicode="&#x153;" horiz-adv-x="842" 
d="M603 497q49 0 86.5 -17.5t63.5 -50t39.5 -78t13.5 -101.5v-33h-338q5 -83 45.5 -124t96.5 -41q32 0 61.5 12.5t52.5 33.5l44 -44q-67 -64 -164 -64q-54 0 -100 27t-72 84q-27 -54 -73.5 -82.5t-104.5 -28.5q-45 0 -83 17.5t-66 50.5t-44 80t-16 106q0 61 16 108.5
t44.5 79.5t67 48.5t83.5 16.5q59 0 105 -28.5t72 -82.5q26 53 70.5 82t99.5 29zM395 244q0 41 -9 76t-27 60.5t-44.5 40t-61.5 14.5q-33 0 -59 -15t-43 -40.5t-26 -60t-9 -73.5q0 -88 37.5 -140.5t103.5 -52.5q33 0 59 15.5t43.5 41.5t26.5 60.5t9 73.5zM736 274
q0 33 -8 62.5t-24.5 52t-42 35.5t-60.5 13q-26 0 -49 -11.5t-41 -33t-29 -51.5t-13 -67h267z" />
    <glyph glyph-name="endash" unicode="&#x2013;" horiz-adv-x="500" 
d="M31 276v66h438v-66h-438z" />
    <glyph glyph-name="afii00208" unicode="&#x2015;" horiz-adv-x="997" 
d="M30 279v66h937v-66h-937z" />
    <glyph glyph-name="quotedblleft" unicode="&#x201c;" horiz-adv-x="365" 
d="M136 661q11 -13 20 -26q-19 -12 -31.5 -30.5t-14.5 -41.5q2 0 2.5 0.5t2.5 0.5q20 0 34.5 -12.5t14.5 -35.5q0 -22 -15 -37.5t-36 -15.5q-23 0 -40.5 19t-17.5 52q0 43 23 74.5t58 52.5zM281 661q11 -13 20 -26q-18 -12 -31 -30.5t-15 -41.5q2 0 3 0.5t2 0.5
q20 0 34.5 -12.5t14.5 -35.5q0 -22 -15 -37.5t-36 -15.5q-23 0 -40.5 19t-17.5 52q0 43 23 74.5t58 52.5z" />
    <glyph glyph-name="quotedblright" unicode="&#x201d;" horiz-adv-x="365" 
d="M83 463q-9 13 -20 26q19 13 32 31.5t15 41.5q-23 0 -39 10.5t-16 36.5q0 22 15.5 37t35.5 15q23 0 41 -19t18 -51q0 -44 -23.5 -75t-58.5 -53zM209 489q18 13 31 31.5t15 41.5q-22 0 -38 10.5t-16 36.5q0 22 15 37t36 15q23 0 40.5 -19t17.5 -51q0 -44 -23 -75t-58 -53z
" />
    <glyph glyph-name="quoteleft" unicode="&#x2018;" horiz-adv-x="230" 
d="M139 661q11 -13 20 -26q-19 -12 -31.5 -30.5t-14.5 -41.5q2 0 2.5 0.5t2.5 0.5q20 0 34.5 -12.5t14.5 -35.5q0 -22 -15 -37.5t-36 -15.5q-23 0 -40.5 19t-17.5 52q0 43 23 74.5t58 52.5z" />
    <glyph glyph-name="quoteright" unicode="&#x2019;" horiz-adv-x="230" 
d="M66 489q19 13 31.5 31.5t14.5 41.5q-22 0 -38 10.5t-16 36.5q0 22 15 37t36 15q23 0 40.5 -19t17.5 -51q0 -44 -23 -75t-58 -53z" />
    <glyph glyph-name="alpha" unicode="&#x3b1;" horiz-adv-x="502" 
d="M45 242q0 64 16.5 111.5t43 79.5t60.5 48t69 16q33 0 69 -11t70 -46h2v48h68v-488h-58q0 3 -1.5 10.5t-3 15.5t-3 15t-1.5 11h-2q-67 -62 -146 -62q-83 0 -133 63.5t-50 188.5zM115 246q0 -94 32 -144t98 -50q19 0 37.5 6t35 16t30.5 22.5t24 24.5v245q-21 27 -53.5 49
t-73.5 22q-28 0 -51.5 -14t-41 -39.5t-27.5 -60.5t-10 -77z" />
    <glyph glyph-name="beta" unicode="&#x3b2;" horiz-adv-x="498" 
d="M266 -8q-41 0 -73.5 14.5t-60.5 41.5h-3v-185l-69 -31v666q0 42 13 78t36.5 61.5t57 40t74.5 14.5q42 0 73.5 -13t52.5 -35.5t32 -51.5t11 -60q0 -20 -6 -41.5t-18 -40.5t-29.5 -34t-39.5 -22v-1q28 -5 53 -22t44 -42.5t29.5 -57.5t10.5 -68q0 -43 -13 -81.5t-37.5 -67
t-59.5 -45.5t-78 -17zM196 362v53h6q18 0 42.5 5.5t46.5 18.5t37.5 35t15.5 55q0 42 -28 72t-76 30q-27 0 -47.5 -10t-34.5 -27.5t-21.5 -40t-7.5 -47.5v-386q9 -12 21.5 -23.5t28.5 -21.5t35.5 -16t42.5 -6q31 0 55 13t39.5 34t23.5 47.5t8 52.5q0 36 -12.5 66t-33 51.5
t-47.5 33t-57 11.5h-37z" />
    <glyph glyph-name="psi" unicode="&#x3c8;" horiz-adv-x="590" 
d="M537 214q0 -100 -54 -156.5t-154 -64.5v-158l-70 -29v187q-45 4 -83 19t-65.5 42t-43 67t-15.5 94v275h70v-272q0 -80 37 -117.5t100 -45.5v481l70 30v-510q61 5 99.5 43.5t38.5 118.5v255l70 29v-288v0z" />
    <glyph glyph-name="delta" unicode="&#x3b4;" horiz-adv-x="497" 
d="M263 692q86 0 152 -33q-5 -15 -11 -29.5t-12 -29.5q-35 19 -66 26.5t-60 7.5q-24 0 -43 -7t-31.5 -18t-19.5 -24.5t-7 -27.5q0 -29 28.5 -54t78.5 -49q36 -18 68.5 -40t58 -50.5t40.5 -65.5t15 -84q0 -50 -16 -91.5t-44 -70.5t-65 -45t-80 -16q-100 0 -153.5 58.5
t-53.5 155.5q0 29 9 60t27.5 59.5t47 52.5t66.5 38v2q-44 26 -70.5 59.5t-26.5 72.5q0 29 11.5 55t33 45.5t52.5 31t71 11.5zM255 385q-29 -6 -54.5 -24.5t-44.5 -43.5t-30 -54t-11 -57q0 -32 8.5 -60t25 -49t41.5 -33t58 -12q36 0 61.5 15.5t41.5 38.5t23.5 50t7.5 51
q0 55 -29 101.5t-98 76.5z" />
    <glyph glyph-name="epsilon" unicode="&#x3b5;" horiz-adv-x="428" 
d="M414 61q-42 -41 -88.5 -56t-92.5 -15q-33 0 -66.5 7.5t-60 24.5t-43.5 44.5t-17 67.5q0 36 23.5 69t65.5 45v2q-22 7 -37.5 19t-25 26t-14 30t-4.5 31q0 32 15 58t40.5 44.5t58.5 28.5t68 10q47 0 88 -13t79 -48l-42 -48q-55 49 -118 49q-32 0 -54 -8.5t-36 -21
t-20.5 -26.5t-6.5 -24q0 -22 8 -36.5t21.5 -23.5t30 -12.5t34.5 -3.5h67v-55h-61q-18 0 -37 -5t-35 -15t-26.5 -26t-10.5 -37q0 -38 29.5 -65t88.5 -27q25 0 61.5 9.5t75.5 46.5l42 -46v0z" />
    <glyph glyph-name="phi" unicode="&#x3c6;" horiz-adv-x="625" 
d="M580 252q0 -60 -17 -107.5t-48.5 -80.5t-75 -51t-95.5 -19v-156l-70 -30v186q-52 2 -94.5 20t-72.5 51t-46.5 80t-16.5 107q0 50 13 88.5t32.5 66t42 45.5t42.5 27l21 -61q-13 -8 -27 -21.5t-26 -34t-19.5 -49t-7.5 -64.5q0 -60 18 -97t43.5 -58t52.5 -29t45 -8v441h78
q48 0 90 -17t72.5 -48.5t48 -77t17.5 -103.5zM344 57q16 0 43.5 6t54.5 25.5t46.5 57.5t19.5 103q0 82 -41.5 133t-122.5 53v-378z" />
    <glyph glyph-name="gamma" unicode="&#x3b3;" horiz-adv-x="442" 
d="M255 -159l-70 -32v235q-44 111 -87 221.5t-88 222.5h74q22 -57 42.5 -113t42.5 -113l51 -132h2q12 33 24.5 66.5t25.5 66.5q7 19 18.5 49.5t24 63t23.5 63t18 49.5h74q-44 -112 -87 -223t-88 -223v-201z" />
    <glyph glyph-name="eta" unicode="&#x3b7;" horiz-adv-x="486" 
d="M438 0h-72v293q0 69 -27 105.5t-88 36.5q-45 0 -77 -29.5t-43 -71.5q-5 -20 -5 -43v-291h-71v488h71v-69l2 -1q27 42 67 60.5t77 18.5q85 0 125.5 -49.5t40.5 -143.5v-304z" />
    <glyph glyph-name="iota" unicode="&#x3b9;" horiz-adv-x="233" 
d="M80 0v487h72v-487h-72z" />
    <glyph glyph-name="xi" unicode="&#x3be;" horiz-adv-x="390" 
d="M109 189q0 -28 9 -47.5t30 -35t56 -29t86 -28.5q49 -13 66.5 -30t17.5 -43q0 -15 -7.5 -33.5t-19.5 -37.5t-26.5 -36t-27.5 -30l-42 31q21 29 33 52t17 37q2 10 -3 13.5t-19 8.5q-50 15 -94 30t-76.5 37t-51.5 55t-19 84q0 23 7 50.5t22 53t38 46.5t55 33v1
q-32 10 -52.5 27t-32.5 37t-17 41.5t-5 41.5q0 40 15 71t40.5 53t59.5 33.5t71 11.5q42 0 86 -12.5t76 -44.5l-36 -47q-26 23 -57 33t-68 10q-28 0 -49 -9t-35.5 -24.5t-22 -35.5t-7.5 -42q0 -28 11.5 -49.5t29.5 -36.5t40.5 -23t45.5 -8h96v-56h-93q-35 0 -62 -13.5
t-46 -35t-29 -49t-10 -55.5z" />
    <glyph glyph-name="kappa" unicode="&#x3ba;" horiz-adv-x="445" 
d="M348 0l-119 268l-100 -129v-139h-71v487h71v-248h1q6 8 16.5 21.5t21 27.5l19.5 26t14 18l120 155h84q-8 -10 -25.5 -32t-37 -46.5t-37 -47t-24.5 -32.5q6 -13 17.5 -39t25.5 -58t29.5 -67.5t29.5 -67.5t25.5 -58t17.5 -39h-78z" />
    <glyph glyph-name="lambda" unicode="&#x3bb;" horiz-adv-x="452" 
d="M334 49q-19 48 -30 88t-25 83l-48 156h-2q-5 -13 -12 -32.5t-16 -42.5t-19 -49t-21 -52q-4 -9 -15 -36.5t-23 -59.5t-23.5 -61.5t-17.5 -42.5h-75q49 116 96.5 232t96.5 233l-36 119q-8 26 -17.5 37.5t-38.5 11.5h-8t-9 -1l-3 55q12 2 24 3t21 1q32 0 53.5 -11t30.5 -40
l174 -549q8 -25 17 -32.5t30 -7.5l1 -51q-10 -2 -19 -2.5t-17 -0.5q-26 0 -42 11.5t-27 40.5z" />
    <glyph glyph-name="mu" unicode="&#xb5;" horiz-adv-x="493" 
d="M128 199q0 -78 28.5 -113t86.5 -35q44 0 74 27.5t42 69.5q7 22 7 51v290h71v-489h-71v67h-2q-26 -41 -62 -58.5t-69 -17.5q-34 0 -59.5 11t-45.5 31h-1v-182q-18 -8 -35.5 -16t-35.5 -16v670h72v-290z" />
    <glyph glyph-name="mu" unicode="&#x3bc;" horiz-adv-x="493" 
d="M128 199q0 -78 28.5 -113t86.5 -35q44 0 74 27.5t42 69.5q7 22 7 51v290h71v-489h-71v67h-2q-26 -41 -62 -58.5t-69 -17.5q-34 0 -59.5 11t-45.5 31h-1v-182q-18 -8 -35.5 -16t-35.5 -16v670h72v-290z" />
    <glyph glyph-name="nu" unicode="&#x3bd;" horiz-adv-x="450" 
d="M189 0l-174 488h73q24 -71 48 -140t47 -139q11 -32 21 -63.5t21 -63.5h3q3 10 13 40l23.5 70.5t28.5 86t29 87t25 74.5l16 48h73l-173 -488h-74z" />
    <glyph glyph-name="pi" unicode="&#x3c0;" horiz-adv-x="501" 
d="M374 0v426h-247v-426h-72v489h391v-489h-72z" />
    <glyph glyph-name="rho" unicode="&#x3c1;" horiz-adv-x="516" 
d="M471 244q0 -57 -15.5 -103.5t-41.5 -79.5t-60.5 -51t-73.5 -18q-41 0 -78 13t-77 54v-220l-70 -30v430q0 121 52.5 190t150.5 69q46 0 85.5 -16.5t67.5 -49t44 -80t16 -108.5zM399 237q0 34 -7 69.5t-23.5 64t-42.5 46.5t-63 18t-63 -15t-43 -41t-25 -61t-8 -75v-114
q23 -29 60.5 -51.5t79.5 -22.5q30 0 54.5 13.5t42.5 37.5t28 57.5t10 73.5z" />
    <glyph glyph-name="sigma" unicode="&#x3c3;" horiz-adv-x="531" 
d="M388 426v-2q40 -27 60 -75t20 -103q0 -63 -16.5 -110.5t-45 -80t-67.5 -49t-85 -16.5q-45 0 -83 17t-65.5 50t-43.5 80t-16 107q0 62 16 108t44 76t66 45t83 15h255v-62h-122zM395 244q0 82 -37.5 131.5t-104.5 49.5t-102 -49.5t-35 -129.5q0 -88 37.5 -140.5
t103.5 -52.5q33 0 59 15.5t43.5 41.5t26.5 60.5t9 73.5z" />
    <glyph glyph-name="tau" unicode="&#x3c4;" horiz-adv-x="331" 
d="M308 488v-62h-129v-311q0 -33 13 -45.5t39 -12.5q25 0 66 6l6 -54q-16 -7 -42 -11.5t-48 -4.5q-55 0 -78.5 29t-23.5 83v321h-98v62h295z" />
    <glyph glyph-name="theta" unicode="&#x3b8;" horiz-adv-x="514" 
d="M468 351q0 -74 -12.5 -139.5t-38.5 -115t-66 -78.5t-96 -29q-50 0 -88.5 24.5t-65.5 71t-41 113t-14 149.5q0 86 15.5 150.5t43 108t66.5 65t86 21.5t86 -23t66.5 -67t43 -107t15.5 -144zM396 390q-5 114 -42 177t-100 63q-62 0 -96.5 -61.5t-39.5 -178.5h278zM118 330
q1 -135 35.5 -206.5t104.5 -71.5q36 0 62 20t43 56.5t25.5 87.5t8.5 113z" />
    <glyph glyph-name="omega" unicode="&#x3c9;" horiz-adv-x="738" 
d="M500 -9q-38 0 -73.5 18.5t-57.5 61.5h-1q-25 -42 -59 -61t-73 -19q-41 0 -75.5 15.5t-60.5 46.5t-40.5 78.5t-14.5 111.5q0 44 12.5 85t34.5 75t52.5 57.5t66.5 32.5l24 -58q-30 -9 -52 -29t-37 -46.5t-22.5 -56.5t-7.5 -60q0 -91 33 -141t90 -50q24 0 42.5 10t31 27
t18.5 39.5t6 47.5v129h66v-129q0 -26 5.5 -48.5t17.5 -39t30 -26.5t42 -10q60 0 91.5 48t31.5 140q0 30 -7.5 60.5t-22.5 56.5t-37 46.5t-50 30.5l24 58q38 -11 68.5 -35.5t51.5 -58.5t32.5 -75t11.5 -83q0 -63 -14.5 -110t-40.5 -78t-61 -46t-76 -15z" />
    <glyph glyph-name="sigma1" unicode="&#x3c2;" horiz-adv-x="431" 
d="M45 235q0 61 15 109.5t42.5 82t65.5 51.5t84 18q48 0 87 -15.5t71 -49.5l-43 -45q-28 27 -56.5 38t-60.5 11t-57 -15t-42 -41t-25.5 -62t-8.5 -79q0 -40 8.5 -68t28.5 -49t53 -37.5t83 -33.5q48 -17 66 -31t18 -40q0 -15 -7.5 -33.5t-19.5 -37t-26.5 -36t-28.5 -30.5
l-42 32q18 27 30.5 48t18.5 38q3 8 -1 13.5t-21 10.5q-51 16 -94 35t-73.5 47t-47.5 68.5t-17 100.5z" />
    <glyph glyph-name="upsilon" unicode="&#x3c5;" horiz-adv-x="491" 
d="M444 210q0 -113 -50 -166.5t-145 -53.5t-147 53.5t-52 166.5v279h73v-275q0 -81 28.5 -122.5t95.5 -41.5q72 0 98.5 42t26.5 122v275h72v-279v0z" />
    <glyph glyph-name="zeta" unicode="&#x3b6;" horiz-adv-x="388" 
d="M313 616h-244v55h341v-51q-60 -45 -114 -95t-95 -102.5t-65.5 -106t-24.5 -105.5q0 -28 6 -51t26.5 -43t59.5 -38t104 -35q46 -12 65.5 -26.5t19.5 -40.5q0 -15 -7.5 -33.5t-19.5 -38t-27.5 -38.5t-31.5 -34q-2 1 -8 5.5t-13 10t-13 10t-8 5.5q17 24 29.5 47t19.5 40
q5 11 3 16.5t-18 9.5q-55 14 -102.5 31t-82 43t-54 63t-19.5 91q0 48 19.5 100.5t55.5 105.5t86.5 104.5t111.5 98.5v2z" />
    <glyph glyph-name="space" unicode=" " horiz-adv-x="228" 
 />
    <glyph glyph-name="Euro" unicode="&#x20ac;" horiz-adv-x="609" 
d="M113 403q8 62 31 110t57.5 81t79.5 50.5t98 17.5q107 0 178 -63l-48 -59q-56 50 -131 50q-79 0 -126.5 -51t-59.5 -136h268v-57h-408v57h61zM197 234q13 -83 60.5 -128.5t122.5 -45.5q77 0 138 56l47 -55q-35 -34 -81.5 -52.5t-106.5 -18.5q-51 0 -95 15t-78 45t-56.5 76
t-31.5 108h-64v57h408v-57h-263z" />
    <glyph glyph-name="emdash" unicode="&#x2014;" horiz-adv-x="1000" 
d="M31 279v66h938v-66h-938z" />
    <glyph glyph-name="Eth" unicode="&#xd0;" horiz-adv-x="612" 
d="M238 651q66 0 124.5 -18t103 -57t70 -100.5t25.5 -149.5t-26 -150t-71 -101t-104 -57t-125 -18h-162v303h-66v48h66v300h165zM148 582v-231h130v-48h-130v-234h89q63 0 109 18.5t76.5 52t45.5 81t15 104.5t-15 104.5t-45.5 81t-76.5 52.5t-108 19h-90z" />
    <glyph glyph-name="Oslash" unicode="&#xd8;" horiz-adv-x="635" 
d="M589 326q0 -76 -19.5 -138t-55 -106t-85.5 -68t-112 -24q-56 0 -100 18t-78 52l-58 -75l-34 27l63 82q-32 45 -48 103.5t-16 127.5q0 72 18.5 133.5t53 106.5t85 70.5t114.5 25.5q54 0 98 -18t78 -52l62 80l35 -29l-66 -86q31 -44 48 -102t17 -128zM123 326
q0 -48 9 -90.5t27 -77.5l290 375q-24 28 -57 43.5t-75 15.5q-48 0 -84.5 -20t-60.5 -55.5t-36.5 -84t-12.5 -106.5zM511 325q0 100 -36 169l-290 -375q24 -29 57 -44.5t75 -15.5q49 0 85.5 21.5t60.5 57.5t36 84.5t12 102.5z" />
    <glyph glyph-name="Thorn" unicode="&#xde;" horiz-adv-x="557" 
d="M539 330q0 -51 -15.5 -88.5t-44 -62.5t-68 -37.5t-87.5 -12.5h-184v-129h-75v651h75v-123h191q46 0 84 -12t65.5 -37t43 -62t15.5 -87zM140 460v-262h188q64 0 99 33.5t35 96.5q0 64 -36.5 98t-96.5 34h-189z" />
    <glyph glyph-name="ae" unicode="&#xe6;" horiz-adv-x="805" 
d="M565 496q48 0 86 -18t63.5 -50.5t39 -77t13.5 -97.5v-36h-337q4 -85 44.5 -125t95.5 -40q32 0 62.5 13t52.5 34l43 -45q-39 -35 -77 -49.5t-87 -14.5t-90.5 22t-70.5 67q-35 -30 -62.5 -47.5t-50.5 -26.5t-43.5 -11.5t-40.5 -2.5q-29 0 -58 8.5t-52.5 27t-38 48
t-14.5 71.5q0 35 13.5 64t38 49.5t58 31.5t73.5 11q34 0 66 -8t68 -25q0 11 0.5 25t1.5 30q2 53 -29 83t-88 30q-36 0 -65.5 -8.5t-60.5 -24.5l-25 57q35 17 73 27t86 10q61 0 100.5 -24t56.5 -66q26 42 66.5 65t88.5 23zM377 130q-6 17 -10.5 38.5t-5.5 44.5
q-29 14 -61.5 24t-71.5 10q-24 0 -46 -6.5t-38 -19.5t-25.5 -31t-9.5 -42q0 -48 30 -75t83 -27q41 0 83 23.5t72 60.5zM696 273q0 33 -7.5 62t-24 51t-42 35t-60.5 13q-26 0 -49 -11t-41 -32t-29 -51t-13 -67h266z" />
    <glyph glyph-name="oslash" unicode="&#xf8;" horiz-adv-x="513" 
d="M468 246q0 -61 -16.5 -108.5t-45 -80.5t-67.5 -50t-85 -17q-79 0 -131 46l-43 -56l-34 23l48 65q-23 32 -36 76.5t-13 99.5q0 61 16 108.5t44.5 79.5t67 48.5t83.5 16.5q37 0 69.5 -11.5t58.5 -32.5l40 53l35 -26l-44 -59q25 -32 39 -76t14 -99zM397 244q0 70 -26 120
l-206 -272q37 -39 93 -39q35 0 61 15.5t43.5 41.5t26 60.5t8.5 73.5zM117 246q0 -69 23 -117l204 271q-17 17 -39.5 26t-50.5 9q-33 0 -59 -15t-43 -40.5t-26 -60t-9 -73.5z" />
    <glyph glyph-name="thorn" unicode="&#xfe;" horiz-adv-x="499" 
d="M126 651v-212h2q36 36 72 47t70 11t67 -14.5t58.5 -45t41.5 -77.5t16 -112q0 -69 -17.5 -118t-46 -80t-63.5 -45t-71 -14q-35 0 -66.5 12t-62.5 43h-1v-195q-18 -8 -35.5 -16t-35.5 -16v832h72zM125 120q20 -26 52.5 -47t69.5 -21q66 0 101 51.5t35 145.5q0 88 -36 138
t-94 50q-41 0 -74 -21t-54 -48v-248z" />
    <glyph glyph-name="OE" unicode="&#x152;" horiz-adv-x="856" 
d="M394 0q-17 -5 -36 -7.5t-39 -2.5q-65 0 -115 25t-85 69.5t-53 106t-18 134.5q0 72 18 133.5t53 106.5t85 70.5t115 25.5q19 0 37 -2.5t35 -7.5h414v-69h-340v-200h242v-69h-242v-244h353v-69h-424zM319 59q39 0 71 15v503q-32 15 -71 15q-48 0 -84.5 -20t-61 -55.5
t-37 -84t-12.5 -106.5q0 -55 12 -103.5t36.5 -85t61 -57.5t85.5 -21z" />
    <glyph glyph-name="cent" unicode="&#xa2;" horiz-adv-x="609" 
d="M294 -7q-38 5 -70.5 23.5t-56 50t-37 75.5t-13.5 101q0 55 13 99.5t36.5 76t56 50.5t71.5 25v108h53v-106q82 -8 140 -72l-46 -46q-29 29 -55.5 42.5t-61.5 13.5q-32 0 -57.5 -14.5t-42.5 -39.5t-26 -60t-9 -75q0 -41 8.5 -76t25.5 -60.5t43 -40.5t62 -15q35 0 61 14
t53 42l46 -40q-24 -32 -58.5 -52.5t-82.5 -24.5v-110h-53v111z" />
    <glyph glyph-name="florin" unicode="&#x192;" horiz-adv-x="609" 
d="M174 405h97q3 19 6.5 40.5t5.5 40.5q5 37 15.5 72t30 62t49.5 43.5t75 16.5q23 0 44 -4t38 -10l-15 -62q-32 12 -66 12q-43 0 -65.5 -36.5t-30.5 -91.5l-11 -83h103v-63h-112q-3 -23 -7.5 -56t-9.5 -67.5t-9.5 -66.5t-7.5 -52q-7 -47 -19 -83.5t-31.5 -62.5t-47.5 -39.5
t-67 -13.5q-20 0 -43.5 5t-43.5 14l21 60q34 -14 58 -14q47 0 66.5 37t30.5 100q4 26 8.5 56.5t9 62.5t9 63t8.5 57h-89v63z" />
    <glyph glyph-name="quotesinglbase" unicode="&#x201a;" horiz-adv-x="204" 
d="M50 -76q19 14 31.5 32t14.5 41q-22 0 -38 10.5t-16 35.5q0 23 15 38t36 15q24 0 41 -19t17 -52q0 -43 -23 -74t-58 -52z" />
    <glyph glyph-name="quotedblbase" unicode="&#x201e;" horiz-adv-x="374" 
d="M57 -76q18 14 31 32t15 41q-22 0 -38 10.5t-16 35.5q0 23 15 38t36 15q23 0 40.5 -19t17.5 -52q0 -43 -23 -74t-58 -52zM226 -76q19 14 31.5 32t14.5 41q-22 0 -38 10.5t-16 35.5q0 23 15 38t36 15q23 0 40.5 -19t17.5 -52q0 -42 -23 -73.5t-58 -52.5z" />
    <glyph glyph-name="daggerdbl" unicode="&#x2021;" horiz-adv-x="514" 
d="M302 115v-208h-70v208h-182v63h182v212h-182v63h182v198h70v-197h181v-64h-181v-211h181v-64h-181z" />
    <glyph glyph-name="questiondown" unicode="&#xbf;" horiz-adv-x="488" 
d="M34 -11q0 38 18.5 72t39.5 55q20 20 38.5 38t33 37.5t24 43t11.5 53.5h72q-2 -28 -8 -50.5t-16.5 -42t-25.5 -37.5t-33 -38q-11 -12 -24.5 -26.5t-25.5 -31t-20.5 -34t-8.5 -35.5q0 -15 6 -34t21 -35.5t40 -27.5t64 -11q37 0 61.5 13.5t38.5 32t21 39t10 34.5h74
q-5 -45 -23.5 -79.5t-47 -58.5t-65 -36.5t-76.5 -12.5q-44 0 -80.5 13.5t-62.5 36.5t-41 54.5t-15 67.5zM287 435q0 -25 -16 -38t-35 -13q-21 0 -35 14.5t-14 35.5t14.5 35.5t35.5 14.5t35.5 -14t14.5 -35z" />
    <glyph glyph-name="exclamdown" unicode="&#xa1;" horiz-adv-x="251" 
d="M110 295h43l15 -212v-256h-74v255zM180 436q0 -25 -15 -38t-34 -13q-22 0 -36 14.5t-14 35.5t14.5 35.5t35.5 14.5t35 -14t14 -35z" />
    <glyph glyph-name="guilsinglright" unicode="&#x203a;" horiz-adv-x="432" 
d="M187 40h-68l136 205l-136 206h69l136 -206z" />
    <glyph glyph-name="guilsinglleft" unicode="&#x2039;" horiz-adv-x="432" 
d="M248 33l-137 205l137 206h68l-136 -206l136 -205h-68z" />
    <glyph glyph-name="brokenbar" unicode="&#xa6;" horiz-adv-x="231" 
d="M88 313v435h66v-435h-66zM88 -187v433h66v-433h-66z" />
    <glyph glyph-name="logicalnot" unicode="&#xac;" horiz-adv-x="609" 
d="M432 287h-326v66h396v-229h-70v163z" />
    <glyph glyph-name="macron" unicode="&#xaf;" horiz-adv-x="481" 
d="M144 605v55h242v-55h-242z" />
    <glyph glyph-name="Dcroat" unicode="&#x110;" horiz-adv-x="612" 
d="M238 651q66 0 124.5 -18t103 -57t70 -100.5t25.5 -149.5t-26 -150t-71 -101t-104 -57t-125 -18h-162v303h-66v48h66v300h165zM148 582v-231h130v-48h-130v-234h89q63 0 109 18.5t76.5 52t45.5 81t15 104.5t-15 104.5t-45.5 81t-76.5 52.5t-108 19h-90z" />
    <glyph glyph-name="Lslash" unicode="&#x141;" horiz-adv-x="485" 
d="M65 0v223l-65 -37l-26 45l91 52v368h76v-324l113 66l25 -45l-138 -81v-197h337v-70h-413z" />
    <glyph glyph-name="lslash" unicode="&#x142;" horiz-adv-x="247" 
d="M82 0v221l-61 -35l-26 45l87 49v380l71 33v-372l89 51l25 -45l-114 -66v-261h-71z" />
    <glyph glyph-name="dcroat" unicode="&#x111;" horiz-adv-x="509" 
d="M45 231q0 69 17.5 116.5t46 77t63.5 42t71 12.5q35 0 65.5 -12.5t61.5 -42.5h2v105h-138v48h138v73q3 1 13.5 6t22.5 10t22 10t13 6v-105h49v-48h-49v-529h-71v48h-2q-36 -36 -72 -47t-70 -11q-35 0 -67.5 13t-58.5 42t-41.5 74.5t-15.5 111.5zM115 230q0 -87 36 -133.5
t94 -46.5q41 0 73.5 21.5t54.5 48.5v229q-20 27 -52.5 48t-69.5 21q-66 0 -101 -49t-35 -139z" />
    <glyph glyph-name="dotaccent" unicode="&#x2d9;" horiz-adv-x="316" 
d="M210 626q0 -18 -13.5 -31.5t-32.5 -13.5t-32 13.5t-13 31.5q0 20 13 33.5t32 13.5t32.5 -13.5t13.5 -33.5z" />
    <glyph glyph-name="multiply" unicode="&#xd7;" horiz-adv-x="609" 
d="M350 317l140 -140l-45 -47l-140 139l-142 -142l-46 46l142 141l-142 143q11 11 23.5 23t23.5 23l142 -141l143 142l45 -44z" />
    <glyph glyph-name="divide" unicode="&#xf7;" horiz-adv-x="609" 
d="M353 472q0 -20 -14.5 -35t-34.5 -15t-34 14.5t-14 35.5q0 22 14 36t34 14t34.5 -14t14.5 -36zM353 143q0 -20 -14.5 -34.5t-34.5 -14.5t-34 14t-14 35q0 22 14 36.5t34 14.5t34.5 -14.5t14.5 -36.5zM103 279v64h404v-64h-404z" />
    <glyph glyph-name="cedilla" unicode="&#xb8;" horiz-adv-x="509" 
d="M275 -204q-16 0 -36 3.5t-43 13.5l13 36q35 -13 64 -13q23 0 36.5 10t13.5 28q0 21 -15.5 32t-37.5 11q-2 0 -4.5 -0.5t-4.5 -0.5l-20 21l30 91l37 -3q-6 -17 -12 -34.5t-11 -34.5q28 -3 46 -11.5t28.5 -20t14.5 -24.5t4 -24q0 -13 -5.5 -27t-17.5 -26t-31.5 -19.5
t-48.5 -7.5z" />
    <glyph glyph-name="acute" unicode="&#xb4;" horiz-adv-x="483" 
d="M241 556l-38 13l70 161l82 -15z" />
    <glyph glyph-name="hungarumlaut" unicode="&#x2dd;" horiz-adv-x="539" 
d="M244 556l-38 14l64 151l82 -15zM354 556l-37 14l63 151l83 -15z" />
    <glyph glyph-name="currency" unicode="&#xa4;" horiz-adv-x="609" 
d="M46 510q11 11 21.5 22t21.5 22l68 -68q26 19 56.5 29t65.5 10q64 0 120 -39l68 68l44 -45l-69 -67q39 -56 39 -120q0 -33 -10 -63t-29 -58l69 -65l-44 -45l-34 34l-34 34q-29 -22 -59 -31t-62 -9t-61.5 9t-58.5 31l-69 -69l-43 45l68 66q-21 31 -30.5 61t-9.5 59
q0 32 10.5 63.5t29.5 57.5zM135 321q0 -29 11 -55t30.5 -45.5t45.5 -30.5t55 -11t55 11t45.5 30.5t31 45.5t11.5 55q0 30 -11 56t-30.5 45.5t-45.5 30.5t-56 11q-29 0 -55 -11t-45.5 -30.5t-30.5 -45.5t-11 -56z" />
    <glyph glyph-name="paragraph" unicode="&#xb6;" horiz-adv-x="488" 
d="M218 288q-39 0 -72 14t-57 38t-37.5 56.5t-13.5 70.5q0 37 13.5 69.5t37.5 57t57 39t72 14.5h93v-359h-93zM428 -1q0 -44 -7.5 -77.5t-27.5 -57t-55.5 -37t-92.5 -16.5l-4 53q49 5 75.5 17.5t39.5 31t15.5 42.5t2.5 52v640h54v-648z" />
    <glyph glyph-name="eth" unicode="&#xf0;" horiz-adv-x="514" 
d="M414 710l32 -26l-58 -67q43 -47 67 -115.5t24 -174.5q0 -70 -12 -131.5t-39 -107t-70 -72t-104 -26.5q-46 0 -84 17.5t-65 49.5t-42 77.5t-15 101.5q0 58 16.5 102.5t44.5 75t65.5 46t79.5 15.5q40 0 84 -22t69 -66h4q-2 54 -18.5 100t-47.5 81l-53 -62l-33 28l55 63
q-54 42 -134 51l11 59q52 -5 91.5 -20t74.5 -41zM396 239q0 80 -38.5 127.5t-104.5 47.5q-32 0 -57.5 -13t-43 -36.5t-27 -56t-9.5 -70.5q0 -43 10.5 -77.5t29 -58.5t44 -37t55.5 -13q32 0 58 15t44.5 40.5t28.5 59.5t10 72z" />
    <glyph glyph-name="tilde" unicode="&#x2dc;" horiz-adv-x="499" 
d="M416 652q-17 -41 -42.5 -58t-54.5 -17q-17 0 -34.5 6t-34.5 13.5t-33 14t-31 6.5q-17 0 -32.5 -8t-32.5 -31l-33 16q18 46 45.5 63t53.5 17q17 0 34 -6.5t34.5 -14.5t34 -14.5t31.5 -6.5q18 0 32 7.5t30 29.5z" />
    <glyph glyph-name="circumflex" unicode="&#x2c6;" horiz-adv-x="512" 
d="M253 644l-129 -90l-28 23l125 125h68l124 -126l-28 -23z" />
    <glyph glyph-name="ogonek" unicode="&#x2db;" horiz-adv-x="421" 
d="M235 2q-26 -34 -37.5 -59t-11.5 -44q0 -23 14.5 -35.5t38.5 -12.5q22 0 52 13l15 -38q-19 -10 -39.5 -15.5t-41.5 -5.5q-39 0 -66 22t-27 60q0 23 14 51.5t45 65.5h44v-2z" />
    <glyph glyph-name="caron" unicode="&#x2c7;" horiz-adv-x="450" 
d="M360 705l28 -22l-124 -127h-68l-125 126l29 22l128 -90z" />
    <glyph glyph-name="breve" unicode="&#x2d8;" horiz-adv-x="496" 
d="M197 682q4 -28 22 -46t50 -18q34 0 51.5 20t19.5 44h54q-1 -18 -8 -38.5t-21.5 -37t-37.5 -27.5t-57 -11q-35 0 -59 11t-39 27.5t-21.5 37t-7.5 38.5h54z" />
    <glyph glyph-name="uni1FBD" unicode="&#x1fbd;" horiz-adv-x="504" 
d="M228 563q12 17 20.5 37t8.5 37q0 21 -13 38t-51 25l23 65q50 -11 77.5 -35.5t27.5 -63.5q0 -23 -14 -55t-46 -62z" />
    <glyph glyph-name="uni1FBE" unicode="&#x1fbe;" horiz-adv-x="504" 
d="M289 -58v-92q0 -21 8 -28.5t28 -8.5h19v-50q-9 -4 -23.5 -6t-23.5 -2q-42 0 -56 23t-14 66v98h62z" />
    <glyph glyph-name="uni1FC1" unicode="&#x1fc1;" horiz-adv-x="493" 
d="M388 579q0 -18 -13.5 -31.5t-30.5 -13.5q-19 0 -32 13.5t-13 31.5t13 31t32 13q17 0 30.5 -13t13.5 -31zM215 579q0 -18 -13.5 -31.5t-30.5 -13.5q-18 0 -32 13.5t-14 31.5t14 31t32 13q17 0 30.5 -13t13.5 -31zM420 732q-17 -40 -42.5 -57.5t-54.5 -17.5q-17 0 -34.5 6
t-34.5 13.5t-33 14t-31 6.5q-17 0 -32.5 -8t-32.5 -31l-33 16q18 46 45.5 62.5t53.5 16.5q17 0 34 -6.5t34.5 -14t34 -14t31.5 -6.5q18 0 32 7.5t30 29.5z" />
    <glyph glyph-name="uni1FCD" unicode="&#x1fcd;" horiz-adv-x="504" 
d="M248 743l90 18l72 -193l-39 -11zM142 565q12 17 20.5 36.5t8.5 37.5q0 20 -13 37t-51 25q1 1 4.5 11t7.5 21.5t7 21.5t3 11q51 -10 78.5 -35t27.5 -63q0 -23 -14 -55.5t-45 -61.5z" />
    <glyph glyph-name="uni1FCE" unicode="&#x1fce;" horiz-adv-x="520" 
d="M182 568q12 17 20 37t8 37q0 21 -13 38t-50 25l22 65q51 -11 78.5 -35.5t27.5 -63.5q0 -23 -14 -55t-46 -62zM328 555l-38 11l71 192l91 -17z" />
    <glyph glyph-name="uni1FCF" unicode="&#x1fcf;" horiz-adv-x="504" 
d="M239 568q14 17 21.5 28.5t7.5 22.5q0 14 -12 24.5t-47 15.5l19 50q50 -6 74 -25.5t24 -44.5q0 -16 -13 -39t-48 -49zM429 793q-17 -42 -42.5 -59.5t-54.5 -17.5q-16 0 -32.5 6t-33.5 13.5t-33 14t-31 6.5q-17 0 -31 -7.5t-33 -31.5l-32 16q17 48 44.5 65.5t52.5 17.5
q17 0 34.5 -6.5t34.5 -14.5t32.5 -14.5t29.5 -6.5q17 0 30 7.5t33 30.5z" />
    <glyph glyph-name="uni1FDD" unicode="&#x1fdd;" horiz-adv-x="504" 
d="M244 743l91 18l72 -193l-39 -11zM166 548q-32 30 -45.5 62t-13.5 55q0 39 27 63.5t78 35.5q1 -2 4.5 -11.5t7 -21t7 -21.5t3.5 -12q-37 -7 -50 -24t-13 -38q0 -17 8.5 -37t20.5 -37z" />
    <glyph glyph-name="uni1FDE" unicode="&#x1fde;" horiz-adv-x="520" 
d="M211 555q-32 30 -46 62t-14 55q0 39 27.5 63.5t77.5 35.5q1 -2 4.5 -11.5t7.5 -21t7.5 -21.5t3.5 -11q-37 -8 -50 -25t-13 -38q0 -17 8 -37t20 -37zM327 556l-38 11l72 193l90 -18z" />
    <glyph glyph-name="uni1FDF" unicode="&#x1fdf;" horiz-adv-x="504" 
d="M269 553q-39 20 -51.5 41t-12.5 37q0 25 23 47.5t76 27.5l13 -47q-29 -6 -41.5 -16.5t-12.5 -24.5q0 -11 7.5 -22t21.5 -25zM428 793q-17 -42 -42 -59.5t-54 -17.5q-16 0 -32.5 6t-33.5 13.5t-33 14t-31 6.5q-17 0 -31 -7t-33 -32l-32 16q17 48 44.5 65.5t52.5 17.5
q16 0 33.5 -6.5t35 -14.5t33 -14.5t29.5 -6.5q17 0 30 7.5t33 30.5z" />
    <glyph glyph-name="uni1FED" unicode="&#x1fed;" horiz-adv-x="452" 
d="M57 623q0 19 13.5 32t30.5 13q18 0 31.5 -13t13.5 -32q0 -17 -13.5 -30.5t-31.5 -13.5q-17 0 -30.5 13.5t-13.5 30.5zM296 623q0 19 13.5 32t30.5 13q18 0 31.5 -13t13.5 -32q0 -17 -13.5 -30.5t-31.5 -13.5q-17 0 -30.5 13.5t-13.5 30.5zM117 742l90 18l72 -193l-38 -11
z" />
    <glyph glyph-name="uni1FEE" unicode="&#x1fee;" horiz-adv-x="452" 
d="M388 623q0 -17 -13 -30.5t-30 -13.5q-18 0 -31 13.5t-13 30.5q0 19 13 32t31 13q17 0 30 -13t13 -32zM150 623q0 -17 -13.5 -30.5t-30.5 -13.5q-18 0 -31 13.5t-13 30.5q0 19 13 32t31 13q17 0 30.5 -13t13.5 -32zM206 556l-39 11l72 193l90 -18z" />
    <glyph glyph-name="uni1FFE" unicode="&#x1ffe;" horiz-adv-x="504" 
d="M254 549q-32 30 -46 62t-14 55q0 39 27.5 63.5t77.5 35.5l22 -65q-37 -8 -50 -25t-13 -38q0 -17 8.5 -37t20.5 -37z" />
    <glyph glyph-name="less" unicode="&#x3c;" horiz-adv-x="609" 
d="M111 289v60q34 16 86 43t107.5 56t107.5 55.5t85 43.5v-72l-306 -155q16 -8 40.5 -21t53 -28t59.5 -31.5t59.5 -32t53 -28t40.5 -20.5v-72z" />
    <glyph glyph-name="equal" unicode="=" horiz-adv-x="609" 
d="M106 376v66h397v-66h-397zM106 185v66h397v-66h-397z" />
    <glyph glyph-name="greater" unicode="&#x3e;" horiz-adv-x="609" 
d="M111 87v72l306 161q-24 11 -66 32.5t-87 45t-87 45t-66 32.5v72q34 -17 86 -43.5t107.5 -55.5t107 -56t85.5 -43v-60z" />
    <glyph glyph-name="afii10051" unicode="&#x402;" horiz-adv-x="730" 
d="M684 214q0 -50 -14 -95t-42.5 -79.5t-71 -55.5t-100.5 -24v60q42 4 71 21.5t46.5 44.5t25.5 59.5t8 66.5q0 84 -40 128t-115 44q-39 0 -85 -13t-85 -42v-329h-75v583h-191v68h548v-68h-282v-183q17 13 39.5 22.5t46 16t46.5 9.5t43 3q53 0 95 -16.5t71.5 -47.5t45 -74.5
t15.5 -98.5z" />
    <glyph glyph-name="afii10053" unicode="&#x404;" horiz-adv-x="551" 
d="M474 134q13 -12 26.5 -24t26.5 -25q-38 -45 -88.5 -70t-120.5 -25q-60 0 -110.5 23t-86.5 66t-56 105.5t-20 140.5q0 79 20 141.5t56.5 105.5t87 66t110.5 23q66 0 116.5 -22t88.5 -66l-54 -54q-33 37 -69.5 54t-82.5 17q-43 0 -76.5 -16t-57.5 -44.5t-38.5 -68
t-19.5 -86.5h301v-69h-303q0 -46 12 -90t37 -79t61.5 -56.5t85.5 -21.5q87 0 154 75z" />
    <glyph glyph-name="afii10058" unicode="&#x409;" horiz-adv-x="898" 
d="M398 0v582h-195v-271q0 -56 -2.5 -112t-19 -101.5t-52.5 -74.5t-103 -30l-7 64q39 7 61.5 22t33.5 44.5t13.5 77.5t2.5 122v327h343v-272h189q98 0 153 -49t55 -142t-54.5 -140t-147.5 -47h-270zM473 311v-245h188q59 0 97 29t38 94q0 60 -37 91t-99 31h-187z" />
    <glyph glyph-name="afii10059" unicode="&#x40a;" horiz-adv-x="896" 
d="M871 188q0 -50 -16 -85.5t-44.5 -58t-67 -33.5t-83.5 -11h-263v314h-257v-314h-75v650h75v-271h257v271h76v-271h187q98 0 154.5 -49.5t56.5 -141.5zM795 188q0 59 -34.5 92.5t-99.5 33.5h-188v-246h189q57 0 95 27.5t38 92.5z" />
    <glyph glyph-name="afii10060" unicode="&#x40b;" horiz-adv-x="722" 
d="M596 0v238q0 75 -37 114t-115 39q-19 0 -40.5 -4t-43 -11t-41 -17t-34.5 -23v-336h-75v583h-189v68h539v-68h-275v-175l2 -1q36 23 83 36.5t89 13.5q103 0 156.5 -55.5t53.5 -153.5v-248h-73z" />
    <glyph glyph-name="afii10145" unicode="&#x40f;" horiz-adv-x="621" 
d="M349 0v-169h-79v169h-205v651h75v-583h342v583h74v-651h-207z" />
    <glyph glyph-name="afii10018" unicode="&#x411;" horiz-adv-x="582" 
d="M330 379q99 0 155.5 -47t56.5 -142q0 -92 -55 -141t-154 -49h-267v651h415v-68h-342v-204h191zM468 190q0 58 -35.5 90.5t-98.5 32.5h-195v-245h195q64 0 99 31t35 91z" />
    <glyph glyph-name="afii10021" unicode="&#x414;" horiz-adv-x="680" 
d="M577 -155v155h-483v-155h-76v222h52q28 24 45.5 62t27.5 86t14.5 104.5t6.5 117.5l6 213h421v-585h61q0 -55 0.5 -109.5t0.5 -110.5h-76zM242 583l-6 -153q-2 -48 -4.5 -99t-9.5 -99t-20 -90.5t-35 -74.5h349v516h-274z" />
    <glyph glyph-name="afii10024" unicode="&#x416;" horiz-adv-x="801" 
d="M789 0h-94l-255 316l-3 -1v-315h-74v315l-3 1l-255 -316h-94l276 335l-273 316h87l259 -302l3 1v301h74v-301l3 -1l259 302h87l-273 -316z" />
    <glyph glyph-name="afii10025" unicode="&#x417;" horiz-adv-x="528" 
d="M258 661q104 0 160.5 -44.5t56.5 -118.5q0 -24 -8 -47.5t-23 -44.5t-38 -37.5t-53 -25.5v-3q36 -8 59.5 -24.5t37.5 -38t20 -45.5t6 -45q0 -47 -18 -83.5t-51 -61.5t-78.5 -38.5t-99.5 -13.5q-65 0 -123 23.5t-96 65.5l9 9l15 15l15 15t9 10q36 -35 79.5 -53t90.5 -18
q84 0 126 36.5t42 93.5q0 32 -11 55t-30.5 38t-45.5 22.5t-55 7.5h-100v61h96q30 0 56.5 9t46 24t31 35.5t11.5 43.5q0 22 -8 42t-25 35t-43.5 24t-63.5 9q-21 0 -44.5 -4.5t-46 -12t-42.5 -17.5t-35 -22q-2 2 -8.5 9.5t-14 16t-13.5 16t-8 9.5q41 35 99.5 54t115.5 19z" />
    <glyph glyph-name="afii10026" unicode="&#x418;" horiz-adv-x="637" 
d="M497 0v532h-2l-116 -173l-240 -359h-75v651h75v-532h2l109 164l247 368h75v-651h-75z" />
    <glyph glyph-name="afii10029" unicode="&#x41b;" horiz-adv-x="595" 
d="M206 583v-281q0 -59 -4 -113.5t-21 -97.5t-53.5 -70t-100.5 -29l-6 65q35 6 57 20.5t34 40t16.5 63.5t4.5 93v376h395v-650h-76v583h-246z" />
    <glyph glyph-name="afii10037" unicode="&#x423;" horiz-adv-x="530" 
d="M520 649q-57 -134 -114 -266t-114 -266q-17 -40 -34.5 -65t-36 -38.5t-39 -18.5t-43.5 -5h-38v65h23q28 0 49 10.5t35 41.5q5 10 9 19t8 19l-214 504h77l174 -424q7 14 21.5 46.5t32 73.5t37 87.5t37.5 88.5t32 76.5t22 51.5h76v0z" />
    <glyph glyph-name="afii10040" unicode="&#x426;" horiz-adv-x="626" 
d="M539 -157v157h-475v650h75v-582h340v582h76v-584h60v-223h-76z" />
    <glyph glyph-name="afii10041" unicode="&#x427;" horiz-adv-x="588" 
d="M448 0v281h-1q-19 -11 -42.5 -20.5t-48.5 -16t-50.5 -10t-48.5 -3.5q-57 0 -97 16t-65.5 44t-37 66.5t-11.5 82.5v211h72v-197q0 -86 38.5 -122.5t114.5 -36.5q21 0 45 4t48 11.5t46 18t38 22.5v300h75v-651h-75z" />
    <glyph glyph-name="afii10042" unicode="&#x428;" horiz-adv-x="833" 
d="M64 0v651h76v-583h238v583h77v-583h238v583h75v-651h-704z" />
    <glyph glyph-name="afii10043" unicode="&#x429;" horiz-adv-x="846" 
d="M829 -157h-77v157h-687v651h75v-584h239v584h76v-584h238v584h76v-584h60v-224z" />
    <glyph glyph-name="afii10044" unicode="&#x42a;" horiz-adv-x="757" 
d="M12 650h314v-271h189q98 0 153.5 -49.5t55.5 -141.5q0 -93 -55.5 -140.5t-147.5 -47.5h-270v582h-239v68zM648 189q0 59 -37 89.5t-98 30.5h-187v-240h189q28 0 52 6.5t42 21t28.5 37t10.5 55.5z" />
    <glyph glyph-name="afii10045" unicode="&#x42b;" horiz-adv-x="747" 
d="M606 0v651h75v-651h-75zM64 650h75v-271h189q98 0 153 -49.5t55 -141.5q0 -93 -55 -140.5t-148 -47.5h-269v650zM460 189q0 59 -37 90t-97 31h-187v-241h188q28 0 52 6.5t42 21t28.5 37t10.5 55.5z" />
    <glyph glyph-name="afii10046" unicode="&#x42c;" horiz-adv-x="572" 
d="M64 650h75v-271h189q98 0 153 -49.5t55 -141.5q0 -93 -55 -140.5t-148 -47.5h-269v650zM460 189q0 59 -37 89.5t-97 30.5h-187v-240h188q28 0 52 6.5t42 21t28.5 37t10.5 55.5z" />
    <glyph glyph-name="afii10047" unicode="&#x42d;" horiz-adv-x="561" 
d="M137 375h296q-4 46 -18.5 85t-38.5 68t-57.5 45.5t-75.5 16.5q-41 0 -78 -14.5t-73 -49.5l-49 51q43 45 90 65t115 20q61 0 110 -23t84 -66.5t54 -105.5t19 -141t-21 -141t-57.5 -105.5t-87.5 -66.5t-111 -23q-71 0 -120.5 24.5t-87.5 69.5l51 50q33 -36 72 -55t83 -19
q47 0 83 19.5t61 52.5t39 77.5t17 95.5h-299v70z" />
    <glyph glyph-name="afii10048" unicode="&#x42e;" horiz-adv-x="777" 
d="M731 326q0 -78 -17.5 -140.5t-50.5 -106t-81 -66.5t-108 -23q-120 0 -186 84t-70 232h-79v-306h-75v651h75v-277h82q6 64 25 116.5t50.5 90.5t76 59t101.5 21q59 0 106.5 -23t81 -66.5t51.5 -105.5t18 -140zM656 325q0 59 -11.5 108.5t-34 85t-56.5 55t-80 19.5
t-79.5 -20t-56 -55.5t-33.5 -84.5t-11 -107t10.5 -107t32.5 -85t56 -56t81 -20q48 0 82 21t56.5 57t33 84.5t10.5 104.5z" />
    <glyph glyph-name="afii10049" unicode="&#x42f;" horiz-adv-x="585" 
d="M43 449q0 50 16 87.5t44.5 63t66.5 38.5t83 13h267v-651h-75v257h-188l-122 -257h-85l130 265q-65 18 -101 63.5t-36 120.5zM258 584q-60 0 -98.5 -36t-38.5 -99t35.5 -94.5t99.5 -31.5h189v261h-187z" />
    <glyph glyph-name="afii10066" unicode="&#x431;" horiz-adv-x="528" 
d="M121 377q20 45 64 75t97 30q94 0 147.5 -63t53.5 -177q0 -58 -15.5 -104.5t-44 -79.5t-68.5 -51t-89 -18q-58 0 -100 23t-69 64t-39.5 97.5t-12.5 123.5q0 60 9 114t31.5 98.5t60.5 79t96 55.5q24 9 47 15.5t46.5 11.5t48 10.5t50.5 13.5l17 -54q-32 -11 -57 -17t-48 -11
t-44.5 -10.5t-45.5 -15.5q-72 -30 -103 -85.5t-35 -123.5zM274 422q-30 0 -56.5 -12.5t-46.5 -37t-31.5 -61.5t-11.5 -85q0 -36 8.5 -67.5t26 -55.5t44 -38t62.5 -14t62.5 15t44 41t26 61t8.5 76q0 79 -35 128.5t-101 49.5z" />
    <glyph glyph-name="afii10067" unicode="&#x432;" horiz-adv-x="473" 
d="M348 264q40 -11 64.5 -43t24.5 -74q0 -72 -47 -109.5t-128 -37.5h-210v488h214q65 0 107 -31.5t42 -91.5q0 -31 -16.5 -59t-50.5 -41v-1zM123 229v-169h139q54 0 78 23t24 62q0 41 -28.5 62.5t-73.5 21.5h-139zM123 427v-136h136q40 0 61.5 19.5t21.5 48.5q0 31 -19 49.5
t-61 18.5h-139z" />
    <glyph glyph-name="afii10068" unicode="&#x433;" horiz-adv-x="404" 
d="M125 427v-427h-71v488h345v-61h-274z" />
    <glyph glyph-name="afii10069" unicode="&#x434;" horiz-adv-x="544" 
d="M450 -141v141h-365v-141h-68v199h46q21 24 33.5 60.5t20 88.5t11.5 121t7 159h338v-429h45v-199h-68zM200 429l-6 -116q-4 -64 -14 -131.5t-38 -123.5h261v371h-203z" />
    <glyph glyph-name="afii10072" unicode="&#x436;" horiz-adv-x="660" 
d="M93 487l201 -216v216h71v-216l201 216h84l-213 -225l213 -262h-85l-200 249v-249h-71v249l-201 -249h-83l213 259l-210 228h80z" />
    <glyph glyph-name="afii10073" unicode="&#x437;" horiz-adv-x="444" 
d="M201 -8q-53 0 -99.5 17.5t-79.5 50.5l41 46q29 -28 64.5 -41.5t73.5 -13.5q57 0 91.5 25t34.5 66q0 44 -31.5 63t-76.5 19h-80v57h73q49 0 78 22t29 54q0 31 -24.5 54t-82.5 23q-33 0 -66.5 -12t-58.5 -32q-11 12 -19.5 24t-19.5 23q35 29 79 43t91 14q45 0 77.5 -9.5
t53.5 -26.5t31.5 -40t10.5 -49q0 -32 -19.5 -64.5t-65.5 -48.5v-2q26 -6 43.5 -18.5t28.5 -28.5t16 -33t5 -32q0 -37 -14.5 -65t-41 -47t-63 -28.5t-79.5 -9.5z" />
    <glyph glyph-name="afii10074" unicode="&#x438;" horiz-adv-x="500" 
d="M371 370l-67 -101l-180 -269h-71v489h71v-375h4l71 109l176 266h72v-489h-72v370h-4z" />
    <glyph glyph-name="afii10077" unicode="&#x43b;" horiz-adv-x="494" 
d="M366 428h-192v-172q0 -47 -3 -93t-18 -83t-47.5 -61t-90.5 -27l-6 57q36 7 55.5 22.5t29 42.5t11.5 67.5t2 99.5v207h329v-488h-70v428z" />
    <glyph glyph-name="afii10078" unicode="&#x43c;" horiz-adv-x="577" 
d="M292 151l52 108l109 229h71v-488h-72v331h-3l-47 -95l-115 -234l-113 232l-49 100h-2v-334h-71v488h71l115 -232l50 -105h4z" />
    <glyph glyph-name="afii10079" unicode="&#x43d;" horiz-adv-x="508" 
d="M382 0v225h-256v-225h-71v489h71v-202h256v202h71v-489h-71z" />
    <glyph glyph-name="afii10084" unicode="&#x442;" horiz-adv-x="405" 
d="M240 427v-427h-72v427h-155v61h383v-61h-156z" />
    <glyph glyph-name="afii10086" unicode="&#x444;" horiz-adv-x="658" 
d="M365 -160l-72 -29v181q-114 3 -182 68t-68 188q0 55 19 100t53 77t79.5 50t98.5 20v162l71 30v-192q55 -2 101 -19t79 -48.5t51.5 -76.5t18.5 -103q0 -61 -19.5 -107.5t-53.5 -78.5t-79.5 -49.5t-96.5 -19.5v-153zM293 438q-85 -5 -134 -57.5t-49 -135.5q0 -54 17 -91
t43.5 -60.5t59 -35t63.5 -12.5v392zM365 45q29 2 61 13.5t59 35t44.5 61t17.5 90.5q0 83 -47 136t-135 57v-393z" />
    <glyph glyph-name="afii10088" unicode="&#x446;" horiz-adv-x="523" 
d="M498 -141h-69v141h-376v489h70v-430h258v430h73v-430h44v-200z" />
    <glyph glyph-name="afii10089" unicode="&#x447;" horiz-adv-x="472" 
d="M344 233q-32 -36 -72 -52t-73 -16q-82 0 -123 42t-41 137v144h71v-133q0 -66 24 -97t82 -31q35 0 70.5 16.5t64.5 54.5v190h71v-488h-71v233h-3z" />
    <glyph glyph-name="afii10090" unicode="&#x448;" horiz-adv-x="706" 
d="M54 0v490h70v-431h192v431h70v-431h196v431h70v-490h-598z" />
    <glyph glyph-name="afii10091" unicode="&#x449;" horiz-adv-x="719" 
d="M54 489h69v-430h193v430h70v-430h196v430h71v-430h44v-201h-69v142h-574v489z" />
    <glyph glyph-name="afii10092" unicode="&#x44a;" horiz-adv-x="592" 
d="M567 150q0 -75 -46 -112.5t-124 -37.5h-210v427h-178v62h248v-193h133q84 0 130.5 -38.5t46.5 -107.5zM496 149q0 41 -27.5 64t-72.5 23h-139v-175h140q43 0 71 21.5t28 66.5z" />
    <glyph glyph-name="afii10093" unicode="&#x44b;" horiz-adv-x="616" 
d="M492 0v489h70v-489h-70zM438 147q0 -75 -46 -111t-124 -36h-214v489h70v-195h141q81 0 127 -38t46 -109zM365 147q0 42 -26 65t-74 23h-141v-176h142q45 0 72 21.5t27 66.5z" />
    <glyph glyph-name="afii10094" unicode="&#x44c;" horiz-adv-x="470" 
d="M437 149q0 -77 -45.5 -113t-124.5 -36h-212v489h71v-193h137q82 0 128 -38.5t46 -108.5zM366 149q0 41 -26 64t-74 23h-140v-175h141q45 0 72 21.5t27 66.5z" />
    <glyph glyph-name="afii10095" unicode="&#x44d;" horiz-adv-x="448" 
d="M201 497q45 0 82 -16.5t64 -49t41.5 -80t14.5 -108.5t-15.5 -108t-43 -79.5t-65 -49t-80.5 -16.5q-58 0 -97.5 20.5t-67.5 55.5l45 43q28 -29 54.5 -42.5t61.5 -13.5q31 0 55.5 13.5t41.5 36.5t26.5 53.5t10.5 64.5h-227v62h226q-6 66 -39 108.5t-89 42.5
q-31 0 -58 -10.5t-59 -38.5l-42 48q35 32 72 48t88 16z" />
    <glyph glyph-name="afii10096" unicode="&#x44e;" horiz-adv-x="637" 
d="M592 244q0 -56 -13.5 -102t-39 -79.5t-63.5 -52t-87 -18.5q-55 0 -92 21t-60.5 54.5t-34.5 75t-14 82.5h-63v-225h-69v488h69v-204h65q4 38 17 76t37 68t59.5 48.5t85.5 18.5t88 -18.5t63.5 -52t38.5 -79.5t13 -101zM525 244q0 40 -8 75t-24.5 61t-42.5 41t-61 15
t-60 -15t-41.5 -41t-24.5 -61t-8 -75q0 -38 7.5 -73t23.5 -62t41.5 -43t61.5 -16q35 0 61 15.5t42.5 42.5t24.5 62t8 74z" />
    <glyph glyph-name="afii10097" unicode="&#x44f;" horiz-adv-x="483" 
d="M43 0l103 198q-49 14 -76 47t-27 89q0 37 12.5 66t35 48.5t52.5 29.5t65 10h223v-488h-72v188h-145l-95 -188h-76zM112 333q0 -44 28.5 -64.5t71.5 -20.5h147v181h-147q-42 0 -71 -26t-29 -70z" />
    <glyph glyph-name="afii10099" unicode="&#x452;" horiz-adv-x="528" 
d="M157 0h-71v535h-64v52h64v74l71 32v-106h216v-52h-216v-137h3q29 44 68.5 61.5t75.5 17.5q81 0 129.5 -59.5t48.5 -171.5q0 -47 -10.5 -91.5t-35.5 -82.5t-67 -67t-106 -44l-13 64q83 21 121.5 75t38.5 139q0 92 -36.5 134t-93.5 42q-26 0 -48.5 -11.5t-39 -32t-26 -47.5
t-9.5 -58v-266z" />
    <glyph glyph-name="afii10101" unicode="&#x454;" horiz-adv-x="448" 
d="M253 497q51 0 89 -17.5t70 -53.5l-46 -46q-28 29 -56 41.5t-60 12.5q-28 0 -50.5 -11.5t-39 -32t-27 -48.5t-13.5 -61h226v-62h-227q2 -36 12 -66t27.5 -52.5t41.5 -35t55 -12.5q35 0 60.5 13.5t52.5 42.5l46 -41q-28 -36 -66.5 -57t-96.5 -21q-42 0 -79.5 16.5t-65 49
t-44 79.5t-16.5 108t16 108.5t43.5 80t65.5 49t82 16.5z" />
    <glyph glyph-name="afii10106" unicode="&#x459;" horiz-adv-x="714" 
d="M315 0v429h-144v-173q0 -47 -2.5 -93t-17.5 -83t-47.5 -61t-92.5 -27l-6 58q35 6 55 20t29.5 40.5t12 67.5t2.5 103v207h282v-195h134q81 0 128.5 -37.5t47.5 -109.5q0 -75 -47 -110.5t-122 -35.5h-212zM386 234v-175h141q43 0 70 21.5t27 66.5q0 40 -26 63.5t-71 23.5
h-141z" />
    <glyph glyph-name="afii10107" unicode="&#x45a;" horiz-adv-x="718" 
d="M697 149q0 -78 -45 -114t-125 -36h-211v236h-192v-235h-69v489h69v-194h192v193h72v-192h138q78 0 124.5 -38t46.5 -109zM626 149q0 40 -25.5 63t-73.5 23h-139v-174h139q46 0 72.5 21.5t26.5 66.5z" />
    <glyph glyph-name="afii10108" unicode="&#x45b;" horiz-adv-x="496" 
d="M448 0h-72v270q0 68 -27 104.5t-88 36.5q-38 0 -64.5 -21t-41.5 -52q-8 -16 -13.5 -34t-5.5 -37v-267h-71v534h-53v52h53v74l71 32v-106h218v-52h-218v-139h2q27 42 67.5 60.5t76.5 18.5q85 0 125.5 -49.5t40.5 -143.5v-281z" />
    <glyph glyph-name="afii10050" unicode="&#x490;" horiz-adv-x="487" 
d="M64 651h347v134h73v-202h-344v-583h-76v651z" />
    <glyph glyph-name="afii10098" unicode="&#x491;" horiz-adv-x="408" 
d="M397 428h-275v-428h-69v488h277v108h67v-168z" />
    <glyph glyph-name="afii61352" unicode="&#x2116;" horiz-adv-x="910" 
d="M572 224v50h266v-50h-266zM425 0l-293 518v-518h-66v651h66l289 -510v510h67v-651h-63zM853 493q0 -41 -11.5 -73t-32 -53.5t-48.5 -32.5t-60 -11t-59 11.5t-46.5 33.5t-31 53.5t-11.5 71.5t11.5 71t31.5 52.5t47 32.5t59 11t59.5 -11.5t48 -33t32 -52.5t11.5 -70z
M791 493q0 48 -23 81t-68 33q-43 0 -64.5 -33t-21.5 -81q0 -54 23.5 -86t65.5 -32t65 35t23 83z" />
    <glyph glyph-name="afii10193" unicode="&#x45f;" horiz-adv-x="503" 
d="M286 0v-154h-68v154h-164v489h71v-429h252v429h72v-489h-163z" />
    <glyph glyph-name="exclam" unicode="!" horiz-adv-x="251" 
d="M153 170h-44l-15 211v270h74v-269zM81 42q0 26 16 38.5t34 12.5q22 0 35.5 -15t13.5 -35q0 -21 -14 -36t-35 -15t-35.5 14.5t-14.5 35.5z" />
    <glyph glyph-name="Hbar" unicode="&#x126;" horiz-adv-x="622" 
d="M480 0v305h-339v-305h-76v509h-42v50h42v92h76v-92h339v92h76v-92h45v-50h-45v-509h-76zM480 375v134h-339v-134h339z" />
    <glyph glyph-name="hbar" unicode="&#x127;" horiz-adv-x="489" 
d="M439 0h-72v268q0 69 -27 105.5t-88 36.5q-45 0 -77 -29.5t-43 -71.5q-5 -20 -5 -43v-266h-71v535h-42v47h42v80l71 32v-112h203v-47h-203v-140h3q27 41 67 59t76 18q85 0 125.5 -49t40.5 -144v-279z" />
    <glyph glyph-name="Tbar" unicode="&#x166;" horiz-adv-x="502" 
d="M291 582v-188h195v-57h-195v-337h-74v337h-198v57h198v188h-198v69h471v-69h-199z" />
    <glyph glyph-name="tbar" unicode="&#x167;" horiz-adv-x="313" 
d="M169 488h102v-60h-102v-132h98v-53h-98v-128q0 -33 13 -45.5t41 -12.5q14 0 29 2t35 5q0 -2 1 -10t2 -17t2 -17t1 -10q-16 -7 -42 -12t-48 -5q-53 0 -77.5 27.5t-24.5 84.5v138h-79v53h79v132h-74v60h75v118l67 30v-148z" />
    <glyph glyph-name="Hungarumlaut" unicode="&#xe296;" horiz-adv-x="616" 
d="M373 691l-29 27l120 111l69 -45zM226 691l-29 27l120 111l70 -45z" />
    <glyph glyph-name="Caron" unicode="&#xe297;" horiz-adv-x="534" 
d="M409 828l28 -23l-125 -113h-67l-125 112l29 23l128 -77z" />
    <glyph glyph-name="Circumflex" unicode="&#xe298;" horiz-adv-x="626" 
d="M317 765l-128 -76l-29 23l125 111h68l124 -112l-28 -23z" />
    <glyph glyph-name="ring" unicode="&#x2da;" horiz-adv-x="481" 
d="M354 637q0 -39 -26 -64.5t-64 -25.5t-63.5 25t-25.5 65q0 38 25.5 63t63.5 25t64 -25t26 -63zM314 637q0 21 -14.5 35t-35.5 14t-35.5 -14.5t-14.5 -34.5q0 -22 14.5 -37t35.5 -15t35.5 15t14.5 37z" />
    <glyph glyph-name="UniE29A" unicode="&#xe29a;" horiz-adv-x="818" 
d="M747 487v-376q0 -36 9.5 -46.5t32.5 -10.5q4 0 7.5 0.5t7.5 0.5v-51q-9 -4 -24.5 -6.5t-23.5 -2.5q-17 0 -31.5 4t-25 14t-16.5 27.5t-6 43.5v403h70z" />
    <glyph glyph-name="commaaccent" unicode="&#xe29b;" horiz-adv-x="594" 
d="M275 -207q18 13 28.5 24.5t11.5 33.5q-3 -1 -9 -1q-18 0 -30.5 13t-12.5 34q0 23 14.5 37.5t35.5 14.5q23 0 39 -18.5t16 -50.5q0 -43 -21 -69.5t-53 -42.5l-19 25v0z" />
    <glyph glyph-name="Grave" unicode="&#xe29c;" horiz-adv-x="626" 
d="M175 762l62 56l134 -94l-25 -32z" />
    <glyph glyph-name="Acute" unicode="&#xe29d;" horiz-adv-x="626" 
d="M283 692l-25 32l134 94l62 -56z" />
    <glyph glyph-name="uniE29E" unicode="&#xe29e;" horiz-adv-x="498" 
d="M119 743l91 18l71 -193l-38 -11z" />
    <glyph glyph-name="uniE29F" unicode="&#xe29f;" horiz-adv-x="498" 
d="M265 557l-39 11l72 193l91 -18z" />
    <glyph glyph-name="uniE2A0" unicode="&#xe2a0;" horiz-adv-x="504" 
d="M432 658q-17 -40 -41.5 -57.5t-56.5 -17.5q-18 0 -36.5 6.5t-36.5 15t-35 15t-32 6.5q-17 0 -32.5 -8t-32.5 -31l-33 16q18 46 45.5 63t53.5 17q17 0 35.5 -7t36.5 -15.5t35.5 -15.5t31.5 -7q20 0 34.5 8t31.5 30z" />
    <glyph glyph-name="Scaron" unicode="&#x160;" horiz-adv-x="534" 
d="M508 173q0 -84 -59.5 -133.5t-179.5 -49.5q-66 0 -122.5 23t-98.5 62l50 55q37 -33 82.5 -52t93.5 -19q71 0 113.5 25.5t42.5 86.5q0 28 -12.5 48t-34.5 34.5t-52 25t-64 21.5q-47 15 -84 30t-63 35.5t-40 49.5t-14 71q0 39 16 71.5t44.5 55.5t68 35.5t85.5 12.5
q60 0 111 -18t93 -52q-2 -3 -9 -11t-14.5 -17t-14.5 -17t-9 -10q-36 29 -76 42.5t-89 13.5q-63 0 -96.5 -29t-33.5 -73q0 -24 11 -41.5t28.5 -29.5t40 -21t45.5 -17q37 -12 79 -25.5t78 -36t60 -57t24 -89.5zM408 828l28 -23l-125 -113h-67l-125 112l29 23l128 -77z" />
    <glyph glyph-name="Zcaron" unicode="&#x17d;" horiz-adv-x="553" 
d="M523 582l-397 -513h395v-69h-484v68l398 514h-379v69h467v-69zM431 828l28 -23l-125 -113h-67l-125 112l29 23l128 -77z" />
    <glyph glyph-name="scaron" unicode="&#x161;" horiz-adv-x="438" 
d="M399 129q0 -34 -14.5 -60t-39.5 -43.5t-59 -26.5t-73 -9q-45 0 -91 12t-84 34l27 55q38 -20 77 -30.5t73 -10.5q20 0 40.5 4t37 13t26.5 23t10 34q0 21 -9.5 35.5t-26 25.5t-39 19.5t-49.5 17.5q-34 10 -62.5 23t-49.5 30t-32.5 39t-11.5 51t12.5 53.5t35.5 42t55.5 27
t73.5 9.5q83 0 154 -36l-24 -57q-36 19 -71 25.5t-60 6.5q-48 0 -77.5 -19.5t-29.5 -46.5q0 -26 22.5 -46.5t84.5 -38.5q37 -11 68.5 -24t55 -31t37 -42.5t13.5 -58.5zM343 705l28 -22l-124 -127h-68l-125 126l29 22l128 -90z" />
    <glyph glyph-name="zcaron" unicode="&#x17e;" horiz-adv-x="450" 
d="M126 61h280v-61h-367v58q12 17 34 46t49.5 64t56.5 73.5t56.5 73.5t49.5 64t34 46l-1 3h-260v60h348v-57q-13 -17 -35 -46t-49 -64.5t-56.5 -73.5t-57 -73.5t-49.5 -64.5t-34 -46zM364 705l28 -22l-124 -127h-68l-125 126l29 22l128 -90z" />
    <glyph glyph-name="Ydieresis" unicode="&#x178;" horiz-adv-x="560" 
d="M317 231v-231h-75v231l-234 420h86l186 -351l187 351h84zM432 754q0 -18 -13 -31t-30 -13q-18 0 -31.5 13t-13.5 31q0 19 13 31.5t32 12.5q17 0 30 -12.5t13 -31.5zM240 754q0 -18 -13.5 -31t-30.5 -13q-18 0 -31.5 13t-13.5 31q0 19 13.5 31.5t31.5 12.5
q17 0 30.5 -12.5t13.5 -31.5z" />
    <glyph glyph-name="Agrave" unicode="&#xc0;" horiz-adv-x="621" 
d="M446 222q-33 87 -66.5 172.5t-65.5 173.5h-3q-14 -38 -30 -80.5t-29 -76.5q-6 -17 -16 -42t-20.5 -52.5t-20 -53t-15.5 -41.5h266zM155 154q-14 -39 -29.5 -77.5t-29.5 -76.5h-79q65 164 128 325.5t128 325.5h82q64 -164 127.5 -325.5t128.5 -325.5h-80q-15 38 -30 76.5
t-29 77.5h-317zM142 762l62 56l134 -94l-25 -32z" />
    <glyph glyph-name="Aacute" unicode="&#xc1;" horiz-adv-x="621" 
d="M446 222q-33 87 -66.5 172.5t-65.5 173.5h-3q-14 -38 -30 -80.5t-29 -76.5q-6 -17 -16 -42t-20.5 -52.5t-20 -53t-15.5 -41.5h266zM155 154q-14 -39 -29.5 -77.5t-29.5 -76.5h-79q65 164 128 325.5t128 325.5h82q64 -164 127.5 -325.5t128.5 -325.5h-80q-15 38 -30 76.5
t-29 77.5h-317zM308 692l-25 32l134 94l62 -56z" />
    <glyph glyph-name="Acircumflex" unicode="&#xc2;" horiz-adv-x="621" 
d="M446 222q-33 87 -66.5 172.5t-65.5 173.5h-3q-14 -38 -30 -80.5t-29 -76.5q-6 -17 -16 -42t-20.5 -52.5t-20 -53t-15.5 -41.5h266zM155 154q-14 -39 -29.5 -77.5t-29.5 -76.5h-79q65 164 128 325.5t128 325.5h82q64 -164 127.5 -325.5t128.5 -325.5h-80q-15 38 -30 76.5
t-29 77.5h-317zM313 765l-128 -76l-29 23l125 111h68l124 -112l-28 -23z" />
    <glyph glyph-name="Atilde" unicode="&#xc3;" horiz-adv-x="621" 
d="M446 222q-33 87 -66.5 172.5t-65.5 173.5h-3q-14 -38 -30 -80.5t-29 -76.5q-6 -17 -16 -42t-20.5 -52.5t-20 -53t-15.5 -41.5h266zM155 154q-14 -39 -29.5 -77.5t-29.5 -76.5h-79q65 164 128 325.5t128 325.5h82q64 -164 127.5 -325.5t128.5 -325.5h-80q-15 38 -30 76.5
t-29 77.5h-317zM478 783q-17 -41 -42.5 -58t-54.5 -17q-17 0 -34.5 6t-34.5 13.5t-33 14t-31 6.5q-17 0 -32.5 -8t-32.5 -31l-33 16q18 46 45.5 63t53.5 17q17 0 34 -6.5t34.5 -14.5t34 -14.5t31.5 -6.5q18 0 32 7.5t30 29.5z" />
    <glyph glyph-name="Adieresis" unicode="&#xc4;" horiz-adv-x="621" 
d="M446 222q-33 87 -66.5 172.5t-65.5 173.5h-3q-14 -38 -30 -80.5t-29 -76.5q-6 -17 -16 -42t-20.5 -52.5t-20 -53t-15.5 -41.5h266zM155 154q-14 -39 -29.5 -77.5t-29.5 -76.5h-79q65 164 128 325.5t128 325.5h82q64 -164 127.5 -325.5t128.5 -325.5h-80q-15 38 -30 76.5
t-29 77.5h-317zM453 756q0 -18 -13 -31t-30 -13q-18 0 -31.5 13t-13.5 31q0 19 13 31.5t32 12.5q17 0 30 -12.5t13 -31.5zM261 756q0 -18 -13.5 -31t-30.5 -13q-18 0 -31.5 13t-13.5 31q0 19 13.5 31.5t31.5 12.5q17 0 30.5 -12.5t13.5 -31.5z" />
    <glyph glyph-name="Aring" unicode="&#xc5;" horiz-adv-x="621" 
d="M446 222q-33 87 -66.5 172.5t-65.5 173.5h-3q-14 -38 -30 -80.5t-29 -76.5q-6 -17 -16 -42t-20.5 -52.5t-20 -53t-15.5 -41.5h266zM155 154q-14 -39 -29.5 -77.5t-29.5 -76.5h-79q65 164 128 325.5t128 325.5h82q64 -164 127.5 -325.5t128.5 -325.5h-80q-15 38 -30 76.5
t-29 77.5h-317zM404 762q0 -39 -26 -64.5t-64 -25.5t-63.5 25t-25.5 65q0 38 25.5 63t63.5 25t64 -25t26 -63zM364 762q0 21 -14.5 35t-35.5 14t-35.5 -14.5t-14.5 -34.5q0 -22 14.5 -37t35.5 -15t35.5 15t14.5 37z" />
    <glyph glyph-name="Egrave" unicode="&#xc8;" horiz-adv-x="510" 
d="M66 0v651h415v-69h-340v-200h242v-69h-242v-244h353v-69h-428zM151 762l62 56l134 -94l-25 -32z" />
    <glyph glyph-name="Eacute" unicode="&#xc9;" horiz-adv-x="510" 
d="M66 0v651h415v-69h-340v-200h242v-69h-242v-244h353v-69h-428zM250 692l-25 32l134 94l62 -56z" />
    <glyph glyph-name="Ecircumflex" unicode="&#xca;" horiz-adv-x="510" 
d="M66 0v651h415v-69h-340v-200h242v-69h-242v-244h353v-69h-428zM278 765l-128 -76l-29 23l125 111h68l124 -112l-28 -23z" />
    <glyph glyph-name="Edieresis" unicode="&#xcb;" horiz-adv-x="510" 
d="M66 0v651h415v-69h-340v-200h242v-69h-242v-244h353v-69h-428zM418 752q0 -18 -13 -31t-30 -13q-18 0 -31.5 13t-13.5 31q0 19 13 31.5t32 12.5q17 0 30 -12.5t13 -31.5zM226 752q0 -18 -13.5 -31t-30.5 -13q-18 0 -31.5 13t-13.5 31q0 19 13.5 31.5t31.5 12.5
q17 0 30.5 -12.5t13.5 -31.5z" />
    <glyph glyph-name="Igrave" unicode="&#xcc;" horiz-adv-x="243" 
d="M83 0v651h77v-651h-77zM-38 762l62 56l134 -94l-25 -32z" />
    <glyph glyph-name="Iacute" unicode="&#xcd;" horiz-adv-x="243" 
d="M83 0v651h77v-651h-77zM121 692l-25 32l134 94l62 -56z" />
    <glyph glyph-name="Icircumflex" unicode="&#xce;" horiz-adv-x="243" 
d="M83 0v651h77v-651h-77zM121 765l-128 -76l-29 23l125 111h68l124 -112l-28 -23z" />
    <glyph glyph-name="Idieresis" unicode="&#xcf;" horiz-adv-x="243" 
d="M83 0v651h77v-651h-77zM265 752q0 -18 -13 -31t-30 -13q-18 0 -31.5 13t-13.5 31q0 19 13 31.5t32 12.5q17 0 30 -12.5t13 -31.5zM73 752q0 -18 -13.5 -31t-30.5 -13q-18 0 -31.5 13t-13.5 31q0 19 13.5 31.5t31.5 12.5q17 0 30.5 -12.5t13.5 -31.5z" />
    <glyph glyph-name="Ntilde" unicode="&#xd1;" horiz-adv-x="610" 
d="M478 0q-24 36 -57.5 87.5t-72 110t-78 119t-74.5 114.5q-17 26 -32.5 51t-22.5 37h-2v-519h-75v651h74q58 -89 115.5 -176t115.5 -175q12 -18 25.5 -39t27 -43t26 -42.5t23.5 -36.5h2v512h75v-651h-70zM474 782q-17 -41 -42.5 -58t-54.5 -17q-17 0 -34.5 6t-34.5 13.5
t-33 14t-31 6.5q-17 0 -32.5 -8t-32.5 -31l-33 16q18 46 45.5 63t53.5 17q17 0 34 -6.5t34.5 -14.5t34 -14.5t31.5 -6.5q18 0 32 7.5t30 29.5z" />
    <glyph glyph-name="Ograve" unicode="&#xd2;" horiz-adv-x="635" 
d="M589 326q0 -76 -19.5 -138t-55 -106t-85.5 -68t-112 -24q-65 0 -115 25t-85 69.5t-53 106t-18 134.5q0 72 18.5 133.5t53 106.5t85 70.5t114.5 25.5q62 0 112 -24t85.5 -68.5t55 -106t19.5 -136.5zM511 325q0 57 -12 106t-36.5 85t-61 56t-84.5 20t-84.5 -20t-60.5 -55.5
t-36.5 -84t-12.5 -106.5q0 -55 12 -103.5t36.5 -85t61 -57.5t84.5 -21q49 0 85.5 21.5t60.5 57.5t36 84.5t12 102.5zM175 762l62 56l134 -94l-25 -32z" />
    <glyph glyph-name="Oacute" unicode="&#xd3;" horiz-adv-x="635" 
d="M589 326q0 -76 -19.5 -138t-55 -106t-85.5 -68t-112 -24q-65 0 -115 25t-85 69.5t-53 106t-18 134.5q0 72 18.5 133.5t53 106.5t85 70.5t114.5 25.5q62 0 112 -24t85.5 -68.5t55 -106t19.5 -136.5zM511 325q0 57 -12 106t-36.5 85t-61 56t-84.5 20t-84.5 -20t-60.5 -55.5
t-36.5 -84t-12.5 -106.5q0 -55 12 -103.5t36.5 -85t61 -57.5t84.5 -21q49 0 85.5 21.5t60.5 57.5t36 84.5t12 102.5zM285 692l-25 32l134 94l62 -56z" />
    <glyph glyph-name="Ocircumflex" unicode="&#xd4;" horiz-adv-x="635" 
d="M589 326q0 -76 -19.5 -138t-55 -106t-85.5 -68t-112 -24q-65 0 -115 25t-85 69.5t-53 106t-18 134.5q0 72 18.5 133.5t53 106.5t85 70.5t114.5 25.5q62 0 112 -24t85.5 -68.5t55 -106t19.5 -136.5zM511 325q0 57 -12 106t-36.5 85t-61 56t-84.5 20t-84.5 -20t-60.5 -55.5
t-36.5 -84t-12.5 -106.5q0 -55 12 -103.5t36.5 -85t61 -57.5t84.5 -21q49 0 85.5 21.5t60.5 57.5t36 84.5t12 102.5zM320 765l-128 -76l-29 23l125 111h68l124 -112l-28 -23z" />
    <glyph glyph-name="Otilde" unicode="&#xd5;" horiz-adv-x="635" 
d="M589 326q0 -76 -19.5 -138t-55 -106t-85.5 -68t-112 -24q-65 0 -115 25t-85 69.5t-53 106t-18 134.5q0 72 18.5 133.5t53 106.5t85 70.5t114.5 25.5q62 0 112 -24t85.5 -68.5t55 -106t19.5 -136.5zM511 325q0 57 -12 106t-36.5 85t-61 56t-84.5 20t-84.5 -20t-60.5 -55.5
t-36.5 -84t-12.5 -106.5q0 -55 12 -103.5t36.5 -85t61 -57.5t84.5 -21q49 0 85.5 21.5t60.5 57.5t36 84.5t12 102.5zM484 785q-17 -41 -42.5 -58t-54.5 -17q-17 0 -34.5 6t-34.5 13.5t-33 14t-31 6.5q-17 0 -32.5 -8t-32.5 -31l-33 16q18 46 45.5 63t53.5 17q17 0 34 -6.5
t34.5 -14.5t34 -14.5t31.5 -6.5q18 0 32 7.5t30 29.5z" />
    <glyph glyph-name="Odieresis" unicode="&#xd6;" horiz-adv-x="635" 
d="M589 326q0 -76 -19.5 -138t-55 -106t-85.5 -68t-112 -24q-65 0 -115 25t-85 69.5t-53 106t-18 134.5q0 72 18.5 133.5t53 106.5t85 70.5t114.5 25.5q62 0 112 -24t85.5 -68.5t55 -106t19.5 -136.5zM511 325q0 57 -12 106t-36.5 85t-61 56t-84.5 20t-84.5 -20t-60.5 -55.5
t-36.5 -84t-12.5 -106.5q0 -55 12 -103.5t36.5 -85t61 -57.5t84.5 -21q49 0 85.5 21.5t60.5 57.5t36 84.5t12 102.5zM458 752q0 -18 -13 -31t-30 -13q-18 0 -31.5 13t-13.5 31q0 19 13 31.5t32 12.5q17 0 30 -12.5t13 -31.5zM266 752q0 -18 -13.5 -31t-30.5 -13
q-18 0 -31.5 13t-13.5 31q0 19 13.5 31.5t31.5 12.5q17 0 30.5 -12.5t13.5 -31.5z" />
    <glyph glyph-name="Ugrave" unicode="&#xd9;" horiz-adv-x="616" 
d="M556 270q0 -142 -65 -211t-183 -69q-116 0 -179 70.5t-63 210.5v380h75v-377q0 -98 42 -155.5t127 -57.5q88 0 129 55.5t41 151.5v383h76v-381zM172 762l62 56l134 -94l-25 -32z" />
    <glyph glyph-name="Uacute" unicode="&#xda;" horiz-adv-x="616" 
d="M556 270q0 -142 -65 -211t-183 -69q-116 0 -179 70.5t-63 210.5v380h75v-377q0 -98 42 -155.5t127 -57.5q88 0 129 55.5t41 151.5v383h76v-381zM282 692l-25 32l134 94l62 -56z" />
    <glyph glyph-name="Ucircumflex" unicode="&#xdb;" horiz-adv-x="616" 
d="M556 270q0 -142 -65 -211t-183 -69q-116 0 -179 70.5t-63 210.5v380h75v-377q0 -98 42 -155.5t127 -57.5q88 0 129 55.5t41 151.5v383h76v-381zM311 765l-128 -76l-29 23l125 111h68l124 -112l-28 -23z" />
    <glyph glyph-name="Udieresis" unicode="&#xdc;" horiz-adv-x="616" 
d="M556 270q0 -142 -65 -211t-183 -69q-116 0 -179 70.5t-63 210.5v380h75v-377q0 -98 42 -155.5t127 -57.5q88 0 129 55.5t41 151.5v383h76v-381zM456 754q0 -18 -13 -31t-30 -13q-18 0 -31.5 13t-13.5 31q0 19 13 31.5t32 12.5q17 0 30 -12.5t13 -31.5zM264 754
q0 -18 -13.5 -31t-30.5 -13q-18 0 -31.5 13t-13.5 31q0 19 13.5 31.5t31.5 12.5q17 0 30.5 -12.5t13.5 -31.5z" />
    <glyph glyph-name="Yacute" unicode="&#xdd;" horiz-adv-x="560" 
d="M317 231v-231h-75v231l-234 420h86l186 -351l187 351h84zM267 692l-25 32l134 94l62 -56z" />
    <glyph glyph-name="agrave" unicode="&#xe0;" horiz-adv-x="477" 
d="M245 497q85 0 130.5 -39.5t45.5 -118.5v-339h-70v48h-2q-39 -35 -77.5 -46t-73.5 -11q-29 0 -58 8.5t-52.5 27t-38 47.5t-14.5 71q0 36 13.5 65t38 49.5t58 31.5t73.5 11q32 0 64.5 -6.5t68.5 -26.5v60q0 56 -28.5 81.5t-85.5 25.5q-36 0 -67 -9t-62 -24l-24 56
q35 17 74 27.5t87 10.5zM351 209q-30 17 -60 27t-72 10q-48 0 -81 -25.5t-33 -73.5t28 -73t81 -25q39 2 74.5 21t62.5 46v93zM140 713l83 15l72 -159l-38 -13z" />
    <glyph glyph-name="aacute" unicode="&#xe1;" horiz-adv-x="477" 
d="M245 497q85 0 130.5 -39.5t45.5 -118.5v-339h-70v48h-2q-39 -35 -77.5 -46t-73.5 -11q-29 0 -58 8.5t-52.5 27t-38 47.5t-14.5 71q0 36 13.5 65t38 49.5t58 31.5t73.5 11q32 0 64.5 -6.5t68.5 -26.5v60q0 56 -28.5 81.5t-85.5 25.5q-36 0 -67 -9t-62 -24l-24 56
q35 17 74 27.5t87 10.5zM351 209q-30 17 -60 27t-72 10q-48 0 -81 -25.5t-33 -73.5t28 -73t81 -25q39 2 74.5 21t62.5 46v93zM264 556l-38 13l70 161l82 -15z" />
    <glyph glyph-name="acircumflex" unicode="&#xe2;" horiz-adv-x="477" 
d="M245 497q85 0 130.5 -39.5t45.5 -118.5v-339h-70v48h-2q-39 -35 -77.5 -46t-73.5 -11q-29 0 -58 8.5t-52.5 27t-38 47.5t-14.5 71q0 36 13.5 65t38 49.5t58 31.5t73.5 11q32 0 64.5 -6.5t68.5 -26.5v60q0 56 -28.5 81.5t-85.5 25.5q-36 0 -67 -9t-62 -24l-24 56
q35 17 74 27.5t87 10.5zM351 209q-30 17 -60 27t-72 10q-48 0 -81 -25.5t-33 -73.5t28 -73t81 -25q39 2 74.5 21t62.5 46v93zM250 649l-129 -90l-28 23l125 125h68l124 -126l-28 -23z" />
    <glyph glyph-name="atilde" unicode="&#xe3;" horiz-adv-x="477" 
d="M245 497q85 0 130.5 -39.5t45.5 -118.5v-339h-70v48h-2q-39 -35 -77.5 -46t-73.5 -11q-29 0 -58 8.5t-52.5 27t-38 47.5t-14.5 71q0 36 13.5 65t38 49.5t58 31.5t73.5 11q32 0 64.5 -6.5t68.5 -26.5v60q0 56 -28.5 81.5t-85.5 25.5q-36 0 -67 -9t-62 -24l-24 56
q35 17 74 27.5t87 10.5zM351 209q-30 17 -60 27t-72 10q-48 0 -81 -25.5t-33 -73.5t28 -73t81 -25q39 2 74.5 21t62.5 46v93zM424 652q-17 -41 -42.5 -58t-54.5 -17q-17 0 -34.5 6t-34.5 13.5t-33 14t-31 6.5q-17 0 -32.5 -8t-32.5 -31l-33 16q18 46 45.5 63t53.5 17
q17 0 34 -6.5t34.5 -14.5t34 -14.5t31.5 -6.5q18 0 32 7.5t30 29.5z" />
    <glyph glyph-name="adieresis" unicode="&#xe4;" horiz-adv-x="477" 
d="M245 497q85 0 130.5 -39.5t45.5 -118.5v-339h-70v48h-2q-39 -35 -77.5 -46t-73.5 -11q-29 0 -58 8.5t-52.5 27t-38 47.5t-14.5 71q0 36 13.5 65t38 49.5t58 31.5t73.5 11q32 0 64.5 -6.5t68.5 -26.5v60q0 56 -28.5 81.5t-85.5 25.5q-36 0 -67 -9t-62 -24l-24 56
q35 17 74 27.5t87 10.5zM351 209q-30 17 -60 27t-72 10q-48 0 -81 -25.5t-33 -73.5t28 -73t81 -25q39 2 74.5 21t62.5 46v93zM393 627q0 -18 -13 -31t-30 -13q-18 0 -31.5 13t-13.5 31q0 19 13 31.5t32 12.5q17 0 30 -12.5t13 -31.5zM201 627q0 -18 -13.5 -31t-30.5 -13
q-18 0 -31.5 13t-13.5 31q0 19 13.5 31.5t31.5 12.5q17 0 30.5 -12.5t13.5 -31.5z" />
    <glyph glyph-name="aring" unicode="&#xe5;" horiz-adv-x="477" 
d="M245 497q85 0 130.5 -39.5t45.5 -118.5v-339h-70v48h-2q-39 -35 -77.5 -46t-73.5 -11q-29 0 -58 8.5t-52.5 27t-38 47.5t-14.5 71q0 36 13.5 65t38 49.5t58 31.5t73.5 11q32 0 64.5 -6.5t68.5 -26.5v60q0 56 -28.5 81.5t-85.5 25.5q-36 0 -67 -9t-62 -24l-24 56
q35 17 74 27.5t87 10.5zM351 209q-30 17 -60 27t-72 10q-48 0 -81 -25.5t-33 -73.5t28 -73t81 -25q39 2 74.5 21t62.5 46v93zM346 635q0 -39 -26 -64.5t-64 -25.5t-63.5 25t-25.5 65q0 38 25.5 63t63.5 25t64 -25t26 -63zM306 635q0 21 -14.5 35t-35.5 14t-35.5 -14.5
t-14.5 -34.5q0 -22 14.5 -37t35.5 -15t35.5 15t14.5 37z" />
    <glyph glyph-name="ccedilla" unicode="&#xe7;" horiz-adv-x="438" 
d="M237 -204q-16 0 -36 3.5t-43 13.5l13 36q35 -13 64 -13q23 0 36.5 10t13.5 28q0 21 -15.5 32t-37.5 11q-2 0 -4.5 -0.5t-4.5 -0.5l-20 21l18 55q-38 5 -70 23t-55 49t-36.5 76t-13.5 104q0 61 15.5 108t43.5 79.5t65 49t81 16.5q98 0 160 -69l-47 -47q-27 29 -55 41
t-60 12q-31 0 -55.5 -14.5t-41.5 -40t-26 -60t-9 -75.5t8.5 -75.5t26 -60t42.5 -40t58 -14.5t59.5 12.5t53.5 40.5l47 -43q-29 -32 -65 -52t-89 -22q-3 -8 -6 -16.5t-5 -17.5q28 -3 46 -11.5t28.5 -20t14.5 -24.5t4 -24q0 -13 -5.5 -27t-17.5 -26t-31.5 -19.5t-48.5 -7.5z
" />
    <glyph glyph-name="egrave" unicode="&#xe8;" horiz-adv-x="489" 
d="M251 497q49 0 86.5 -17.5t63 -50t39 -78t13.5 -101.5v-33h-337q5 -81 45 -123t97 -42q32 0 62 13t53 34l42 -45q-67 -64 -164 -64q-41 0 -78.5 16t-66 48t-45 79.5t-16.5 109.5q0 59 16 106t43.5 80t65 50.5t81.5 17.5zM383 274q0 33 -8 62.5t-24.5 51t-41.5 34.5t-60 13
q-26 0 -49 -11.5t-41 -33t-29.5 -51t-13.5 -65.5h267zM139 713l83 15l72 -159l-38 -13z" />
    <glyph glyph-name="eacute" unicode="&#xe9;" horiz-adv-x="489" 
d="M251 497q49 0 86.5 -17.5t63 -50t39 -78t13.5 -101.5v-33h-337q5 -81 45 -123t97 -42q32 0 62 13t53 34l42 -45q-67 -64 -164 -64q-41 0 -78.5 16t-66 48t-45 79.5t-16.5 109.5q0 59 16 106t43.5 80t65 50.5t81.5 17.5zM383 274q0 33 -8 62.5t-24.5 51t-41.5 34.5t-60 13
q-26 0 -49 -11.5t-41 -33t-29.5 -51t-13.5 -65.5h267zM259 556l-38 13l70 161l82 -15z" />
    <glyph glyph-name="ecircumflex" unicode="&#xea;" horiz-adv-x="489" 
d="M251 497q49 0 86.5 -17.5t63 -50t39 -78t13.5 -101.5v-33h-337q5 -81 45 -123t97 -42q32 0 62 13t53 34l42 -45q-67 -64 -164 -64q-41 0 -78.5 16t-66 48t-45 79.5t-16.5 109.5q0 59 16 106t43.5 80t65 50.5t81.5 17.5zM383 274q0 33 -8 62.5t-24.5 51t-41.5 34.5t-60 13
q-26 0 -49 -11.5t-41 -33t-29.5 -51t-13.5 -65.5h267zM255 649l-129 -90l-28 23l125 125h68l124 -126l-28 -23z" />
    <glyph glyph-name="edieresis" unicode="&#xeb;" horiz-adv-x="489" 
d="M251 497q49 0 86.5 -17.5t63 -50t39 -78t13.5 -101.5v-33h-337q5 -81 45 -123t97 -42q32 0 62 13t53 34l42 -45q-67 -64 -164 -64q-41 0 -78.5 16t-66 48t-45 79.5t-16.5 109.5q0 59 16 106t43.5 80t65 50.5t81.5 17.5zM383 274q0 33 -8 62.5t-24.5 51t-41.5 34.5t-60 13
q-26 0 -49 -11.5t-41 -33t-29.5 -51t-13.5 -65.5h267zM203 621q0 -18 -13.5 -31t-30.5 -13q-18 0 -31.5 13t-13.5 31q0 19 13.5 31.5t31.5 12.5q17 0 30.5 -12.5t13.5 -31.5zM395 621q0 -18 -13 -31t-30 -13q-18 0 -31.5 13t-13.5 31q0 19 13 31.5t32 12.5q17 0 30 -12.5
t13 -31.5z" />
    <glyph glyph-name="ntilde" unicode="&#xf1;" horiz-adv-x="487" 
d="M438 0h-72v293q0 69 -27 105.5t-88 36.5q-45 0 -77 -29.5t-43 -71.5q-5 -20 -5 -43v-291h-71v488h71v-69l2 -1q27 42 67 60.5t77 18.5q85 0 125.5 -49.5t40.5 -143.5v-304zM404 652q-17 -41 -42.5 -58t-54.5 -17q-17 0 -34.5 6t-34.5 13.5t-33 14t-31 6.5q-17 0 -32.5 -8
t-32.5 -31l-33 16q18 46 45.5 63t53.5 17q17 0 34 -6.5t34.5 -14.5t34 -14.5t31.5 -6.5q18 0 32 7.5t30 29.5z" />
    <glyph glyph-name="ugrave" unicode="&#xf9;" horiz-adv-x="486" 
d="M52 488h71v-294q0 -72 26 -107t87 -35q45 0 75.5 28.5t41.5 70.5q6 21 6 46v291h71v-488h-71v68h-3q-27 -42 -65.5 -60t-74.5 -18q-164 0 -164 187v311zM131 713l83 15l72 -159l-38 -13z" />
    <glyph glyph-name="uacute" unicode="&#xfa;" horiz-adv-x="486" 
d="M52 488h71v-294q0 -72 26 -107t87 -35q45 0 75.5 28.5t41.5 70.5q6 21 6 46v291h71v-488h-71v68h-3q-27 -42 -65.5 -60t-74.5 -18q-164 0 -164 187v311zM252 556l-38 13l70 161l82 -15z" />
    <glyph glyph-name="ucircumflex" unicode="&#xfb;" horiz-adv-x="486" 
d="M52 488h71v-294q0 -72 26 -107t87 -35q45 0 75.5 28.5t41.5 70.5q6 21 6 46v291h71v-488h-71v68h-3q-27 -42 -65.5 -60t-74.5 -18q-164 0 -164 187v311zM251 646l-129 -90l-28 23l125 125h68l124 -126l-28 -23z" />
    <glyph glyph-name="udieresis" unicode="&#xfc;" horiz-adv-x="486" 
d="M52 488h71v-294q0 -72 26 -107t87 -35q45 0 75.5 28.5t41.5 70.5q6 21 6 46v291h71v-488h-71v68h-3q-27 -42 -65.5 -60t-74.5 -18q-164 0 -164 187v311zM391 628q0 -18 -13 -31t-30 -13q-18 0 -31.5 13t-13.5 31q0 19 13 31.5t32 12.5q17 0 30 -12.5t13 -31.5zM199 628
q0 -18 -13.5 -31t-30.5 -13q-18 0 -31.5 13t-13.5 31q0 19 13.5 31.5t31.5 12.5q17 0 30.5 -12.5t13.5 -31.5z" />
    <glyph glyph-name="yacute" unicode="&#xfd;" horiz-adv-x="463" 
d="M135 -187l63 180l-183 495h75l90 -258l49 -147h3q13 37 25.5 73.5t24.5 73.5q8 22 20.5 56.5t26 72t25.5 72.5t20 57h72q-61 -168 -122.5 -338t-122.5 -337h-66zM245 556l-38 13l70 161l82 -15z" />
    <glyph glyph-name="ydieresis" unicode="&#xff;" horiz-adv-x="463" 
d="M135 -187l63 180l-183 495h75l90 -258l49 -147h3q13 37 25.5 73.5t24.5 73.5q8 22 20.5 56.5t26 72t25.5 72.5t20 57h72q-61 -168 -122.5 -338t-122.5 -337h-66zM190 627q0 -18 -13.5 -31t-30.5 -13q-18 0 -31.5 13t-13.5 31q0 19 13.5 31.5t31.5 12.5q17 0 30.5 -12.5
t13.5 -31.5zM382 627q0 -18 -13 -31t-30 -13q-18 0 -31.5 13t-13.5 31q0 19 13 31.5t32 12.5q17 0 30 -12.5t13 -31.5z" />
    <glyph glyph-name="Amacron" unicode="&#x100;" horiz-adv-x="621" 
d="M446 222q-33 87 -66.5 172.5t-65.5 173.5h-3q-14 -38 -30 -80.5t-29 -76.5q-6 -17 -16 -42t-20.5 -52.5t-20 -53t-15.5 -41.5h266zM155 154q-14 -39 -29.5 -77.5t-29.5 -76.5h-79q65 164 128 325.5t128 325.5h82q64 -164 127.5 -325.5t128.5 -325.5h-80q-15 38 -30 76.5
t-29 77.5h-317zM192 727v55h242v-55h-242z" />
    <glyph glyph-name="amacron" unicode="&#x101;" horiz-adv-x="477" 
d="M245 497q85 0 130.5 -39.5t45.5 -118.5v-339h-70v48h-2q-39 -35 -77.5 -46t-73.5 -11q-29 0 -58 8.5t-52.5 27t-38 47.5t-14.5 71q0 36 13.5 65t38 49.5t58 31.5t73.5 11q32 0 64.5 -6.5t68.5 -26.5v60q0 56 -28.5 81.5t-85.5 25.5q-36 0 -67 -9t-62 -24l-24 56
q35 17 74 27.5t87 10.5zM351 209q-30 17 -60 27t-72 10q-48 0 -81 -25.5t-33 -73.5t28 -73t81 -25q39 2 74.5 21t62.5 46v93zM139 605v55h242v-55h-242z" />
    <glyph glyph-name="Abreve" unicode="&#x102;" horiz-adv-x="621" 
d="M446 222q-33 87 -66.5 172.5t-65.5 173.5h-3q-14 -38 -30 -80.5t-29 -76.5q-6 -17 -16 -42t-20.5 -52.5t-20 -53t-15.5 -41.5h266zM155 154q-14 -39 -29.5 -77.5t-29.5 -76.5h-79q65 164 128 325.5t128 325.5h82q64 -164 127.5 -325.5t128.5 -325.5h-80q-15 38 -30 76.5
t-29 77.5h-317zM241 811q4 -28 22 -46t50 -18q34 0 51.5 20t19.5 44h54q-1 -18 -8 -38.5t-21.5 -37t-37.5 -27.5t-57 -11q-35 0 -59 11t-39 27.5t-21.5 37t-7.5 38.5h54z" />
    <glyph glyph-name="abreve" unicode="&#x103;" horiz-adv-x="477" 
d="M245 497q85 0 130.5 -39.5t45.5 -118.5v-339h-70v48h-2q-39 -35 -77.5 -46t-73.5 -11q-29 0 -58 8.5t-52.5 27t-38 47.5t-14.5 71q0 36 13.5 65t38 49.5t58 31.5t73.5 11q32 0 64.5 -6.5t68.5 -26.5v60q0 56 -28.5 81.5t-85.5 25.5q-36 0 -67 -9t-62 -24l-24 56
q35 17 74 27.5t87 10.5zM351 209q-30 17 -60 27t-72 10q-48 0 -81 -25.5t-33 -73.5t28 -73t81 -25q39 2 74.5 21t62.5 46v93zM190 682q4 -28 22 -46t50 -18q34 0 51.5 20t19.5 44h54q-1 -18 -8 -38.5t-21.5 -37t-37.5 -27.5t-57 -11q-35 0 -59 11t-39 27.5t-21.5 37
t-7.5 38.5h54z" />
    <glyph glyph-name="Aogonek" unicode="&#x104;" horiz-adv-x="621" 
d="M155 154q-14 -39 -29.5 -77.5t-29.5 -76.5h-79q65 164 128 325.5t128 325.5h82q64 -164 127.5 -325.5t128.5 -325.5h-35q-26 -33 -36.5 -57.5t-10.5 -43.5q0 -23 14.5 -35.5t38.5 -12.5q22 0 52 13l15 -38q-19 -10 -39.5 -15.5t-41.5 -5.5q-39 0 -66 22t-27 60
q0 23 13.5 50.5t42.5 62.5q-15 38 -30 76.5t-29 77.5h-317zM446 222q-33 87 -66.5 172.5t-65.5 173.5h-3q-14 -38 -30 -80.5t-29 -76.5q-6 -17 -16 -42t-20.5 -52.5t-20 -53t-15.5 -41.5h266z" />
    <glyph glyph-name="aogonek" unicode="&#x105;" horiz-adv-x="477" 
d="M245 497q85 0 130.5 -39.5t45.5 -118.5v-339h-18q-26 -33 -36.5 -57.5t-10.5 -43.5q0 -23 14.5 -35.5t38.5 -12.5q22 0 52 13l15 -38q-19 -10 -39.5 -15.5t-41.5 -5.5q-39 0 -66 22t-27 60q0 23 13 50.5t42 62.5h-6v48h-2q-39 -35 -77.5 -46t-73.5 -11q-29 0 -58 8.5
t-52.5 27t-38 47.5t-14.5 71q0 36 13.5 65t38 49.5t58 31.5t73.5 11q32 0 64.5 -6.5t68.5 -26.5v60q0 56 -28.5 81.5t-85.5 25.5q-36 0 -67 -9t-62 -24l-24 56q35 17 74 27.5t87 10.5zM351 209q-30 17 -60 27t-72 10q-48 0 -81 -25.5t-33 -73.5t28 -73t81 -25q39 2 74.5 21
t62.5 46v93z" />
    <glyph glyph-name="Cacute" unicode="&#x106;" horiz-adv-x="556" 
d="M320 662q66 0 116.5 -22t88.5 -67l-53 -53q-33 37 -70 54t-83 17q-47 0 -83 -19.5t-61 -55t-38 -84t-13 -105.5q0 -56 12.5 -105t37 -85t61.5 -56.5t86 -20.5q88 0 154 75l53 -49q-38 -45 -88 -70.5t-121 -25.5q-60 0 -110.5 23t-86.5 66.5t-56 105.5t-20 141
q0 78 20 140t56.5 105.5t87 67t110.5 23.5zM290 692l-25 32l134 94l62 -56z" />
    <glyph glyph-name="cacute" unicode="&#x107;" horiz-adv-x="438" 
d="M251 497q98 0 160 -69l-47 -47q-27 29 -55 41t-60 12q-31 0 -55.5 -14.5t-41.5 -40t-26 -60t-9 -75.5t8.5 -75.5t26 -60t42.5 -40t58 -14.5t59.5 12.5t53.5 40.5l47 -43q-29 -34 -67.5 -54t-95.5 -20q-42 0 -79 15.5t-64.5 47t-43.5 79.5t-16 112q0 61 15.5 108
t43.5 79.5t65 49t81 16.5zM247 556l-38 13l70 161l82 -15z" />
    <glyph glyph-name="Ccircumflex" unicode="&#x108;" horiz-adv-x="556" 
d="M320 662q66 0 116.5 -22t88.5 -67l-53 -53q-33 37 -70 54t-83 17q-47 0 -83 -19.5t-61 -55t-38 -84t-13 -105.5q0 -56 12.5 -105t37 -85t61.5 -56.5t86 -20.5q88 0 154 75l53 -49q-38 -45 -88 -70.5t-121 -25.5q-60 0 -110.5 23t-86.5 66.5t-56 105.5t-20 141
q0 78 20 140t56.5 105.5t87 67t110.5 23.5zM317 765l-128 -76l-29 23l125 111h68l124 -112l-28 -23z" />
    <glyph glyph-name="ccircumflex" unicode="&#x109;" horiz-adv-x="438" 
d="M251 497q98 0 160 -69l-47 -47q-27 29 -55 41t-60 12q-31 0 -55.5 -14.5t-41.5 -40t-26 -60t-9 -75.5t8.5 -75.5t26 -60t42.5 -40t58 -14.5t59.5 12.5t53.5 40.5l47 -43q-29 -34 -67.5 -54t-95.5 -20q-42 0 -79 15.5t-64.5 47t-43.5 79.5t-16 112q0 61 15.5 108
t43.5 79.5t65 49t81 16.5zM243 644l-129 -90l-28 23l125 125h68l124 -126l-28 -23z" />
    <glyph glyph-name="Cdotaccent" unicode="&#x10a;" horiz-adv-x="556" 
d="M320 662q66 0 116.5 -22t88.5 -67l-53 -53q-33 37 -70 54t-83 17q-47 0 -83 -19.5t-61 -55t-38 -84t-13 -105.5q0 -56 12.5 -105t37 -85t61.5 -56.5t86 -20.5q88 0 154 75l53 -49q-38 -45 -88 -70.5t-121 -25.5q-60 0 -110.5 23t-86.5 66.5t-56 105.5t-20 141
q0 78 20 140t56.5 105.5t87 67t110.5 23.5zM361 755q0 -18 -13.5 -31.5t-32.5 -13.5t-32 13.5t-13 31.5q0 20 13 33.5t32 13.5t32.5 -13.5t13.5 -33.5z" />
    <glyph glyph-name="cdotaccent" unicode="&#x10b;" horiz-adv-x="438" 
d="M251 497q98 0 160 -69l-47 -47q-27 29 -55 41t-60 12q-31 0 -55.5 -14.5t-41.5 -40t-26 -60t-9 -75.5t8.5 -75.5t26 -60t42.5 -40t58 -14.5t59.5 12.5t53.5 40.5l47 -43q-29 -34 -67.5 -54t-95.5 -20q-42 0 -79 15.5t-64.5 47t-43.5 79.5t-16 112q0 61 15.5 108
t43.5 79.5t65 49t81 16.5zM298 626q0 -18 -13.5 -31.5t-32.5 -13.5t-32 13.5t-13 31.5q0 20 13 33.5t32 13.5t32.5 -13.5t13.5 -33.5z" />
    <glyph glyph-name="Ccaron" unicode="&#x10c;" horiz-adv-x="556" 
d="M320 662q66 0 116.5 -22t88.5 -67l-53 -53q-33 37 -70 54t-83 17q-47 0 -83 -19.5t-61 -55t-38 -84t-13 -105.5q0 -56 12.5 -105t37 -85t61.5 -56.5t86 -20.5q88 0 154 75l53 -49q-38 -45 -88 -70.5t-121 -25.5q-60 0 -110.5 23t-86.5 66.5t-56 105.5t-20 141
q0 78 20 140t56.5 105.5t87 67t110.5 23.5zM449 828l28 -23l-125 -113h-67l-125 112l29 23l128 -77z" />
    <glyph glyph-name="ccaron" unicode="&#x10d;" horiz-adv-x="438" 
d="M251 497q98 0 160 -69l-47 -47q-27 29 -55 41t-60 12q-31 0 -55.5 -14.5t-41.5 -40t-26 -60t-9 -75.5t8.5 -75.5t26 -60t42.5 -40t58 -14.5t59.5 12.5t53.5 40.5l47 -43q-29 -34 -67.5 -54t-95.5 -20q-42 0 -79 15.5t-64.5 47t-43.5 79.5t-16 112q0 61 15.5 108
t43.5 79.5t65 49t81 16.5zM380 705l28 -22l-124 -127h-68l-125 126l29 22l128 -90z" />
    <glyph glyph-name="Dcaron" unicode="&#x10e;" horiz-adv-x="612" 
d="M238 651q66 0 124.5 -18t103 -57t70 -100.5t25.5 -149.5t-26 -150t-71 -101t-104 -57t-125 -18h-162v651h165zM148 582v-513h89q63 0 109 18.5t76.5 52t45.5 81t15 104.5t-15 104.5t-45.5 81t-76.5 52.5t-108 19h-90zM386 828l28 -23l-125 -113h-67l-125 112l29 23
l128 -77z" />
    <glyph glyph-name="Emacron" unicode="&#x112;" horiz-adv-x="510" 
d="M66 0v651h415v-69h-340v-200h242v-69h-242v-244h353v-69h-428zM158 725v55h242v-55h-242z" />
    <glyph glyph-name="emacron" unicode="&#x113;" horiz-adv-x="489" 
d="M251 497q49 0 86.5 -17.5t63 -50t39 -78t13.5 -101.5v-33h-337q5 -81 45 -123t97 -42q32 0 62 13t53 34l42 -45q-67 -64 -164 -64q-41 0 -78.5 16t-66 48t-45 79.5t-16.5 109.5q0 59 16 106t43.5 80t65 50.5t81.5 17.5zM383 274q0 33 -8 62.5t-24.5 51t-41.5 34.5t-60 13
q-26 0 -49 -11.5t-41 -33t-29.5 -51t-13.5 -65.5h267zM138 605v55h242v-55h-242z" />
    <glyph glyph-name="Ebreve" unicode="&#x114;" horiz-adv-x="510" 
d="M66 0v651h415v-69h-340v-200h242v-69h-242v-244h353v-69h-428zM206 812q4 -28 22 -46t50 -18q34 0 51.5 20t19.5 44h54q-1 -18 -8 -38.5t-21.5 -37t-37.5 -27.5t-57 -11q-35 0 -59 11t-39 27.5t-21.5 37t-7.5 38.5h54z" />
    <glyph glyph-name="ebreve" unicode="&#x115;" horiz-adv-x="489" 
d="M251 497q49 0 86.5 -17.5t63 -50t39 -78t13.5 -101.5v-33h-337q5 -81 45 -123t97 -42q32 0 62 13t53 34l42 -45q-67 -64 -164 -64q-41 0 -78.5 16t-66 48t-45 79.5t-16.5 109.5q0 59 16 106t43.5 80t65 50.5t81.5 17.5zM383 274q0 33 -8 62.5t-24.5 51t-41.5 34.5t-60 13
q-26 0 -49 -11.5t-41 -33t-29.5 -51t-13.5 -65.5h267zM183 682q4 -28 22 -46t50 -18q34 0 51.5 20t19.5 44h54q-1 -18 -8 -38.5t-21.5 -37t-37.5 -27.5t-57 -11q-35 0 -59 11t-39 27.5t-21.5 37t-7.5 38.5h54z" />
    <glyph glyph-name="Edotaccent" unicode="&#x116;" horiz-adv-x="510" 
d="M66 0v651h415v-69h-340v-200h242v-69h-242v-244h353v-69h-428zM329 753q0 -18 -13.5 -31.5t-32.5 -13.5t-32 13.5t-13 31.5q0 20 13 33.5t32 13.5t32.5 -13.5t13.5 -33.5z" />
    <glyph glyph-name="edotaccent" unicode="&#x117;" horiz-adv-x="489" 
d="M251 497q49 0 86.5 -17.5t63 -50t39 -78t13.5 -101.5v-33h-337q5 -81 45 -123t97 -42q32 0 62 13t53 34l42 -45q-67 -64 -164 -64q-41 0 -78.5 16t-66 48t-45 79.5t-16.5 109.5q0 59 16 106t43.5 80t65 50.5t81.5 17.5zM383 274q0 33 -8 62.5t-24.5 51t-41.5 34.5t-60 13
q-26 0 -49 -11.5t-41 -33t-29.5 -51t-13.5 -65.5h267zM301 615q0 -18 -13.5 -31.5t-32.5 -13.5t-32 13.5t-13 31.5q0 20 13 33.5t32 13.5t32.5 -13.5t13.5 -33.5z" />
    <glyph glyph-name="Eogonek" unicode="&#x118;" horiz-adv-x="510" 
d="M491 0q-26 -33 -36.5 -57.5t-10.5 -43.5q0 -23 14.5 -35.5t38.5 -12.5q22 0 52 13l15 -38q-19 -10 -39.5 -15.5t-41.5 -5.5q-39 0 -66 22t-27 60q0 23 13 50.5t42 62.5h-379v651h415v-69h-340v-200h242v-69h-242v-244h353v-69h-3z" />
    <glyph glyph-name="eogonek" unicode="&#x119;" horiz-adv-x="489" 
d="M251 497q49 0 86.5 -17.5t63 -50t39 -78t13.5 -101.5v-33h-337q5 -81 45 -123t97 -42q32 0 62 13t53 34l42 -45q-27 -26 -56 -40q-20 -29 -29 -50.5t-9 -38.5q0 -23 14.5 -35.5t38.5 -12.5q22 0 52 13l15 -38q-19 -10 -39.5 -15.5t-41.5 -5.5q-39 0 -66 22t-27 60
q0 34 31 81q-11 -2 -23 -3t-24 -1q-41 0 -78.5 16t-66 48t-45 79.5t-16.5 109.5q0 59 16 106t43.5 80t65 50.5t81.5 17.5zM383 274q0 33 -8 62.5t-24.5 51t-41.5 34.5t-60 13q-26 0 -49 -11.5t-41 -33t-29.5 -51t-13.5 -65.5h267z" />
    <glyph glyph-name="Ecaron" unicode="&#x11a;" horiz-adv-x="510" 
d="M66 0v651h415v-69h-340v-200h242v-69h-242v-244h353v-69h-428zM403 828l28 -23l-125 -113h-67l-125 112l29 23l128 -77z" />
    <glyph glyph-name="ecaron" unicode="&#x11b;" horiz-adv-x="489" 
d="M251 497q49 0 86.5 -17.5t63 -50t39 -78t13.5 -101.5v-33h-337q5 -81 45 -123t97 -42q32 0 62 13t53 34l42 -45q-67 -64 -164 -64q-41 0 -78.5 16t-66 48t-45 79.5t-16.5 109.5q0 59 16 106t43.5 80t65 50.5t81.5 17.5zM383 274q0 33 -8 62.5t-24.5 51t-41.5 34.5t-60 13
q-26 0 -49 -11.5t-41 -33t-29.5 -51t-13.5 -65.5h267zM381 705l28 -22l-124 -127h-68l-125 126l29 22l128 -90z" />
    <glyph glyph-name="Gcircumflex" unicode="&#x11c;" horiz-adv-x="594" 
d="M315 660q66 0 117 -22.5t90 -68.5l-54 -52q-65 72 -154 72q-48 0 -84.5 -19.5t-61 -55t-37 -84t-12.5 -105.5q0 -59 12.5 -107.5t37.5 -84t62 -55t86 -19.5q47 0 79 15.5t52 40.5t29 55.5t9 59.5v23h-110v67h187v-60q0 -63 -17.5 -113.5t-50 -85t-78 -53t-102.5 -18.5
q-64 0 -114.5 23.5t-86 67.5t-54.5 105.5t-19 138.5q0 79 20 141t56.5 105t87 66t110.5 23zM314 765l-128 -76l-29 23l125 111h68l124 -112l-28 -23z" />
    <glyph glyph-name="gcircumflex" unicode="&#x11d;" horiz-adv-x="500" 
d="M444 34q0 -88 -45.5 -150.5t-151.5 -90.5l-23 60q49 16 78.5 35t45.5 40t21 43.5t5 43.5v38h-2q-41 -36 -75 -48t-66 -12q-36 0 -69.5 13t-59 42.5t-41 77.5t-15.5 119q0 64 16.5 111t43 78.5t60.5 47t69 15.5q33 0 67.5 -11.5t67.5 -45.5h2v48h72v-454zM373 366
q-21 27 -53.5 49t-73.5 22q-28 0 -52 -14t-41 -38.5t-27 -59t-10 -76.5q0 -97 33 -146t99 -49q38 0 71.5 22t53.5 48v242zM263 644l-129 -90l-28 23l125 125h68l124 -126l-28 -23z" />
    <glyph glyph-name="Gbreve" unicode="&#x11e;" horiz-adv-x="594" 
d="M315 660q66 0 117 -22.5t90 -68.5l-54 -52q-65 72 -154 72q-48 0 -84.5 -19.5t-61 -55t-37 -84t-12.5 -105.5q0 -59 12.5 -107.5t37.5 -84t62 -55t86 -19.5q47 0 79 15.5t52 40.5t29 55.5t9 59.5v23h-110v67h187v-60q0 -63 -17.5 -113.5t-50 -85t-78 -53t-102.5 -18.5
q-64 0 -114.5 23.5t-86 67.5t-54.5 105.5t-19 138.5q0 79 20 141t56.5 105t87 66t110.5 23zM241 813q4 -28 22 -46t50 -18q34 0 51.5 20t19.5 44h54q-1 -18 -8 -38.5t-21.5 -37t-37.5 -27.5t-57 -11q-35 0 -59 11t-39 27.5t-21.5 37t-7.5 38.5h54z" />
    <glyph glyph-name="gbreve" unicode="&#x11f;" horiz-adv-x="500" 
d="M444 34q0 -88 -45.5 -150.5t-151.5 -90.5l-23 60q49 16 78.5 35t45.5 40t21 43.5t5 43.5v38h-2q-41 -36 -75 -48t-66 -12q-36 0 -69.5 13t-59 42.5t-41 77.5t-15.5 119q0 64 16.5 111t43 78.5t60.5 47t69 15.5q33 0 67.5 -11.5t67.5 -45.5h2v48h72v-454zM373 366
q-21 27 -53.5 49t-73.5 22q-28 0 -52 -14t-41 -38.5t-27 -59t-10 -76.5q0 -97 33 -146t99 -49q38 0 71.5 22t53.5 48v242zM187 682q4 -28 22 -46t50 -18q34 0 51.5 20t19.5 44h54q-1 -18 -8 -38.5t-21.5 -37t-37.5 -27.5t-57 -11q-35 0 -59 11t-39 27.5t-21.5 37t-7.5 38.5
h54z" />
    <glyph glyph-name="Gdotaccent" unicode="&#x120;" horiz-adv-x="594" 
d="M315 660q66 0 117 -22.5t90 -68.5l-54 -52q-65 72 -154 72q-48 0 -84.5 -19.5t-61 -55t-37 -84t-12.5 -105.5q0 -59 12.5 -107.5t37.5 -84t62 -55t86 -19.5q47 0 79 15.5t52 40.5t29 55.5t9 59.5v23h-110v67h187v-60q0 -63 -17.5 -113.5t-50 -85t-78 -53t-102.5 -18.5
q-64 0 -114.5 23.5t-86 67.5t-54.5 105.5t-19 138.5q0 79 20 141t56.5 105t87 66t110.5 23zM367 753q0 -18 -13.5 -31.5t-32.5 -13.5t-32 13.5t-13 31.5q0 20 13 33.5t32 13.5t32.5 -13.5t13.5 -33.5z" />
    <glyph glyph-name="gdotaccent" unicode="&#x121;" horiz-adv-x="500" 
d="M444 34q0 -88 -45.5 -150.5t-151.5 -90.5l-23 60q49 16 78.5 35t45.5 40t21 43.5t5 43.5v38h-2q-41 -36 -75 -48t-66 -12q-36 0 -69.5 13t-59 42.5t-41 77.5t-15.5 119q0 64 16.5 111t43 78.5t60.5 47t69 15.5q33 0 67.5 -11.5t67.5 -45.5h2v48h72v-454zM373 366
q-21 27 -53.5 49t-73.5 22q-28 0 -52 -14t-41 -38.5t-27 -59t-10 -76.5q0 -97 33 -146t99 -49q38 0 71.5 22t53.5 48v242zM320 626q0 -18 -13.5 -31.5t-32.5 -13.5t-32 13.5t-13 31.5q0 20 13 33.5t32 13.5t32.5 -13.5t13.5 -33.5z" />
    <glyph glyph-name="Gcommaaccent" unicode="&#x122;" horiz-adv-x="594" 
d="M315 660q66 0 117 -22.5t90 -68.5l-54 -52q-65 72 -154 72q-48 0 -84.5 -19.5t-61 -55t-37 -84t-12.5 -105.5q0 -59 12.5 -107.5t37.5 -84t62 -55t86 -19.5q47 0 79 15.5t52 40.5t29 55.5t9 59.5v23h-110v67h187v-60q0 -63 -17.5 -113.5t-50 -85t-78 -53t-102.5 -18.5
q-64 0 -114.5 23.5t-86 67.5t-54.5 105.5t-19 138.5q0 79 20 141t56.5 105t87 66t110.5 23zM267 -207q18 13 28.5 24.5t11.5 33.5q-3 -1 -9 -1q-18 0 -30.5 13t-12.5 34q0 23 14.5 37.5t35.5 14.5q23 0 39 -18.5t16 -50.5q0 -43 -21 -69.5t-53 -42.5z" />
    <glyph glyph-name="gcommaaccent" unicode="&#x123;" horiz-adv-x="500" 
d="M444 34q0 -88 -45.5 -150.5t-151.5 -90.5l-23 60q49 16 78.5 35t45.5 40t21 43.5t5 43.5v38h-2q-41 -36 -75 -48t-66 -12q-36 0 -69.5 13t-59 42.5t-41 77.5t-15.5 119q0 64 16.5 111t43 78.5t60.5 47t69 15.5q33 0 67.5 -11.5t67.5 -45.5h2v48h72v-454zM373 366
q-21 27 -53.5 49t-73.5 22q-28 0 -52 -14t-41 -38.5t-27 -59t-10 -76.5q0 -97 33 -146t99 -49q38 0 71.5 22t53.5 48v242zM316 708q-25 -11 -35.5 -27t-12.5 -36q1 0 3 0.5t4 0.5q17 0 29.5 -12.5t12.5 -33.5q0 -22 -15 -34t-35 -12t-35.5 15.5t-15.5 47.5q0 38 23 69.5
t60 47.5z" />
    <glyph glyph-name="Hcircumflex" unicode="&#x124;" horiz-adv-x="622" 
d="M480 0v305h-339v-305h-76v651h76v-276h339v276h76v-651h-76zM311 765l-128 -76l-29 23l125 111h68l124 -112l-28 -23z" />
    <glyph glyph-name="hcircumflex" unicode="&#x125;" horiz-adv-x="487" 
d="M439 0h-72v293q0 69 -27 105.5t-88 36.5q-45 0 -77 -29.5t-43 -72.5q-5 -18 -5 -42v-291h-71v660l71 32v-272h3q27 41 67 59t76 18q85 0 125.5 -49.5t40.5 -143.5v-304zM96 765l-128 -76l-29 23l125 111h68l124 -112l-28 -23z" />
    <glyph glyph-name="Itilde" unicode="&#x128;" horiz-adv-x="243" 
d="M83 0v651h77v-651h-77zM290 782q-17 -41 -42.5 -58t-54.5 -17q-17 0 -34.5 6t-34.5 13.5t-33 14t-31 6.5q-17 0 -32.5 -8t-32.5 -31l-33 16q18 46 45.5 63t53.5 17q17 0 34 -6.5t34.5 -14.5t34 -14.5t31.5 -6.5q18 0 32 7.5t30 29.5z" />
    <glyph glyph-name="Imacron" unicode="&#x12a;" horiz-adv-x="243" 
d="M83 0v651h77v-651h-77zM2 724v55h242v-55h-242z" />
    <glyph glyph-name="Ibreve" unicode="&#x12c;" horiz-adv-x="243" 
d="M83 0v651h77v-651h-77zM51 811q4 -28 22 -46t50 -18q34 0 51.5 20t19.5 44h54q-1 -18 -8 -38.5t-21.5 -37t-37.5 -27.5t-57 -11q-35 0 -59 11t-39 27.5t-21.5 37t-7.5 38.5h54z" />
    <glyph glyph-name="ibreve" unicode="&#x12d;" horiz-adv-x="229" 
d="M45 682q4 -28 22 -46t50 -18q34 0 51.5 20t19.5 44h54q-1 -18 -8 -38.5t-21.5 -37t-37.5 -27.5t-57 -11q-35 0 -59 11t-39 27.5t-21.5 37t-7.5 38.5h54zM80 0v487h72v-487h-72z" />
    <glyph glyph-name="Iogonek" unicode="&#x12e;" horiz-adv-x="243" 
d="M143 0q-26 -33 -36.5 -57.5t-10.5 -43.5q0 -23 14.5 -35.5t38.5 -12.5q22 0 52 13l15 -38q-19 -10 -39.5 -15.5t-41.5 -5.5q-39 0 -66 22t-27 60q0 23 13 50.5t42 62.5h-14v651h77v-651h-17z" />
    <glyph glyph-name="iogonek" unicode="&#x12f;" horiz-adv-x="229" 
d="M136 0q-26 -33 -36.5 -57.5t-10.5 -43.5q0 -23 14.5 -35.5t38.5 -12.5q22 0 52 13l15 -38q-19 -10 -39.5 -15.5t-41.5 -5.5q-39 0 -66 22t-27 60q0 23 13 50.5t42 62.5h-11v488h71v-488h-14zM160 619q0 -18 -13.5 -31.5t-31.5 -13.5q-19 0 -32.5 13.5t-13.5 31.5
q0 19 13.5 32t31.5 13q19 0 32.5 -13t13.5 -32z" />
    <glyph glyph-name="Idotaccent" unicode="&#x130;" horiz-adv-x="243" 
d="M83 0v651h77v-651h-77zM167 751q0 -18 -13.5 -31.5t-32.5 -13.5t-32 13.5t-13 31.5q0 20 13 33.5t32 13.5t32.5 -13.5t13.5 -33.5z" />
    <glyph glyph-name="dotlessi" unicode="&#x131;" horiz-adv-x="229" 
d="M80 0v487h72v-487h-72z" />
    <glyph glyph-name="IJ" unicode="&#x132;" horiz-adv-x="734" 
d="M83 0v651h77v-651h-77zM661 254q0 -134 -56 -199t-173 -65q-90 0 -142 40t-78 112l72 27q21 -52 55.5 -80t94.5 -28q84 0 117.5 52.5t33.5 148.5v389h76v-397z" />
    <glyph glyph-name="ij" unicode="&#x133;" horiz-adv-x="418" 
d="M160 619q0 -18 -13.5 -31.5t-31.5 -13.5q-19 0 -32.5 13.5t-13.5 31.5q0 19 13.5 32t31.5 13q19 0 32.5 -13t13.5 -32zM79 0v488h71v-488h-71zM356 619q0 -18 -13.5 -31.5t-31.5 -13.5q-19 0 -32 13.5t-13 31.5q0 19 13 32t32 13q18 0 31.5 -13t13.5 -32zM345 -5
q0 -45 -6 -80t-23.5 -59t-50.5 -37t-87 -15l-6 60q35 6 55.5 15t31 23.5t13 35t2.5 49.5v501h71v-493z" />
    <glyph glyph-name="Jcircumflex" unicode="&#x134;" horiz-adv-x="549" 
d="M476 255q0 -134 -56 -199t-173 -65q-90 0 -142 40t-78 112l72 27q21 -52 55.5 -80t94.5 -28q84 0 117.5 52.5t33.5 148.5v389h76v-397zM436 765l-128 -76l-29 23l125 111h68l124 -112l-28 -23z" />
    <glyph glyph-name="jcircumflex" unicode="&#x135;" horiz-adv-x="297" 
d="M182 -5q0 -45 -6 -80t-24 -59t-50.5 -37t-86.5 -15l-6 61q35 6 55.5 15t31 23.5t13 35.5t2.5 50v499h71v-493zM148 644l-128 -90l-30 23l126 125h67l124 -126l-27 -23z" />
    <glyph glyph-name="kcommaaccent" unicode="&#x137;" horiz-adv-x="437" 
d="M345 0l-116 270l-103 -131v-139h-70v660l70 32v-451h2q6 7 16 21t20.5 28t20 26.5t13.5 18.5l118 152h87l-125 -158q6 -14 17.5 -40t25.5 -58t29.5 -67t29.5 -67t25.5 -58t17.5 -39h-78zM190 -207q18 13 28.5 24.5t11.5 33.5q-3 -1 -9 -1q-18 0 -30.5 13t-12.5 34
q0 23 14.5 37.5t35.5 14.5q23 0 39 -18.5t16 -50.5q0 -43 -21 -69.5t-53 -42.5z" />
    <glyph glyph-name="kgreenlandic" unicode="&#x138;" horiz-adv-x="445" 
d="M348 0l-119 268l-100 -129v-139h-71v487h71v-248h1q6 8 16.5 21.5t21 27.5l19.5 26t14 18l120 155h84q-8 -10 -25.5 -32t-37 -46.5t-37 -47t-24.5 -32.5q6 -13 17.5 -39t25.5 -58t29.5 -67.5t29.5 -67.5t25.5 -58t17.5 -39h-78z" />
    <glyph glyph-name="Lacute" unicode="&#x139;" horiz-adv-x="485" 
d="M65 0v651h76v-581h337v-70h-413zM104 692l-25 32l134 94l62 -56z" />
    <glyph glyph-name="lacute" unicode="&#x13a;" horiz-adv-x="205" 
d="M67 0v660l71 33v-693h-71zM107 698l-25 32l134 94l62 -56z" />
    <glyph glyph-name="Lcommaaccent" unicode="&#x13b;" horiz-adv-x="485" 
d="M65 0v651h76v-581h337v-70h-413zM225 -207q18 13 28.5 24.5t11.5 33.5q-3 -1 -9 -1q-18 0 -30.5 13t-12.5 34q0 23 14.5 37.5t35.5 14.5q23 0 39 -18.5t16 -50.5q0 -43 -21 -69.5t-53 -42.5z" />
    <glyph glyph-name="lcommaaccent" unicode="&#x13c;" horiz-adv-x="205" 
d="M67 0v660l71 33v-693h-71zM67 -199q18 13 28.5 24.5t11.5 33.5q-3 -1 -9 -1q-18 0 -30.5 13t-12.5 34q0 23 14.5 37.5t35.5 14.5q23 0 39 -18.5t16 -50.5q0 -43 -21 -69.5t-53 -42.5z" />
    <glyph glyph-name="Ldot" unicode="&#x13f;" horiz-adv-x="485" 
d="M65 0v651h76v-581h337v-70h-413zM346 340q0 -18 -13.5 -31.5t-32.5 -13.5t-32 13.5t-13 31.5q0 20 13 33.5t32 13.5t32.5 -13.5t13.5 -33.5z" />
    <glyph glyph-name="ldot" unicode="&#x140;" horiz-adv-x="275" 
d="M278 352q0 -18 -13.5 -31.5t-32.5 -13.5t-32 13.5t-13 31.5q0 20 13 33.5t32 13.5t32.5 -13.5t13.5 -33.5zM67 0v660l71 33v-693h-71z" />
    <glyph glyph-name="Nacute" unicode="&#x143;" horiz-adv-x="610" 
d="M478 0q-24 36 -57.5 87.5t-72 110t-78 119t-74.5 114.5q-17 26 -32.5 51t-22.5 37h-2v-519h-75v651h74q58 -89 115.5 -176t115.5 -175q12 -18 25.5 -39t27 -43t26 -42.5t23.5 -36.5h2v512h75v-651h-70zM291 692l-25 32l134 94l62 -56z" />
    <glyph glyph-name="nacute" unicode="&#x144;" horiz-adv-x="487" 
d="M438 0h-72v293q0 69 -27 105.5t-88 36.5q-45 0 -77 -29.5t-43 -71.5q-5 -20 -5 -43v-291h-71v488h71v-69l2 -1q27 42 67 60.5t77 18.5q85 0 125.5 -49.5t40.5 -143.5v-304zM234 556l-38 13l70 161l82 -15z" />
    <glyph glyph-name="Ncommaaccent" unicode="&#x145;" horiz-adv-x="610" 
d="M478 0q-24 36 -57.5 87.5t-72 110t-78 119t-74.5 114.5q-17 26 -32.5 51t-22.5 37h-2v-519h-75v651h74q58 -89 115.5 -176t115.5 -175q12 -18 25.5 -39t27 -43t26 -42.5t23.5 -36.5h2v512h75v-651h-70zM260 -177q18 13 28.5 24.5t11.5 33.5q-3 -1 -9 -1q-18 0 -30.5 13
t-12.5 34q0 23 14.5 37.5t35.5 14.5q23 0 39 -18.5t16 -50.5q0 -43 -21 -69.5t-53 -42.5z" />
    <glyph glyph-name="ncommaaccent" unicode="&#x146;" horiz-adv-x="487" 
d="M438 0h-72v293q0 69 -27 105.5t-88 36.5q-45 0 -77 -29.5t-43 -71.5q-5 -20 -5 -43v-291h-71v488h71v-69l2 -1q27 42 67 60.5t77 18.5q85 0 125.5 -49.5t40.5 -143.5v-304zM205 -207q18 13 28.5 24.5t11.5 33.5q-3 -1 -9 -1q-18 0 -30.5 13t-12.5 34q0 23 14.5 37.5
t35.5 14.5q23 0 39 -18.5t16 -50.5q0 -43 -21 -69.5t-53 -42.5z" />
    <glyph glyph-name="Ncaron" unicode="&#x147;" horiz-adv-x="610" 
d="M478 0q-24 36 -57.5 87.5t-72 110t-78 119t-74.5 114.5q-17 26 -32.5 51t-22.5 37h-2v-519h-75v651h74q58 -89 115.5 -176t115.5 -175q12 -18 25.5 -39t27 -43t26 -42.5t23.5 -36.5h2v512h75v-651h-70zM437 828l28 -23l-125 -113h-67l-125 112l29 23l128 -77z" />
    <glyph glyph-name="ncaron" unicode="&#x148;" horiz-adv-x="487" 
d="M438 0h-72v293q0 69 -27 105.5t-88 36.5q-45 0 -77 -29.5t-43 -71.5q-5 -20 -5 -43v-291h-71v488h71v-69l2 -1q27 42 67 60.5t77 18.5q85 0 125.5 -49.5t40.5 -143.5v-304zM368 705l28 -22l-124 -127h-68l-125 126l29 22l128 -90z" />
    <glyph glyph-name="napostrophe" unicode="&#x149;" horiz-adv-x="532" 
d="M483 0h-72v293q0 69 -27 105.5t-88 36.5q-45 0 -77 -29.5t-43 -71.5q-5 -20 -5 -43v-291h-71v488h71v-69l2 -1q27 42 67 60.5t77 18.5q85 0 125.5 -49.5t40.5 -143.5v-304zM6 512q18 13 28.5 24.5t11.5 33.5q-3 -1 -9 -1q-18 0 -30.5 13t-12.5 34q0 23 14.5 37.5
t35.5 14.5q23 0 39 -18.5t16 -50.5q0 -43 -21 -69.5t-53 -42.5z" />
    <glyph glyph-name="Omacron" unicode="&#x14c;" horiz-adv-x="635" 
d="M589 326q0 -76 -19.5 -138t-55 -106t-85.5 -68t-112 -24q-65 0 -115 25t-85 69.5t-53 106t-18 134.5q0 72 18.5 133.5t53 106.5t85 70.5t114.5 25.5q62 0 112 -24t85.5 -68.5t55 -106t19.5 -136.5zM511 325q0 57 -12 106t-36.5 85t-61 56t-84.5 20t-84.5 -20t-60.5 -55.5
t-36.5 -84t-12.5 -106.5q0 -55 12 -103.5t36.5 -85t61 -57.5t84.5 -21q49 0 85.5 21.5t60.5 57.5t36 84.5t12 102.5zM193 730v55h242v-55h-242z" />
    <glyph glyph-name="Obreve" unicode="&#x14e;" horiz-adv-x="635" 
d="M589 326q0 -76 -19.5 -138t-55 -106t-85.5 -68t-112 -24q-65 0 -115 25t-85 69.5t-53 106t-18 134.5q0 72 18.5 133.5t53 106.5t85 70.5t114.5 25.5q62 0 112 -24t85.5 -68.5t55 -106t19.5 -136.5zM511 325q0 57 -12 106t-36.5 85t-61 56t-84.5 20t-84.5 -20t-60.5 -55.5
t-36.5 -84t-12.5 -106.5q0 -55 12 -103.5t36.5 -85t61 -57.5t84.5 -21q49 0 85.5 21.5t60.5 57.5t36 84.5t12 102.5zM248 812q4 -28 22 -46t50 -18q34 0 51.5 20t19.5 44h54q-1 -18 -8 -38.5t-21.5 -37t-37.5 -27.5t-57 -11q-35 0 -59 11t-39 27.5t-21.5 37t-7.5 38.5h54z
" />
    <glyph glyph-name="Ohungarumlaut" unicode="&#x150;" horiz-adv-x="635" 
d="M589 326q0 -76 -19.5 -138t-55 -106t-85.5 -68t-112 -24q-65 0 -115 25t-85 69.5t-53 106t-18 134.5q0 72 18.5 133.5t53 106.5t85 70.5t114.5 25.5q62 0 112 -24t85.5 -68.5t55 -106t19.5 -136.5zM511 325q0 57 -12 106t-36.5 85t-61 56t-84.5 20t-84.5 -20t-60.5 -55.5
t-36.5 -84t-12.5 -106.5q0 -55 12 -103.5t36.5 -85t61 -57.5t84.5 -21q49 0 85.5 21.5t60.5 57.5t36 84.5t12 102.5zM384 691l-29 27l120 111l69 -45zM237 691l-29 27l120 111l70 -45z" />
    <glyph glyph-name="Racute" unicode="&#x154;" horiz-adv-x="583" 
d="M447 0l-118 257h-190v-257h-74v651h268q45 0 83.5 -12t66 -36t43 -60.5t15.5 -86.5q0 -75 -36 -123t-101 -66l130 -267h-87zM465 454q0 63 -37 96t-97 33h-192v-259h192q64 0 99 34.5t35 95.5zM241 692l-25 32l134 94l62 -56z" />
    <glyph glyph-name="racute" unicode="&#x155;" horiz-adv-x="349" 
d="M328 416q-17 3 -32 5t-29 2q-62 0 -93.5 -36t-31.5 -102v-285h-71v488h71v-67l2 -1q20 41 56.5 59t77.5 18q31 0 66 -11zM170 556l-38 13l70 161l82 -15z" />
    <glyph glyph-name="Rcommaaccent" unicode="&#x156;" horiz-adv-x="583" 
d="M447 0l-118 257h-190v-257h-74v651h268q45 0 83.5 -12t66 -36t43 -60.5t15.5 -86.5q0 -75 -36 -123t-101 -66l130 -267h-87zM465 454q0 63 -37 96t-97 33h-192v-259h192q64 0 99 34.5t35 95.5zM241 -175q18 13 28.5 24.5t11.5 33.5q-3 -1 -9 -1q-18 0 -30.5 13t-12.5 34
q0 23 14.5 37.5t35.5 14.5q23 0 39 -18.5t16 -50.5q0 -43 -21 -69.5t-53 -42.5z" />
    <glyph glyph-name="rcommaaccent" unicode="&#x157;" horiz-adv-x="349" 
d="M328 416q-17 3 -32 5t-29 2q-62 0 -93.5 -36t-31.5 -102v-285h-71v488h71v-67l2 -1q20 41 56.5 59t77.5 18q31 0 66 -11zM65 -207q18 13 28.5 24.5t11.5 33.5q-3 -1 -9 -1q-18 0 -30.5 13t-12.5 34q0 23 14.5 37.5t35.5 14.5q23 0 39 -18.5t16 -50.5q0 -43 -21 -69.5
t-53 -42.5z" />
    <glyph glyph-name="Rcaron" unicode="&#x158;" horiz-adv-x="583" 
d="M447 0l-118 257h-190v-257h-74v651h268q45 0 83.5 -12t66 -36t43 -60.5t15.5 -86.5q0 -75 -36 -123t-101 -66l130 -267h-87zM465 454q0 63 -37 96t-97 33h-192v-259h192q64 0 99 34.5t35 95.5zM407 828l28 -23l-125 -113h-67l-125 112l29 23l128 -77z" />
    <glyph glyph-name="rcaron" unicode="&#x159;" horiz-adv-x="349" 
d="M328 416q-17 3 -32 5t-29 2q-62 0 -93.5 -36t-31.5 -102v-285h-71v488h71v-67l2 -1q20 41 56.5 59t77.5 18q31 0 66 -11zM302 705l28 -22l-124 -127h-68l-125 126l29 22l128 -90z" />
    <glyph glyph-name="Sacute" unicode="&#x15a;" horiz-adv-x="534" 
d="M508 173q0 -84 -59.5 -133.5t-179.5 -49.5q-66 0 -122.5 23t-98.5 62l50 55q37 -33 82.5 -52t93.5 -19q71 0 113.5 25.5t42.5 86.5q0 28 -12.5 48t-34.5 34.5t-52 25t-64 21.5q-47 15 -84 30t-63 35.5t-40 49.5t-14 71q0 39 16 71.5t44.5 55.5t68 35.5t85.5 12.5
q60 0 111 -18t93 -52q-2 -3 -9 -11t-14.5 -17t-14.5 -17t-9 -10q-36 29 -76 42.5t-89 13.5q-63 0 -96.5 -29t-33.5 -73q0 -24 11 -41.5t28.5 -29.5t40 -21t45.5 -17q37 -12 79 -25.5t78 -36t60 -57t24 -89.5zM254 692l-25 32l134 94l62 -56z" />
    <glyph glyph-name="sacute" unicode="&#x15b;" horiz-adv-x="438" 
d="M399 129q0 -34 -14.5 -60t-39.5 -43.5t-59 -26.5t-73 -9q-45 0 -91 12t-84 34l27 55q38 -20 77 -30.5t73 -10.5q20 0 40.5 4t37 13t26.5 23t10 34q0 21 -9.5 35.5t-26 25.5t-39 19.5t-49.5 17.5q-34 10 -62.5 23t-49.5 30t-32.5 39t-11.5 51t12.5 53.5t35.5 42t55.5 27
t73.5 9.5q83 0 154 -36l-24 -57q-36 19 -71 25.5t-60 6.5q-48 0 -77.5 -19.5t-29.5 -46.5q0 -26 22.5 -46.5t84.5 -38.5q37 -11 68.5 -24t55 -31t37 -42.5t13.5 -58.5zM216 556l-38 13l70 161l82 -15z" />
    <glyph glyph-name="Scircumflex" unicode="&#x15c;" horiz-adv-x="534" 
d="M508 173q0 -84 -59.5 -133.5t-179.5 -49.5q-66 0 -122.5 23t-98.5 62l50 55q37 -33 82.5 -52t93.5 -19q71 0 113.5 25.5t42.5 86.5q0 28 -12.5 48t-34.5 34.5t-52 25t-64 21.5q-47 15 -84 30t-63 35.5t-40 49.5t-14 71q0 39 16 71.5t44.5 55.5t68 35.5t85.5 12.5
q60 0 111 -18t93 -52q-2 -3 -9 -11t-14.5 -17t-14.5 -17t-9 -10q-36 29 -76 42.5t-89 13.5q-63 0 -96.5 -29t-33.5 -73q0 -24 11 -41.5t28.5 -29.5t40 -21t45.5 -17q37 -12 79 -25.5t78 -36t60 -57t24 -89.5zM271 765l-128 -76l-29 23l125 111h68l124 -112l-28 -23z" />
    <glyph glyph-name="scircumflex" unicode="&#x15d;" horiz-adv-x="438" 
d="M399 129q0 -34 -14.5 -60t-39.5 -43.5t-59 -26.5t-73 -9q-45 0 -91 12t-84 34l27 55q38 -20 77 -30.5t73 -10.5q20 0 40.5 4t37 13t26.5 23t10 34q0 21 -9.5 35.5t-26 25.5t-39 19.5t-49.5 17.5q-34 10 -62.5 23t-49.5 30t-32.5 39t-11.5 51t12.5 53.5t35.5 42t55.5 27
t73.5 9.5q83 0 154 -36l-24 -57q-36 19 -71 25.5t-60 6.5q-48 0 -77.5 -19.5t-29.5 -46.5q0 -26 22.5 -46.5t84.5 -38.5q37 -11 68.5 -24t55 -31t37 -42.5t13.5 -58.5zM214 644l-129 -90l-28 23l125 125h68l124 -126l-28 -23z" />
    <glyph glyph-name="Scedilla" unicode="&#x15e;" horiz-adv-x="534" 
d="M268 -204q-16 0 -36 3.5t-43 13.5l13 36q35 -13 64 -13q23 0 36.5 10t13.5 28q0 21 -15.5 32t-37.5 11q-2 0 -4.5 -0.5t-4.5 -0.5l-20 21l17 54q-61 3 -113 25t-90 59l50 55q37 -33 82.5 -52t93.5 -19q71 0 113.5 25.5t42.5 86.5q0 28 -12.5 48t-34.5 34.5t-52 25
t-64 21.5q-47 15 -84 30t-63 35.5t-40 49.5t-14 71q0 39 16 71.5t44.5 55.5t68 35.5t85.5 12.5q60 0 111 -18t93 -52q-2 -3 -9 -11t-14.5 -17t-14.5 -17t-9 -10q-36 29 -76 42.5t-89 13.5q-63 0 -96.5 -29t-33.5 -73q0 -24 11 -41.5t28.5 -29.5t40 -21t45.5 -17
q37 -12 79 -25.5t78 -36t60 -57t24 -89.5q0 -81 -54.5 -129t-164.5 -53q-3 -9 -6 -17.5t-5 -17.5q28 -3 46 -11.5t28.5 -20t14.5 -24.5t4 -24q0 -13 -5.5 -27t-17.5 -26t-31.5 -19.5t-48.5 -7.5z" />
    <glyph glyph-name="scedilla" unicode="&#x15f;" horiz-adv-x="438" 
d="M208 -204q-16 0 -36 3.5t-43 13.5l13 36q35 -13 64 -13q23 0 36.5 10t13.5 28q0 21 -15.5 32t-37.5 11q-2 0 -4.5 -0.5t-4.5 -0.5l-20 21l17 54q-40 2 -79.5 13.5t-73.5 31.5l27 55q38 -20 77 -30.5t73 -10.5q20 0 40.5 4t37 13t26.5 23t10 34q0 21 -9.5 35.5t-26 25.5
t-39 19.5t-49.5 17.5q-34 10 -62.5 23t-49.5 30t-32.5 39t-11.5 51t12.5 53.5t35.5 42t55.5 27t73.5 9.5q83 0 154 -36l-24 -57q-36 19 -71 25.5t-60 6.5q-48 0 -77.5 -19.5t-29.5 -46.5q0 -26 22.5 -46.5t84.5 -38.5q37 -11 68.5 -24t55 -31t37 -42.5t13.5 -58.5
q0 -33 -13 -58t-36 -42t-54 -27t-67 -11q-3 -9 -6 -17.5t-5 -17.5q28 -3 46 -11.5t28.5 -20t14.5 -24.5t4 -24q0 -13 -5.5 -27t-17.5 -26t-31.5 -19.5t-48.5 -7.5z" />
    <glyph glyph-name="Tcommaaccent" unicode="&#x162;" horiz-adv-x="502" 
d="M291 582v-582h-74v582h-198v69h471v-69h-199zM215 -207q18 13 28.5 24.5t11.5 33.5q-3 -1 -9 -1q-18 0 -30.5 13t-12.5 34q0 23 14.5 37.5t35.5 14.5q23 0 39 -18.5t16 -50.5q0 -43 -21 -69.5t-53 -42.5z" />
    <glyph glyph-name="tcommaaccent" unicode="&#x163;" horiz-adv-x="313" 
d="M169 488h102v-60h-102v-313q0 -33 13 -45.5t41 -12.5q14 0 29 2t35 5q0 -2 1 -10t2 -17t2 -17t1 -10q-16 -7 -42 -12t-48 -5q-53 0 -77.5 27.5t-24.5 84.5v323h-74v60h75v118l67 30v-148zM128 -207q18 13 28.5 24.5t11.5 33.5q-3 -1 -9 -1q-18 0 -30.5 13t-12.5 34
q0 23 14.5 37.5t35.5 14.5q23 0 39 -18.5t16 -50.5q0 -43 -21 -69.5t-53 -42.5z" />
    <glyph glyph-name="Tcaron" unicode="&#x164;" horiz-adv-x="502" 
d="M291 582v-582h-74v582h-198v69h471v-69h-199zM386 828l28 -23l-125 -113h-67l-125 112l29 23l128 -77z" />
    <glyph glyph-name="Utilde" unicode="&#x168;" horiz-adv-x="616" 
d="M556 270q0 -142 -65 -211t-183 -69q-116 0 -179 70.5t-63 210.5v380h75v-377q0 -98 42 -155.5t127 -57.5q88 0 129 55.5t41 151.5v383h76v-381zM479 782q-17 -41 -42.5 -58t-54.5 -17q-17 0 -34.5 6t-34.5 13.5t-33 14t-31 6.5q-17 0 -32.5 -8t-32.5 -31l-33 16
q18 46 45.5 63t53.5 17q17 0 34 -6.5t34.5 -14.5t34 -14.5t31.5 -6.5q18 0 32 7.5t30 29.5z" />
    <glyph glyph-name="utilde" unicode="&#x169;" horiz-adv-x="486" 
d="M52 488h71v-294q0 -72 26 -107t87 -35q45 0 75.5 28.5t41.5 70.5q6 21 6 46v291h71v-488h-71v68h-3q-27 -42 -65.5 -60t-74.5 -18q-164 0 -164 187v311zM415 652q-17 -41 -42.5 -58t-54.5 -17q-17 0 -34.5 6t-34.5 13.5t-33 14t-31 6.5q-17 0 -32.5 -8t-32.5 -31l-33 16
q18 46 45.5 63t53.5 17q17 0 34 -6.5t34.5 -14.5t34 -14.5t31.5 -6.5q18 0 32 7.5t30 29.5z" />
    <glyph glyph-name="Umacron" unicode="&#x16a;" horiz-adv-x="616" 
d="M556 270q0 -142 -65 -211t-183 -69q-116 0 -179 70.5t-63 210.5v380h75v-377q0 -98 42 -155.5t127 -57.5q88 0 129 55.5t41 151.5v383h76v-381zM189 725v55h242v-55h-242z" />
    <glyph glyph-name="umacron" unicode="&#x16b;" horiz-adv-x="486" 
d="M52 488h71v-294q0 -72 26 -107t87 -35q45 0 75.5 28.5t41.5 70.5q6 21 6 46v291h71v-488h-71v68h-3q-27 -42 -65.5 -60t-74.5 -18q-164 0 -164 187v311zM130 605v55h242v-55h-242z" />
    <glyph glyph-name="Ubreve" unicode="&#x16c;" horiz-adv-x="616" 
d="M556 270q0 -142 -65 -211t-183 -69q-116 0 -179 70.5t-63 210.5v380h75v-377q0 -98 42 -155.5t127 -57.5q88 0 129 55.5t41 151.5v383h76v-381zM242 812q4 -28 22 -46t50 -18q34 0 51.5 20t19.5 44h54q-1 -18 -8 -38.5t-21.5 -37t-37.5 -27.5t-57 -11q-35 0 -59 11
t-39 27.5t-21.5 37t-7.5 38.5h54z" />
    <glyph glyph-name="ubreve" unicode="&#x16d;" horiz-adv-x="486" 
d="M52 488h71v-294q0 -72 26 -107t87 -35q45 0 75.5 28.5t41.5 70.5q6 21 6 46v291h71v-488h-71v68h-3q-27 -42 -65.5 -60t-74.5 -18q-164 0 -164 187v311zM178 682q4 -28 22 -46t50 -18q34 0 51.5 20t19.5 44h54q-1 -18 -8 -38.5t-21.5 -37t-37.5 -27.5t-57 -11
q-35 0 -59 11t-39 27.5t-21.5 37t-7.5 38.5h54z" />
    <glyph glyph-name="Uring" unicode="&#x16e;" horiz-adv-x="616" 
d="M556 270q0 -142 -65 -211t-183 -69q-116 0 -179 70.5t-63 210.5v380h75v-377q0 -98 42 -155.5t127 -57.5q88 0 129 55.5t41 151.5v383h76v-381zM407 746q0 -39 -26 -64.5t-64 -25.5t-63.5 25t-25.5 65q0 38 25.5 63t63.5 25t64 -25t26 -63zM367 746q0 21 -14.5 35
t-35.5 14t-35.5 -14.5t-14.5 -34.5q0 -22 14.5 -37t35.5 -15t35.5 15t14.5 37z" />
    <glyph glyph-name="uring" unicode="&#x16f;" horiz-adv-x="486" 
d="M52 488h71v-294q0 -72 26 -107t87 -35q45 0 75.5 28.5t41.5 70.5q6 21 6 46v291h71v-488h-71v68h-3q-27 -42 -65.5 -60t-74.5 -18q-164 0 -164 187v311zM341 637q0 -39 -26 -64.5t-64 -25.5t-63.5 25t-25.5 65q0 38 25.5 63t63.5 25t64 -25t26 -63zM301 637
q0 21 -14.5 35t-35.5 14t-35.5 -14.5t-14.5 -34.5q0 -22 14.5 -37t35.5 -15t35.5 15t14.5 37z" />
    <glyph glyph-name="Uhungarumlaut" unicode="&#x170;" horiz-adv-x="616" 
d="M556 270q0 -142 -65 -211t-183 -69q-116 0 -179 70.5t-63 210.5v380h75v-377q0 -98 42 -155.5t127 -57.5q88 0 129 55.5t41 151.5v383h76v-381zM372 691l-29 27l120 111l69 -45zM225 691l-29 27l120 111l70 -45z" />
    <glyph glyph-name="uhungarumlaut" unicode="&#x171;" horiz-adv-x="486" 
d="M52 488h71v-294q0 -72 26 -107t87 -35q45 0 75.5 28.5t41.5 70.5q6 21 6 46v291h71v-488h-71v68h-3q-27 -42 -65.5 -60t-74.5 -18q-164 0 -164 187v311zM205 556l-38 14l64 151l82 -15zM315 556l-37 14l63 151l83 -15z" />
    <glyph glyph-name="Uogonek" unicode="&#x172;" horiz-adv-x="616" 
d="M556 270q0 -132 -55.5 -200.5t-157.5 -77.5q-22 -29 -31 -52t-9 -40q0 -23 14.5 -35.5t38.5 -12.5q22 0 52 13l15 -38q-19 -10 -39.5 -15.5t-41.5 -5.5q-39 0 -66 22t-27 60q0 21 11 45.5t36 56.5q-111 4 -170.5 74t-59.5 207v380h75v-377q0 -98 42 -155.5t127 -57.5
q88 0 129 55.5t41 151.5v383h76v-381z" />
    <glyph glyph-name="uogonek" unicode="&#x173;" horiz-adv-x="486" 
d="M52 488h71v-294q0 -72 26 -107t87 -35q45 0 75.5 28.5t41.5 70.5q6 21 6 46v291h71v-488h-18q-25 -32 -35.5 -56.5t-10.5 -43.5q0 -23 14.5 -35.5t38.5 -12.5q22 0 52 13l15 -38q-19 -10 -39.5 -15.5t-41.5 -5.5q-39 0 -66 22t-27 60q0 45 55 112h-8v68h-3
q-27 -42 -65.5 -60t-74.5 -18q-164 0 -164 187v311z" />
    <glyph glyph-name="Wcircumflex" unicode="&#x174;" horiz-adv-x="753" 
d="M378 518l-36 -149q-4 -15 -11 -44t-16 -65t-18.5 -75.5t-18 -75.5t-15.5 -65t-11 -44h-87l-139 651h77l9 -45t13.5 -66.5t15 -76.5t15 -76.5t13.5 -66t9 -44.5l32 -162h2l39 161q4 15 11.5 45t16 66.5t18.5 76.5t18.5 76.5t16 66t11.5 45.5h73q4 -15 11.5 -45t16.5 -67
t19 -78t19 -78t16.5 -67t11.5 -45l37 -157h1q3 13 7.5 34.5t9 44.5t8.5 44t7 34l77 380h74q-6 -27 -16.5 -78t-24 -114.5t-28.5 -133t-28.5 -133t-24.5 -114.5t-17 -78h-88q-4 15 -11 44t-15.5 64.5t-17.5 75t-17.5 75t-15.5 64.5t-11 44q-1 4 -6 26.5t-11.5 49t-12 49
t-6.5 26.5h-2zM379 765l-128 -76l-29 23l125 111h68l124 -112l-28 -23z" />
    <glyph glyph-name="wcircumflex" unicode="&#x175;" horiz-adv-x="623" 
d="M407 0l-80 303l-19 78h-2q-6 -26 -13 -51.5t-14 -51.5l-74 -278h-63l-130 488h72l59 -240l31 -139h3l36 141l63 238h65l66 -249l31 -130h3l31 131l62 248h72q-34 -123 -67 -244t-66 -244h-66zM305 644l-129 -90l-28 23l125 125h68l124 -126l-28 -23z" />
    <glyph glyph-name="Ycircumflex" unicode="&#x176;" horiz-adv-x="560" 
d="M317 231v-231h-75v231l-234 420h86l186 -351l187 351h84zM289 765l-128 -76l-29 23l125 111h68l124 -112l-28 -23z" />
    <glyph glyph-name="ycircumflex" unicode="&#x177;" horiz-adv-x="463" 
d="M135 -187l63 180l-183 495h75l90 -258l49 -147h3q13 37 25.5 73.5t24.5 73.5q8 22 20.5 56.5t26 72t25.5 72.5t20 57h72q-61 -168 -122.5 -338t-122.5 -337h-66zM238 644l-129 -90l-28 23l125 125h68l124 -126l-28 -23z" />
    <glyph glyph-name="Zacute" unicode="&#x179;" horiz-adv-x="553" 
d="M523 582l-397 -513h395v-69h-484v68l398 514h-379v69h467v-69zM264 692l-25 32l134 94l62 -56z" />
    <glyph glyph-name="zacute" unicode="&#x17a;" horiz-adv-x="450" 
d="M126 61h280v-61h-367v58q12 17 34 46t49.5 64t56.5 73.5t56.5 73.5t49.5 64t34 46l-1 3h-260v60h348v-57q-13 -17 -35 -46t-49 -64.5t-56.5 -73.5t-57 -73.5t-49.5 -64.5t-34 -46zM237 557l-38 13l70 161l82 -15z" />
    <glyph glyph-name="Zdotaccent" unicode="&#x17b;" horiz-adv-x="553" 
d="M523 582l-397 -513h395v-69h-484v68l398 514h-379v69h467v-69zM338 755q0 -18 -13.5 -31.5t-32.5 -13.5t-32 13.5t-13 31.5q0 20 13 33.5t32 13.5t32.5 -13.5t13.5 -33.5z" />
    <glyph glyph-name="zdotaccent" unicode="&#x17c;" horiz-adv-x="450" 
d="M126 61h280v-61h-367v58q12 17 34 46t49.5 64t56.5 73.5t56.5 73.5t49.5 64t34 46l-1 3h-260v60h348v-57q-13 -17 -35 -46t-49 -64.5t-56.5 -73.5t-57 -73.5t-49.5 -64.5t-34 -46zM288 626q0 -18 -13.5 -31.5t-32.5 -13.5t-32 13.5t-13 31.5q0 20 13 33.5t32 13.5
t32.5 -13.5t13.5 -33.5z" />
    <glyph glyph-name="AEacute" unicode="&#x1fc;" horiz-adv-x="895" 
d="M448 182h-241l-112 -182h-82l397 651h453v-69h-340v-200h242v-69h-242v-244h353v-69h-428v182zM246 251h202v330zM546 692l-25 32l134 94l62 -56z" />
    <glyph glyph-name="aeacute" unicode="&#x1fd;" horiz-adv-x="805" 
d="M565 496q48 0 86 -18t63.5 -50.5t39 -77t13.5 -97.5v-36h-337q4 -85 44.5 -125t95.5 -40q32 0 62.5 13t52.5 34l43 -45q-39 -35 -77 -49.5t-87 -14.5t-90.5 22t-70.5 67q-35 -30 -62.5 -47.5t-50.5 -26.5t-43.5 -11.5t-40.5 -2.5q-29 0 -58 8.5t-52.5 27t-38 48
t-14.5 71.5q0 35 13.5 64t38 49.5t58 31.5t73.5 11q34 0 66 -8t68 -25q0 11 0.5 25t1.5 30q2 53 -29 83t-88 30q-36 0 -65.5 -8.5t-60.5 -24.5l-25 57q35 17 73 27t86 10q61 0 100.5 -24t56.5 -66q26 42 66.5 65t88.5 23zM377 130q-6 17 -10.5 38.5t-5.5 44.5
q-29 14 -61.5 24t-71.5 10q-24 0 -46 -6.5t-38 -19.5t-25.5 -31t-9.5 -42q0 -48 30 -75t83 -27q41 0 83 23.5t72 60.5zM696 273q0 33 -7.5 62t-24 51t-42 35t-60.5 13q-26 0 -49 -11t-41 -32t-29 -51t-13 -67h266zM437 556l-38 13l70 161l82 -15z" />
    <glyph glyph-name="Oslashacute" unicode="&#x1fe;" horiz-adv-x="635" 
d="M589 326q0 -76 -19.5 -138t-55 -106t-85.5 -68t-112 -24q-56 0 -100 18t-78 52l-58 -75l-34 27l63 82q-32 45 -48 103.5t-16 127.5q0 72 18.5 133.5t53 106.5t85 70.5t114.5 25.5q54 0 98 -18t78 -52l62 80l35 -29l-66 -86q31 -44 48 -102t17 -128zM123 326
q0 -48 9 -90.5t27 -77.5l290 375q-24 28 -57 43.5t-75 15.5q-48 0 -84.5 -20t-60.5 -55.5t-36.5 -84t-12.5 -106.5zM511 325q0 100 -36 169l-290 -375q24 -29 57 -44.5t75 -15.5q49 0 85.5 21.5t60.5 57.5t36 84.5t12 102.5zM299 692l-25 32l134 94l62 -56z" />
    <glyph glyph-name="oslashacute" unicode="&#x1ff;" horiz-adv-x="512" 
d="M468 246q0 -61 -16.5 -108.5t-45 -80.5t-67.5 -50t-85 -17q-79 0 -131 46l-43 -56l-34 23l48 65q-23 32 -36 76.5t-13 99.5q0 61 16 108.5t44.5 79.5t67 48.5t83.5 16.5q37 0 69.5 -11.5t58.5 -32.5l40 53l35 -26l-44 -59q25 -32 39 -76t14 -99zM397 244q0 70 -26 120
l-206 -272q37 -39 93 -39q35 0 61 15.5t43.5 41.5t26 60.5t8.5 73.5zM117 246q0 -69 23 -117l204 271q-17 17 -39.5 26t-50.5 9q-33 0 -59 -15t-43 -40.5t-26 -60t-9 -73.5zM268 556l-38 13l70 161l82 -15z" />
    <glyph glyph-name="Alphatonos" unicode="&#x386;" horiz-adv-x="621" 
d="M51 506l-38 13l70 161l82 -15zM446 222q-33 87 -66.5 172.5t-65.5 173.5h-3q-14 -38 -30 -80.5t-29 -76.5q-6 -17 -16 -42t-20.5 -52.5t-20 -53t-15.5 -41.5h266zM155 154q-14 -39 -29.5 -77.5t-29.5 -76.5h-79q65 164 128 325.5t128 325.5h82q64 -164 127.5 -325.5
t128.5 -325.5h-80q-15 38 -30 76.5t-29 77.5h-317z" />
    <glyph glyph-name="iotadieresistonos" unicode="&#x390;" horiz-adv-x="233" 
d="M80 0v487h72v-487h-72zM290 627q0 -18 -13 -31t-30 -13q-18 0 -31.5 13t-13.5 31q0 19 13 31.5t32 12.5q17 0 30 -12.5t13 -31.5zM44 627q0 -18 -13.5 -31t-30.5 -13q-18 0 -31 13t-13 31q0 19 13 31.5t31 12.5q17 0 30.5 -12.5t13.5 -31.5zM95 556l-38 14l63 151l83 -15
z" />
    <glyph glyph-name="Alpha" unicode="&#x391;" horiz-adv-x="621" 
d="M446 222q-33 87 -66.5 172.5t-65.5 173.5h-3q-14 -38 -30 -80.5t-29 -76.5q-6 -17 -16 -42t-20.5 -52.5t-20 -53t-15.5 -41.5h266zM155 154q-14 -39 -29.5 -77.5t-29.5 -76.5h-79q65 164 128 325.5t128 325.5h82q64 -164 127.5 -325.5t128.5 -325.5h-80q-15 38 -30 76.5
t-29 77.5h-317z" />
    <glyph glyph-name="Beta" unicode="&#x392;" horiz-adv-x="595" 
d="M545 193q0 -93 -56 -143t-159 -50h-262v651h266q82 0 132.5 -41.5t50.5 -119.5q0 -45 -25 -83t-69 -53v-3q26 -6 48.5 -20t39 -35t25.5 -47t9 -56zM140 583v-201h190q53 0 82.5 29.5t29.5 72.5q0 45 -27 72t-81 27h-194zM140 314v-245h192q69 0 102.5 33t33.5 90
q0 59 -39 90.5t-99 31.5h-190z" />
    <glyph glyph-name="Epsilon" unicode="&#x395;" horiz-adv-x="510" 
d="M66 0v651h415v-69h-340v-200h242v-69h-242v-244h353v-69h-428z" />
    <glyph glyph-name="Zeta" unicode="&#x396;" horiz-adv-x="553" 
d="M523 582l-397 -513h395v-69h-484v68l398 514h-379v69h467v-69z" />
    <glyph glyph-name="Eta" unicode="&#x397;" horiz-adv-x="622" 
d="M480 0v305h-339v-305h-76v651h76v-276h339v276h76v-651h-76z" />
    <glyph glyph-name="Iota" unicode="&#x399;" horiz-adv-x="243" 
d="M83 0v651h77v-651h-77z" />
    <glyph glyph-name="Kappa" unicode="&#x39a;" horiz-adv-x="579" 
d="M472 0q-8 16 -23 44t-33.5 62.5t-38.5 72.5t-38.5 72.5t-33.5 63t-23 44.5q-10 -13 -29.5 -37.5t-41 -52t-41 -52t-29.5 -37.5v-180h-76v651h76v-365h2l86 115l195 250h88l-180 -228q9 -18 27 -51t40.5 -74.5t46.5 -86t46 -86t40 -74.5t27 -51h-87z" />
    <glyph glyph-name="Mu" unicode="&#x39c;" horiz-adv-x="713" 
d="M569 481h-2l-58 -138q-22 -48 -44 -97t-42.5 -93.5t-38 -82t-30.5 -64.5q-30 60 -58 122q-12 26 -25 55l-26 58t-25.5 57t-22.5 54q-6 14 -14.5 35t-16.5 41t-14 35.5t-7 18.5h-2v-482h-74v651h77q12 -27 28.5 -63t35.5 -77t38 -84.5t36 -83.5l70 -164h4q18 41 35.5 81
t34.5 82q4 9 15 33t25 56t30 67t30 66t24.5 54.5t14.5 32.5h76v-651h-74v481z" />
    <glyph glyph-name="Nu" unicode="&#x39d;" horiz-adv-x="610" 
d="M478 0q-24 36 -57.5 87.5t-72 110t-78 119t-74.5 114.5q-17 26 -32.5 51t-22.5 37h-2v-519h-75v651h74q58 -89 115.5 -176t115.5 -175q12 -18 25.5 -39t27 -43t26 -42.5t23.5 -36.5h2v512h75v-651h-70v0z" />
    <glyph glyph-name="Omicron" unicode="&#x39f;" horiz-adv-x="635" 
d="M589 326q0 -76 -19.5 -138t-55 -106t-85.5 -68t-112 -24q-65 0 -115 25t-85 69.5t-53 106t-18 134.5q0 72 18.5 133.5t53 106.5t85 70.5t114.5 25.5q62 0 112 -24t85.5 -68.5t55 -106t19.5 -136.5zM511 325q0 57 -12 106t-36.5 85t-61 56t-84.5 20t-84.5 -20t-60.5 -55.5
t-36.5 -84t-12.5 -106.5q0 -55 12 -103.5t36.5 -85t61 -57.5t84.5 -21q49 0 85.5 21.5t60.5 57.5t36 84.5t12 102.5z" />
    <glyph glyph-name="Rho" unicode="&#x3a1;" horiz-adv-x="552" 
d="M540 454q0 -51 -16 -88.5t-44.5 -63t-68 -38t-87.5 -12.5h-184v-252h-74v651h265q46 0 84 -12t66 -37t43.5 -62t15.5 -86zM140 583v-262h189q64 0 99 34t35 97t-36.5 97t-96.5 34h-190z" />
    <glyph glyph-name="Tau" unicode="&#x3a4;" horiz-adv-x="502" 
d="M291 582v-582h-74v582h-198v69h471v-69h-199z" />
    <glyph glyph-name="Upsilon" unicode="&#x3a5;" horiz-adv-x="560" 
d="M317 231v-231h-75v231l-234 420h86l186 -351l187 351h84z" />
    <glyph glyph-name="Chi" unicode="&#x3a7;" horiz-adv-x="549" 
d="M431 0l-158 270l-157 -270h-87l206 334l-193 317h89l144 -249l146 249h85l-192 -315l205 -336h-88z" />
    <glyph glyph-name="Iotadieresis" unicode="&#x3aa;" horiz-adv-x="243" 
d="M83 0v651h77v-651h-77zM266 759q0 -18 -13 -31t-30 -13q-18 0 -31.5 13t-13.5 31q0 19 13 31.5t32 12.5q17 0 30 -12.5t13 -31.5zM74 759q0 -18 -13.5 -31t-30.5 -13q-18 0 -31.5 13t-13.5 31q0 19 13.5 31.5t31.5 12.5q17 0 30.5 -12.5t13.5 -31.5z" />
    <glyph glyph-name="Upsilondieresis" unicode="&#x3ab;" horiz-adv-x="560" 
d="M317 231v-231h-75v231l-234 420h86l186 -351l187 351h84zM432 758q0 -18 -13 -31t-30 -13q-18 0 -31.5 13t-13.5 31q0 19 13 31.5t32 12.5q17 0 30 -12.5t13 -31.5zM240 758q0 -18 -13.5 -31t-30.5 -13q-18 0 -31.5 13t-13.5 31q0 19 13.5 31.5t31.5 12.5
q17 0 30.5 -12.5t13.5 -31.5z" />
    <glyph glyph-name="upsilondieresistonos" unicode="&#x3b0;" horiz-adv-x="491" 
d="M444 210q0 -113 -50 -166.5t-145 -53.5t-147 53.5t-52 166.5v279h73v-275q0 -81 28.5 -122.5t95.5 -41.5q72 0 98.5 42t26.5 122v275h72v-279zM419 628q0 -18 -13 -31t-30 -13q-18 0 -31.5 13t-13.5 31q0 19 13 31.5t32 12.5q17 0 30 -12.5t13 -31.5zM173 628
q0 -18 -13.5 -31t-30.5 -13q-18 0 -31 13t-13 31q0 19 13 31.5t31 12.5q17 0 30.5 -12.5t13.5 -31.5zM224 557l-38 14l63 151l83 -15z" />
    <glyph glyph-name="omicron" unicode="&#x3bf;" horiz-adv-x="513" 
d="M468 246q0 -61 -16.5 -108.5t-45 -80.5t-67.5 -50t-85 -17q-47 0 -85.5 17.5t-66 50.5t-42.5 80t-15 106q0 61 16 108.5t44.5 79.5t67 48.5t83.5 16.5t84 -17t67.5 -49.5t44.5 -79t16 -105.5zM397 244q0 41 -9 76t-27 60.5t-45 40t-62 14.5q-33 0 -59 -15t-43 -40.5
t-26 -60t-9 -73.5q0 -88 37.5 -140.5t103.5 -52.5q35 0 61 15.5t43.5 41.5t26 60.5t8.5 73.5z" />
    <glyph glyph-name="chi" unicode="&#x3c7;" horiz-adv-x="419" 
d="M316 0l-109 193l-110 -193h-80l152 252l-141 236h81l100 -176l101 176h79l-142 -233l153 -255h-84z" />
    <glyph glyph-name="upsilondieresis" unicode="&#x3cb;" horiz-adv-x="491" 
d="M444 210q0 -113 -50 -166.5t-145 -53.5t-147 53.5t-52 166.5v279h73v-275q0 -81 28.5 -122.5t95.5 -41.5q72 0 98.5 42t26.5 122v275h72v-279zM389 627q0 -18 -13 -31t-30 -13q-18 0 -31.5 13t-13.5 31q0 19 13 31.5t32 12.5q17 0 30 -12.5t13 -31.5zM197 627
q0 -18 -13.5 -31t-30.5 -13q-18 0 -31.5 13t-13.5 31q0 19 13.5 31.5t31.5 12.5q17 0 30.5 -12.5t13.5 -31.5z" />
    <glyph glyph-name="upsilontonos" unicode="&#x3cd;" horiz-adv-x="491" 
d="M444 210q0 -113 -50 -166.5t-145 -53.5t-147 53.5t-52 166.5v279h73v-275q0 -81 28.5 -122.5t95.5 -41.5q72 0 98.5 42t26.5 122v275h72v-279zM253 556l-38 13l70 161l82 -15z" />
    <glyph glyph-name="omegatonos" unicode="&#x3ce;" horiz-adv-x="738" 
d="M500 -9q-38 0 -73.5 18.5t-57.5 61.5h-1q-25 -42 -59 -61t-73 -19q-41 0 -75.5 15.5t-60.5 46.5t-40.5 78.5t-14.5 111.5q0 44 12.5 85t34.5 75t52.5 57.5t66.5 32.5l24 -58q-30 -9 -52 -29t-37 -46.5t-22.5 -56.5t-7.5 -60q0 -91 33 -141t90 -50q24 0 42.5 10t31 27
t18.5 39.5t6 47.5v129h66v-129q0 -26 5.5 -48.5t17.5 -39t30 -26.5t42 -10q60 0 91.5 48t31.5 140q0 30 -7.5 60.5t-22.5 56.5t-37 46.5t-50 30.5l24 58q38 -11 68.5 -35.5t51.5 -58.5t32.5 -75t11.5 -83q0 -63 -14.5 -110t-40.5 -78t-61 -46t-76 -15zM372 556l-38 13
l70 161l82 -15z" />
    <glyph glyph-name="afii10023" unicode="&#x401;" horiz-adv-x="510" 
d="M66 0v651h415v-69h-340v-200h242v-69h-242v-244h353v-69h-428zM419 755q0 -18 -13 -31t-30 -13q-18 0 -31.5 13t-13.5 31q0 19 13 31.5t32 12.5q17 0 30 -12.5t13 -31.5zM227 755q0 -18 -13.5 -31t-30.5 -13q-18 0 -31.5 13t-13.5 31q0 19 13.5 31.5t31.5 12.5
q17 0 30.5 -12.5t13.5 -31.5z" />
    <glyph glyph-name="afii10052" unicode="&#x403;" horiz-adv-x="487" 
d="M142 582v-582h-76v651h418v-69h-342zM235 692l-25 32l134 94l62 -56z" />
    <glyph glyph-name="afii10054" unicode="&#x405;" horiz-adv-x="534" 
d="M508 173q0 -84 -59.5 -133.5t-179.5 -49.5q-66 0 -122.5 23t-98.5 62l50 55q37 -33 82.5 -52t93.5 -19q71 0 113.5 25.5t42.5 86.5q0 28 -12.5 48t-34.5 34.5t-52 25t-64 21.5q-47 15 -84 30t-63 35.5t-40 49.5t-14 71q0 39 16 71.5t44.5 55.5t68 35.5t85.5 12.5
q60 0 111 -18t93 -52q-2 -3 -9 -11t-14.5 -17t-14.5 -17t-9 -10q-36 29 -76 42.5t-89 13.5q-63 0 -96.5 -29t-33.5 -73q0 -24 11 -41.5t28.5 -29.5t40 -21t45.5 -17q37 -12 79 -25.5t78 -36t60 -57t24 -89.5z" />
    <glyph glyph-name="afii10055" unicode="&#x406;" horiz-adv-x="243" 
d="M83 0v651h77v-651h-77z" />
    <glyph glyph-name="afii10056" unicode="&#x407;" horiz-adv-x="243" 
d="M83 0v651h77v-651h-77zM264 755q0 -18 -13 -31t-30 -13q-18 0 -31.5 13t-13.5 31q0 19 13 31.5t32 12.5q17 0 30 -12.5t13 -31.5zM72 755q0 -18 -13.5 -31t-30.5 -13q-18 0 -31.5 13t-13.5 31q0 19 13.5 31.5t31.5 12.5q17 0 30.5 -12.5t13.5 -31.5z" />
    <glyph glyph-name="afii10057" unicode="&#x408;" horiz-adv-x="549" 
d="M476 254q0 -134 -56 -199t-173 -65q-90 0 -142 40t-78 112l72 27q21 -52 55.5 -80t94.5 -28q84 0 117.5 52.5t33.5 148.5v389h76v-397z" />
    <glyph glyph-name="afii10017" unicode="&#x410;" horiz-adv-x="621" 
d="M446 222q-33 87 -66.5 172.5t-65.5 173.5h-3q-14 -38 -30 -80.5t-29 -76.5q-6 -17 -16 -42t-20.5 -52.5t-20 -53t-15.5 -41.5h266zM155 154q-14 -39 -29.5 -77.5t-29.5 -76.5h-79q65 164 128 325.5t128 325.5h82q64 -164 127.5 -325.5t128.5 -325.5h-80q-15 38 -30 76.5
t-29 77.5h-317z" />
    <glyph glyph-name="afii10019" unicode="&#x412;" horiz-adv-x="595" 
d="M545 193q0 -93 -56 -143t-159 -50h-262v651h266q82 0 132.5 -41.5t50.5 -119.5q0 -45 -25 -83t-69 -53v-3q26 -6 48.5 -20t39 -35t25.5 -47t9 -56zM140 583v-201h190q53 0 82.5 29.5t29.5 72.5q0 45 -27 72t-81 27h-194zM140 314v-245h192q69 0 102.5 33t33.5 90
q0 59 -39 90.5t-99 31.5h-190z" />
    <glyph glyph-name="afii10020" unicode="&#x413;" horiz-adv-x="487" 
d="M142 582v-582h-76v651h418v-69h-342z" />
    <glyph glyph-name="afii10022" unicode="&#x415;" horiz-adv-x="510" 
d="M66 0v651h415v-69h-340v-200h242v-69h-242v-244h353v-69h-428z" />
    <glyph glyph-name="afii10028" unicode="&#x41a;" horiz-adv-x="514" 
d="M505 0h-94l-270 316l-3 -1v-315h-74v651h74v-301l3 -1l274 302h87l-288 -316z" />
    <glyph glyph-name="afii10030" unicode="&#x41c;" horiz-adv-x="713" 
d="M569 481h-2l-58 -138q-22 -48 -44 -97t-42.5 -93.5t-38 -82t-30.5 -64.5q-30 60 -58 122q-12 26 -25 55l-26 58t-25.5 57t-22.5 54q-6 14 -14.5 35t-16.5 41t-14 35.5t-7 18.5h-2v-482h-74v651h77q12 -27 28.5 -63t35.5 -77t38 -84.5t36 -83.5l70 -164h4q18 41 35.5 81
t34.5 82q4 9 15 33t25 56t30 67t30 66t24.5 54.5t14.5 32.5h76v-651h-74v481z" />
    <glyph glyph-name="afii10031" unicode="&#x41d;" horiz-adv-x="622" 
d="M480 0v305h-339v-305h-76v651h76v-276h339v276h76v-651h-76z" />
    <glyph glyph-name="afii10032" unicode="&#x41e;" horiz-adv-x="635" 
d="M589 326q0 -76 -19.5 -138t-55 -106t-85.5 -68t-112 -24q-65 0 -115 25t-85 69.5t-53 106t-18 134.5q0 72 18.5 133.5t53 106.5t85 70.5t114.5 25.5q62 0 112 -24t85.5 -68.5t55 -106t19.5 -136.5zM511 325q0 57 -12 106t-36.5 85t-61 56t-84.5 20t-84.5 -20t-60.5 -55.5
t-36.5 -84t-12.5 -106.5q0 -55 12 -103.5t36.5 -85t61 -57.5t84.5 -21q49 0 85.5 21.5t60.5 57.5t36 84.5t12 102.5z" />
    <glyph glyph-name="afii10033" unicode="&#x41f;" horiz-adv-x="621" 
d="M480 0v582h-338v-582h-76v651h490v-651h-76z" />
    <glyph glyph-name="afii10034" unicode="&#x420;" horiz-adv-x="552" 
d="M540 454q0 -51 -16 -88.5t-44.5 -63t-68 -38t-87.5 -12.5h-184v-252h-74v651h265q46 0 84 -12t66 -37t43.5 -62t15.5 -86zM140 583v-262h189q64 0 99 34t35 97t-36.5 97t-96.5 34h-190z" />
    <glyph glyph-name="afii10035" unicode="&#x421;" horiz-adv-x="556" 
d="M320 662q66 0 116.5 -22t88.5 -67l-53 -53q-33 37 -70 54t-83 17q-47 0 -83 -19.5t-61 -55t-38 -84t-13 -105.5q0 -56 12.5 -105t37 -85t61.5 -56.5t86 -20.5q88 0 154 75l53 -49q-38 -45 -88 -70.5t-121 -25.5q-60 0 -110.5 23t-86.5 66.5t-56 105.5t-20 141
q0 78 20 140t56.5 105.5t87 67t110.5 23.5z" />
    <glyph glyph-name="afii10036" unicode="&#x422;" horiz-adv-x="502" 
d="M291 582v-582h-74v582h-198v69h471v-69h-199z" />
    <glyph glyph-name="afii10038" unicode="&#x424;" horiz-adv-x="703" 
d="M658 330q0 -59 -18.5 -109t-53.5 -87.5t-85 -60.5t-114 -28v-45h-73v46q-61 6 -110.5 29.5t-84 60.5t-53 86t-18.5 107q0 56 18 105t52 87t83.5 62t112.5 29v39h73v-39q66 -6 116.5 -29.5t85 -60.5t52 -86t17.5 -106zM583 329q0 41 -11 78.5t-35 67t-61 49.5t-89 26v-444
q51 6 88 26.5t61 50.5t35.5 67.5t11.5 78.5zM314 549q-47 -6 -82.5 -25t-60 -48.5t-37 -66.5t-12.5 -79q0 -41 11.5 -78.5t35 -67.5t59.5 -50t86 -27v442z" />
    <glyph glyph-name="afii10039" unicode="&#x425;" horiz-adv-x="549" 
d="M431 0l-158 270l-157 -270h-87l206 334l-193 317h89l144 -249l146 249h85l-192 -315l205 -336h-88z" />
    <glyph glyph-name="afii10065" unicode="&#x430;" horiz-adv-x="477" 
d="M245 497q85 0 130.5 -39.5t45.5 -118.5v-339h-70v48h-2q-39 -35 -77.5 -46t-73.5 -11q-29 0 -58 8.5t-52.5 27t-38 47.5t-14.5 71q0 36 13.5 65t38 49.5t58 31.5t73.5 11q32 0 64.5 -6.5t68.5 -26.5v60q0 56 -28.5 81.5t-85.5 25.5q-36 0 -67 -9t-62 -24l-24 56
q35 17 74 27.5t87 10.5zM351 209q-30 17 -60 27t-72 10q-48 0 -81 -25.5t-33 -73.5t28 -73t81 -25q39 2 74.5 21t62.5 46v93z" />
    <glyph glyph-name="afii10070" unicode="&#x435;" horiz-adv-x="489" 
d="M251 497q49 0 86.5 -17.5t63 -50t39 -78t13.5 -101.5v-33h-337q5 -81 45 -123t97 -42q32 0 62 13t53 34l42 -45q-67 -64 -164 -64q-41 0 -78.5 16t-66 48t-45 79.5t-16.5 109.5q0 59 16 106t43.5 80t65 50.5t81.5 17.5zM383 274q0 33 -8 62.5t-24.5 51t-41.5 34.5t-60 13
q-26 0 -49 -11.5t-41 -33t-29.5 -51t-13.5 -65.5h267z" />
    <glyph glyph-name="afii10076" unicode="&#x43a;" horiz-adv-x="432" 
d="M416 487l-221 -225l227 -262h-85l-212 249v-249h-72v487h72v-216l210 216h81z" />
    <glyph glyph-name="afii10080" unicode="&#x43e;" horiz-adv-x="513" 
d="M468 246q0 -61 -16.5 -108.5t-45 -80.5t-67.5 -50t-85 -17q-47 0 -85.5 17.5t-66 50.5t-42.5 80t-15 106q0 61 16 108.5t44.5 79.5t67 48.5t83.5 16.5t84 -17t67.5 -49.5t44.5 -79t16 -105.5zM397 244q0 41 -9 76t-27 60.5t-45 40t-62 14.5q-33 0 -59 -15t-43 -40.5
t-26 -60t-9 -73.5q0 -88 37.5 -140.5t103.5 -52.5q35 0 61 15.5t43.5 41.5t26 60.5t8.5 73.5z" />
    <glyph glyph-name="afii10082" unicode="&#x440;" horiz-adv-x="500" 
d="M454 248q0 -69 -17.5 -118t-46 -79.5t-63.5 -45t-71 -14.5q-35 0 -66 12t-62 43h-2v-205l-70 -33v681h71v-49h2q34 33 70 45.5t70 12.5q35 0 68.5 -14.5t59.5 -45t41.5 -77.5t15.5 -113zM384 249q0 88 -36 138t-94 50q-42 0 -74.5 -21t-53.5 -48v-247q20 -27 53 -47.5
t69 -20.5q66 0 101 50.5t35 145.5z" />
    <glyph glyph-name="afii10083" unicode="&#x441;" horiz-adv-x="438" 
d="M251 497q98 0 160 -69l-47 -47q-27 29 -55 41t-60 12q-31 0 -55.5 -14.5t-41.5 -40t-26 -60t-9 -75.5t8.5 -75.5t26 -60t42.5 -40t58 -14.5t59.5 12.5t53.5 40.5l47 -43q-29 -34 -67.5 -54t-95.5 -20q-42 0 -79 15.5t-64.5 47t-43.5 79.5t-16 112q0 61 15.5 108
t43.5 79.5t65 49t81 16.5z" />
    <glyph glyph-name="afii10085" unicode="&#x443;" horiz-adv-x="463" 
d="M135 -187l63 180l-183 495h75l90 -258l49 -147h3q13 37 25.5 73.5t24.5 73.5q8 22 20.5 56.5t26 72t25.5 72.5t20 57h72q-61 -168 -122.5 -338t-122.5 -337h-66z" />
    <glyph glyph-name="afii10087" unicode="&#x445;" horiz-adv-x="419" 
d="M316 0l-109 193l-110 -193h-80l152 252l-141 236h81l100 -176l101 176h79l-142 -233l153 -255h-84z" />
    <glyph glyph-name="afii10071" unicode="&#x451;" horiz-adv-x="489" 
d="M251 497q49 0 86.5 -17.5t63 -50t39 -78t13.5 -101.5v-33h-337q5 -81 45 -123t97 -42q32 0 62 13t53 34l42 -45q-67 -64 -164 -64q-41 0 -78.5 16t-66 48t-45 79.5t-16.5 109.5q0 59 16 106t43.5 80t65 50.5t81.5 17.5zM383 274q0 33 -8 62.5t-24.5 51t-41.5 34.5t-60 13
q-26 0 -49 -11.5t-41 -33t-29.5 -51t-13.5 -65.5h267zM200 628q0 -18 -13.5 -31t-30.5 -13q-18 0 -31.5 13t-13.5 31q0 19 13.5 31.5t31.5 12.5q17 0 30.5 -12.5t13.5 -31.5zM392 628q0 -18 -13 -31t-30 -13q-18 0 -31.5 13t-13.5 31q0 19 13 31.5t32 12.5q17 0 30 -12.5
t13 -31.5z" />
    <glyph glyph-name="afii10102" unicode="&#x455;" horiz-adv-x="438" 
d="M399 129q0 -34 -14.5 -60t-39.5 -43.5t-59 -26.5t-73 -9q-45 0 -91 12t-84 34l27 55q38 -20 77 -30.5t73 -10.5q20 0 40.5 4t37 13t26.5 23t10 34q0 21 -9.5 35.5t-26 25.5t-39 19.5t-49.5 17.5q-34 10 -62.5 23t-49.5 30t-32.5 39t-11.5 51t12.5 53.5t35.5 42t55.5 27
t73.5 9.5q83 0 154 -36l-24 -57q-36 19 -71 25.5t-60 6.5q-48 0 -77.5 -19.5t-29.5 -46.5q0 -26 22.5 -46.5t84.5 -38.5q37 -11 68.5 -24t55 -31t37 -42.5t13.5 -58.5z" />
    <glyph glyph-name="afii10103" unicode="&#x456;" horiz-adv-x="229" 
d="M160 619q0 -18 -13.5 -31.5t-31.5 -13.5q-19 0 -32.5 13.5t-13.5 31.5q0 19 13.5 32t31.5 13q19 0 32.5 -13t13.5 -32zM79 0v488h71v-488h-71z" />
    <glyph glyph-name="afii10104" unicode="&#x457;" horiz-adv-x="233" 
d="M80 0v487h72v-487h-72zM256 627q0 -18 -13 -31t-30 -13q-18 0 -31.5 13t-13.5 31q0 19 13 31.5t32 12.5q17 0 30 -12.5t13 -31.5zM64 627q0 -18 -13.5 -31t-30.5 -13q-18 0 -31.5 13t-13.5 31q0 19 13.5 31.5t31.5 12.5q17 0 30.5 -12.5t13.5 -31.5z" />
    <glyph glyph-name="afii10105" unicode="&#x458;" horiz-adv-x="229" 
d="M167 619q0 -18 -13.5 -31.5t-31.5 -13.5q-19 0 -32 13.5t-13 31.5q0 19 13 32t32 13q18 0 31.5 -13t13.5 -32zM156 -5q0 -45 -6 -80t-23.5 -59t-50.5 -37t-87 -15l-6 60q35 6 55.5 15t31 23.5t13 35t2.5 49.5v501h71v-493z" />
    <glyph glyph-name="afii10109" unicode="&#x45c;" horiz-adv-x="432" 
d="M205 556l-38 13l70 161l82 -15zM416 487l-221 -225l227 -262h-85l-212 249v-249h-72v487h72v-216l210 216h81z" />
    <glyph glyph-name="afii10110" unicode="&#x45e;" horiz-adv-x="463" 
d="M135 -187l63 180l-183 495h75l90 -258l49 -147h3q13 37 25.5 73.5t24.5 73.5q8 22 20.5 56.5t26 72t25.5 72.5t20 57h72q-61 -168 -122.5 -338t-122.5 -337h-66zM172 682q4 -28 22 -46t50 -18q34 0 51.5 20t19.5 44h54q-1 -18 -8 -38.5t-21.5 -37t-37.5 -27.5t-57 -11
q-35 0 -59 11t-39 27.5t-21.5 37t-7.5 38.5h54z" />
    <glyph glyph-name="Ccedilla" unicode="&#xc7;" horiz-adv-x="556" 
d="M304 -204q-16 0 -36 3.5t-43 13.5l13 36q35 -13 64 -13q23 0 36.5 10t13.5 28q0 21 -15.5 32t-37.5 11q-2 0 -4.5 -0.5t-4.5 -0.5l-20 21l18 55q-54 5 -99 30.5t-76.5 68t-49 102t-17.5 133.5q0 78 20 140t56.5 105.5t87 67t110.5 23.5q66 0 116.5 -22t88.5 -67l-53 -53
q-33 37 -70 54t-83 17q-47 0 -83 -19.5t-61 -55t-38 -84t-13 -105.5q0 -56 12.5 -105t37 -85t61.5 -56.5t86 -20.5q88 0 154 75l53 -49q-37 -45 -85.5 -69.5t-117.5 -26.5q-3 -8 -6 -16.5t-5 -17.5q28 -3 46 -11.5t28.5 -20t14.5 -24.5t4 -24q0 -13 -5.5 -27t-17.5 -26
t-31.5 -19.5t-48.5 -7.5z" />
    <glyph glyph-name="uni1F00" unicode="&#x1f00;" horiz-adv-x="502" 
d="M45 242q0 64 16.5 111.5t43 79.5t60.5 48t69 16q33 0 69 -11t70 -46h2v48h68v-488h-58q0 3 -1.5 10.5t-3 15.5t-3 15t-1.5 11h-2q-67 -62 -146 -62q-83 0 -133 63.5t-50 188.5zM115 246q0 -94 32 -144t98 -50q19 0 37.5 6t35 16t30.5 22.5t24 24.5v245q-21 27 -53.5 49
t-73.5 22q-28 0 -51.5 -14t-41 -39.5t-27.5 -60.5t-10 -77zM228 563q12 17 20.5 37t8.5 37q0 21 -13 38t-51 25l23 65q50 -11 77.5 -35.5t27.5 -63.5q0 -23 -14 -55t-46 -62z" />
    <glyph glyph-name="uni1F01" unicode="&#x1f01;" horiz-adv-x="502" 
d="M45 242q0 64 16.5 111.5t43 79.5t60.5 48t69 16q33 0 69 -11t70 -46h2v48h68v-488h-58q0 3 -1.5 10.5t-3 15.5t-3 15t-1.5 11h-2q-67 -62 -146 -62q-83 0 -133 63.5t-50 188.5zM115 246q0 -94 32 -144t98 -50q19 0 37.5 6t35 16t30.5 22.5t24 24.5v245q-21 27 -53.5 49
t-73.5 22q-28 0 -51.5 -14t-41 -39.5t-27.5 -60.5t-10 -77zM264 549q-32 30 -46 62t-14 55q0 39 27.5 63.5t77.5 35.5l22 -65q-37 -8 -50 -25t-13 -38q0 -17 8.5 -37t20.5 -37z" />
    <glyph glyph-name="uni1F02" unicode="&#x1f02;" horiz-adv-x="502" 
d="M45 242q0 64 16.5 111.5t43 79.5t60.5 48t69 16q33 0 69 -11t70 -46h2v48h68v-488h-58q0 3 -1.5 10.5t-3 15.5t-3 15t-1.5 11h-2q-67 -62 -146 -62q-83 0 -133 63.5t-50 188.5zM115 246q0 -94 32 -144t98 -50q19 0 37.5 6t35 16t30.5 22.5t24 24.5v245q-21 27 -53.5 49
t-73.5 22q-28 0 -51.5 -14t-41 -39.5t-27.5 -60.5t-10 -77zM245 743l90 18l72 -193l-39 -11zM139 565q12 17 20.5 36.5t8.5 37.5q0 20 -13 37t-51 25q1 1 4.5 11t7.5 21.5t7 21.5t3 11q51 -10 78.5 -35t27.5 -63q0 -23 -14 -55.5t-45 -61.5z" />
    <glyph glyph-name="uni1F03" unicode="&#x1f03;" horiz-adv-x="502" 
d="M45 242q0 64 16.5 111.5t43 79.5t60.5 48t69 16q33 0 69 -11t70 -46h2v48h68v-488h-58q0 3 -1.5 10.5t-3 15.5t-3 15t-1.5 11h-2q-67 -62 -146 -62q-83 0 -133 63.5t-50 188.5zM115 246q0 -94 32 -144t98 -50q19 0 37.5 6t35 16t30.5 22.5t24 24.5v245q-21 27 -53.5 49
t-73.5 22q-28 0 -51.5 -14t-41 -39.5t-27.5 -60.5t-10 -77zM242 743l91 18l72 -193l-39 -11zM164 548q-32 30 -45.5 62t-13.5 55q0 39 27 63.5t78 35.5q1 -2 4.5 -11.5t7 -21t7 -21.5t3.5 -12q-37 -7 -50 -24t-13 -38q0 -17 8.5 -37t20.5 -37z" />
    <glyph glyph-name="uni1F04" unicode="&#x1f04;" horiz-adv-x="502" 
d="M45 242q0 64 16.5 111.5t43 79.5t60.5 48t69 16q33 0 69 -11t70 -46h2v48h68v-488h-58q0 3 -1.5 10.5t-3 15.5t-3 15t-1.5 11h-2q-67 -62 -146 -62q-83 0 -133 63.5t-50 188.5zM115 246q0 -94 32 -144t98 -50q19 0 37.5 6t35 16t30.5 22.5t24 24.5v245q-21 27 -53.5 49
t-73.5 22q-28 0 -51.5 -14t-41 -39.5t-27.5 -60.5t-10 -77zM182 567q12 17 20 37t8 37q0 21 -13 38t-50 25l22 65q51 -11 78.5 -35.5t27.5 -63.5q0 -23 -14 -55t-46 -62zM328 554l-38 11l71 192l91 -17z" />
    <glyph glyph-name="uni1F05" unicode="&#x1f05;" horiz-adv-x="502" 
d="M45 242q0 64 16.5 111.5t43 79.5t60.5 48t69 16q33 0 69 -11t70 -46h2v48h68v-488h-58q0 3 -1.5 10.5t-3 15.5t-3 15t-1.5 11h-2q-67 -62 -146 -62q-83 0 -133 63.5t-50 188.5zM115 246q0 -94 32 -144t98 -50q19 0 37.5 6t35 16t30.5 22.5t24 24.5v245q-21 27 -53.5 49
t-73.5 22q-28 0 -51.5 -14t-41 -39.5t-27.5 -60.5t-10 -77zM210 555q-32 30 -46 62t-14 55q0 39 27.5 63.5t77.5 35.5q1 -2 4.5 -11.5t7.5 -21t7.5 -21.5t3.5 -11q-37 -8 -50 -25t-13 -38q0 -17 8 -37t20 -37zM326 556l-38 11l72 193l90 -18z" />
    <glyph glyph-name="uni1F06" unicode="&#x1f06;" horiz-adv-x="502" 
d="M45 242q0 64 16.5 111.5t43 79.5t60.5 48t69 16q33 0 69 -11t70 -46h2v48h68v-488h-58q0 3 -1.5 10.5t-3 15.5t-3 15t-1.5 11h-2q-67 -62 -146 -62q-83 0 -133 63.5t-50 188.5zM115 246q0 -94 32 -144t98 -50q19 0 37.5 6t35 16t30.5 22.5t24 24.5v245q-21 27 -53.5 49
t-73.5 22q-28 0 -51.5 -14t-41 -39.5t-27.5 -60.5t-10 -77zM241 570q14 17 21.5 28.5t7.5 22.5q0 14 -12 24.5t-47 15.5l19 50q50 -6 74 -25.5t24 -44.5q0 -16 -13 -39t-48 -49zM431 795q-17 -42 -42.5 -59.5t-54.5 -17.5q-16 0 -32.5 6t-33.5 13.5t-33 14t-31 6.5
q-17 0 -31 -7.5t-33 -31.5l-32 16q17 48 44.5 65.5t52.5 17.5q17 0 34.5 -6.5t34.5 -14.5t32.5 -14.5t29.5 -6.5q17 0 30 7.5t33 30.5z" />
    <glyph glyph-name="uni1F07" unicode="&#x1f07;" horiz-adv-x="502" 
d="M45 242q0 64 16.5 111.5t43 79.5t60.5 48t69 16q33 0 69 -11t70 -46h2v48h68v-488h-58q0 3 -1.5 10.5t-3 15.5t-3 15t-1.5 11h-2q-67 -62 -146 -62q-83 0 -133 63.5t-50 188.5zM115 246q0 -94 32 -144t98 -50q19 0 37.5 6t35 16t30.5 22.5t24 24.5v245q-21 27 -53.5 49
t-73.5 22q-28 0 -51.5 -14t-41 -39.5t-27.5 -60.5t-10 -77zM267 554q-39 20 -51.5 41t-12.5 37q0 25 23 47.5t76 27.5l13 -47q-29 -6 -41.5 -16.5t-12.5 -24.5q0 -11 7.5 -22t21.5 -25zM426 794q-17 -42 -42 -59.5t-54 -17.5q-16 0 -32.5 6t-33.5 13.5t-33 14t-31 6.5
q-17 0 -31 -7t-33 -32l-32 16q17 48 44.5 65.5t52.5 17.5q16 0 33.5 -6.5t35 -14.5t33 -14.5t29.5 -6.5q17 0 30 7.5t33 30.5z" />
    <glyph glyph-name="uni1F08" unicode="&#x1f08;" horiz-adv-x="621" 
d="M155 154q-14 -39 -29.5 -77.5t-29.5 -76.5h-79q65 164 128 325.5t128 325.5h82q64 -164 127.5 -325.5t128.5 -325.5h-80q-15 38 -30 76.5t-29 77.5h-317zM446 222q-33 87 -66.5 172.5t-65.5 173.5h-3q-14 -38 -30 -80.5t-29 -76.5q-6 -17 -16 -42t-20.5 -52.5t-20 -53
t-15.5 -41.5h266zM21 456q12 17 20.5 37t8.5 37q0 21 -13 38t-51 25l23 65q50 -11 77.5 -35.5t27.5 -63.5q0 -23 -14 -55t-46 -62z" />
    <glyph glyph-name="uni1F09" unicode="&#x1f09;" horiz-adv-x="621" 
d="M155 154q-14 -39 -29.5 -77.5t-29.5 -76.5h-79q65 164 128 325.5t128 325.5h82q64 -164 127.5 -325.5t128.5 -325.5h-80q-15 38 -30 76.5t-29 77.5h-317zM446 222q-33 87 -66.5 172.5t-65.5 173.5h-3q-14 -38 -30 -80.5t-29 -76.5q-6 -17 -16 -42t-20.5 -52.5t-20 -53
t-15.5 -41.5h266zM44 450q-32 30 -46 62t-14 55q0 39 27.5 63.5t77.5 35.5l22 -65q-37 -8 -50 -25t-13 -38q0 -17 8.5 -37t20.5 -37z" />
    <glyph glyph-name="uni1F0A" unicode="&#x1f0a;" horiz-adv-x="621" 
d="M446 222q-33 87 -66.5 172.5t-65.5 173.5h-3q-14 -38 -30 -80.5t-29 -76.5q-6 -17 -16 -42t-20.5 -52.5t-20 -53t-15.5 -41.5h266zM155 154q-14 -39 -29.5 -77.5t-29.5 -76.5h-79q65 164 128 325.5t128 325.5h82q64 -164 127.5 -325.5t128.5 -325.5h-80q-15 38 -30 76.5
t-29 77.5h-317zM-5 652l90 18l72 -193l-39 -11zM-111 474q12 17 20.5 36.5t8.5 37.5q0 20 -13 37t-51 25q1 1 4.5 11t7.5 21.5t7 21.5t3 11q51 -10 78.5 -35t27.5 -63q0 -23 -14 -55.5t-45 -61.5z" />
    <glyph glyph-name="uni1F0B" unicode="&#x1f0b;" horiz-adv-x="621" 
d="M446 222q-33 87 -66.5 172.5t-65.5 173.5h-3q-14 -38 -30 -80.5t-29 -76.5q-6 -17 -16 -42t-20.5 -52.5t-20 -53t-15.5 -41.5h266zM155 154q-14 -39 -29.5 -77.5t-29.5 -76.5h-79q65 164 128 325.5t128 325.5h82q64 -164 127.5 -325.5t128.5 -325.5h-80q-15 38 -30 76.5
t-29 77.5h-317zM-4 649l91 18l72 -193l-39 -11zM-82 454q-32 30 -45.5 62t-13.5 55q0 39 27 63.5t78 35.5q1 -2 4.5 -11.5t7 -21t7 -21.5t3.5 -12q-37 -7 -50 -24t-13 -38q0 -17 8.5 -37t20.5 -37z" />
    <glyph glyph-name="uni1F0C" unicode="&#x1f0c;" horiz-adv-x="621" 
d="M155 154q-14 -39 -29.5 -77.5t-29.5 -76.5h-79q65 164 128 325.5t128 325.5h82q64 -164 127.5 -325.5t128.5 -325.5h-80q-15 38 -30 76.5t-29 77.5h-317zM446 222q-33 87 -66.5 172.5t-65.5 173.5h-3q-14 -38 -30 -80.5t-29 -76.5q-6 -17 -16 -42t-20.5 -52.5t-20 -53
t-15.5 -41.5h266zM-74 475q12 17 20 37t8 37q0 21 -13 38t-50 25l22 65q51 -11 78.5 -35.5t27.5 -63.5q0 -23 -14 -55t-46 -62zM72 462l-38 11l71 192l91 -17z" />
    <glyph glyph-name="uni1F0D" unicode="&#x1f0d;" horiz-adv-x="621" 
d="M446 222q-33 87 -66.5 172.5t-65.5 173.5h-3q-14 -38 -30 -80.5t-29 -76.5q-6 -17 -16 -42t-20.5 -52.5t-20 -53t-15.5 -41.5h266zM155 154q-14 -39 -29.5 -77.5t-29.5 -76.5h-79q65 164 128 325.5t128 325.5h82q64 -164 127.5 -325.5t128.5 -325.5h-80q-15 38 -30 76.5
t-29 77.5h-317zM-40 463q-32 30 -46 62t-14 55q0 39 27.5 63.5t77.5 35.5q1 -2 4.5 -11.5t7.5 -21t7.5 -21.5t3.5 -11q-37 -8 -50 -25t-13 -38q0 -17 8 -37t20 -37zM76 464l-38 11l72 193l90 -18z" />
    <glyph glyph-name="uni1F0E" unicode="&#x1f0e;" horiz-adv-x="621" 
d="M446 222q-33 87 -66.5 172.5t-65.5 173.5h-3q-14 -38 -30 -80.5t-29 -76.5q-6 -17 -16 -42t-20.5 -52.5t-20 -53t-15.5 -41.5h266zM155 154q-14 -39 -29.5 -77.5t-29.5 -76.5h-79q65 164 128 325.5t128 325.5h82q64 -164 127.5 -325.5t128.5 -325.5h-80q-15 38 -30 76.5
t-29 77.5h-317zM-9 457q14 17 21.5 28.5t7.5 22.5q0 14 -12 24.5t-47 15.5l19 50q50 -6 74 -25.5t24 -44.5q0 -16 -13 -39t-48 -49zM181 682q-17 -42 -42.5 -59.5t-54.5 -17.5q-16 0 -32.5 6t-33.5 13.5t-33 14t-31 6.5q-17 0 -31 -7.5t-33 -31.5l-32 16q17 48 44.5 65.5
t52.5 17.5q17 0 34.5 -6.5t34.5 -14.5t32.5 -14.5t29.5 -6.5q17 0 30 7.5t33 30.5z" />
    <glyph glyph-name="uni1F0F" unicode="&#x1f0f;" horiz-adv-x="621" 
d="M446 222q-33 87 -66.5 172.5t-65.5 173.5h-3q-14 -38 -30 -80.5t-29 -76.5q-6 -17 -16 -42t-20.5 -52.5t-20 -53t-15.5 -41.5h266zM155 154q-14 -39 -29.5 -77.5t-29.5 -76.5h-79q65 164 128 325.5t128 325.5h82q64 -164 127.5 -325.5t128.5 -325.5h-80q-15 38 -30 76.5
t-29 77.5h-317zM24 442q-39 20 -51.5 41t-12.5 37q0 25 23 47.5t76 27.5l13 -47q-29 -6 -41.5 -16.5t-12.5 -24.5q0 -11 7.5 -22t21.5 -25zM183 682q-17 -42 -42 -59.5t-54 -17.5q-16 0 -32.5 6t-33.5 13.5t-33 14t-31 6.5q-17 0 -31 -7t-33 -32l-32 16q17 48 44.5 65.5
t52.5 17.5q16 0 33.5 -6.5t35 -14.5t33 -14.5t29.5 -6.5q17 0 30 7.5t33 30.5z" />
    <glyph glyph-name="uni1F10" unicode="&#x1f10;" horiz-adv-x="428" 
d="M414 61q-42 -41 -88.5 -56t-92.5 -15q-33 0 -66.5 7.5t-60 24.5t-43.5 44.5t-17 67.5q0 36 23.5 69t65.5 45v2q-22 7 -37.5 19t-25 26t-14 30t-4.5 31q0 32 15 58t40.5 44.5t58.5 28.5t68 10q47 0 88 -13t79 -48l-42 -48q-55 49 -118 49q-32 0 -54 -8.5t-36 -21
t-20.5 -26.5t-6.5 -24q0 -22 8 -36.5t21.5 -23.5t30 -12.5t34.5 -3.5h67v-55h-61q-18 0 -37 -5t-35 -15t-26.5 -26t-10.5 -37q0 -38 29.5 -65t88.5 -27q25 0 61.5 9.5t75.5 46.5zM212 563q12 17 20.5 37t8.5 37q0 21 -13 38t-51 25l23 65q50 -11 77.5 -35.5t27.5 -63.5
q0 -23 -14 -55t-46 -62z" />
    <glyph glyph-name="uni1F11" unicode="&#x1f11;" horiz-adv-x="428" 
d="M414 61q-42 -41 -88.5 -56t-92.5 -15q-33 0 -66.5 7.5t-60 24.5t-43.5 44.5t-17 67.5q0 36 23.5 69t65.5 45v2q-22 7 -37.5 19t-25 26t-14 30t-4.5 31q0 32 15 58t40.5 44.5t58.5 28.5t68 10q47 0 88 -13t79 -48l-42 -48q-55 49 -118 49q-32 0 -54 -8.5t-36 -21
t-20.5 -26.5t-6.5 -24q0 -22 8 -36.5t21.5 -23.5t30 -12.5t34.5 -3.5h67v-55h-61q-18 0 -37 -5t-35 -15t-26.5 -26t-10.5 -37q0 -38 29.5 -65t88.5 -27q25 0 61.5 9.5t75.5 46.5zM236 549q-32 30 -46 62t-14 55q0 39 27.5 63.5t77.5 35.5l22 -65q-37 -8 -50 -25t-13 -38
q0 -17 8.5 -37t20.5 -37z" />
    <glyph glyph-name="uni1F12" unicode="&#x1f12;" horiz-adv-x="428" 
d="M414 61q-42 -41 -88.5 -56t-92.5 -15q-33 0 -66.5 7.5t-60 24.5t-43.5 44.5t-17 67.5q0 36 23.5 69t65.5 45v2q-22 7 -37.5 19t-25 26t-14 30t-4.5 31q0 32 15 58t40.5 44.5t58.5 28.5t68 10q47 0 88 -13t79 -48l-42 -48q-55 49 -118 49q-32 0 -54 -8.5t-36 -21
t-20.5 -26.5t-6.5 -24q0 -22 8 -36.5t21.5 -23.5t30 -12.5t34.5 -3.5h67v-55h-61q-18 0 -37 -5t-35 -15t-26.5 -26t-10.5 -37q0 -38 29.5 -65t88.5 -27q25 0 61.5 9.5t75.5 46.5zM214 743l90 18l72 -193l-39 -11zM108 565q12 17 20.5 36.5t8.5 37.5q0 20 -13 37t-51 25
q1 1 4.5 11t7.5 21.5t7 21.5t3 11q51 -10 78.5 -35t27.5 -63q0 -23 -14 -55.5t-45 -61.5z" />
    <glyph glyph-name="uni1F13" unicode="&#x1f13;" horiz-adv-x="428" 
d="M414 61q-42 -41 -88.5 -56t-92.5 -15q-33 0 -66.5 7.5t-60 24.5t-43.5 44.5t-17 67.5q0 36 23.5 69t65.5 45v2q-22 7 -37.5 19t-25 26t-14 30t-4.5 31q0 32 15 58t40.5 44.5t58.5 28.5t68 10q47 0 88 -13t79 -48l-42 -48q-55 49 -118 49q-32 0 -54 -8.5t-36 -21
t-20.5 -26.5t-6.5 -24q0 -22 8 -36.5t21.5 -23.5t30 -12.5t34.5 -3.5h67v-55h-61q-18 0 -37 -5t-35 -15t-26.5 -26t-10.5 -37q0 -38 29.5 -65t88.5 -27q25 0 61.5 9.5t75.5 46.5zM207 743l91 18l72 -193l-39 -11zM129 548q-32 30 -45.5 62t-13.5 55q0 39 27 63.5t78 35.5
q1 -2 4.5 -11.5t7 -21t7 -21.5t3.5 -12q-37 -7 -50 -24t-13 -38q0 -17 8.5 -37t20.5 -37z" />
    <glyph glyph-name="uni1F14" unicode="&#x1f14;" horiz-adv-x="428" 
d="M414 61q-42 -41 -88.5 -56t-92.5 -15q-33 0 -66.5 7.5t-60 24.5t-43.5 44.5t-17 67.5q0 36 23.5 69t65.5 45v2q-22 7 -37.5 19t-25 26t-14 30t-4.5 31q0 32 15 58t40.5 44.5t58.5 28.5t68 10q47 0 88 -13t79 -48l-42 -48q-55 49 -118 49q-32 0 -54 -8.5t-36 -21
t-20.5 -26.5t-6.5 -24q0 -22 8 -36.5t21.5 -23.5t30 -12.5t34.5 -3.5h67v-55h-61q-18 0 -37 -5t-35 -15t-26.5 -26t-10.5 -37q0 -38 29.5 -65t88.5 -27q25 0 61.5 9.5t75.5 46.5zM151 567q12 17 20 37t8 37q0 21 -13 38t-50 25l22 65q51 -11 78.5 -35.5t27.5 -63.5
q0 -23 -14 -55t-46 -62zM297 554l-38 11l71 192l91 -17z" />
    <glyph glyph-name="uni1F15" unicode="&#x1f15;" horiz-adv-x="428" 
d="M414 61q-42 -41 -88.5 -56t-92.5 -15q-33 0 -66.5 7.5t-60 24.5t-43.5 44.5t-17 67.5q0 36 23.5 69t65.5 45v2q-22 7 -37.5 19t-25 26t-14 30t-4.5 31q0 32 15 58t40.5 44.5t58.5 28.5t68 10q47 0 88 -13t79 -48l-42 -48q-55 49 -118 49q-32 0 -54 -8.5t-36 -21
t-20.5 -26.5t-6.5 -24q0 -22 8 -36.5t21.5 -23.5t30 -12.5t34.5 -3.5h67v-55h-61q-18 0 -37 -5t-35 -15t-26.5 -26t-10.5 -37q0 -38 29.5 -65t88.5 -27q25 0 61.5 9.5t75.5 46.5zM174 552q-32 30 -46 62t-14 55q0 39 27.5 63.5t77.5 35.5q1 -2 4.5 -11.5t7.5 -21t7.5 -21.5
t3.5 -11q-37 -8 -50 -25t-13 -38q0 -17 8 -37t20 -37zM290 553l-38 11l72 193l90 -18z" />
    <glyph glyph-name="uni1F18" unicode="&#x1f18;" horiz-adv-x="510" 
d="M66 0v651h415v-69h-340v-200h242v-69h-242v-244h353v-69h-428zM-84 466q12 17 20.5 37t8.5 37q0 21 -13 38t-51 25l23 65q50 -11 77.5 -35.5t27.5 -63.5q0 -23 -14 -55t-46 -62z" />
    <glyph glyph-name="uni1F19" unicode="&#x1f19;" horiz-adv-x="510" 
d="M66 0v651h415v-69h-340v-200h242v-69h-242v-244h353v-69h-428zM-63 450q-32 30 -46 62t-14 55q0 39 27.5 63.5t77.5 35.5l22 -65q-37 -8 -50 -25t-13 -38q0 -17 8.5 -37t20.5 -37z" />
    <glyph glyph-name="uni1F1A" unicode="&#x1f1a;" horiz-adv-x="510" 
d="M66 0v651h415v-69h-340v-200h242v-69h-242v-244h353v-69h-428zM-153 655l90 18l72 -193l-39 -11zM-259 477q12 17 20.5 36.5t8.5 37.5q0 20 -13 37t-51 25q1 1 4.5 11t7.5 21.5t7 21.5t3 11q51 -10 78.5 -35t27.5 -63q0 -23 -14 -55.5t-45 -61.5z" />
    <glyph glyph-name="uni1F1B" unicode="&#x1f1b;" horiz-adv-x="510" 
d="M66 0v651h415v-69h-340v-200h242v-69h-242v-244h353v-69h-428zM-158 656l91 18l72 -193l-39 -11zM-236 461q-32 30 -45.5 62t-13.5 55q0 39 27 63.5t78 35.5q1 -2 4.5 -11.5t7 -21t7 -21.5t3.5 -12q-37 -7 -50 -24t-13 -38q0 -17 8.5 -37t20.5 -37z" />
    <glyph glyph-name="uni1F1C" unicode="&#x1f1c;" horiz-adv-x="510" 
d="M66 0v651h415v-69h-340v-200h242v-69h-242v-244h353v-69h-428zM-261 475q12 17 20 37t8 37q0 21 -13 38t-50 25l22 65q51 -11 78.5 -35.5t27.5 -63.5q0 -23 -14 -55t-46 -62zM-115 462l-38 11l71 192l91 -17z" />
    <glyph glyph-name="uni1F1D" unicode="&#x1f1d;" horiz-adv-x="510" 
d="M66 0v651h415v-69h-340v-200h242v-69h-242v-244h353v-69h-428zM-230 463q-32 30 -46 62t-14 55q0 39 27.5 63.5t77.5 35.5q1 -2 4.5 -11.5t7.5 -21t7.5 -21.5t3.5 -11q-37 -8 -50 -25t-13 -38q0 -17 8 -37t20 -37zM-114 464l-38 11l72 193l90 -18z" />
    <glyph glyph-name="uni1F20" unicode="&#x1f20;" horiz-adv-x="486" 
d="M438 0h-72v293q0 69 -27 105.5t-88 36.5q-45 0 -77 -29.5t-43 -71.5q-5 -20 -5 -43v-291h-71v488h71v-69l2 -1q27 42 67 60.5t77 18.5q85 0 125.5 -49.5t40.5 -143.5v-304zM191 563q12 17 20.5 37t8.5 37q0 21 -13 38t-51 25l23 65q50 -11 77.5 -35.5t27.5 -63.5
q0 -23 -14 -55t-46 -62z" />
    <glyph glyph-name="uni1F21" unicode="&#x1f21;" horiz-adv-x="486" 
d="M438 0h-72v293q0 69 -27 105.5t-88 36.5q-45 0 -77 -29.5t-43 -71.5q-5 -20 -5 -43v-291h-71v488h71v-69l2 -1q27 42 67 60.5t77 18.5q85 0 125.5 -49.5t40.5 -143.5v-304zM230 549q-32 30 -46 62t-14 55q0 39 27.5 63.5t77.5 35.5l22 -65q-37 -8 -50 -25t-13 -38
q0 -17 8.5 -37t20.5 -37z" />
    <glyph glyph-name="uni1F22" unicode="&#x1f22;" horiz-adv-x="486" 
d="M438 0h-72v293q0 69 -27 105.5t-88 36.5q-45 0 -77 -29.5t-43 -71.5q-5 -20 -5 -43v-291h-71v488h71v-69l2 -1q27 42 67 60.5t77 18.5q85 0 125.5 -49.5t40.5 -143.5v-304zM216 743l90 18l72 -193l-39 -11zM110 565q12 17 20.5 36.5t8.5 37.5q0 20 -13 37t-51 25
q1 1 4.5 11t7.5 21.5t7 21.5t3 11q51 -10 78.5 -35t27.5 -63q0 -23 -14 -55.5t-45 -61.5z" />
    <glyph glyph-name="uni1F23" unicode="&#x1f23;" horiz-adv-x="486" 
d="M438 0h-72v293q0 69 -27 105.5t-88 36.5q-45 0 -77 -29.5t-43 -71.5q-5 -20 -5 -43v-291h-71v488h71v-69l2 -1q27 42 67 60.5t77 18.5q85 0 125.5 -49.5t40.5 -143.5v-304zM216 745l91 18l72 -193l-39 -11zM138 550q-32 30 -45.5 62t-13.5 55q0 39 27 63.5t78 35.5
q1 -2 4.5 -11.5t7 -21t7 -21.5t3.5 -12q-37 -7 -50 -24t-13 -38q0 -17 8.5 -37t20.5 -37z" />
    <glyph glyph-name="uni1F24" unicode="&#x1f24;" horiz-adv-x="486" 
d="M438 0h-72v293q0 69 -27 105.5t-88 36.5q-45 0 -77 -29.5t-43 -71.5q-5 -20 -5 -43v-291h-71v488h71v-69l2 -1q27 42 67 60.5t77 18.5q85 0 125.5 -49.5t40.5 -143.5v-304zM146 568q12 17 20 37t8 37q0 21 -13 38t-50 25l22 65q51 -11 78.5 -35.5t27.5 -63.5
q0 -23 -14 -55t-46 -62zM292 555l-38 11l71 192l91 -17z" />
    <glyph glyph-name="uni1F25" unicode="&#x1f25;" horiz-adv-x="486" 
d="M438 0h-72v293q0 69 -27 105.5t-88 36.5q-45 0 -77 -29.5t-43 -71.5q-5 -20 -5 -43v-291h-71v488h71v-69l2 -1q27 42 67 60.5t77 18.5q85 0 125.5 -49.5t40.5 -143.5v-304zM176 554q-32 30 -46 62t-14 55q0 39 27.5 63.5t77.5 35.5q1 -2 4.5 -11.5t7.5 -21t7.5 -21.5
t3.5 -11q-37 -8 -50 -25t-13 -38q0 -17 8 -37t20 -37zM292 555l-38 11l72 193l90 -18z" />
    <glyph glyph-name="uni1F26" unicode="&#x1f26;" horiz-adv-x="486" 
d="M438 0h-72v293q0 69 -27 105.5t-88 36.5q-45 0 -77 -29.5t-43 -71.5q-5 -20 -5 -43v-291h-71v488h71v-69l2 -1q27 42 67 60.5t77 18.5q85 0 125.5 -49.5t40.5 -143.5v-304zM219 570q14 17 21.5 28.5t7.5 22.5q0 14 -12 24.5t-47 15.5l19 50q50 -6 74 -25.5t24 -44.5
q0 -16 -13 -39t-48 -49zM409 795q-17 -42 -42.5 -59.5t-54.5 -17.5q-16 0 -32.5 6t-33.5 13.5t-33 14t-31 6.5q-17 0 -31 -7.5t-33 -31.5l-32 16q17 48 44.5 65.5t52.5 17.5q17 0 34.5 -6.5t34.5 -14.5t32.5 -14.5t29.5 -6.5q17 0 30 7.5t33 30.5z" />
    <glyph glyph-name="uni1F27" unicode="&#x1f27;" horiz-adv-x="486" 
d="M438 0h-72v293q0 69 -27 105.5t-88 36.5q-45 0 -77 -29.5t-43 -71.5q-5 -20 -5 -43v-291h-71v488h71v-69l2 -1q27 42 67 60.5t77 18.5q85 0 125.5 -49.5t40.5 -143.5v-304zM249 554q-39 20 -51.5 41t-12.5 37q0 25 23 47.5t76 27.5l13 -47q-29 -6 -41.5 -16.5
t-12.5 -24.5q0 -11 7.5 -22t21.5 -25zM408 794q-17 -42 -42 -59.5t-54 -17.5q-16 0 -32.5 6t-33.5 13.5t-33 14t-31 6.5q-17 0 -31 -7t-33 -32l-32 16q17 48 44.5 65.5t52.5 17.5q16 0 33.5 -6.5t35 -14.5t33 -14.5t29.5 -6.5q17 0 30 7.5t33 30.5z" />
    <glyph glyph-name="uni1F28" unicode="&#x1f28;" horiz-adv-x="622" 
d="M480 0v305h-339v-305h-76v651h76v-276h339v276h76v-651h-76zM-80 463q12 17 20.5 37t8.5 37q0 21 -13 38t-51 25l23 65q50 -11 77.5 -35.5t27.5 -63.5q0 -23 -14 -55t-46 -62z" />
    <glyph glyph-name="uni1F29" unicode="&#x1f29;" horiz-adv-x="622" 
d="M480 0v305h-339v-305h-76v651h76v-276h339v276h76v-651h-76zM-64 453q-32 30 -46 62t-14 55q0 39 27.5 63.5t77.5 35.5l22 -65q-37 -8 -50 -25t-13 -38q0 -17 8.5 -37t20.5 -37z" />
    <glyph glyph-name="uni1F2A" unicode="&#x1f2a;" horiz-adv-x="622" 
d="M480 0v305h-339v-305h-76v651h76v-276h339v276h76v-651h-76zM-153 649l90 18l72 -193l-39 -11zM-259 471q12 17 20.5 36.5t8.5 37.5q0 20 -13 37t-51 25q1 1 4.5 11t7.5 21.5t7 21.5t3 11q51 -10 78.5 -35t27.5 -63q0 -23 -14 -55.5t-45 -61.5z" />
    <glyph glyph-name="uni1F2B" unicode="&#x1f2b;" horiz-adv-x="622" 
d="M480 0v305h-339v-305h-76v651h76v-276h339v276h76v-651h-76zM-158 649l91 18l72 -193l-39 -11zM-236 454q-32 30 -45.5 62t-13.5 55q0 39 27 63.5t78 35.5q1 -2 4.5 -11.5t7 -21t7 -21.5t3.5 -12q-37 -7 -50 -24t-13 -38q0 -17 8.5 -37t20.5 -37z" />
    <glyph glyph-name="uni1F2C" unicode="&#x1f2c;" horiz-adv-x="622" 
d="M480 0v305h-339v-305h-76v651h76v-276h339v276h76v-651h-76zM-263 470q12 17 20 37t8 37q0 21 -13 38t-50 25l22 65q51 -11 78.5 -35.5t27.5 -63.5q0 -23 -14 -55t-46 -62zM-117 457l-38 11l71 192l91 -17z" />
    <glyph glyph-name="uni1F2D" unicode="&#x1f2d;" horiz-adv-x="622" 
d="M480 0v305h-339v-305h-76v651h76v-276h339v276h76v-651h-76zM-231 457q-32 30 -46 62t-14 55q0 39 27.5 63.5t77.5 35.5q1 -2 4.5 -11.5t7.5 -21t7.5 -21.5t3.5 -11q-37 -8 -50 -25t-13 -38q0 -17 8 -37t20 -37zM-115 458l-38 11l72 193l90 -18z" />
    <glyph glyph-name="uni1F2E" unicode="&#x1f2e;" horiz-adv-x="622" 
d="M480 0v305h-339v-305h-76v651h76v-276h339v276h76v-651h-76zM-171 448q14 17 21.5 28.5t7.5 22.5q0 14 -12 24.5t-47 15.5l19 50q50 -6 74 -25.5t24 -44.5q0 -16 -13 -39t-48 -49zM19 673q-17 -42 -42.5 -59.5t-54.5 -17.5q-16 0 -32.5 6t-33.5 13.5t-33 14t-31 6.5
q-17 0 -31 -7.5t-33 -31.5l-32 16q17 48 44.5 65.5t52.5 17.5q17 0 34.5 -6.5t34.5 -14.5t32.5 -14.5t29.5 -6.5q17 0 30 7.5t33 30.5z" />
    <glyph glyph-name="uni1F2F" unicode="&#x1f2f;" horiz-adv-x="622" 
d="M480 0v305h-339v-305h-76v651h76v-276h339v276h76v-651h-76zM-136 431q-39 20 -51.5 41t-12.5 37q0 25 23 47.5t76 27.5l13 -47q-29 -6 -41.5 -16.5t-12.5 -24.5q0 -11 7.5 -22t21.5 -25zM23 671q-17 -42 -42 -59.5t-54 -17.5q-16 0 -32.5 6t-33.5 13.5t-33 14t-31 6.5
q-17 0 -31 -7t-33 -32l-32 16q17 48 44.5 65.5t52.5 17.5q16 0 33.5 -6.5t35 -14.5t33 -14.5t29.5 -6.5q17 0 30 7.5t33 30.5z" />
    <glyph glyph-name="uni1F30" unicode="&#x1f30;" horiz-adv-x="233" 
d="M80 0v487h72v-487h-72zM89 563q12 17 20.5 37t8.5 37q0 21 -13 38t-51 25l23 65q50 -11 77.5 -35.5t27.5 -63.5q0 -23 -14 -55t-46 -62z" />
    <glyph glyph-name="uni1F31" unicode="&#x1f31;" horiz-adv-x="233" 
d="M80 0v487h72v-487h-72zM118 549q-32 30 -46 62t-14 55q0 39 27.5 63.5t77.5 35.5l22 -65q-37 -8 -50 -25t-13 -38q0 -17 8.5 -37t20.5 -37z" />
    <glyph glyph-name="uni1F32" unicode="&#x1f32;" horiz-adv-x="233" 
d="M80 0v487h72v-487h-72zM97 743l90 18l72 -193l-39 -11zM-9 565q12 17 20.5 36.5t8.5 37.5q0 20 -13 37t-51 25q1 1 4.5 11t7.5 21.5t7 21.5t3 11q51 -10 78.5 -35t27.5 -63q0 -23 -14 -55.5t-45 -61.5z" />
    <glyph glyph-name="uni1F33" unicode="&#x1f33;" horiz-adv-x="233" 
d="M80 0v487h72v-487h-72zM99 745l91 18l72 -193l-39 -11zM21 550q-32 30 -45.5 62t-13.5 55q0 39 27 63.5t78 35.5q1 -2 4.5 -11.5t7 -21t7 -21.5t3.5 -12q-37 -7 -50 -24t-13 -38q0 -17 8.5 -37t20.5 -37z" />
    <glyph glyph-name="uni1F34" unicode="&#x1f34;" horiz-adv-x="233" 
d="M80 0v487h72v-487h-72zM30 568q12 17 20 37t8 37q0 21 -13 38t-50 25l22 65q51 -11 78.5 -35.5t27.5 -63.5q0 -23 -14 -55t-46 -62zM176 555l-38 11l71 192l91 -17z" />
    <glyph glyph-name="uni1F35" unicode="&#x1f35;" horiz-adv-x="233" 
d="M80 0v487h72v-487h-72zM60 555q-32 30 -46 62t-14 55q0 39 27.5 63.5t77.5 35.5q1 -2 4.5 -11.5t7.5 -21t7.5 -21.5t3.5 -11q-37 -8 -50 -25t-13 -38q0 -17 8 -37t20 -37zM176 556l-38 11l72 193l90 -18z" />
    <glyph glyph-name="uni1F36" unicode="&#x1f36;" horiz-adv-x="233" 
d="M80 0v487h72v-487h-72zM96 569q14 17 21.5 28.5t7.5 22.5q0 14 -12 24.5t-47 15.5l19 50q50 -6 74 -25.5t24 -44.5q0 -16 -13 -39t-48 -49zM286 794q-17 -42 -42.5 -59.5t-54.5 -17.5q-16 0 -32.5 6t-33.5 13.5t-33 14t-31 6.5q-17 0 -31 -7.5t-33 -31.5l-32 16
q17 48 44.5 65.5t52.5 17.5q17 0 34.5 -6.5t34.5 -14.5t32.5 -14.5t29.5 -6.5q17 0 30 7.5t33 30.5z" />
    <glyph glyph-name="uni1F37" unicode="&#x1f37;" horiz-adv-x="233" 
d="M80 0v487h72v-487h-72zM127 553q-39 20 -51.5 41t-12.5 37q0 25 23 47.5t76 27.5l13 -47q-29 -6 -41.5 -16.5t-12.5 -24.5q0 -11 7.5 -22t21.5 -25zM286 793q-17 -42 -42 -59.5t-54 -17.5q-16 0 -32.5 6t-33.5 13.5t-33 14t-31 6.5q-17 0 -31 -7t-33 -32l-32 16
q17 48 44.5 65.5t52.5 17.5q16 0 33.5 -6.5t35 -14.5t33 -14.5t29.5 -6.5q17 0 30 7.5t33 30.5z" />
    <glyph glyph-name="uni1F38" unicode="&#x1f38;" horiz-adv-x="243" 
d="M83 0v651h77v-651h-77zM-87 468q12 17 20.5 37t8.5 37q0 21 -13 38t-51 25l23 65q50 -11 77.5 -35.5t27.5 -63.5q0 -23 -14 -55t-46 -62z" />
    <glyph glyph-name="uni1F39" unicode="&#x1f39;" horiz-adv-x="243" 
d="M83 0v651h77v-651h-77zM-56 449q-32 30 -46 62t-14 55q0 39 27.5 63.5t77.5 35.5l22 -65q-37 -8 -50 -25t-13 -38q0 -17 8.5 -37t20.5 -37z" />
    <glyph glyph-name="uni1F3A" unicode="&#x1f3a;" horiz-adv-x="243" 
d="M83 0v651h77v-651h-77zM-146 648l90 18l72 -193l-39 -11zM-252 470q12 17 20.5 36.5t8.5 37.5q0 20 -13 37t-51 25q1 1 4.5 11t7.5 21.5t7 21.5t3 11q51 -10 78.5 -35t27.5 -63q0 -23 -14 -55.5t-45 -61.5z" />
    <glyph glyph-name="uni1F3B" unicode="&#x1f3b;" horiz-adv-x="243" 
d="M83 0v651h77v-651h-77zM-152 648l91 18l72 -193l-39 -11zM-230 453q-32 30 -45.5 62t-13.5 55q0 39 27 63.5t78 35.5q1 -2 4.5 -11.5t7 -21t7 -21.5t3.5 -12q-37 -7 -50 -24t-13 -38q0 -17 8.5 -37t20.5 -37z" />
    <glyph glyph-name="uni1F3C" unicode="&#x1f3c;" horiz-adv-x="243" 
d="M83 0v651h77v-651h-77zM-259 469q12 17 20 37t8 37q0 21 -13 38t-50 25l22 65q51 -11 78.5 -35.5t27.5 -63.5q0 -23 -14 -55t-46 -62zM-113 456l-38 11l71 192l91 -17z" />
    <glyph glyph-name="uni1F3D" unicode="&#x1f3d;" horiz-adv-x="243" 
d="M83 0v651h77v-651h-77zM-221 452q-32 30 -46 62t-14 55q0 39 27.5 63.5t77.5 35.5q1 -2 4.5 -11.5t7.5 -21t7.5 -21.5t3.5 -11q-37 -8 -50 -25t-13 -38q0 -17 8 -37t20 -37zM-105 453l-38 11l72 193l90 -18z" />
    <glyph glyph-name="uni1F3E" unicode="&#x1f3e;" horiz-adv-x="243" 
d="M83 0v651h77v-651h-77zM-142 456q14 17 21.5 28.5t7.5 22.5q0 14 -12 24.5t-47 15.5l19 50q50 -6 74 -25.5t24 -44.5q0 -16 -13 -39t-48 -49zM48 681q-17 -42 -42.5 -59.5t-54.5 -17.5q-16 0 -32.5 6t-33.5 13.5t-33 14t-31 6.5q-17 0 -31 -7.5t-33 -31.5l-32 16
q17 48 44.5 65.5t52.5 17.5q17 0 34.5 -6.5t34.5 -14.5t32.5 -14.5t29.5 -6.5q17 0 30 7.5t33 30.5z" />
    <glyph glyph-name="uni1F3F" unicode="&#x1f3f;" horiz-adv-x="243" 
d="M83 0v651h77v-651h-77zM-122 442q-39 20 -51.5 41t-12.5 37q0 25 23 47.5t76 27.5l13 -47q-29 -6 -41.5 -16.5t-12.5 -24.5q0 -11 7.5 -22t21.5 -25zM37 682q-17 -42 -42 -59.5t-54 -17.5q-16 0 -32.5 6t-33.5 13.5t-33 14t-31 6.5q-17 0 -31 -7t-33 -32l-32 16
q17 48 44.5 65.5t52.5 17.5q16 0 33.5 -6.5t35 -14.5t33 -14.5t29.5 -6.5q17 0 30 7.5t33 30.5z" />
    <glyph glyph-name="uni1F48" unicode="&#x1f48;" horiz-adv-x="635" 
d="M589 326q0 -76 -19.5 -138t-55 -106t-85.5 -68t-112 -24q-65 0 -115 25t-85 69.5t-53 106t-18 134.5q0 72 18.5 133.5t53 106.5t85 70.5t114.5 25.5q62 0 112 -24t85.5 -68.5t55 -106t19.5 -136.5zM511 325q0 57 -12 106t-36.5 85t-61 56t-84.5 20t-84.5 -20t-60.5 -55.5
t-36.5 -84t-12.5 -106.5q0 -55 12 -103.5t36.5 -85t61 -57.5t84.5 -21q49 0 85.5 21.5t60.5 57.5t36 84.5t12 102.5zM-77 464q12 17 20.5 37t8.5 37q0 21 -13 38t-51 25l23 65q50 -11 77.5 -35.5t27.5 -63.5q0 -23 -14 -55t-46 -62z" />
    <glyph glyph-name="uni1F49" unicode="&#x1f49;" horiz-adv-x="635" 
d="M589 326q0 -76 -19.5 -138t-55 -106t-85.5 -68t-112 -24q-65 0 -115 25t-85 69.5t-53 106t-18 134.5q0 72 18.5 133.5t53 106.5t85 70.5t114.5 25.5q62 0 112 -24t85.5 -68.5t55 -106t19.5 -136.5zM511 325q0 57 -12 106t-36.5 85t-61 56t-84.5 20t-84.5 -20t-60.5 -55.5
t-36.5 -84t-12.5 -106.5q0 -55 12 -103.5t36.5 -85t61 -57.5t84.5 -21q49 0 85.5 21.5t60.5 57.5t36 84.5t12 102.5zM-58 452q-32 30 -46 62t-14 55q0 39 27.5 63.5t77.5 35.5l22 -65q-37 -8 -50 -25t-13 -38q0 -17 8.5 -37t20.5 -37z" />
    <glyph glyph-name="uni1F4A" unicode="&#x1f4a;" horiz-adv-x="635" 
d="M589 326q0 -76 -19.5 -138t-55 -106t-85.5 -68t-112 -24q-65 0 -115 25t-85 69.5t-53 106t-18 134.5q0 72 18.5 133.5t53 106.5t85 70.5t114.5 25.5q62 0 112 -24t85.5 -68.5t55 -106t19.5 -136.5zM511 325q0 57 -12 106t-36.5 85t-61 56t-84.5 20t-84.5 -20t-60.5 -55.5
t-36.5 -84t-12.5 -106.5q0 -55 12 -103.5t36.5 -85t61 -57.5t84.5 -21q49 0 85.5 21.5t60.5 57.5t36 84.5t12 102.5zM-142 649l90 18l72 -193l-39 -11zM-248 471q12 17 20.5 36.5t8.5 37.5q0 20 -13 37t-51 25q1 1 4.5 11t7.5 21.5t7 21.5t3 11q51 -10 78.5 -35t27.5 -63
q0 -23 -14 -55.5t-45 -61.5z" />
    <glyph glyph-name="uni1F4B" unicode="&#x1f4b;" horiz-adv-x="635" 
d="M589 326q0 -76 -19.5 -138t-55 -106t-85.5 -68t-112 -24q-65 0 -115 25t-85 69.5t-53 106t-18 134.5q0 72 18.5 133.5t53 106.5t85 70.5t114.5 25.5q62 0 112 -24t85.5 -68.5t55 -106t19.5 -136.5zM511 325q0 57 -12 106t-36.5 85t-61 56t-84.5 20t-84.5 -20t-60.5 -55.5
t-36.5 -84t-12.5 -106.5q0 -55 12 -103.5t36.5 -85t61 -57.5t84.5 -21q49 0 85.5 21.5t60.5 57.5t36 84.5t12 102.5zM-145 650l91 18l72 -193l-39 -11zM-223 455q-32 30 -45.5 62t-13.5 55q0 39 27 63.5t78 35.5q1 -2 4.5 -11.5t7 -21t7 -21.5t3.5 -12q-37 -7 -50 -24
t-13 -38q0 -17 8.5 -37t20.5 -37z" />
    <glyph glyph-name="uni1F4C" unicode="&#x1f4c;" horiz-adv-x="635" 
d="M589 326q0 -76 -19.5 -138t-55 -106t-85.5 -68t-112 -24q-65 0 -115 25t-85 69.5t-53 106t-18 134.5q0 72 18.5 133.5t53 106.5t85 70.5t114.5 25.5q62 0 112 -24t85.5 -68.5t55 -106t19.5 -136.5zM511 325q0 57 -12 106t-36.5 85t-61 56t-84.5 20t-84.5 -20t-60.5 -55.5
t-36.5 -84t-12.5 -106.5q0 -55 12 -103.5t36.5 -85t61 -57.5t84.5 -21q49 0 85.5 21.5t60.5 57.5t36 84.5t12 102.5zM-201 475q12 17 20 37t8 37q0 21 -13 38t-50 25l22 65q51 -11 78.5 -35.5t27.5 -63.5q0 -23 -14 -55t-46 -62zM-55 462l-38 11l71 192l91 -17z" />
    <glyph glyph-name="uni1F4D" unicode="&#x1f4d;" horiz-adv-x="635" 
d="M589 326q0 -76 -19.5 -138t-55 -106t-85.5 -68t-112 -24q-65 0 -115 25t-85 69.5t-53 106t-18 134.5q0 72 18.5 133.5t53 106.5t85 70.5t114.5 25.5q62 0 112 -24t85.5 -68.5t55 -106t19.5 -136.5zM511 325q0 57 -12 106t-36.5 85t-61 56t-84.5 20t-84.5 -20t-60.5 -55.5
t-36.5 -84t-12.5 -106.5q0 -55 12 -103.5t36.5 -85t61 -57.5t84.5 -21q49 0 85.5 21.5t60.5 57.5t36 84.5t12 102.5zM-180 461q-32 30 -46 62t-14 55q0 39 27.5 63.5t77.5 35.5q1 -2 4.5 -11.5t7.5 -21t7.5 -21.5t3.5 -11q-37 -8 -50 -25t-13 -38q0 -17 8 -37t20 -37z
M-64 462l-38 11l72 193l90 -18z" />
    <glyph glyph-name="uni1F50" unicode="&#x1f50;" horiz-adv-x="491" 
d="M444 210q0 -113 -50 -166.5t-145 -53.5t-147 53.5t-52 166.5v279h73v-275q0 -81 28.5 -122.5t95.5 -41.5q72 0 98.5 42t26.5 122v275h72v-279zM226 563q12 17 20.5 37t8.5 37q0 21 -13 38t-51 25l23 65q50 -11 77.5 -35.5t27.5 -63.5q0 -23 -14 -55t-46 -62z" />
    <glyph glyph-name="uni1F51" unicode="&#x1f51;" horiz-adv-x="491" 
d="M444 210q0 -113 -50 -166.5t-145 -53.5t-147 53.5t-52 166.5v279h73v-275q0 -81 28.5 -122.5t95.5 -41.5q72 0 98.5 42t26.5 122v275h72v-279zM254 549q-32 30 -46 62t-14 55q0 39 27.5 63.5t77.5 35.5l22 -65q-37 -8 -50 -25t-13 -38q0 -17 8.5 -37t20.5 -37z" />
    <glyph glyph-name="uni1F52" unicode="&#x1f52;" horiz-adv-x="491" 
d="M444 210q0 -113 -50 -166.5t-145 -53.5t-147 53.5t-52 166.5v279h73v-275q0 -81 28.5 -122.5t95.5 -41.5q72 0 98.5 42t26.5 122v275h72v-279zM222 743l90 18l72 -193l-39 -11zM116 565q12 17 20.5 36.5t8.5 37.5q0 20 -13 37t-51 25q1 1 4.5 11t7.5 21.5t7 21.5t3 11
q51 -10 78.5 -35t27.5 -63q0 -23 -14 -55.5t-45 -61.5z" />
    <glyph glyph-name="uni1F53" unicode="&#x1f53;" horiz-adv-x="491" 
d="M444 210q0 -113 -50 -166.5t-145 -53.5t-147 53.5t-52 166.5v279h73v-275q0 -81 28.5 -122.5t95.5 -41.5q72 0 98.5 42t26.5 122v275h72v-279zM224 743l91 18l72 -193l-39 -11zM146 548q-32 30 -45.5 62t-13.5 55q0 39 27 63.5t78 35.5q1 -2 4.5 -11.5t7 -21t7 -21.5
t3.5 -12q-37 -7 -50 -24t-13 -38q0 -17 8.5 -37t20.5 -37z" />
    <glyph glyph-name="uni1F54" unicode="&#x1f54;" horiz-adv-x="491" 
d="M444 210q0 -113 -50 -166.5t-145 -53.5t-147 53.5t-52 166.5v279h73v-275q0 -81 28.5 -122.5t95.5 -41.5q72 0 98.5 42t26.5 122v275h72v-279zM155 568q12 17 20 37t8 37q0 21 -13 38t-50 25l22 65q51 -11 78.5 -35.5t27.5 -63.5q0 -23 -14 -55t-46 -62zM301 555l-38 11
l71 192l91 -17z" />
    <glyph glyph-name="uni1F55" unicode="&#x1f55;" horiz-adv-x="491" 
d="M444 210q0 -113 -50 -166.5t-145 -53.5t-147 53.5t-52 166.5v279h73v-275q0 -81 28.5 -122.5t95.5 -41.5q72 0 98.5 42t26.5 122v275h72v-279zM196 554q-32 30 -46 62t-14 55q0 39 27.5 63.5t77.5 35.5q1 -2 4.5 -11.5t7.5 -21t7.5 -21.5t3.5 -11q-37 -8 -50 -25t-13 -38
q0 -17 8 -37t20 -37zM312 555l-38 11l72 193l90 -18z" />
    <glyph glyph-name="uni1F56" unicode="&#x1f56;" horiz-adv-x="491" 
d="M444 210q0 -113 -50 -166.5t-145 -53.5t-147 53.5t-52 166.5v279h73v-275q0 -81 28.5 -122.5t95.5 -41.5q72 0 98.5 42t26.5 122v275h72v-279zM215 570q14 17 21.5 28.5t7.5 22.5q0 14 -12 24.5t-47 15.5l19 50q50 -6 74 -25.5t24 -44.5q0 -16 -13 -39t-48 -49zM405 795
q-17 -42 -42.5 -59.5t-54.5 -17.5q-16 0 -32.5 6t-33.5 13.5t-33 14t-31 6.5q-17 0 -31 -7.5t-33 -31.5l-32 16q17 48 44.5 65.5t52.5 17.5q17 0 34.5 -6.5t34.5 -14.5t32.5 -14.5t29.5 -6.5q17 0 30 7.5t33 30.5z" />
    <glyph glyph-name="uni1F57" unicode="&#x1f57;" horiz-adv-x="491" 
d="M444 210q0 -113 -50 -166.5t-145 -53.5t-147 53.5t-52 166.5v279h73v-275q0 -81 28.5 -122.5t95.5 -41.5q72 0 98.5 42t26.5 122v275h72v-279zM250 556q-39 20 -51.5 41t-12.5 37q0 25 23 47.5t76 27.5l13 -47q-29 -6 -41.5 -16.5t-12.5 -24.5q0 -11 7.5 -22t21.5 -25z
M409 796q-17 -42 -42 -59.5t-54 -17.5q-16 0 -32.5 6t-33.5 13.5t-33 14t-31 6.5q-17 0 -31 -7t-33 -32l-32 16q17 48 44.5 65.5t52.5 17.5q16 0 33.5 -6.5t35 -14.5t33 -14.5t29.5 -6.5q17 0 30 7.5t33 30.5z" />
    <glyph glyph-name="uni1F59" unicode="&#x1f59;" horiz-adv-x="560" 
d="M317 231v-231h-75v231l-234 420h86l186 -351l187 351h84zM-86 449q-32 30 -46 62t-14 55q0 39 27.5 63.5t77.5 35.5l22 -65q-37 -8 -50 -25t-13 -38q0 -17 8.5 -37t20.5 -37z" />
    <glyph glyph-name="uni1F5B" unicode="&#x1f5b;" horiz-adv-x="560" 
d="M317 231v-231h-75v231l-234 420h86l186 -351l187 351h84zM-164 649l91 18l72 -193l-39 -11zM-242 454q-32 30 -45.5 62t-13.5 55q0 39 27 63.5t78 35.5q1 -2 4.5 -11.5t7 -21t7 -21.5t3.5 -12q-37 -7 -50 -24t-13 -38q0 -17 8.5 -37t20.5 -37z" />
    <glyph glyph-name="uni1F5D" unicode="&#x1f5d;" horiz-adv-x="560" 
d="M317 231v-231h-75v231l-234 420h86l186 -351l187 351h84zM-250 458q-32 30 -46 62t-14 55q0 39 27.5 63.5t77.5 35.5q1 -2 4.5 -11.5t7.5 -21t7.5 -21.5t3.5 -11q-37 -8 -50 -25t-13 -38q0 -17 8 -37t20 -37zM-134 459l-38 11l72 193l90 -18z" />
    <glyph glyph-name="uni1F5F" unicode="&#x1f5f;" horiz-adv-x="560" 
d="M317 231v-231h-75v231l-234 420h86l186 -351l187 351h84zM-171 441q-39 20 -51.5 41t-12.5 37q0 25 23 47.5t76 27.5l13 -47q-29 -6 -41.5 -16.5t-12.5 -24.5q0 -11 7.5 -22t21.5 -25zM-12 681q-17 -42 -42 -59.5t-54 -17.5q-16 0 -32.5 6t-33.5 13.5t-33 14t-31 6.5
q-17 0 -31 -7t-33 -32l-32 16q17 48 44.5 65.5t52.5 17.5q16 0 33.5 -6.5t35 -14.5t33 -14.5t29.5 -6.5q17 0 30 7.5t33 30.5z" />
    <glyph glyph-name="uni1F60" unicode="&#x1f60;" horiz-adv-x="738" 
d="M500 -9q-38 0 -73.5 18.5t-57.5 61.5h-1q-25 -42 -59 -61t-73 -19q-41 0 -75.5 15.5t-60.5 46.5t-40.5 78.5t-14.5 111.5q0 44 12.5 85t34.5 75t52.5 57.5t66.5 32.5l24 -58q-30 -9 -52 -29t-37 -46.5t-22.5 -56.5t-7.5 -60q0 -91 33 -141t90 -50q24 0 42.5 10t31 27
t18.5 39.5t6 47.5v129h66v-129q0 -26 5.5 -48.5t17.5 -39t30 -26.5t42 -10q60 0 91.5 48t31.5 140q0 30 -7.5 60.5t-22.5 56.5t-37 46.5t-50 30.5l24 58q38 -11 68.5 -35.5t51.5 -58.5t32.5 -75t11.5 -83q0 -63 -14.5 -110t-40.5 -78t-61 -46t-76 -15zM342 563
q12 17 20.5 37t8.5 37q0 21 -13 38t-51 25l23 65q50 -11 77.5 -35.5t27.5 -63.5q0 -23 -14 -55t-46 -62z" />
    <glyph glyph-name="uni1F61" unicode="&#x1f61;" horiz-adv-x="738" 
d="M500 -9q-38 0 -73.5 18.5t-57.5 61.5h-1q-25 -42 -59 -61t-73 -19q-41 0 -75.5 15.5t-60.5 46.5t-40.5 78.5t-14.5 111.5q0 44 12.5 85t34.5 75t52.5 57.5t66.5 32.5l24 -58q-30 -9 -52 -29t-37 -46.5t-22.5 -56.5t-7.5 -60q0 -91 33 -141t90 -50q24 0 42.5 10t31 27
t18.5 39.5t6 47.5v129h66v-129q0 -26 5.5 -48.5t17.5 -39t30 -26.5t42 -10q60 0 91.5 48t31.5 140q0 30 -7.5 60.5t-22.5 56.5t-37 46.5t-50 30.5l24 58q38 -11 68.5 -35.5t51.5 -58.5t32.5 -75t11.5 -83q0 -63 -14.5 -110t-40.5 -78t-61 -46t-76 -15zM366 549
q-32 30 -46 62t-14 55q0 39 27.5 63.5t77.5 35.5l22 -65q-37 -8 -50 -25t-13 -38q0 -17 8.5 -37t20.5 -37z" />
    <glyph glyph-name="uni1F62" unicode="&#x1f62;" horiz-adv-x="738" 
d="M500 -9q-38 0 -73.5 18.5t-57.5 61.5h-1q-25 -42 -59 -61t-73 -19q-41 0 -75.5 15.5t-60.5 46.5t-40.5 78.5t-14.5 111.5q0 44 12.5 85t34.5 75t52.5 57.5t66.5 32.5l24 -58q-30 -9 -52 -29t-37 -46.5t-22.5 -56.5t-7.5 -60q0 -91 33 -141t90 -50q24 0 42.5 10t31 27
t18.5 39.5t6 47.5v129h66v-129q0 -26 5.5 -48.5t17.5 -39t30 -26.5t42 -10q60 0 91.5 48t31.5 140q0 30 -7.5 60.5t-22.5 56.5t-37 46.5t-50 30.5l24 58q38 -11 68.5 -35.5t51.5 -58.5t32.5 -75t11.5 -83q0 -63 -14.5 -110t-40.5 -78t-61 -46t-76 -15zM344 743l90 18
l72 -193l-39 -11zM238 565q12 17 20.5 36.5t8.5 37.5q0 20 -13 37t-51 25q1 1 4.5 11t7.5 21.5t7 21.5t3 11q51 -10 78.5 -35t27.5 -63q0 -23 -14 -55.5t-45 -61.5z" />
    <glyph glyph-name="uni1F63" unicode="&#x1f63;" horiz-adv-x="738" 
d="M500 -9q-38 0 -73.5 18.5t-57.5 61.5h-1q-25 -42 -59 -61t-73 -19q-41 0 -75.5 15.5t-60.5 46.5t-40.5 78.5t-14.5 111.5q0 44 12.5 85t34.5 75t52.5 57.5t66.5 32.5l24 -58q-30 -9 -52 -29t-37 -46.5t-22.5 -56.5t-7.5 -60q0 -91 33 -141t90 -50q24 0 42.5 10t31 27
t18.5 39.5t6 47.5v129h66v-129q0 -26 5.5 -48.5t17.5 -39t30 -26.5t42 -10q60 0 91.5 48t31.5 140q0 30 -7.5 60.5t-22.5 56.5t-37 46.5t-50 30.5l24 58q38 -11 68.5 -35.5t51.5 -58.5t32.5 -75t11.5 -83q0 -63 -14.5 -110t-40.5 -78t-61 -46t-76 -15zM335 743l91 18
l72 -193l-39 -11zM257 548q-32 30 -45.5 62t-13.5 55q0 39 27 63.5t78 35.5q1 -2 4.5 -11.5t7 -21t7 -21.5t3.5 -12q-37 -7 -50 -24t-13 -38q0 -17 8.5 -37t20.5 -37z" />
    <glyph glyph-name="uni1F64" unicode="&#x1f64;" horiz-adv-x="738" 
d="M500 -9q-38 0 -73.5 18.5t-57.5 61.5h-1q-25 -42 -59 -61t-73 -19q-41 0 -75.5 15.5t-60.5 46.5t-40.5 78.5t-14.5 111.5q0 44 12.5 85t34.5 75t52.5 57.5t66.5 32.5l24 -58q-30 -9 -52 -29t-37 -46.5t-22.5 -56.5t-7.5 -60q0 -91 33 -141t90 -50q24 0 42.5 10t31 27
t18.5 39.5t6 47.5v129h66v-129q0 -26 5.5 -48.5t17.5 -39t30 -26.5t42 -10q60 0 91.5 48t31.5 140q0 30 -7.5 60.5t-22.5 56.5t-37 46.5t-50 30.5l24 58q38 -11 68.5 -35.5t51.5 -58.5t32.5 -75t11.5 -83q0 -63 -14.5 -110t-40.5 -78t-61 -46t-76 -15zM289 567q12 17 20 37
t8 37q0 21 -13 38t-50 25l22 65q51 -11 78.5 -35.5t27.5 -63.5q0 -23 -14 -55t-46 -62zM435 554l-38 11l71 192l91 -17z" />
    <glyph glyph-name="uni1F65" unicode="&#x1f65;" horiz-adv-x="738" 
d="M500 -9q-38 0 -73.5 18.5t-57.5 61.5h-1q-25 -42 -59 -61t-73 -19q-41 0 -75.5 15.5t-60.5 46.5t-40.5 78.5t-14.5 111.5q0 44 12.5 85t34.5 75t52.5 57.5t66.5 32.5l24 -58q-30 -9 -52 -29t-37 -46.5t-22.5 -56.5t-7.5 -60q0 -91 33 -141t90 -50q24 0 42.5 10t31 27
t18.5 39.5t6 47.5v129h66v-129q0 -26 5.5 -48.5t17.5 -39t30 -26.5t42 -10q60 0 91.5 48t31.5 140q0 30 -7.5 60.5t-22.5 56.5t-37 46.5t-50 30.5l24 58q38 -11 68.5 -35.5t51.5 -58.5t32.5 -75t11.5 -83q0 -63 -14.5 -110t-40.5 -78t-61 -46t-76 -15zM318 555
q-32 30 -46 62t-14 55q0 39 27.5 63.5t77.5 35.5q1 -2 4.5 -11.5t7.5 -21t7.5 -21.5t3.5 -11q-37 -8 -50 -25t-13 -38q0 -17 8 -37t20 -37zM434 556l-38 11l72 193l90 -18z" />
    <glyph glyph-name="uni1F66" unicode="&#x1f66;" horiz-adv-x="738" 
d="M500 -9q-38 0 -73.5 18.5t-57.5 61.5h-1q-25 -42 -59 -61t-73 -19q-41 0 -75.5 15.5t-60.5 46.5t-40.5 78.5t-14.5 111.5q0 44 12.5 85t34.5 75t52.5 57.5t66.5 32.5l24 -58q-30 -9 -52 -29t-37 -46.5t-22.5 -56.5t-7.5 -60q0 -91 33 -141t90 -50q24 0 42.5 10t31 27
t18.5 39.5t6 47.5v129h66v-129q0 -26 5.5 -48.5t17.5 -39t30 -26.5t42 -10q60 0 91.5 48t31.5 140q0 30 -7.5 60.5t-22.5 56.5t-37 46.5t-50 30.5l24 58q38 -11 68.5 -35.5t51.5 -58.5t32.5 -75t11.5 -83q0 -63 -14.5 -110t-40.5 -78t-61 -46t-76 -15zM341 549
q14 17 21.5 28.5t7.5 22.5q0 14 -12 24.5t-47 15.5l19 50q50 -6 74 -25.5t24 -44.5q0 -16 -13 -39t-48 -49zM531 774q-17 -42 -42.5 -59.5t-54.5 -17.5q-16 0 -32.5 6t-33.5 13.5t-33 14t-31 6.5q-17 0 -31 -7.5t-33 -31.5l-32 16q17 48 44.5 65.5t52.5 17.5q17 0 34.5 -6.5
t34.5 -14.5t32.5 -14.5t29.5 -6.5q17 0 30 7.5t33 30.5z" />
    <glyph glyph-name="uni1F67" unicode="&#x1f67;" horiz-adv-x="738" 
d="M500 -9q-38 0 -73.5 18.5t-57.5 61.5h-1q-25 -42 -59 -61t-73 -19q-41 0 -75.5 15.5t-60.5 46.5t-40.5 78.5t-14.5 111.5q0 44 12.5 85t34.5 75t52.5 57.5t66.5 32.5l24 -58q-30 -9 -52 -29t-37 -46.5t-22.5 -56.5t-7.5 -60q0 -91 33 -141t90 -50q24 0 42.5 10t31 27
t18.5 39.5t6 47.5v129h66v-129q0 -26 5.5 -48.5t17.5 -39t30 -26.5t42 -10q60 0 91.5 48t31.5 140q0 30 -7.5 60.5t-22.5 56.5t-37 46.5t-50 30.5l24 58q38 -11 68.5 -35.5t51.5 -58.5t32.5 -75t11.5 -83q0 -63 -14.5 -110t-40.5 -78t-61 -46t-76 -15zM376 534
q-39 20 -51.5 41t-12.5 37q0 25 23 47.5t76 27.5l13 -47q-29 -6 -41.5 -16.5t-12.5 -24.5q0 -11 7.5 -22t21.5 -25zM535 774q-17 -42 -42 -59.5t-54 -17.5q-16 0 -32.5 6t-33.5 13.5t-33 14t-31 6.5q-17 0 -31 -7t-33 -32l-32 16q17 48 44.5 65.5t52.5 17.5q16 0 33.5 -6.5
t35 -14.5t33 -14.5t29.5 -6.5q17 0 30 7.5t33 30.5z" />
    <glyph glyph-name="uni1F68" unicode="&#x1f68;" horiz-adv-x="658" 
d="M383 0v84q37 12 63.5 35.5t43.5 56.5t25 74t8 87q0 55 -13 101.5t-38 80.5t-61.5 53.5t-83.5 19.5q-49 0 -86 -20t-62 -54.5t-37.5 -80.5t-12.5 -99q0 -45 8 -86t25 -74.5t44.5 -58t65.5 -35.5v-84h-225v65h129q-37 19 -60.5 50t-37 68t-19 76.5t-5.5 77.5q0 74 19.5 134
t55.5 102t86 65t112 23q61 0 111.5 -23t86.5 -65t56 -102t20 -133q0 -38 -5.5 -77.5t-19.5 -75.5t-38 -67.5t-61 -52.5h131v-65h-225zM-70 461q12 17 20.5 37t8.5 37q0 21 -13 38t-51 25l23 65q50 -11 77.5 -35.5t27.5 -63.5q0 -23 -14 -55t-46 -62z" />
    <glyph glyph-name="uni1F69" unicode="&#x1f69;" horiz-adv-x="658" 
d="M383 0v84q37 12 63.5 35.5t43.5 56.5t25 74t8 87q0 55 -13 101.5t-38 80.5t-61.5 53.5t-83.5 19.5q-49 0 -86 -20t-62 -54.5t-37.5 -80.5t-12.5 -99q0 -45 8 -86t25 -74.5t44.5 -58t65.5 -35.5v-84h-225v65h129q-37 19 -60.5 50t-37 68t-19 76.5t-5.5 77.5q0 74 19.5 134
t55.5 102t86 65t112 23q61 0 111.5 -23t86.5 -65t56 -102t20 -133q0 -38 -5.5 -77.5t-19.5 -75.5t-38 -67.5t-61 -52.5h131v-65h-225zM-46 450q-32 30 -46 62t-14 55q0 39 27.5 63.5t77.5 35.5l22 -65q-37 -8 -50 -25t-13 -38q0 -17 8.5 -37t20.5 -37z" />
    <glyph glyph-name="uni1F6A" unicode="&#x1f6a;" horiz-adv-x="658" 
d="M383 0v84q37 12 63.5 35.5t43.5 56.5t25 74t8 87q0 55 -13 101.5t-38 80.5t-61.5 53.5t-83.5 19.5q-49 0 -86 -20t-62 -54.5t-37.5 -80.5t-12.5 -99q0 -45 8 -86t25 -74.5t44.5 -58t65.5 -35.5v-84h-225v65h129q-37 19 -60.5 50t-37 68t-19 76.5t-5.5 77.5q0 74 19.5 134
t55.5 102t86 65t112 23q61 0 111.5 -23t86.5 -65t56 -102t20 -133q0 -38 -5.5 -77.5t-19.5 -75.5t-38 -67.5t-61 -52.5h131v-65h-225zM-129 651l90 18l72 -193l-39 -11zM-235 473q12 17 20.5 36.5t8.5 37.5q0 20 -13 37t-51 25q1 1 4.5 11t7.5 21.5t7 21.5t3 11
q51 -10 78.5 -35t27.5 -63q0 -23 -14 -55.5t-45 -61.5z" />
    <glyph glyph-name="uni1F6B" unicode="&#x1f6b;" horiz-adv-x="658" 
d="M383 0v84q37 12 63.5 35.5t43.5 56.5t25 74t8 87q0 55 -13 101.5t-38 80.5t-61.5 53.5t-83.5 19.5q-49 0 -86 -20t-62 -54.5t-37.5 -80.5t-12.5 -99q0 -45 8 -86t25 -74.5t44.5 -58t65.5 -35.5v-84h-225v65h129q-37 19 -60.5 50t-37 68t-19 76.5t-5.5 77.5q0 74 19.5 134
t55.5 102t86 65t112 23q61 0 111.5 -23t86.5 -65t56 -102t20 -133q0 -38 -5.5 -77.5t-19.5 -75.5t-38 -67.5t-61 -52.5h131v-65h-225zM-133 649l91 18l72 -193l-39 -11zM-211 454q-32 30 -45.5 62t-13.5 55q0 39 27 63.5t78 35.5q1 -2 4.5 -11.5t7 -21t7 -21.5t3.5 -12
q-37 -7 -50 -24t-13 -38q0 -17 8.5 -37t20.5 -37z" />
    <glyph glyph-name="uni1F6C" unicode="&#x1f6c;" horiz-adv-x="658" 
d="M383 0v84q37 12 63.5 35.5t43.5 56.5t25 74t8 87q0 55 -13 101.5t-38 80.5t-61.5 53.5t-83.5 19.5q-49 0 -86 -20t-62 -54.5t-37.5 -80.5t-12.5 -99q0 -45 8 -86t25 -74.5t44.5 -58t65.5 -35.5v-84h-225v65h129q-37 19 -60.5 50t-37 68t-19 76.5t-5.5 77.5q0 74 19.5 134
t55.5 102t86 65t112 23q61 0 111.5 -23t86.5 -65t56 -102t20 -133q0 -38 -5.5 -77.5t-19.5 -75.5t-38 -67.5t-61 -52.5h131v-65h-225zM-196 475q12 17 20 37t8 37q0 21 -13 38t-50 25l22 65q51 -11 78.5 -35.5t27.5 -63.5q0 -23 -14 -55t-46 -62zM-50 462l-38 11l71 192
l91 -17z" />
    <glyph glyph-name="uni1F6D" unicode="&#x1f6d;" horiz-adv-x="658" 
d="M383 0v84q37 12 63.5 35.5t43.5 56.5t25 74t8 87q0 55 -13 101.5t-38 80.5t-61.5 53.5t-83.5 19.5q-49 0 -86 -20t-62 -54.5t-37.5 -80.5t-12.5 -99q0 -45 8 -86t25 -74.5t44.5 -58t65.5 -35.5v-84h-225v65h129q-37 19 -60.5 50t-37 68t-19 76.5t-5.5 77.5q0 74 19.5 134
t55.5 102t86 65t112 23q61 0 111.5 -23t86.5 -65t56 -102t20 -133q0 -38 -5.5 -77.5t-19.5 -75.5t-38 -67.5t-61 -52.5h131v-65h-225zM-166 462q-32 30 -46 62t-14 55q0 39 27.5 63.5t77.5 35.5q1 -2 4.5 -11.5t7.5 -21t7.5 -21.5t3.5 -11q-37 -8 -50 -25t-13 -38
q0 -17 8 -37t20 -37zM-50 463l-38 11l72 193l90 -18z" />
    <glyph glyph-name="uni1F6E" unicode="&#x1f6e;" horiz-adv-x="658" 
d="M383 0v84q37 12 63.5 35.5t43.5 56.5t25 74t8 87q0 55 -13 101.5t-38 80.5t-61.5 53.5t-83.5 19.5q-49 0 -86 -20t-62 -54.5t-37.5 -80.5t-12.5 -99q0 -45 8 -86t25 -74.5t44.5 -58t65.5 -35.5v-84h-225v65h129q-37 19 -60.5 50t-37 68t-19 76.5t-5.5 77.5q0 74 19.5 134
t55.5 102t86 65t112 23q61 0 111.5 -23t86.5 -65t56 -102t20 -133q0 -38 -5.5 -77.5t-19.5 -75.5t-38 -67.5t-61 -52.5h131v-65h-225zM-102 448q14 17 21.5 28.5t7.5 22.5q0 14 -12 24.5t-47 15.5l19 50q50 -6 74 -25.5t24 -44.5q0 -16 -13 -39t-48 -49zM88 673
q-17 -42 -42.5 -59.5t-54.5 -17.5q-16 0 -32.5 6t-33.5 13.5t-33 14t-31 6.5q-17 0 -31 -7.5t-33 -31.5l-32 16q17 48 44.5 65.5t52.5 17.5q17 0 34.5 -6.5t34.5 -14.5t32.5 -14.5t29.5 -6.5q17 0 30 7.5t33 30.5z" />
    <glyph glyph-name="uni1F6F" unicode="&#x1f6f;" horiz-adv-x="658" 
d="M383 0v84q37 12 63.5 35.5t43.5 56.5t25 74t8 87q0 55 -13 101.5t-38 80.5t-61.5 53.5t-83.5 19.5q-49 0 -86 -20t-62 -54.5t-37.5 -80.5t-12.5 -99q0 -45 8 -86t25 -74.5t44.5 -58t65.5 -35.5v-84h-225v65h129q-37 19 -60.5 50t-37 68t-19 76.5t-5.5 77.5q0 74 19.5 134
t55.5 102t86 65t112 23q61 0 111.5 -23t86.5 -65t56 -102t20 -133q0 -38 -5.5 -77.5t-19.5 -75.5t-38 -67.5t-61 -52.5h131v-65h-225zM-64 433q-39 20 -51.5 41t-12.5 37q0 25 23 47.5t76 27.5l13 -47q-29 -6 -41.5 -16.5t-12.5 -24.5q0 -11 7.5 -22t21.5 -25zM95 673
q-17 -42 -42 -59.5t-54 -17.5q-16 0 -32.5 6t-33.5 13.5t-33 14t-31 6.5q-17 0 -31 -7t-33 -32l-32 16q17 48 44.5 65.5t52.5 17.5q16 0 33.5 -6.5t35 -14.5t33 -14.5t29.5 -6.5q17 0 30 7.5t33 30.5z" />
    <glyph glyph-name="uni1F70" unicode="&#x1f70;" horiz-adv-x="502" 
d="M45 242q0 64 16.5 111.5t43 79.5t60.5 48t69 16q33 0 69 -11t70 -46h2v48h68v-488h-58q0 3 -1.5 10.5t-3 15.5t-3 15t-1.5 11h-2q-67 -62 -146 -62q-83 0 -133 63.5t-50 188.5zM115 246q0 -94 32 -144t98 -50q19 0 37.5 6t35 16t30.5 22.5t24 24.5v245q-21 27 -53.5 49
t-73.5 22q-28 0 -51.5 -14t-41 -39.5t-27.5 -60.5t-10 -77zM132 743l91 18l71 -193l-38 -11z" />
    <glyph glyph-name="uni1F71" unicode="&#x1f71;" horiz-adv-x="502" 
d="M45 242q0 64 16.5 111.5t43 79.5t60.5 48t69 16q33 0 69 -11t70 -46h2v48h68v-488h-58q0 3 -1.5 10.5t-3 15.5t-3 15t-1.5 11h-2q-67 -62 -146 -62q-83 0 -133 63.5t-50 188.5zM115 246q0 -94 32 -144t98 -50q19 0 37.5 6t35 16t30.5 22.5t24 24.5v245q-21 27 -53.5 49
t-73.5 22q-28 0 -51.5 -14t-41 -39.5t-27.5 -60.5t-10 -77zM283 556l-39 11l72 193l91 -18z" />
    </font>
</defs>
</svg>
