<?xml version="1.0" standalone="no"?>
<!DOCTYPE svg PUBLIC "-//W3C//DTD SVG 1.1//EN" "http://www.w3.org/Graphics/SVG/1.1/DTD/svg11.dtd" >
<svg xmlns="http://www.w3.org/2000/svg" xmlns:xlink="http://www.w3.org/1999/xlink" version="1.1">
<metadata>
Created by FontForge 20190801 at Fri Apr 13 15:20:31 2007
 By Jimmy Wärting
Copyright (c) 2001, 2005 Parachute :, www.parachute.gr.  All rights reserved.
</metadata>
<defs>
<font id="PFHighwaySansPro-Bold" horiz-adv-x="1818" >
  <font-face 
    font-family="PF Highway Sans Pro"
    font-weight="700"
    font-stretch="normal"
    units-per-em="1000"
    panose-1="2 0 8 0 0 0 0 2 0 4"
    ascent="750"
    descent="-250"
    x-height="488"
    cap-height="651"
    bbox="-415 -318 1760 913"
    underline-thickness="50"
    underline-position="-100"
    unicode-range="U+0020-FB05"
  />
<missing-glyph horiz-adv-x="455" 
d="M0 700h455v-700h-455v700zM332 83l-104 190l-105 -190h209zM332 617h-210l106 -189zM83 172l98 179l-98 179v-358zM371 172v358l-97 -181z" />
    <glyph glyph-name="fj" unicode="fj" horiz-adv-x="580" 
d="M524 -15q0 -108 -60.5 -156.5t-191.5 -49.5l-10 126q34 6 55 13.5t32.5 20.5t15 31.5t3.5 45.5v361h-125v-377h-160v377h-61v111h61v70q0 42 15.5 74t42 53t62.5 31.5t78 10.5q47 0 93.5 -8.5t81.5 -22.5l-22 -121q-26 4 -54 8t-53 4q-42 0 -63 -15.5t-21 -52.5v-31h126
l155 27v-530z" />
    <glyph glyph-name="ffj" unicode="ffj" horiz-adv-x="866" 
d="M83 552q0 43 15.5 75t42.5 53t63 31.5t77 10.5q37 0 74.5 -5t69.5 -15q54 46 144 46q48 0 94 -8.5t81 -22.5q-1 -6 -4 -23.5t-6.5 -37t-7 -37t-4.5 -23.5q-26 4 -53.5 8t-53.5 4q-42 0 -63 -15.5t-21 -52.5v-52h124l155 27v-530q0 -108 -60.5 -156.5t-191.5 -49.5l-9 126
q34 6 54.5 13.5t32 20.5t15 31t3.5 45v362h-123v-377h-159v377h-130v-377h-159v377h-61v111h61v64zM372 578q-10 2 -22.5 2.5t-21.5 0.5q-45 0 -65.5 -16t-20.5 -59v-18h130v90z" />
    <glyph glyph-name="ff" unicode="ff" horiz-adv-x="659" 
d="M84 553q0 43 15.5 74.5t42 52.5t62.5 31.5t78 10.5q35 0 71 -5t67 -13q43 36 120 36q9 0 22.5 -0.5t27.5 -2t28 -3.5t24 -4l-6 -129q-12 1 -21 1.5t-19 0.5q-29 0 -47 -9.5t-18 -41.5v-64h99v-111h-99v-377h-159v377h-129v-377h-159v377h-61v111h61v65zM372 488v91
q-20 3 -39 3q-48 0 -69 -16t-21 -60v-18h129z" />
    <glyph glyph-name="fi" unicode="fi" horiz-adv-x="580" 
d="M368 0v377h-126v-377h-159v377h-61v111h61v70q0 42 15 74t42 53t63 31.5t78 10.5q47 0 93.5 -8.5t81.5 -22.5l-22 -121q-26 4 -54 8t-53 4q-42 0 -63.5 -15.5t-21.5 -52.5v-31h126l157 27v-515h-157z" />
    <glyph glyph-name="fl" unicode="fl" horiz-adv-x="579" 
d="M327 488v-111h-82v-377h-159v377h-59v111h59v56q0 43 15 74.5t42 52.5t63 31.5t78 10.5q28 0 56 -4t54 -9l136 33v-733h-158v568q-23 5 -43 5q-41 0 -62.5 -13.5t-21.5 -50.5v-21h82z" />
    <glyph glyph-name="ffi" unicode="ffi" horiz-adv-x="871" 
d="M282 721q38 0 76 -5.5t69 -15.5q27 23 65 34t84 11q45 0 90 -8.5t79 -22.5q-5 -30 -10.5 -60.5t-11.5 -60.5q-26 5 -54 8.5t-53 3.5q-42 0 -63 -15.5t-21 -51.5v-50h127l155 26v-514h-156v377h-126v-377h-159v377h-130v-377h-158v377h-62v111h62v54q0 45 14.5 79t40.5 56
t62 33t80 11zM373 488q0 23 0.5 44.5t0.5 44.5q-11 2 -22 3t-22 1q-45 0 -65.5 -16.5t-20.5 -58.5v-18h129z" />
    <glyph glyph-name="ffl" unicode="ffl" horiz-adv-x="861" 
d="M606 488v-111h-79v-377h-159v377h-121v-377h-159v377h-61v111h61v54q0 45 14.5 79t40.5 56t62 33t80 11q37 0 71 -5.5t65 -15.5q53 47 145 47q31 0 62 -4t59 -11l125 30v-762h-158v603q-11 2 -21.5 3t-20.5 1q-42 0 -63.5 -15.5t-21.5 -51.5v-52h79zM368 578
q-8 1 -16 1.5t-16 0.5q-45 0 -67 -15t-22 -59v-18h121v90z" />
    <glyph glyph-name="ft" unicode="ft" horiz-adv-x="700" 
d="M548 488h105v-111h-105v-177q0 -42 11.5 -57.5t48.5 -15.5q12 0 26 1t32 3l11 -124q-37 -10 -72.5 -14.5t-66.5 -4.5q-73 0 -110 36t-37 121v232h-144v-377h-159v377h-62v111h62v72q0 75 45 113.5t123 38.5q20 0 50.5 -2t51.5 -7l-6 -130q-10 1 -20 1.5t-20 0.5
q-26 0 -45.5 -8t-19.5 -37v-42h146v108q3 1 26.5 9.5t51 18t51 18t26.5 10.5v-164z" />
    <glyph glyph-name=".notdef" horiz-adv-x="455" 
d="M0 700h455v-700h-455v700zM332 83l-104 190l-105 -190h209zM332 617h-210l106 -189zM83 172l98 179l-98 179v-358zM371 172v358l-97 -181z" />
    <glyph glyph-name="exclam" unicode="!" horiz-adv-x="321" 
d="M109 217l-22 236v199h161v-198l-23 -237h-116zM166 -11q-36 0 -61 25t-25 62q0 24 8.5 40.5t21.5 27t28.5 15.5t29.5 5q38 0 60.5 -26t22.5 -61q0 -37 -24.5 -62.5t-60.5 -25.5z" />
    <glyph glyph-name="quotedbl" unicode="&#x22;" horiz-adv-x="472" 
d="M88 386l-23 266h155l-23 -266h-109zM276 386l-23 266h155l-23 -266h-109z" />
    <glyph glyph-name="numbersign" unicode="#" horiz-adv-x="650" 
d="M518 398l-26 -143h106l-19 -114h-107l-26 -141h-127l25 141h-103l-25 -141h-128l25 141h-105l20 114h106l26 143h-107l21 114h106l25 139h127l-25 -139h104l24 139h128l-24 -139h106l-21 -114h-106zM257 250h111l27 154h-111z" />
    <glyph glyph-name="dollar" unicode="$" horiz-adv-x="650" 
d="M261 -91v97q-55 9 -103.5 32t-82.5 58l87 111q40 -35 84.5 -51.5t80.5 -16.5q44 0 65 16t21 40q0 23 -22.5 36.5t-83.5 30.5q-50 14 -89 29.5t-66.5 38t-42 53.5t-14.5 76q0 39 12.5 70.5t35 54.5t53 38.5t65.5 23.5v97h119v-94q103 -14 175 -78l-83 -114q-41 33 -80 47
t-73 14q-36 0 -51.5 -15t-15.5 -35q0 -26 28.5 -38t70.5 -25q34 -10 73 -22.5t72 -35t55 -57t22 -88.5q0 -44 -14.5 -78.5t-40 -59t-61 -39t-77.5 -20.5v-96h-119z" />
    <glyph glyph-name="ampersand" unicode="&#x26;" horiz-adv-x="778" 
d="M555 402q44 0 94.5 -7t89.5 -18q-6 -26 -11.5 -50t-10.5 -50q-16 3 -27 5t-20.5 3.5t-18 2t-18.5 1.5q0 -7 0.5 -14t0.5 -14q0 -70 -24.5 -122t-65.5 -86t-93.5 -50.5t-108.5 -16.5q-69 0 -121 19t-86.5 50.5t-51.5 72t-17 84.5q0 60 31 116t91 98q-29 27 -45 58.5
t-16 63.5q0 24 8.5 51t29 50t53 38.5t80.5 15.5q76 0 123 -41t47 -112q0 -24 -8.5 -46t-21.5 -41.5t-28.5 -35.5t-30.5 -28q10 -11 17 -19.5t12 -18.5q28 19 65 30t82 11zM342 107q39 0 67 14t46 36.5t27 52t9 60.5q0 11 -1 16q-26 -5 -52 -27.5t-52 -74.5q-23 10 -45 19.5
t-45 20.5q8 17 12.5 29t4.5 23q0 13 -9 28t-29 36q-27 -23 -45.5 -57.5t-18.5 -68.5q0 -15 5 -34t19.5 -35t40 -27t66.5 -11zM297 595q-4 0 -9.5 -1.5t-11 -7t-9 -15t-3.5 -24.5q0 -20 8 -37t21 -30q20 15 29.5 34t9.5 35q0 19 -8.5 32.5t-26.5 13.5z" />
    <glyph glyph-name="quotesingle" unicode="'" horiz-adv-x="284" 
d="M88 386l-23 266h155l-23 -266h-109z" />
    <glyph glyph-name="parenleft" unicode="(" horiz-adv-x="375" 
d="M199 288q0 -92 35.5 -180.5t95.5 -166.5l-101 -76q-37 38 -70.5 85.5t-58.5 101.5t-40 112t-15 118q0 62 15 122.5t40.5 116.5t59.5 105.5t72 88.5l103 -76q-31 -39 -56 -83.5t-43 -90t-27.5 -90.5t-9.5 -87z" />
    <glyph glyph-name="parenright" unicode=")" horiz-adv-x="373" 
d="M171 288q0 42 -9.5 87t-27.5 90.5t-43 90t-56 83.5l104 76q38 -39 72 -88.5t59.5 -105.5t40.5 -116.5t15 -122.5q0 -60 -15 -118t-40 -112t-58.5 -101.5t-70.5 -85.5l-102 76q60 78 95.5 166.5t35.5 180.5z" />
    <glyph glyph-name="asterisk" unicode="*" horiz-adv-x="489" 
d="M393 369l-94 -68l-55 95l-58 -95l-46 34l-46 34l76 85l-111 24l18 54t17 54l103 -45q-4 28 -7 55.5t-6 55.5h122l-12 -110l101 44l18 -54t17 -54l-111 -24z" />
    <glyph glyph-name="plus" unicode="+" horiz-adv-x="650" 
d="M393 81h-141v166h-168v128h168v168h141v-168h169v-128h-169v-166z" />
    <glyph glyph-name="comma" unicode="," horiz-adv-x="289" 
d="M59 -95q31 22 46 43t22 47q-32 2 -53 22t-21 57q0 38 25 63.5t60 25.5q43 0 68.5 -30.5t25.5 -81.5q0 -34 -10 -63.5t-27.5 -55t-41 -46.5t-51.5 -38l-43 57v0z" />
    <glyph glyph-name="hyphen" unicode="-" horiz-adv-x="405" 
d="M58 367h290v-136h-290v136z" />
    <glyph glyph-name="period" unicode="." horiz-adv-x="286" 
d="M143 -11q-36 0 -61 25t-25 63q0 23 8.5 39.5t21 27.5t28 16t30.5 5q38 0 61 -26t23 -62q0 -37 -25 -62.5t-61 -25.5z" />
    <glyph glyph-name="slash" unicode="/" horiz-adv-x="559" 
d="M1 -75l411 795h146l-413 -795h-144z" />
    <glyph glyph-name="zero" unicode="0" horiz-adv-x="650" 
d="M326 -10q-75 0 -131 27.5t-92.5 74t-55 107.5t-18.5 127q0 64 18.5 125t55 107.5t92.5 75t131 28.5q67 0 121.5 -25t93.5 -69t60.5 -106t21.5 -135q0 -74 -21.5 -136t-60.5 -106.5t-93.5 -69.5t-121.5 -25zM326 525q-64 0 -98 -53t-34 -145q0 -93 34 -146.5t98 -53.5
q63 0 97.5 54t34.5 145q0 94 -34.5 146.5t-97.5 52.5z" />
    <glyph glyph-name="one" unicode="1" horiz-adv-x="650" 
d="M266 466h-87v106q27 2 45.5 8.5t30.5 17t19.5 24t12.5 29.5h140v-651h-161v466z" />
    <glyph glyph-name="two" unicode="2" horiz-adv-x="650" 
d="M48 0q3 76 27.5 133.5t62 102t84 78.5t93.5 63q49 30 69 48t20 42q0 26 -21.5 43t-63.5 17q-38 0 -80.5 -17t-90.5 -54l-81 108q52 48 121 73t141 25q50 0 93.5 -12t76 -35t51 -58t18.5 -80q0 -33 -9.5 -60.5t-30.5 -52t-53 -47.5t-77 -47q-39 -21 -65 -38t-43.5 -33
t-27.5 -32t-17 -34h325v-133h-522z" />
    <glyph glyph-name="three" unicode="3" horiz-adv-x="650" 
d="M462 339q49 -16 77 -56t28 -86q0 -52 -21.5 -91t-58.5 -64.5t-86 -38.5t-104 -13q-75 0 -142 26t-117 77q25 25 49 50t49 51q39 -38 77 -54t80 -16q48 0 77.5 23t29.5 61q0 34 -23.5 52.5t-62.5 18.5h-78v114h76q16 0 30.5 5.5t25.5 15.5t18 22.5t7 26.5q0 11 -4.5 22
t-15.5 20t-28.5 15t-43.5 6q-38 0 -76 -14.5t-80 -46.5q-19 27 -38.5 53.5t-39.5 53.5q48 43 112.5 66t133.5 23q59 0 104.5 -14t76 -38.5t46.5 -57t16 -68.5q0 -45 -23.5 -83t-70.5 -58v-3z" />
    <glyph glyph-name="four" unicode="4" horiz-adv-x="650" 
d="M531 0h-152v131h-345v113l339 408h158v-395h83v-126h-83v-131zM220 257h159v195h-3l-158 -191z" />
    <glyph glyph-name="five" unicode="5" horiz-adv-x="650" 
d="M592 226q0 -59 -21 -103.5t-58.5 -74t-89.5 -44t-114 -14.5q-69 0 -132 18t-124 55l66 118q49 -29 98 -42.5t91 -13.5q54 0 87.5 25t33.5 72q0 43 -29.5 64t-71.5 21q-29 0 -59 -9.5t-57 -29.5l-135 49l25 334h450v-131h-311l-9 -103q0 -1 1 -1q26 11 55 17.5t62 6.5
q115 0 178.5 -58t63.5 -156z" />
    <glyph glyph-name="six" unicode="6" horiz-adv-x="650" 
d="M251 400q15 7 28 11.5t26 7.5t27 4t31 1q48 0 91.5 -12.5t75.5 -38t51 -64.5t19 -92q0 -55 -21 -97.5t-58.5 -71t-89 -43.5t-113.5 -15q-57 0 -106 15.5t-85 48t-56.5 82.5t-20.5 119q0 42 9.5 88t31 90.5t56.5 85t86 71.5t119.5 50t156.5 21v-134q-52 -2 -92 -9.5
t-71.5 -21.5t-55.5 -36.5t-42 -55.5zM441 212q0 38 -29.5 63t-83.5 25q-58 0 -88.5 -27t-30.5 -62q0 -18 6.5 -34.5t20.5 -29t35.5 -20.5t51.5 -8q60 0 89 27.5t29 65.5z" />
    <glyph glyph-name="seven" unicode="7" horiz-adv-x="650" 
d="M198 0q4 313 187 520h-322v132h511v-120q-105 -105 -160 -233.5t-56 -298.5h-160z" />
    <glyph glyph-name="eight" unicode="8" horiz-adv-x="650" 
d="M607 196q0 -99 -76 -152.5t-208 -53.5q-135 0 -208.5 52.5t-73.5 152.5q0 48 28 91.5t79 62.5v1q-23 10 -38 25t-24 31.5t-13 33.5t-4 32q0 47 19.5 82.5t54 59t81.5 35.5t101 12q52 0 98 -11.5t80.5 -35t55 -59t20.5 -82.5q0 -14 -4.5 -31t-14 -34t-24.5 -32t-37 -25v-1
q51 -20 79.5 -60.5t28.5 -93.5zM419 466q0 27 -21.5 48.5t-74.5 21.5q-49 0 -71.5 -21t-22.5 -48q0 -29 25.5 -48.5t70.5 -19.5t69.5 20.5t24.5 46.5zM447 200q0 39 -30 62.5t-94 23.5q-57 0 -89 -23t-32 -61q0 -39 29 -62.5t93 -23.5q63 0 93 24t30 60z" />
    <glyph glyph-name="nine" unicode="9" horiz-adv-x="650" 
d="M596 395q0 -42 -9.5 -88t-31 -90.5t-56.5 -84.5t-86 -71t-119.5 -50t-156.5 -21v134q53 2 93.5 9t72 22t55 38.5t42.5 57.5l-1 2q-29 -16 -56.5 -21.5t-60.5 -5.5q-49 0 -92 12.5t-75 38t-50.5 64.5t-18.5 92q0 55 21 97.5t58.5 71.5t89 44t113.5 15q58 0 107 -15.5
t85 -48.5t56 -83t20 -119zM435 439q0 36 -27.5 64.5t-87.5 28.5t-89 -27.5t-29 -66.5q0 -38 30 -63t83 -25q59 0 89.5 27t30.5 62z" />
    <glyph glyph-name="colon" unicode=":" horiz-adv-x="287" 
d="M144 -11q-36 0 -61 25t-25 63q0 23 8.5 39.5t21 27.5t28 16t30.5 5q38 0 61 -26t23 -62q0 -37 -25 -62.5t-61 -25.5zM144 258q-36 0 -61 25t-25 62q0 24 8.5 40.5t21 27.5t28 16t30.5 5q38 0 61 -26t23 -62q0 -37 -25 -62.5t-61 -25.5z" />
    <glyph glyph-name="semicolon" unicode=";" horiz-adv-x="292" 
d="M146 258q-37 0 -62 25t-25 62q0 24 8.5 40.5t21 27.5t28 16t30.5 5q38 0 61 -26t23 -62q0 -18 -6.5 -34t-18 -28t-27 -19t-33.5 -7zM64 -96q31 22 46 43t22 48q-32 0 -53 22t-21 58q0 38 25 63t60 25q43 0 68.5 -30t25.5 -81q0 -69 -37 -120t-93 -85z" />
    <glyph glyph-name="less" unicode="&#x3c;" horiz-adv-x="650" 
d="M109 272v99l412 212v-149l-239 -110l239 -121v-151z" />
    <glyph glyph-name="equal" unicode="=" horiz-adv-x="650" 
d="M548 272v-129h-459v129h459zM548 496v-128h-459v128h459z" />
    <glyph glyph-name="greater" unicode="&#x3e;" horiz-adv-x="650" 
d="M111 52v151l239 121l-239 110v149l412 -212v-99z" />
    <glyph glyph-name="question" unicode="?" horiz-adv-x="530" 
d="M491 474q0 -47 -19 -78t-42 -54l-29 -29t-25.5 -30t-19.5 -34.5t-11 -42.5h-150q1 58 18.5 92.5t43.5 62.5q12 13 25 25.5t24 25.5t18 27.5t7 30.5q0 18 -17 37t-47 19q-20 0 -34 -9t-23.5 -23t-14 -32.5t-5.5 -36.5h-155q1 58 20.5 102t52.5 73.5t75.5 44.5t89.5 15
q50 0 90 -14t68.5 -39t44 -59t15.5 -74zM184 74q0 24 8.5 40.5t21.5 27t28.5 15.5t29.5 5q38 0 60.5 -26t22.5 -61q0 -37 -24.5 -61.5t-60.5 -24.5t-61 24t-25 61z" />
    <glyph glyph-name="at" unicode="@" horiz-adv-x="905" 
d="M633 513q-5 -61 -10 -121.5t-10 -121.5v-5q0 -23 11 -29.5t20 -6.5q18 0 34 11.5t29 31.5t20.5 47.5t7.5 59.5q0 58 -21 104t-57 78t-85 49t-104 17q-64 0 -118.5 -23t-94.5 -63.5t-62.5 -94.5t-22.5 -116q0 -66 22.5 -120t63 -92.5t96.5 -60t123 -21.5q34 0 63.5 3
t56.5 9t53.5 15.5t55.5 22.5q8 -23 17 -45.5t17 -45.5q-66 -25 -126.5 -39t-132.5 -14q-89 0 -166 26t-133 76t-88 122t-32 164q0 84 30.5 155t85 123t129 81.5t161.5 29.5q83 0 152.5 -23.5t119.5 -67t77.5 -105t27.5 -136.5q0 -65 -20 -114t-51.5 -82t-71.5 -49.5
t-79 -16.5q-42 0 -71.5 15t-40.5 44q-1 0 -1.5 0.5t-1.5 0.5q-20 -28 -49.5 -42t-59.5 -14q-27 0 -52.5 10t-45.5 30.5t-32 52t-12 73.5q0 60 14.5 102.5t38 69.5t54 40t62.5 13q25 0 49 -10t41 -27h2l3 30h114zM451 416q-29 0 -47 -28.5t-18 -82.5q0 -37 14 -54.5t37 -17.5
q14 0 30 7.5t28 19.5l11 128q-11 13 -25.5 20.5t-29.5 7.5z" />
    <glyph glyph-name="A" unicode="A" horiz-adv-x="687" 
d="M462 129h-239l-42 -129h-171l240 651h191l240 -651h-176zM342 494q-2 -5 -7.5 -23t-12 -38t-12 -37.5t-6.5 -21.5l-41 -122h159l-43 132q-2 4 -6.5 20t-10.5 34t-11 34.5t-6 21.5h-3z" />
    <glyph glyph-name="B" unicode="B" horiz-adv-x="633" 
d="M478 353q22 -7 43 -21t37 -34t25.5 -44.5t9.5 -52.5q0 -95 -60.5 -148t-173.5 -53h-303v651h306q95 0 150.5 -41.5t55.5 -122.5q0 -47 -27 -82t-63 -49v-3zM221 513v-104h111q32 0 50 13t18 39q0 52 -64 52h-115zM221 278v-140h116q40 0 62.5 17t22.5 55q0 37 -26 52.5
t-60 15.5h-115z" />
    <glyph glyph-name="C" unicode="C" horiz-adv-x="595" 
d="M42 330q0 73 19.5 134.5t57.5 105t94 68t128 24.5q87 0 142 -31.5t90 -80.5l-119 -98q-28 37 -56 50t-58 13q-32 0 -56 -14.5t-40 -39.5t-24 -59.5t-8 -74.5q0 -39 8 -74t24 -61.5t40 -41.5t57 -15q32 0 62.5 15.5t59.5 54.5l120 -96q-18 -24 -41 -46t-53 -38.5
t-67 -26.5t-82 -10q-72 0 -127.5 24t-93.5 68.5t-57.5 108t-19.5 141.5z" />
    <glyph glyph-name="D" unicode="D" horiz-adv-x="658" 
d="M57 0v651h224q69 0 129.5 -17.5t105.5 -56t71 -100.5t26 -150q0 -89 -26.5 -151t-72 -101t-107.5 -57t-132 -18h-218zM223 512v-374h39q88 0 134.5 46t46.5 141t-46.5 141t-137.5 46h-36z" />
    <glyph glyph-name="E" unicode="E" horiz-adv-x="571" 
d="M55 651h486v-138h-321v-107h223v-139h-223v-128h332v-139h-497v651z" />
    <glyph glyph-name="F" unicode="F" horiz-adv-x="549" 
d="M57 651h484v-139h-319v-122h226v-139h-226v-251h-165v651z" />
    <glyph glyph-name="G" unicode="G" horiz-adv-x="647" 
d="M352 235v122h257v-97q0 -62 -17.5 -112t-52 -85t-86 -54.5t-118.5 -19.5q-74 0 -129 24t-92 68.5t-55.5 107.5t-18.5 140q0 74 19.5 135t58 105t94 68t127.5 24q81 0 135.5 -28t93.5 -84q-6 -5 -24.5 -19t-39.5 -29.5t-39 -30t-24 -19.5q-24 38 -52 50.5t-55 12.5
q-32 0 -55 -14.5t-38 -40t-22.5 -59.5t-7.5 -74q0 -95 32.5 -143.5t94.5 -48.5q52 0 77 29t28 72h-91z" />
    <glyph glyph-name="H" unicode="H" horiz-adv-x="673" 
d="M452 263h-232v-263h-165v651h165v-248h232v248h165v-651h-165v263z" />
    <glyph glyph-name="I" unicode="I" horiz-adv-x="299" 
d="M66 651h166v-651h-166v651z" />
    <glyph glyph-name="J" unicode="J" horiz-adv-x="600" 
d="M540 263q0 -131 -65.5 -203t-197.5 -72q-58 0 -101.5 13.5t-76 39.5t-54 63t-35.5 85l154 49q20 -57 45.5 -82t66.5 -25q98 0 98 134v386h166v-388v0z" />
    <glyph glyph-name="K" unicode="K" horiz-adv-x="642" 
d="M457 0l-145 284l-94 -113v-171h-163v651h163v-264h3l55 71l153 193h186l-194 -235l220 -416h-184z" />
    <glyph glyph-name="L" unicode="L" horiz-adv-x="535" 
d="M55 651h164v-513h309v-138h-473v651z" />
    <glyph glyph-name="M" unicode="M" horiz-adv-x="777" 
d="M558 330h-3l-70 -140l-98 -191l-94 184l-73 147h-4v-330h-160v651h161l85 -168l17 -34t25 -51t25 -51t17 -33h5q5 10 16 33.5t24 49.5t24.5 49.5t16.5 32.5l86 172h162v-651h-162v330z" />
    <glyph glyph-name="N" unicode="N" horiz-adv-x="676" 
d="M319 233l-101 154h-3v-387h-162v651h152l142 -206q7 -10 22.5 -33.5t33 -50t33 -50.5t22.5 -34h3v374h163v-651h-144z" />
    <glyph glyph-name="O" unicode="O" horiz-adv-x="679" 
d="M338 -12q-74 0 -129.5 24.5t-92.5 69t-55.5 106t-18.5 135.5q0 75 18.5 137.5t56 107.5t93.5 69.5t130 24.5q72 0 127.5 -24t93 -68.5t57 -107t19.5 -138.5q0 -77 -19.5 -139t-57.5 -105.5t-93.5 -67.5t-128.5 -24zM338 517q-33 0 -56.5 -15t-39 -40.5t-23 -60
t-7.5 -74.5q0 -42 8 -77.5t24 -61.5t40 -40.5t56 -14.5t56 15.5t39.5 42t23 61.5t7.5 74q0 41 -7.5 76t-23.5 60.5t-40 40t-57 14.5z" />
    <glyph glyph-name="P" unicode="P" horiz-adv-x="590" 
d="M581 439q0 -54 -18 -95t-49.5 -68.5t-75.5 -41.5t-96 -14h-123v-220h-164v651h294q50 0 92.5 -13t73.5 -39.5t48.5 -66t17.5 -93.5zM218 513v-156h106q37 0 62 17t25 62q0 43 -27.5 60t-63.5 17h-102z" />
    <glyph glyph-name="Q" unicode="Q" horiz-adv-x="680" 
d="M637 325q0 -80 -21.5 -144t-63.5 -109l48 -66l-107 -73q-14 17 -26 35.5t-26 35.5q-25 -7 -50 -10.5t-53 -3.5q-72 0 -127 23.5t-92.5 67t-56.5 105.5t-19 138q0 77 19.5 139.5t57 106.5t93 67.5t127.5 23.5t127.5 -24t93 -67.5t57 -106t19.5 -138.5zM468 326
q0 42 -7.5 77t-23.5 60.5t-40.5 39.5t-58.5 14q-32 0 -56 -14.5t-39.5 -40t-23 -60.5t-7.5 -75q0 -84 29.5 -137t88.5 -58q3 1 8.5 1.5t10.5 2.5l-35 54l91 69l39 -45q14 24 19 52t5 60z" />
    <glyph glyph-name="R" unicode="R" horiz-adv-x="623" 
d="M587 440q0 -73 -32 -120t-87 -69l117 -251h-171l-97 229h-98v-229h-164v651h301q50 0 92.5 -13t73 -39t48 -65.5t17.5 -93.5zM219 513v-147h112q40 0 63 18.5t23 56.5q0 37 -24.5 54.5t-60.5 17.5h-113z" />
    <glyph glyph-name="S" unicode="S" horiz-adv-x="591" 
d="M303 663q69 0 132 -22t110 -63l-89 -118q-43 35 -84.5 49t-77.5 14q-39 0 -55.5 -16t-16.5 -36q0 -14 8 -23t22.5 -16.5t33.5 -13.5t41 -12q37 -10 78.5 -23.5t76.5 -37t58.5 -59.5t23.5 -92q0 -53 -20.5 -91.5t-56 -64.5t-84 -38.5t-103.5 -12.5q-77 0 -148.5 26
t-119.5 72l93 115q43 -37 90.5 -54t86.5 -17q46 0 68.5 16t22.5 42q0 12 -5.5 21.5t-18 17.5t-34.5 15.5t-55 16.5q-53 14 -94.5 30.5t-71 39.5t-45 55.5t-15.5 78.5q0 50 20.5 87.5t55 63t79.5 38t94 12.5z" />
    <glyph glyph-name="T" unicode="T" horiz-adv-x="556" 
d="M362 0h-165v513h-186v138h537v-138h-186v-513z" />
    <glyph glyph-name="U" unicode="U" horiz-adv-x="668" 
d="M333 -10q-63 0 -114.5 18t-87.5 54t-56 89.5t-20 125.5v374h165v-366q0 -73 29.5 -112t85.5 -39q57 0 85.5 37.5t28.5 109.5v370h166v-374q0 -72 -20.5 -126t-57.5 -90t-89 -53.5t-115 -17.5z" />
    <glyph glyph-name="V" unicode="V" horiz-adv-x="666" 
d="M243 0l-233 651h179l86 -270l60 -202h4l59 203l85 269h176l-232 -651h-184z" />
    <glyph glyph-name="W" unicode="W" horiz-adv-x="881" 
d="M441 428q-14 -63 -28.5 -125.5t-30.5 -125.5q-2 -7 -8 -33t-13 -56t-13.5 -55.5t-8.5 -32.5h-171q-38 164 -77.5 325.5t-77.5 325.5h176l37 -199q4 -24 9.5 -53t11 -60t10.5 -61.5t10 -57.5h4q11 60 23.5 118t25.5 118l42 195h160l43 -196q15 -68 23.5 -109.5t13.5 -66
t7.5 -37l4.5 -22.5h3q10 60 20.5 116.5t21.5 118.5l37 196h175q-39 -164 -78 -325.5t-77 -325.5h-172l-43 175q-6 27 -14 61t-16.5 69t-16 67.5t-11.5 55.5h-2z" />
    <glyph glyph-name="X" unicode="X" horiz-adv-x="620" 
d="M308 221l-119 -221h-180l212 333l-200 318h181l108 -203l109 203h179l-201 -316l211 -335h-181z" />
    <glyph glyph-name="Y" unicode="Y" horiz-adv-x="662" 
d="M413 0h-164v218l-246 433h179l75 -151l75 -155l77 159q5 9 15 29.5t21 43.5t21.5 43.5t15.5 30.5h177l-246 -431v-220z" />
    <glyph glyph-name="Z" unicode="Z" horiz-adv-x="591" 
d="M34 125l327 388h-308v138h504v-127l-329 -385h332v-139h-526v125z" />
    <glyph glyph-name="bracketleft" unicode="[" horiz-adv-x="374" 
d="M63 701h263v-126h-111v-573h111v-125h-263v824z" />
    <glyph glyph-name="backslash" unicode="\" horiz-adv-x="559" 
d="M413 -75l-413 795h146l411 -795h-144z" />
    <glyph glyph-name="bracketright" unicode="]" horiz-adv-x="376" 
d="M319 -123h-263v125h111v573h-111v126h263v-824z" />
    <glyph glyph-name="asciicircum" unicode="^" horiz-adv-x="571" 
d="M284 504l-92 -179h-158l195 327h115l194 -327h-159z" />
    <glyph glyph-name="underscore" unicode="_" horiz-adv-x="500" 
d="M0 -66h500v-111h-500v111z" />
    <glyph glyph-name="grave" unicode="`" horiz-adv-x="517" 
d="M119 733l145 27l80 -199l-88 -28z" />
    <glyph glyph-name="a" unicode="a" horiz-adv-x="536" 
d="M331 0v42l-3 1q-16 -17 -35 -28t-37 -17t-34 -8.5t-27 -2.5q-36 0 -66 9t-51.5 28.5t-34 50t-12.5 73.5q0 40 15 70.5t41 50.5t59.5 30t71.5 10q29 0 55.5 -3.5t57.5 -15.5v23q0 63 -80 63q-64 0 -134 -28l-38 112q43 20 93.5 30t101.5 10q212 0 212 -182v-318h-155z
M331 189q-14 8 -32 14t-41 6q-27 0 -46.5 -13t-19.5 -40q0 -25 17.5 -38t45.5 -13q20 0 41 8.5t35 22.5v53z" />
    <glyph glyph-name="b" unicode="b" horiz-adv-x="567" 
d="M335 499q38 0 72.5 -14.5t60.5 -45.5t41.5 -78.5t15.5 -114.5q0 -65 -15.5 -113t-42 -79.5t-61.5 -47.5t-75 -16q-30 0 -63 12t-59 38h-3v-40h-157v661l158 57v-266h4q26 22 59 34.5t65 12.5zM286 369q-21 0 -42 -11.5t-37 -27.5v-169q17 -19 37.5 -30t42.5 -11
q34 0 55 30t21 92q0 70 -20.5 98.5t-56.5 28.5z" />
    <glyph glyph-name="c" unicode="c" horiz-adv-x="487" 
d="M42 242q0 58 15.5 105.5t46 81.5t75.5 52t103 18q45 0 91 -15t88 -60l-90 -101q-25 26 -43.5 35t-41.5 9q-42 0 -63 -32.5t-21 -86.5q0 -57 21 -91.5t64 -34.5q44 0 92 49l90 -99q-41 -45 -90.5 -64t-97.5 -19q-58 0 -102.5 17.5t-75 50.5t-46 80t-15.5 105z" />
    <glyph glyph-name="d" unicode="d" horiz-adv-x="568" 
d="M41 238q0 66 17 115t45 81t64 48t74 16q35 0 64 -11.5t52 -31.5h4v205q39 15 78.5 29.5t79.5 28.5v-718h-157v41q-1 0 -1.5 0.5t-1.5 0.5q-28 -27 -62 -39.5t-67 -12.5q-39 0 -73.5 13.5t-60 43t-40.5 76.5t-15 115zM204 238q0 -64 20 -91.5t55 -27.5q21 0 43 11t39 30
v169q-16 17 -36 28.5t-41 11.5q-36 0 -58 -31t-22 -100z" />
    <glyph glyph-name="e" unicode="e" horiz-adv-x="543" 
d="M508 203h-305q8 -89 101 -89q28 0 59.5 8.5t62.5 22.5l53 -103q-50 -30 -96.5 -41.5t-94.5 -11.5q-62 0 -108.5 18.5t-77 51.5t-45.5 80t-15 104q0 58 17 105.5t48.5 81t76 51.5t100.5 18q60 0 102.5 -19t69.5 -53t39.5 -81t12.5 -102v-41zM351 291q-2 37 -17.5 62
t-56.5 25q-29 0 -50 -22t-24 -65h148z" />
    <glyph glyph-name="f" unicode="f" horiz-adv-x="373" 
d="M248 488h100v-113h-100v-375h-160v375h-61v113h61v78q0 75 45 112.5t123 37.5q10 0 23.5 -0.5t28 -2t28 -3.5t23.5 -4l-6 -129q-12 1 -21.5 1h-20.5q-27 0 -45 -8t-18 -34v-48z" />
    <glyph glyph-name="g" unicode="g" horiz-adv-x="569" 
d="M520 46q0 -47 -13.5 -89.5t-44 -78.5t-79 -63t-118.5 -42l-48 126q50 16 79 33.5t44 35t19 33.5t4 30v19h-4q-29 -27 -61 -39.5t-67 -12.5q-38 0 -72 14t-60 43t-41.5 75t-15.5 110q0 66 15 114.5t41.5 80t61.5 47t75 15.5q35 0 68 -13.5t56 -37.5l3 1v42h158v-443z
M282 367q-34 0 -55.5 -30t-21.5 -91q0 -66 20.5 -92.5t57.5 -26.5q21 0 41.5 11t36.5 28v161q-16 18 -36.5 29t-42.5 11z" />
    <glyph glyph-name="h" unicode="h" horiz-adv-x="564" 
d="M516 0h-157v270q0 44 -19.5 68.5t-51.5 24.5q-28 0 -48 -14.5t-28 -43.5q-5 -20 -5 -45v-260h-158v660l158 57v-273h3q28 26 64 40t68 14q47 0 80 -14t54 -39.5t30.5 -62.5t9.5 -82v-300z" />
    <glyph glyph-name="i" unicode="i" horiz-adv-x="293" 
d="M68 489h158v-489h-158v489zM55 631q0 19 7 36t20 29.5t29.5 19.5t36.5 7q18 0 34.5 -7t29 -19.5t19.5 -29.5t7 -36q0 -38 -26.5 -64.5t-63.5 -26.5q-20 0 -36.5 7t-29.5 19.5t-20 29t-7 35.5z" />
    <glyph glyph-name="j" unicode="j" horiz-adv-x="296" 
d="M231 -19q0 -107 -60 -156t-192 -49l-10 126q34 6 54.5 13.5t32 19.5t15 30t3.5 44v479h157v-507zM60 631q0 19 7.5 36t20 29.5t29.5 19.5t36 7q18 0 34.5 -7t29 -19.5t19.5 -29.5t7 -36q0 -38 -26.5 -64.5t-63.5 -26.5q-19 0 -36 7t-29.5 19.5t-20 29t-7.5 35.5z" />
    <glyph glyph-name="k" unicode="k" horiz-adv-x="555" 
d="M370 0l-99 209q-17 -19 -33 -37.5t-32 -38.5v-133h-157v660l157 57v-390h2q4 5 10.5 13l13 16t12.5 15.5t9 11.5l88 104h185q-37 -40 -73 -80t-73 -81q42 -81 84 -163t85 -163h-179z" />
    <glyph glyph-name="l" unicode="l" horiz-adv-x="269" 
d="M55 0v661l159 58v-719h-159z" />
    <glyph glyph-name="m" unicode="m" horiz-adv-x="836" 
d="M340 0v270q0 51 -15.5 72.5t-47.5 21.5q-24 0 -40 -14.5t-23 -37.5q-4 -11 -5.5 -24.5t-1.5 -27.5v-260h-158v488h158v-50h4q26 30 61 45.5t67 15.5q51 0 82.5 -21t47.5 -53q36 37 76 55.5t80 18.5q88 0 126 -54t38 -145v-300h-158v270q0 51 -15.5 72.5t-47.5 21.5
q-23 0 -37.5 -12.5t-22.5 -32.5q-5 -11 -7.5 -25.5t-2.5 -30.5v-263h-158z" />
    <glyph glyph-name="n" unicode="n" horiz-adv-x="564" 
d="M516 0h-158v270q0 51 -19 72t-51 21q-28 0 -48 -14.5t-28 -43.5q-2 -9 -4 -20.5t-2 -24.5v-260h-157v488h157v-51h4q25 29 62.5 45t69.5 16q47 0 80 -14t54 -39.5t30.5 -62.5t9.5 -82v-300z" />
    <glyph glyph-name="o" unicode="o" horiz-adv-x="579" 
d="M288 -12q-57 0 -102.5 18t-77.5 51.5t-49 80.5t-17 104q0 60 17.5 107.5t50 80.5t78 51t102.5 18q56 0 101.5 -18t78 -51.5t50 -80.5t17.5 -105q0 -59 -18 -106.5t-50.5 -80.5t-78.5 -51t-102 -18zM287 372q-43 0 -63.5 -36.5t-20.5 -91.5q0 -61 21.5 -95t65.5 -34
q22 0 38 10t26.5 27t15.5 40t5 50q0 58 -21 94t-67 36z" />
    <glyph glyph-name="p" unicode="p" horiz-adv-x="569" 
d="M526 240q0 -66 -17 -113.5t-45 -78t-64 -44.5t-73 -14q-69 0 -117 42h-3v-188q-40 -14 -79.5 -28.5t-78.5 -29.5v702h157v-42h3q26 24 61 38t67 14q40 0 74.5 -14.5t60 -45.5t40 -80t14.5 -118zM363 245q-1 64 -20.5 93.5t-54.5 29.5q-21 0 -43 -10.5t-38 -29.5v-170
q15 -17 35 -28t41 -11q38 0 59 28.5t21 97.5z" />
    <glyph glyph-name="q" unicode="q" horiz-adv-x="568" 
d="M236 498q34 0 68 -13.5t55 -38.5l3 1v41h157v-645l-158 -57v250h-4q-26 -22 -59 -34.5t-67 -12.5q-38 0 -72 14t-60 44t-41.5 76.5t-15.5 111.5q0 66 15.5 115.5t41.5 82t61.5 49t75.5 16.5zM282 368q-34 0 -55 -30.5t-22 -92.5q0 -70 20.5 -98t57.5 -28q21 0 42 11.5
t36 27.5v169q-16 19 -36.5 30t-42.5 11z" />
    <glyph glyph-name="r" unicode="r" horiz-adv-x="417" 
d="M416 485q-6 -37 -12.5 -74t-11.5 -75q-46 8 -79 8q-47 0 -74.5 -21.5t-27.5 -79.5v-243h-158v488h158v-65h3q24 39 60 57t75 18q17 0 33.5 -3.5t33.5 -9.5z" />
    <glyph glyph-name="s" unicode="s" horiz-adv-x="494" 
d="M457 142q0 -37 -15.5 -66t-43 -48.5t-67 -29.5t-87.5 -10q-53 0 -107.5 15t-103.5 42l52 108q45 -23 84.5 -34.5t68.5 -11.5q24 0 41 8t17 26q0 20 -16.5 29.5t-51.5 20.5q-48 14 -81.5 28.5t-54 32.5t-30 41.5t-9.5 54.5q0 67 52 109t149 42q51 0 98.5 -12t94.5 -35
l-49 -111q-45 24 -80.5 31t-55.5 7q-22 0 -35 -9.5t-13 -20.5q0 -13 12.5 -22t44.5 -18q47 -13 82 -27t58 -33t34.5 -45t11.5 -62z" />
    <glyph glyph-name="t" unicode="t" horiz-adv-x="407" 
d="M250 488h104v-113h-104v-179q0 -38 11.5 -53t47.5 -15q12 0 26 1t32 3l12 -124q-74 -20 -137 -20q-71 0 -110 34.5t-39 117.5v235h-73v113h75v114l155 57v-171z" />
    <glyph glyph-name="u" unicode="u" horiz-adv-x="560" 
d="M48 488h158v-271q0 -48 18 -68.5t49 -20.5q26 0 45.5 12.5t28.5 41.5q5 20 5 45v261h158v-488h-158v50h-3q-32 -35 -66 -47.5t-66 -12.5q-91 0 -130 49.5t-39 140.5v308z" />
    <glyph glyph-name="v" unicode="v" horiz-adv-x="552" 
d="M192 0l-186 488h162l67 -207l41 -132h3l41 136l66 203h157l-183 -488h-168z" />
    <glyph glyph-name="w" unicode="w" horiz-adv-x="766" 
d="M378 296l-27 -113l-47 -183h-163l-136 489h161l39 -192l24 -130h3l31 130l46 192h148l47 -198l26 -127h3l26 134l40 191h160l-142 -489h-164l-45 180l-28 116h-2z" />
    <glyph glyph-name="x" unicode="x" horiz-adv-x="514" 
d="M250 157q-19 -37 -38.5 -78.5t-39.5 -78.5h-166l156 253q-35 57 -71.5 118t-71.5 118h171q5 -9 14 -28.5t18.5 -41t18.5 -41t14 -28.5q16 34 32 70t33 69h170l-144 -232q39 -63 79 -128.5t78 -128.5h-172z" />
    <glyph glyph-name="y" unicode="y" horiz-adv-x="546" 
d="M134 -195l63 174l-191 509h162l60 -188l43 -149h4l45 149l61 188h157l-249 -683h-155z" />
    <glyph glyph-name="z" unicode="z" horiz-adv-x="493" 
d="M453 488v-116l-245 -253l1 -1h252v-118h-431v117l237 252l-1 1h-224v118h411z" />
    <glyph glyph-name="braceleft" unicode="{" horiz-adv-x="393" 
d="M269 -121q-50 0 -82.5 13t-51 36t-26 54.5t-7.5 67.5v95q0 15 -1.5 31.5t-7 30.5t-17 23.5t-32.5 11.5v93q22 2 33.5 11t17 23t6.5 31t1 34v105q0 35 8.5 64.5t28 51.5t51.5 34t80 12h78v-118h-43q-30 0 -41.5 -15.5t-11.5 -54.5v-85q0 -22 -3 -43.5t-11 -40.5t-22 -33
t-36 -21v-2q42 -17 57 -53.5t15 -84.5v-85q0 -39 11.5 -54t41.5 -15h43v-117h-79z" />
    <glyph glyph-name="bar" unicode="|" horiz-adv-x="328" 
d="M96 -123v871h142v-871h-142z" />
    <glyph glyph-name="braceright" unicode="}" horiz-adv-x="393" 
d="M51 -121v117h43q29 0 40.5 15t11.5 54v85q0 48 15.5 84.5t57.5 53.5v2q-22 7 -36 21t-22.5 33t-11.5 40.5t-3 43.5v85q0 40 -11.5 55t-40.5 15h-43v118h72q53 0 87 -13.5t53 -37t26 -56t7 -70.5v-95q0 -16 1.5 -32t7 -29t17.5 -22t33 -11v-93q-21 -2 -33 -11.5
t-17.5 -23.5t-7 -30.5t-1.5 -31.5v-96q0 -36 -7.5 -67.5t-26 -54t-51 -35.5t-82.5 -13h-78z" />
    <glyph glyph-name="asciitilde" unicode="~" horiz-adv-x="650" 
d="M426 222q-22 0 -49 9.5t-54 20.5t-53 20.5t-47 9.5q-23 0 -42.5 -14t-45.5 -47l-85 43q16 40 36.5 67.5t43.5 44.5t47.5 24t48.5 7q28 0 58.5 -8.5t59 -18.5t54 -18.5t45.5 -8.5q23 0 41 13.5t41 42.5l78 -47q-31 -79 -77 -109.5t-100 -30.5z" />
    <glyph glyph-name="dieresistonos" unicode="&#x385;" horiz-adv-x="554" 
d="M453 549q-32 0 -54.5 22.5t-22.5 53.5q0 32 22.5 54t54.5 22q30 0 52.5 -22t22.5 -54q0 -31 -22.5 -53.5t-52.5 -22.5zM106 549q-31 0 -54 22.5t-23 53.5q0 32 23 54t54 22q32 0 54.5 -22t22.5 -54q0 -31 -22.5 -53.5t-54.5 -22.5zM278 538l-88 23l69 199l146 -20z" />
    <glyph glyph-name="tonos" unicode="&#x384;" horiz-adv-x="513" 
d="M280 538l-87 29l80 200l145 -28z" />
    <glyph glyph-name="dieresis" unicode="&#xa8;" horiz-adv-x="512" 
d="M375 549q-16 0 -30.5 6t-25 16.5t-16.5 24.5t-6 29q0 32 23 54t55 22q30 0 52 -22t22 -54q0 -31 -22 -53.5t-52 -22.5zM150 549q-32 0 -55 22.5t-23 53.5q0 32 23 54t55 22q31 0 53.5 -22t22.5 -54q0 -31 -22.5 -53.5t-53.5 -22.5z" />
    <glyph glyph-name="sterling" unicode="&#xa3;" horiz-adv-x="650" 
d="M348 661q47 0 83.5 -7.5t66 -22.5t53 -37.5t44.5 -53.5l-58 -44t-58 -45q-26 40 -52.5 56.5t-65.5 16.5q-38 0 -63.5 -22.5t-25.5 -55.5q0 -21 6 -43t13 -46h153v-111l-137 -1q0 -26 -10.5 -57t-31.5 -57h312v-131h-502v113q34 33 53 62t24 70h-77v111h59q-9 28 -15.5 53
t-6.5 50q0 40 16.5 76.5t47 64.5t74 44.5t98.5 16.5z" />
    <glyph glyph-name="trademark" unicode="&#x2122;" horiz-adv-x="830" 
d="M677 469h-2l-50 -103l-49 -96l-49 96l-50 101h-2v-195h-105v379h108l45 -87l53 -108h2l52 109l43 86h109v-379h-105v197zM236 564v-291h-105v291h-110v87h324v-87h-109z" />
    <glyph glyph-name="bullet" unicode="&#x2022;" horiz-adv-x="423" 
d="M212 160q-31 0 -58 11.5t-47 31.5t-31.5 47.5t-11.5 59.5t11.5 59.5t31.5 48t47 32.5t58 12t58 -12t47 -32.5t31.5 -48t11.5 -59.5t-11.5 -59.5t-31.5 -47.5t-47 -31.5t-58 -11.5z" />
    <glyph glyph-name="sfthyphen" unicode="&#xad;" horiz-adv-x="407" 
d="M58 367h290v-136h-290v136z" />
    <glyph glyph-name="dagger" unicode="&#x2020;" horiz-adv-x="560" 
d="M357 334v-425h-149v425h-162v128h162v189h149v-188h161v-129h-161z" />
    <glyph glyph-name="Gamma" unicode="&#x393;" horiz-adv-x="549" 
d="M55 651h483v-139h-318v-512h-165v651z" />
    <glyph glyph-name="Delta" unicode="&#x394;" horiz-adv-x="684" 
d="M6 0q10 27 29 78t42.5 114.5t48.5 133t48.5 133t42.5 114.5t29 78h191q10 -27 29 -78t42 -114.5t48.5 -133t48.5 -133t42 -114.5t30 -78h-671zM337 490l-41 -130q-6 -16 -16 -47t-21.5 -64.5t-21.5 -64.5t-16 -47h233q-6 16 -16 47t-21 65.5t-21 65.5t-15 47l-41 128h-3z
" />
    <glyph glyph-name="Delta" unicode="&#x2206;" horiz-adv-x="684" 
d="M6 0q10 27 29 78t42.5 114.5t48.5 133t48.5 133t42.5 114.5t29 78h191q10 -27 29 -78t42 -114.5t48.5 -133t48.5 -133t42 -114.5t30 -78h-671zM337 490l-41 -130q-6 -16 -16 -47t-21.5 -64.5t-21.5 -64.5t-16 -47h233q-6 16 -16 47t-21 65.5t-21 65.5t-15 47l-41 128h-3z
" />
    <glyph glyph-name="Theta" unicode="&#x398;" horiz-adv-x="686" 
d="M247 382h190v-112h-190v112zM341 -12q-74 0 -129.5 24.5t-93.5 69t-57 106t-19 135.5q0 75 19.5 137.5t57.5 107.5t94 69.5t130 24.5q72 0 128.5 -24t94.5 -68.5t58 -107t20 -138.5q0 -77 -20 -139t-58.5 -105.5t-95 -67.5t-129.5 -24zM341 517q-32 0 -56.5 -15
t-40.5 -40.5t-24 -60t-8 -74.5q0 -42 8.5 -77.5t25 -61.5t41 -40.5t56.5 -14.5q33 0 57 15.5t40.5 42t24.5 61.5t8 74q0 41 -8 76t-24.5 60.5t-41.5 40t-58 14.5z" />
    <glyph glyph-name="Lambda" unicode="&#x39b;" horiz-adv-x="670" 
d="M386 311l-51 173h-4l-52 -178l-100 -306h-172l232 651h192l231 -651h-176z" />
    <glyph glyph-name="Xi" unicode="&#x39e;" horiz-adv-x="577" 
d="M540 513h-172v-108h104v-136h-104v-131h183v-138h-523v138h174v131h-102v136h102v108h-164v138h502v-138z" />
    <glyph glyph-name="Pi" unicode="&#x3a0;" horiz-adv-x="673" 
d="M453 512h-233v-512h-165v651h562v-651h-164v512z" />
    <glyph glyph-name="germandbls" unicode="&#xdf;" horiz-adv-x="560" 
d="M523 214q0 -48 -14.5 -88.5t-41.5 -70.5t-65 -47t-84 -17q-13 0 -34 2.5t-43 12.5l21 100h8q28 0 47 10t30.5 26t16.5 36.5t5 42.5q0 20 -6 40.5t-18 37.5t-31 28t-46 13v94q17 1 28.5 9.5t18.5 20.5t10 25t3 25q0 26 -15.5 47.5t-44.5 21.5q-27 0 -44.5 -22.5
t-17.5 -60.5v-496l-155 -58v552q0 48 16 87t45 66.5t68.5 42t86.5 14.5q48 0 86 -16t64 -42.5t40 -59t14 -65.5q0 -41 -17.5 -76.5t-46.5 -53.5v-2q25 -9 46.5 -26t37 -40.5t24 -52t8.5 -60.5z" />
    <glyph glyph-name="registered" unicode="&#xae;" horiz-adv-x="530" 
d="M264 249q-46 0 -85.5 16.5t-68.5 45.5t-45.5 68.5t-16.5 86.5q0 46 16.5 86t45.5 69t68.5 45.5t85.5 16.5t85.5 -16.5t68.5 -45.5t45.5 -69t16.5 -86q0 -47 -16.5 -86.5t-45.5 -68.5t-68.5 -45.5t-85.5 -16.5zM264 632q-35 0 -64 -13t-51 -35.5t-34 -52.5t-12 -65t12 -65
t34 -52.5t51 -35.5t64 -13q34 0 63.5 13t51 35.5t33.5 52.5t12 65t-12 65t-33.5 52.5t-51 35.5t-63.5 13zM268 432h-31v-82h-64v237h109q37 0 61 -19t24 -59q0 -25 -11.5 -43t-30.5 -26q11 -23 22 -45t22 -45h-66zM236 533v-48h37q13 0 21 6t8 19q0 12 -8.5 17.5t-20.5 5.5
h-37z" />
    <glyph glyph-name="copyright" unicode="&#xa9;" horiz-adv-x="824" 
d="M413 -16q-74 0 -137.5 27t-110.5 74.5t-73.5 112t-26.5 139.5t26.5 139.5t73.5 111.5t110.5 74t137.5 27t137.5 -27t110.5 -74t74 -111.5t27 -139.5t-27 -139.5t-74 -112t-110.5 -74.5t-137.5 -27zM413 607q-56 0 -104 -21t-83.5 -57t-55.5 -85.5t-20 -106.5t20 -106.5
t55.5 -86t83.5 -57.5t104 -21t104 21t83.5 57.5t55.5 86t20 106.5t-20 106.5t-55.5 85.5t-83.5 57t-104 21zM234 333q0 46 12.5 84t36.5 66t59 43.5t80 15.5q58 0 92.5 -21.5t55.5 -55.5l-79 -59q-17 24 -33 33t-36 9q-41 0 -60.5 -33.5t-19.5 -83.5q0 -25 5 -46.5t15 -37.5
t25 -25.5t35 -9.5q22 0 40 10.5t35 35.5l79 -59q-22 -32 -59.5 -56t-94.5 -24q-46 0 -81 15.5t-59 43.5t-36 67.5t-12 87.5z" />
    <glyph glyph-name="Sigma" unicode="&#x3a3;" horiz-adv-x="591" 
d="M396 336l-167 -197h332v-139h-527v125l177 211l-165 188v127h508v-138h-312z" />
    <glyph glyph-name="section" unicode="&#xa7;" horiz-adv-x="572" 
d="M260 288q-13 -7 -20.5 -16t-7.5 -19q0 -17 17 -30t55 -26q42 -14 80 -29t67.5 -35t46.5 -46t17 -62q0 -35 -17.5 -63t-48 -47t-73 -29t-92.5 -10q-54 0 -111 15.5t-105 43.5l49 98q17 -11 38.5 -20t44.5 -15.5t45.5 -10t41.5 -3.5q29 0 51 10t22 28q0 21 -26.5 34
t-71.5 27q-37 12 -69.5 28t-57 36t-38.5 44t-14 54q0 47 33 85t99 54zM324 301q15 7 24 16t9 23q0 25 -26 38t-68 27q-39 13 -71.5 26.5t-56.5 31.5t-37.5 41.5t-13.5 56.5q0 66 54.5 107.5t156.5 41.5q51 0 98.5 -13.5t94.5 -37.5q-11 -25 -22 -49.5t-22 -48.5
q-50 24 -89 33.5t-61 9.5q-35 0 -51 -9.5t-16 -25.5q0 -19 17.5 -30.5t61.5 -26.5h-1q43 -15 79 -30t62.5 -34t41 -43.5t14.5 -57.5q0 -49 -35.5 -88t-97.5 -56z" />
    <glyph glyph-name="degree" unicode="&#xb0;" horiz-adv-x="433" 
d="M216 347q-35 0 -65 12.5t-52.5 34.5t-35.5 52.5t-13 66.5q0 35 13 65t35.5 51.5t52.5 34t65 12.5t65 -12.5t52.5 -34t35 -51.5t12.5 -65q0 -36 -12.5 -66.5t-35 -52.5t-52.5 -34.5t-65 -12.5zM216 589q-31 0 -52.5 -22t-21.5 -54q0 -35 21.5 -57t52.5 -22q32 0 53 22
t21 57q0 32 -21 54t-53 22z" />
    <glyph glyph-name="periodcentered" unicode="&#xb7;" horiz-adv-x="295" 
d="M148 222q-37 0 -62.5 25t-25.5 63q0 24 8.5 41t21 28t28.5 16t31 5q38 0 62 -26t24 -63q0 -38 -25.5 -63.5t-61.5 -25.5z" />
    <glyph glyph-name="yen" unicode="&#xa5;" horiz-adv-x="650" 
d="M61 296h144l-24 46h-120v86h74l-117 223h180l130 -298l129 298h177l-118 -223h79v-86h-125l-25 -46h150v-86h-187v-210h-165v210h-182v86z" />
    <glyph glyph-name="Phi" unicode="&#x3a6;" horiz-adv-x="788" 
d="M750 332q0 -59 -19.5 -108t-55.5 -85.5t-87 -59.5t-114 -29v-50h-164v51q-60 7 -109.5 30t-85.5 59t-56 84t-20 107q0 57 20.5 105.5t57 85.5t86 60.5t107.5 30.5v39h164v-39q62 -7 113 -29.5t87 -59t56 -85t20 -107.5zM588 331q0 25 -5.5 49.5t-19 44.5t-35 35.5
t-54.5 22.5v-308q32 6 53.5 21.5t35 36.5t19.5 46.5t6 51.5zM310 481q-60 -18 -85 -60.5t-25 -91.5q0 -54 25 -95.5t85 -55.5v303z" />
    <glyph glyph-name="Psi" unicode="&#x3a8;" horiz-adv-x="802" 
d="M318 136q-62 4 -112 26.5t-85 61.5t-54 93.5t-19 123.5v210h159v-217q0 -69 29.5 -108t80.5 -49v374h163v-374q52 6 83.5 44.5t31.5 110.5v219h159v-210q0 -69 -20 -123.5t-56 -93.5t-86.5 -61t-111.5 -27v-136h-162v136z" />
    <glyph glyph-name="Omega" unicode="&#x3a9;" horiz-adv-x="704" 
d="M353 662q69 0 124.5 -22.5t94.5 -64t60 -100.5t21 -132q0 -26 -4.5 -55t-14.5 -56.5t-24.5 -52t-35.5 -42.5h83v-137h-266v140q47 17 70 65.5t23 120.5q0 43 -8 78t-24.5 60t-41 39t-57.5 14q-32 0 -56 -13.5t-41 -38t-25.5 -58t-8.5 -73.5q0 -74 20.5 -124t71.5 -69
v-141h-269v136h84q-19 15 -33 37t-23 48t-13.5 54.5t-4.5 57.5q0 75 20.5 136t58.5 103.5t93.5 66t125.5 23.5z" />
    <glyph glyph-name="guillemotleft" unicode="&#xab;" horiz-adv-x="597" 
d="M274 245l144 206h144l-142 -205l142 -207h-143zM43 245l144 206h144l-142 -205l143 -207h-144z" />
    <glyph glyph-name="guillemotright" unicode="&#xbb;" horiz-adv-x="597" 
d="M185 39h-144l143 207l-143 205h145l144 -206zM415 39h-143l143 207l-142 205h143l144 -206z" />
    <glyph glyph-name="ellipsis" unicode="&#x2026;" horiz-adv-x="855" 
d="M150 -11q-36 0 -61.5 25.5t-25.5 62.5q0 23 8.5 39.5t21 27t28 15.5t30.5 5q38 0 61 -25.5t23 -61.5q0 -18 -6.5 -34t-18 -28t-27 -19t-33.5 -7zM431 -11q-36 0 -60.5 25.5t-24.5 62.5q0 23 8 39.5t21 27t28 15.5t30 5q38 0 61 -25.5t23 -61.5q0 -37 -25 -62.5t-61 -25.5
zM711 -11q-36 0 -61 25.5t-25 62.5q0 23 8 39.5t21 27t28.5 15.5t29.5 5q38 0 61 -25.5t23 -61.5q0 -37 -24.5 -62.5t-60.5 -25.5z" />
    <glyph glyph-name="oe" unicode="&#x153;" horiz-adv-x="880" 
d="M844 203h-305q6 -89 101 -89q28 0 59 8t62 22l54 -102q-50 -30 -96.5 -41.5t-94.5 -11.5q-54 0 -97.5 16.5t-71.5 48.5q-30 -32 -73 -49t-94 -17q-56 0 -101.5 18t-77.5 51.5t-49.5 80.5t-17.5 104q0 60 17.5 107.5t50 80.5t78 51t102.5 18q51 0 93.5 -18t73.5 -49
q29 31 70.5 49t92.5 18q60 0 102.5 -19t69.5 -53t39.5 -81t12.5 -102v-41zM287 372q-43 0 -63.5 -36.5t-20.5 -91.5q0 -61 21.5 -95t65.5 -34q22 0 38 10t26.5 27t15.5 40t5 50q0 58 -21 94t-67 36zM687 291q-2 37 -17.5 62.5t-56.5 25.5q-29 0 -50.5 -22t-23.5 -66h148z
" />
    <glyph glyph-name="endash" unicode="&#x2013;" horiz-adv-x="500" 
d="M26 367h448v-114h-448v114z" />
    <glyph glyph-name="afii00208" unicode="&#x2015;" horiz-adv-x="1000" 
d="M26 370h948v-114h-948v114z" />
    <glyph glyph-name="quotedblleft" unicode="&#x201c;" horiz-adv-x="519" 
d="M239 649q-32 -22 -46.5 -43t-22.5 -48q32 -2 53.5 -22t21.5 -58t-25 -63t-61 -25q-42 0 -68 30t-26 81q0 70 37 120.5t94 84.5zM448 646q-31 -22 -46 -43t-22 -48q32 -1 53 -21.5t21 -58.5t-25 -63t-60 -25q-43 0 -68.5 30t-25.5 81q0 70 37 120.5t93 84.5z" />
    <glyph glyph-name="quotedblright" unicode="&#x201d;" horiz-adv-x="519" 
d="M72 447q31 22 46 43t22 48q-32 1 -53 21.5t-21 57.5q0 39 25 64t60 25q43 0 68.5 -30.5t25.5 -80.5q0 -70 -37 -120.5t-93 -84.5zM281 447q31 22 46 43t22 48q-32 1 -53 21.5t-21 57.5q0 39 25 64t61 25q42 0 67.5 -30.5t25.5 -80.5q0 -70 -37 -120.5t-93 -84.5
q-11 14 -21.5 28.5t-21.5 28.5z" />
    <glyph glyph-name="quoteleft" unicode="&#x2018;" horiz-adv-x="312" 
d="M239 649q-32 -22 -46.5 -43t-22.5 -48q32 -2 53.5 -22t21.5 -58t-25 -63t-61 -25q-42 0 -68 30t-26 81q0 70 37 120.5t94 84.5z" />
    <glyph glyph-name="quoteright" unicode="&#x2019;" horiz-adv-x="312" 
d="M72 447q31 22 46 43t22 48q-32 1 -53 21.5t-21 58.5t25 63t60 25q43 0 68.5 -30t25.5 -81q0 -70 -37 -120.5t-93 -84.5z" />
    <glyph glyph-name="alpha" unicode="&#x3b1;" horiz-adv-x="568" 
d="M384 0l-16 43h-3q-32 -29 -66 -40.5t-68 -11.5q-38 0 -72 14t-60 44t-41.5 76.5t-15.5 111.5q0 66 15.5 115t41.5 81.5t61.5 48.5t75.5 16q34 0 68 -14t57 -38l3 1v42h155v-489h-135zM282 368q-34 0 -55.5 -33.5t-21.5 -96.5q0 -64 20.5 -91t57.5 -27q21 0 42 11.5
t36 27.5v168q-16 18 -36.5 29.5t-42.5 11.5z" />
    <glyph glyph-name="beta" unicode="&#x3b2;" horiz-adv-x="564" 
d="M207 32v-181q-39 -14 -78.5 -28t-78.5 -29v692q0 52 16 93t45 69.5t68.5 44t86.5 15.5q52 0 92 -16t66.5 -41.5t40 -58.5t13.5 -67q0 -18 -5 -37t-14 -37t-22.5 -33t-30.5 -25l1 -1q54 -20 86.5 -69.5t32.5 -112.5q0 -43 -13 -82.5t-38 -70t-61.5 -48.5t-82.5 -18
q-32 0 -64 10.5t-56 30.5h-4zM366 220q0 53 -28 82t-70 29h-24v98q45 3 67.5 27t22.5 57q0 28 -16.5 48.5t-49.5 20.5q-34 0 -47.5 -30.5t-13.5 -72.5v-324q11 -14 32.5 -25t44.5 -11q37 0 59.5 28t22.5 73z" />
    <glyph glyph-name="psi" unicode="&#x3c8;" horiz-adv-x="733" 
d="M445 116q36 5 61.5 30t25.5 73v240l153 56v-290q0 -53 -17.5 -95t-49 -72t-75.5 -48t-98 -21v-147l-156 -57l-1 204q-51 3 -95 20t-76.5 47t-50.5 72.5t-18 96.5v264h154v-270q0 -50 25.5 -74.5t60.5 -29.5v425l157 57v-481z" />
    <glyph glyph-name="delta" unicode="&#x3b4;" horiz-adv-x="568" 
d="M527 231q0 -54 -17 -98.5t-48.5 -76.5t-76.5 -49.5t-101 -17.5t-101.5 16.5t-77 47t-48.5 73t-17 95.5q0 27 7.5 56.5t22.5 58t38.5 53.5t56.5 42v1q-34 23 -55.5 51.5t-21.5 70.5q0 35 14.5 63.5t40.5 49t63 31.5t82 11q51 0 98.5 -11t94.5 -35l-48 -112
q-48 26 -78.5 33t-50.5 7q-23 0 -36 -10.5t-13 -25.5q0 -17 22 -30.5t53 -30.5q36 -20 71.5 -43t63 -53.5t45 -71t17.5 -95.5zM367 221q0 47 -18 81t-65 62q-16 -8 -31.5 -22t-27.5 -32.5t-19 -40.5t-7 -46q0 -52 22 -80.5t61 -28.5q23 0 39 10t26.5 25.5t15 34.5t4.5 37z
" />
    <glyph glyph-name="epsilon" unicode="&#x3b5;" horiz-adv-x="484" 
d="M470 71q-42 -44 -100 -63t-119 -19q-39 0 -77 8.5t-67 26t-47 45t-18 66.5q0 31 19 62.5t59 48.5q-40 14 -57.5 43t-17.5 55q0 39 17.5 68t47 48.5t67 29t77.5 9.5q56 0 107.5 -16.5t89.5 -55.5l-80 -95q-28 29 -53.5 38t-44.5 9q-20 0 -33.5 -5t-21.5 -12t-12 -15
t-4 -13q0 -21 13.5 -29.5t32.5 -8.5h62v-98h-61q-21 0 -36.5 -11.5t-15.5 -28.5q0 -8 3 -16.5t11.5 -16.5t22.5 -13t35 -5q16 0 46 10t70 48l85 -94v0z" />
    <glyph glyph-name="phi" unicode="&#x3c6;" horiz-adv-x="747" 
d="M258 372q-29 -16 -46.5 -46t-17.5 -81q0 -36 8.5 -60.5t22 -40t31.5 -24t37 -12.5v388h152q57 0 104.5 -16.5t82.5 -48t54.5 -78t19.5 -106.5q0 -59 -18 -105.5t-51.5 -79.5t-81 -52t-105.5 -22v-145l-157 -57v202q-57 3 -103.5 22.5t-79.5 52.5t-51 79.5t-18 104.5
q0 59 18 102t44.5 72t55.5 45t51 22zM450 108q15 2 32.5 9t32.5 22t25 40t10 63q0 56 -24 93t-76 41v-268z" />
    <glyph glyph-name="gamma" unicode="&#x3b3;" horiz-adv-x="531" 
d="M343 24v-180l-158 -57v246l-178 455h162q7 -23 20 -63.5t28 -85.5q8 -24 15.5 -48.5t14 -47t11.5 -41.5t9 -32h2q12 42 24.5 86t25.5 86l46 146h158z" />
    <glyph glyph-name="eta" unicode="&#x3b7;" horiz-adv-x="560" 
d="M516 0h-158v270q0 51 -19 72t-51 21q-28 0 -48 -14.5t-28 -43.5q-2 -9 -4 -20.5t-2 -24.5v-260h-157v488h157v-51h4q25 29 62.5 45t69.5 16q47 0 80 -14t54 -39.5t30.5 -62.5t9.5 -82v-300z" />
    <glyph glyph-name="iota" unicode="&#x3b9;" horiz-adv-x="290" 
d="M66 489h158v-489h-158v489z" />
    <glyph glyph-name="xi" unicode="&#x3be;" horiz-adv-x="449" 
d="M189 205q0 -22 8.5 -37.5t23 -27t34 -20t42.5 -15.5q48 -16 77 -28.5t44.5 -25.5t21 -27t5.5 -33q0 -38 -32.5 -89.5t-85.5 -101.5l-90 64q21 31 34.5 55.5t13.5 33.5q0 6 -11 11.5t-27 10.5q-48 15 -87.5 30.5t-68 39t-44 57.5t-15.5 86q0 24 6.5 50t20 50t34.5 44.5
t50 34.5v4q-30 12 -49 29.5t-29.5 38t-14.5 41t-4 37.5q0 45 17.5 80.5t47.5 60.5t69.5 38t83.5 13q25 0 52.5 -3t54.5 -10.5t52 -21t45 -35.5q-19 -25 -38 -49.5t-38 -50.5q-22 20 -51 31t-59 11q-36 0 -59.5 -20.5t-23.5 -55.5q0 -20 8.5 -35t21.5 -25t29 -14.5t31 -4.5
h108v-110h-98q-50 0 -80 -31t-30 -80z" />
    <glyph glyph-name="kappa" unicode="&#x3ba;" horiz-adv-x="557" 
d="M370 0l-100 208q-17 -19 -32.5 -37.5t-31.5 -37.5v-133h-157v487h157v-160h2l45 54l90 106h183q-37 -40 -73 -80t-73 -81q42 -81 84 -163t85 -163h-179z" />
    <glyph glyph-name="lambda" unicode="&#x3bb;" horiz-adv-x="541" 
d="M271 283q-7 -22 -14.5 -47.5t-15.5 -48.5l-6.5 -19.5t-10.5 -30.5t-18.5 -52.5t-30.5 -84.5h-160l187 469l-19 70q-6 23 -17 35t-45 12h-11t-18 -2l-5 121q25 8 45.5 11t37.5 3q38 0 63 -9t42 -25t27.5 -38t19.5 -49l146 -460q3 -10 6 -15.5t8.5 -8.5t13.5 -3.5t21 -0.5
l3 -111q-23 -5 -41.5 -6t-29.5 -1q-33 0 -54.5 6t-35 18.5t-22 31.5t-15.5 46l-25 96l-22 93h-4z" />
    <glyph glyph-name="mu" unicode="&#xb5;" horiz-adv-x="563" 
d="M356 0v49h-3q-45 -49 -96 -49q-28 0 -49 10h-1v-166l-158 -57v701h159v-268q0 -28 5 -46.5t14.5 -29.5t22.5 -15.5t28 -4.5q52 0 70 50q5 11 6.5 25t1.5 30v259h158v-488h-158z" />
    <glyph glyph-name="mu" unicode="&#x3bc;" horiz-adv-x="563" 
d="M356 0v49h-3q-45 -49 -96 -49q-28 0 -49 10h-1v-166l-158 -57v701h159v-268q0 -28 5 -46.5t14.5 -29.5t22.5 -15.5t28 -4.5q52 0 70 50q5 11 6.5 25t1.5 30v259h158v-488h-158z" />
    <glyph glyph-name="nu" unicode="&#x3bd;" horiz-adv-x="552" 
d="M194 0l-186 488h162l67 -207l41 -132h3l41 136l66 203h157l-184 -488h-167z" />
    <glyph glyph-name="pi" unicode="&#x3c0;" horiz-adv-x="568" 
d="M361 369h-155v-369h-157v489h470v-489h-158v369z" />
    <glyph glyph-name="rho" unicode="&#x3c1;" horiz-adv-x="573" 
d="M531 246q0 -50 -11.5 -96.5t-35.5 -82t-62.5 -56.5t-92.5 -21q-13 0 -29 2.5t-32.5 7.5t-32 14t-27.5 21h-2v-192q-40 -14 -79.5 -28t-78.5 -28v458q0 48 13.5 94t42 82t72.5 58t104 23q63 0 110.5 -19.5t78.5 -54t46.5 -81t15.5 -101.5zM368 241q0 22 -3.5 44.5
t-12.5 41t-24 30t-39 11.5q-26 0 -42 -11t-25 -26.5t-12.5 -34t-3.5 -33.5v-105q17 -18 37.5 -28.5t42.5 -10.5q35 0 58.5 28t23.5 94z" />
    <glyph glyph-name="sigma" unicode="&#x3c3;" horiz-adv-x="599" 
d="M492 365q22 -25 32.5 -60.5t10.5 -64.5q0 -59 -17.5 -105.5t-50 -79t-78.5 -50t-102 -17.5t-101.5 18t-77.5 50.5t-49 79t-17 103.5q0 58 17.5 104.5t49.5 78.5t78 49t102 17h287v-119h-82zM287 363q-44 0 -64.5 -36t-20.5 -87q0 -59 22 -92.5t65 -33.5q22 0 37.5 10
t26 27.5t15.5 40t5 47.5q0 54 -21 89t-65 35z" />
    <glyph glyph-name="tau" unicode="&#x3c4;" horiz-adv-x="435" 
d="M400 488v-119h-126v-173q0 -38 11 -53t46 -15q12 0 26.5 1t33.5 3q0 -6 1.5 -24t3.5 -38t3.5 -38t2.5 -24q-35 -10 -70.5 -14.5t-66.5 -4.5q-76 0 -112 38t-36 132v210h-98v119h381z" />
    <glyph glyph-name="theta" unicode="&#x3b8;" horiz-adv-x="587" 
d="M292 -13q-124 0 -187 95t-63 268q0 86 17.5 153t50.5 112.5t79.5 69t103.5 23.5q58 0 104.5 -24.5t79.5 -71t50.5 -112.5t17.5 -148q0 -176 -66.5 -270.5t-186.5 -94.5zM208 302q0 -98 22 -144t64 -46q44 0 64 48t20 142h-170zM292 582q-38 0 -59 -39t-24 -124h168
q-2 85 -24.5 124t-60.5 39z" />
    <glyph glyph-name="omega" unicode="&#x3c9;" horiz-adv-x="788" 
d="M393 62q-21 -33 -55.5 -52.5t-76.5 -19.5q-103 0 -161 66t-58 190q0 42 13.5 84t40 77t66 60t90.5 34l43 -114q-29 -9 -47 -26.5t-28 -38t-13.5 -41.5t-3.5 -37q0 -72 20.5 -101t47.5 -29t42.5 20t15.5 53v119h131v-121q0 -34 16 -52.5t42 -18.5q13 0 25.5 6.5t21.5 21.5
t14.5 40t5.5 61q0 16 -3.5 37t-13.5 41.5t-28 38t-46 26.5l43 114q52 -9 91 -34.5t65 -60.5t39.5 -77t13.5 -83q0 -59 -15 -106t-43 -80t-68.5 -51t-91.5 -18q-41 0 -76.5 19.5t-55.5 52.5h-3z" />
    <glyph glyph-name="sigma1" unicode="&#x3c2;" horiz-adv-x="473" 
d="M201 226q0 -24 6 -41.5t18 -30.5t30.5 -23t43.5 -20q42 -17 68 -30.5t39.5 -26t18 -26t4.5 -29.5q0 -40 -31.5 -90.5t-86.5 -103.5l-90 65q23 32 35.5 56t12.5 34q0 4 -4 8t-18 9q-51 16 -89.5 36t-64.5 48.5t-39 69.5t-13 99q0 59 15 108t44.5 84.5t73 55.5t100.5 20
q48 0 97.5 -15.5t88.5 -57.5l-78 -99q-27 26 -48.5 34t-42.5 8q-41 0 -65.5 -38t-24.5 -104z" />
    <glyph glyph-name="upsilon" unicode="&#x3c5;" horiz-adv-x="569" 
d="M286 -12q-111 0 -175 58.5t-64 170.5v272h159v-271q0 -104 78 -104q43 0 62 26t19 78v271l158 -1v-271q0 -111 -62.5 -170t-174.5 -59z" />
    <glyph glyph-name="zeta" unicode="&#x3b6;" horiz-adv-x="453" 
d="M275 570q-10 1 -20.5 1h-21.5h-157v117h397v-118q-61 -42 -112 -87.5t-87.5 -90.5t-56.5 -89t-20 -84q0 -17 4.5 -32t16.5 -28.5t33.5 -26t56.5 -24.5q44 -15 73.5 -27.5t47 -26t25 -29t7.5 -34.5q0 -20 -11 -45.5t-28 -52.5t-38.5 -52.5t-42.5 -43.5q-23 17 -45 33
t-45 32q22 32 35 57t13 35q0 6 -8 9.5t-33 11.5q-102 25 -161.5 77.5t-59.5 144.5q0 46 18 96t50 99t75.5 95t94.5 83z" />
    <glyph glyph-name="Euro" unicode="&#x20ac;" horiz-adv-x="650" 
d="M473 293v-83h-172q9 -40 38 -58t67 -18q27 0 56 12t53 38l108 -110q-36 -37 -90 -61.5t-128 -24.5q-115 0 -187 57t-97 165h-61v83h413zM60 340v83h56q11 54 35 98.5t60.5 75.5t85 48t108.5 17q67 0 116.5 -18.5t84.5 -50.5l-98 -122q-23 26 -50 35.5t-53 9.5
q-43 0 -72 -25.5t-40 -67.5h180v-83h-413z" />
    <glyph glyph-name="AE" unicode="&#xc6;" horiz-adv-x="974" 
d="M465 136h-201l-77 -136h-185l370 651h566v-139h-295v-107h197v-138h-197v-129h305v-138h-483v136zM329 259h136v253z" />
    <glyph glyph-name="Thorn" unicode="&#xde;" horiz-adv-x="590" 
d="M219 111v-111h-165v651h164v-108h132q50 0 92.5 -13t73.5 -39.5t48.5 -66t17.5 -93.5q0 -55 -18 -96t-50 -68.5t-76 -41.5t-96 -14h-123zM218 404v-155h100q20 0 37 3.5t29.5 12.5t19.5 24.5t7 38.5q0 22 -7.5 36.5t-20 23.5t-29 12.5t-34.5 3.5h-102z" />
    <glyph glyph-name="paragraph" unicode="&#xb6;" horiz-adv-x="557" 
d="M507 -17q0 -51 -12 -89.5t-39 -64t-71 -38.5t-108 -14l-10 109q35 6 57.5 14.5t35.5 22t18 32.5t5 46v648h124v-666zM230 247q-43 0 -79.5 15.5t-63 42.5t-41.5 63t-15 78t15 78.5t42 64.5t63.5 44t78.5 16h87v-402h-87z" />
    <glyph glyph-name="OE" unicode="&#x152;" horiz-adv-x="921" 
d="M347 662q46 0 88 -11h444v-138h-305v-107h207v-139h-207v-128h316v-139h-452q-42 -12 -93 -12q-74 0 -129 24.5t-92 69t-55.5 106t-18.5 135.5q0 75 18.5 137.5t56 107.5t93 69.5t129.5 24.5zM347 133q36 0 63 19v345q-28 20 -65 20q-32 0 -56 -15t-39.5 -40.5t-23 -60
t-7.5 -74.5q0 -42 8 -77.5t24 -61.5t40 -40.5t56 -14.5z" />
    <glyph glyph-name="ae" unicode="&#xe6;" horiz-adv-x="834" 
d="M798 203h-305q7 -89 101 -89q28 0 59.5 8.5t61.5 22.5l54 -103q-51 -30 -97 -41.5t-94 -11.5q-57 0 -103 15.5t-74 50.5q-51 -39 -94 -53.5t-91 -14.5q-40 0 -74 9.5t-58.5 29.5t-38.5 50.5t-14 71.5q0 40 16.5 70.5t42.5 50.5t59.5 30t68.5 10q31 0 57 -4.5t57 -16.5
q0 3 0.5 12t0.5 14q1 29 -20.5 46t-61.5 17q-31 0 -65.5 -7.5t-68.5 -21.5l-38 113q43 19 97 29t105 10t87.5 -11.5t62.5 -33.5q29 21 64.5 32.5t77.5 11.5q60 0 102.5 -19.5t70 -53.5t40 -80t12.5 -100v-43zM255 105q22 0 49 10.5t43 24.5q-5 11 -7.5 23.5t-4.5 26.5
q-14 8 -34.5 14t-42.5 6q-27 0 -47 -13t-20 -40q0 -26 18 -39t46 -13zM640 291q-1 18 -5 34t-12.5 27.5t-22 18.5t-34.5 7q-29 0 -50 -22t-23 -65h147z" />
    <glyph glyph-name="thorn" unicode="&#xfe;" horiz-adv-x="565" 
d="M526 240q0 -66 -17 -113.5t-45.5 -78t-64.5 -44.5t-73 -14q-68 0 -116 42h-4v-185l-158 -57v860h157v-204h3q26 24 61 38t68 14q40 0 74.5 -14.5t60 -45.5t40 -80t14.5 -118zM363 245q-1 63 -20.5 93t-54.5 30q-22 0 -43.5 -10.5t-38.5 -29.5v-170q16 -17 36 -28t41 -11
q38 0 59 28.5t21 97.5z" />
    <glyph glyph-name="plusminus" unicode="&#xb1;" horiz-adv-x="650" 
d="M391 380v-155h-140v155h-161v124h161v157h140v-157h163v-124h-163zM89 62v121h458v-121h-458z" />
    <glyph glyph-name="macron" unicode="&#xaf;" horiz-adv-x="467" 
d="M103 679h286v-111h-286v111z" />
    <glyph glyph-name="logicalnot" unicode="&#xac;" horiz-adv-x="650" 
d="M554 94h-144v157h-315v129h459v-286z" />
    <glyph glyph-name="onesuperior" unicode="&#xb9;" horiz-adv-x="409" 
d="M152 322v285h-57v84q37 3 52 16t21 34h110v-419h-126z" />
    <glyph glyph-name="questiondown" unicode="&#xbf;" horiz-adv-x="526" 
d="M41 4q0 47 19.5 77.5t42.5 53.5l29 29t25.5 30t19.5 35t11 43h150q-1 -58 -18.5 -92.5t-43.5 -62.5q-12 -12 -25 -24t-24 -25t-18 -27.5t-7 -30.5q0 -18 17 -38t49 -20q22 0 36 9.5t22.5 24.5t12.5 32.5t4 33.5h155q-1 -57 -20.5 -101t-52.5 -73.5t-75.5 -44.5t-89.5 -15
q-49 0 -89 14t-69 39t-45 59t-16 74zM349 403q0 -24 -8.5 -40.5t-21.5 -27t-28.5 -15t-29.5 -4.5q-38 0 -60.5 25.5t-22.5 60.5q0 37 24.5 62.5t60.5 25.5t61 -25t25 -62z" />
    <glyph glyph-name="multiply" unicode="&#xd7;" horiz-adv-x="650" 
d="M230 311l-136 136l17 17l30.5 30.5t31 30.5t17.5 17l135 -136l134 135q2 -3 16 -17t30.5 -30t31 -30t16.5 -17l-136 -135l135 -134q-3 -2 -17 -16.5t-30 -31t-30 -30.5t-16 -17l-135 135l-135 -136l-94 94z" />
    <glyph glyph-name="eth" unicode="&#xf0;" horiz-adv-x="587" 
d="M438 735l52 -42l-52 -59q59 -51 85 -126t27 -165q0 -57 -10 -119.5t-38.5 -114.5t-80.5 -86t-137 -34q-53 0 -97.5 17t-76.5 48.5t-50 76.5t-18 101q0 52 17.5 96t49 76t75 50.5t96.5 18.5q29 0 62 -12t59 -36h1q-8 66 -50 110l-44 -49q-12 11 -25 22t-26 23l37 42
q-22 13 -49 20.5t-59 10.5q3 29 6.5 57t7.5 57q55 -2 100 -14t82 -32zM375 233q0 50 -22.5 82t-67.5 32q-38 0 -61.5 -31.5t-23.5 -83.5q0 -63 24.5 -91t62.5 -28q36 0 62 31.5t26 88.5z" />
    <glyph glyph-name="oslash" unicode="&#xf8;" horiz-adv-x="579" 
d="M288 -12q-83 0 -141 38l-38 -46l-41 32l39 47q-32 34 -48.5 80t-16.5 103q0 60 17.5 107.5t50 80.5t78 51t102.5 18q84 0 144 -40l37 45l41 -32l-38 -47q30 -33 46.5 -78.5t16.5 -102.5q0 -59 -18 -106.5t-50.5 -80.5t-78.5 -51t-102 -18zM287 372q-43 0 -63.5 -36.5
t-20.5 -91.5q0 -34 6 -59l135 164q-21 23 -57 23zM375 242q0 31 -6 55l-133 -162q22 -20 54 -20q22 0 38 10t26.5 27t15.5 40t5 50z" />
    <glyph glyph-name="divide" unicode="&#xf7;" horiz-adv-x="650" 
d="M92 247v128h465v-128h-465zM404 496q0 -15 -6 -28.5t-17 -24.5t-25.5 -17.5t-31.5 -6.5q-34 0 -57 22.5t-23 54.5q0 34 23 56t57 22t57 -22t23 -56zM404 122q0 -15 -6 -28.5t-17 -24t-25.5 -17t-31.5 -6.5q-34 0 -57 22t-23 54q0 34 23 56.5t57 22.5t57 -22t23 -57z" />
    <glyph glyph-name="cent" unicode="&#xa2;" horiz-adv-x="650" 
d="M108 243q0 106 50 172.5t147 80.5v102h83v-102q36 -5 71.5 -22t67.5 -51l-90 -101q-25 26 -43.5 35.5t-41.5 9.5q-42 0 -63 -32t-21 -86q0 -57 21 -92t64 -35q45 0 94 50l89 -98q-32 -35 -70 -54.5t-78 -25.5v-106h-83v104q-96 12 -146.5 78.5t-50.5 172.5z" />
    <glyph glyph-name="exclamdown" unicode="&#xa1;" horiz-adv-x="321" 
d="M223 263l22 -237v-197h-160v197l22 237h116zM164 491q36 0 60.5 -25.5t24.5 -62.5q0 -38 -23.5 -62.5t-60.5 -24.5q-15 0 -30 5t-28 15.5t-21 27t-8 39.5q0 37 25 62.5t61 25.5z" />
    <glyph glyph-name="emdash" unicode="&#x2014;" horiz-adv-x="1000" 
d="M26 370h948v-114h-948v114z" />
    <glyph glyph-name="guilsinglleft" unicode="&#x2039;" horiz-adv-x="498" 
d="M252 36l-144 206l144 206h145l-143 -205l143 -207h-145z" />
    <glyph glyph-name="guilsinglright" unicode="&#x203a;" horiz-adv-x="498" 
d="M112 39l144 207l-143 205h145l144 -206l-145 -206h-145z" />
    <glyph glyph-name="currency" unicode="&#xa4;" horiz-adv-x="650" 
d="M124 410l-33.5 33.5l-33.5 33.5l80 81l66 -66q24 13 51.5 20t56.5 7q28 0 55.5 -7t52.5 -22q17 17 33 34l32 34l81 -81l-67 -66q28 -50 28 -106q0 -27 -8 -55t-21 -52l34 -32t34 -33l-81 -81l-66 67q-49 -29 -107 -29t-108 29l-66 -67l-80 81l67 66q-28 47 -28 106
q0 27 7 54.5t21 50.5zM210 305q0 -21 8 -39.5t21.5 -32t31.5 -21.5t39 -8t39 8t32 21.5t22 32t8 39.5t-8 39t-21.5 32t-32 22t-39.5 8t-39 -8t-31.5 -22t-21.5 -32t-8 -39z" />
    <glyph glyph-name="quotesinglbase" unicode="&#x201a;" horiz-adv-x="289" 
d="M59 -95q31 22 46 43t22 47q-32 2 -53 22t-21 57q0 38 25 63.5t60 25.5q43 0 68.5 -30.5t25.5 -81.5q0 -34 -10 -63.5t-27.5 -55t-41 -46.5t-51.5 -38l-43 57v0z" />
    <glyph glyph-name="quotedblbase" unicode="&#x201e;" horiz-adv-x="521" 
d="M62 -95q31 22 46 43t22 47q-32 2 -53 22t-21 57q0 38 25 63.5t61 25.5q42 0 67.5 -30.5t25.5 -81.5q0 -69 -36.5 -119t-93.5 -84q-11 14 -21.5 28.5t-21.5 28.5zM292 -95q31 22 45.5 43t22.5 47q-32 2 -53.5 22t-21.5 57q0 38 25 63.5t61 25.5q43 0 68.5 -30.5
t25.5 -81.5q0 -34 -10 -64t-27.5 -55.5t-41 -46.5t-51.5 -37q-11 14 -21.5 28.5t-21.5 28.5z" />
    <glyph glyph-name="daggerdbl" unicode="&#x2021;" horiz-adv-x="561" 
d="M359 96v-187h-150v187h-163v117h163v129h-161v128h161v181h150v-180h161v-128h-161v-130h160v-117h-160z" />
    <glyph glyph-name="florin" unicode="&#x192;" horiz-adv-x="650" 
d="M161 426h95q6 43 16 89.5t32.5 84t61 62t102.5 24.5q32 0 64.5 -7t52.5 -17q-10 -31 -18.5 -61t-17.5 -61q-18 6 -31 8t-25 2q-23 0 -37.5 -10t-23.5 -27.5t-14 -40t-9 -46.5h93v-116h-109q-2 -14 -6 -41t-8.5 -56t-8.5 -56t-6 -41q-7 -46 -18.5 -85.5t-33 -69t-55 -46
t-84.5 -16.5q-24 0 -59 7t-63 20l39 118q14 -4 26 -7t23 -3q29 0 45.5 26.5t26.5 67t15.5 89.5t11.5 93h-77v116z" />
    <glyph glyph-name="brokenbar" unicode="&#xa6;" horiz-adv-x="300" 
d="M82 301v447h141v-447h-141zM82 -222v448h141v-448h-141z" />
    <glyph glyph-name="acute" unicode="&#xb4;" horiz-adv-x="513" 
d="M260 533l-87 28l80 200l145 -27z" />
    <glyph glyph-name="tilde" unicode="&#x2dc;" horiz-adv-x="534" 
d="M349 550q-17 0 -37.5 8t-41.5 17.5t-40.5 17.5t-34.5 8q-17 0 -32 -9.5t-35 -39.5l-67 31q12 36 28 61t34 40t37 21.5t37 6.5q20 0 42 -8t43.5 -17.5t41 -17.5t34.5 -8q17 0 30 9.5t32 34.5l64 -30q-25 -72 -60.5 -98.5t-74.5 -26.5z" />
    <glyph glyph-name="Oslash" unicode="&#xd8;" horiz-adv-x="679" 
d="M338 -12q-58 0 -104.5 15t-81.5 43l-51 -63l-46 37l55 68q-34 45 -51 104t-17 131q0 75 18.5 137.5t56 107.5t93.5 69.5t130 24.5q114 0 186 -60l55 68l47 -38l-59 -73q34 -44 51 -103.5t17 -131.5q0 -77 -19.5 -139t-57.5 -105.5t-93.5 -67.5t-128.5 -24zM338 517
q-33 0 -56.5 -15t-39 -40.5t-23 -60t-7.5 -74.5q0 -27 3 -51.5t10 -45.5l200 247q-16 19 -37.5 29.5t-49.5 10.5zM466 326q0 51 -12 92l-199 -246q31 -39 85 -39q32 0 56 15.5t39.5 42t23 61.5t7.5 74z" />
    <glyph glyph-name="circumflex" unicode="&#x2c6;" horiz-adv-x="540" 
d="M269 624l-147 -103l-60 55l150 154h118l149 -154l-62 -56z" />
    <glyph glyph-name="Dcroat" unicode="&#x110;" horiz-adv-x="658" 
d="M57 0v278h-49v87h49v286h224q69 0 129.5 -17.5t105.5 -56t71 -100.5t26 -150q0 -89 -26.5 -151t-72 -101t-107.5 -57t-132 -18h-218zM223 512v-147h93v-87h-93v-140h39q88 0 134.5 46t46.5 141t-46.5 141t-137.5 46h-36z" />
    <glyph glyph-name="lslash" unicode="&#x142;" horiz-adv-x="338" 
d="M-7 266l90 52v343l159 58v-307l60 35l44 -76l-104 -61v-310h-159v218l-46 -27z" />
    <glyph glyph-name="Lslash" unicode="&#x141;" horiz-adv-x="563" 
d="M-5 251l90 51v349h164v-254l96 55l43 -75l-139 -81v-158h309v-138h-473v201l-45 -26z" />
    <glyph glyph-name="dcroat" unicode="&#x111;" horiz-adv-x="575" 
d="M41 225q0 66 17 112.5t45 76t64 43t74 13.5q68 0 116 -43h4v84h-125v81h125v68q39 15 78.5 29.5t79.5 28.5v-126h44v-81h-44v-511h-157v41q-1 0 -1.5 0.5t-1.5 0.5q-28 -27 -62 -39.5t-67 -12.5q-39 0 -73.5 13t-60 41t-40.5 73t-15 108zM204 226q0 -54 20 -80.5
t55 -26.5q21 0 43 11t39 30v141q-16 17 -36 28.5t-41 11.5q-36 0 -58 -26.5t-22 -88.5z" />
    <glyph glyph-name="dotaccent" unicode="&#x2d9;" horiz-adv-x="405" 
d="M126 631q0 34 23.5 58t57.5 24t58 -24t24 -58q0 -35 -24 -59t-58 -24t-57.5 24t-23.5 59z" />
    <glyph glyph-name="ogonek" unicode="&#x2db;" horiz-adv-x="365" 
d="M206 3q-40 -55 -40 -95q0 -23 15 -33.5t38 -10.5q29 0 61 12q5 -17 11.5 -34.5t11.5 -34.5q-22 -12 -53 -19.5t-59 -7.5q-50 0 -82.5 26.5t-32.5 73.5q0 23 13 55.5t48 70.5h69v-3z" />
    <glyph glyph-name="hungarumlaut" unicode="&#x2dd;" horiz-adv-x="626" 
d="M268 538l-87 29l78 195l146 -27zM457 533l-86 28l78 196l144 -27z" />
    <glyph glyph-name="caron" unicode="&#x2c7;" horiz-adv-x="487" 
d="M395 745l63 -54l-149 -155h-118l-150 155l60 54l147 -103z" />
    <glyph glyph-name="breve" unicode="&#x2d8;" horiz-adv-x="533" 
d="M202 711q5 -29 23.5 -49t49.5 -20q16 0 29 6.5t21 16.5t12.5 22.5t4.5 23.5h109q0 -25 -8.5 -54.5t-29 -55t-54 -43t-84.5 -17.5t-85.5 17.5t-55.5 43t-29.5 55t-8.5 54.5h106z" />
    <glyph glyph-name="uni1F00" unicode="&#x1f00;" horiz-adv-x="568" 
d="M384 0l-16 43h-3q-32 -29 -66 -40.5t-68 -11.5q-38 0 -72 14t-60 44t-41.5 76.5t-15.5 111.5q0 66 15.5 115t41.5 81.5t61.5 48.5t75.5 16q34 0 68 -14t57 -38l3 1v42h155v-489h-135zM282 368q-34 0 -55.5 -33.5t-21.5 -96.5q0 -64 20.5 -91t57.5 -27q21 0 42 11.5
t36 27.5v168q-16 18 -36.5 29.5t-42.5 11.5zM231 561q14 20 21.5 40t7.5 37q0 19 -13 36.5t-54 24.5l48 107q66 -13 99.5 -47.5t33.5 -85.5q0 -24 -15 -62t-54 -75z" />
    <glyph glyph-name="uni1F01" unicode="&#x1f01;" horiz-adv-x="568" 
d="M384 0l-16 43h-3q-32 -29 -66 -40.5t-68 -11.5q-38 0 -72 14t-60 44t-41.5 76.5t-15.5 111.5q0 66 15.5 115t41.5 81.5t61.5 48.5t75.5 16q34 0 68 -14t57 -38l3 1v42h155v-489h-135zM282 368q-34 0 -55.5 -33.5t-21.5 -96.5q0 -64 20.5 -91t57.5 -27q21 0 42 11.5
t36 27.5v168q-16 18 -36.5 29.5t-42.5 11.5zM270 535q-39 36 -54.5 75t-15.5 63q0 51 35.5 87t106.5 44l36 -108q-42 -7 -53 -23t-11 -35q0 -17 8 -37t21 -40z" />
    <glyph glyph-name="uni1F02" unicode="&#x1f02;" horiz-adv-x="568" 
d="M384 0l-16 43h-3q-32 -29 -66 -40.5t-68 -11.5q-38 0 -72 14t-60 44t-41.5 76.5t-15.5 111.5q0 66 15.5 115t41.5 81.5t61.5 48.5t75.5 16q34 0 68 -14t57 -38l3 1v42h155v-489h-135zM282 368q-34 0 -55.5 -33.5t-21.5 -96.5q0 -64 20.5 -91t57.5 -27q21 0 42 11.5
t36 27.5v168q-16 18 -36.5 29.5t-42.5 11.5zM131 562q13 20 21 40t8 36q0 20 -13 37.5t-55 24.5l48 107q66 -13 100 -48t34 -86q0 -23 -15.5 -61.5t-53.5 -74.5zM269 771l148 28l81 -227l-88 -26z" />
    <glyph glyph-name="uni1F04" unicode="&#x1f04;" horiz-adv-x="568" 
d="M384 0l-16 43h-3q-32 -29 -66 -40.5t-68 -11.5q-38 0 -72 14t-60 44t-41.5 76.5t-15.5 111.5q0 66 15.5 115t41.5 81.5t61.5 48.5t75.5 16q34 0 68 -14t57 -38l3 1v42h155v-489h-135zM282 368q-34 0 -55.5 -33.5t-21.5 -96.5q0 -64 20.5 -91t57.5 -27q21 0 42 11.5
t36 27.5v168q-16 18 -36.5 29.5t-42.5 11.5zM161 563q14 20 21.5 40.5t7.5 36.5q0 10 -2.5 19.5t-10 17.5t-20.5 14.5t-34 9.5l47 108q66 -14 100 -48.5t34 -85.5q0 -24 -15 -62.5t-54 -74.5zM397 538l-88 26l82 226l147 -28z" />
    <glyph glyph-name="uni1F03" unicode="&#x1f03;" horiz-adv-x="568" 
d="M384 0l-16 43h-3q-32 -29 -66 -40.5t-68 -11.5q-38 0 -72 14t-60 44t-41.5 76.5t-15.5 111.5q0 66 15.5 115t41.5 81.5t61.5 48.5t75.5 16q34 0 68 -14t57 -38l3 1v42h155v-489h-135zM282 368q-34 0 -55.5 -33.5t-21.5 -96.5q0 -64 20.5 -91t57.5 -27q21 0 42 11.5
t36 27.5v168q-16 18 -36.5 29.5t-42.5 11.5zM154 538q-39 36 -54 75t-15 63q0 51 35.5 87t105.5 44l36 -108q-41 -7 -52 -23t-11 -35q0 -17 7.5 -37t21.5 -40zM260 776l149 28l81 -226l-87 -26z" />
    <glyph glyph-name="uni1F05" unicode="&#x1f05;" horiz-adv-x="568" 
d="M384 0l-16 43h-3q-32 -29 -66 -40.5t-68 -11.5q-38 0 -72 14t-60 44t-41.5 76.5t-15.5 111.5q0 66 15.5 115t41.5 81.5t61.5 48.5t75.5 16q34 0 68 -14t57 -38l3 1v42h155v-489h-135zM282 368q-34 0 -55.5 -33.5t-21.5 -96.5q0 -64 20.5 -91t57.5 -27q21 0 42 11.5
t36 27.5v168q-16 18 -36.5 29.5t-42.5 11.5zM189 535q-39 36 -54 75t-15 63q0 51 35.5 87.5t105.5 44.5l35 -108q-21 -3 -33 -9t-19 -14t-9 -17t-2 -19q0 -16 7.5 -36.5t21.5 -40.5zM382 537l-88 26l81 226l149 -28z" />
    <glyph glyph-name="uni1F06" unicode="&#x1f06;" horiz-adv-x="568" 
d="M384 0l-16 43h-3q-32 -29 -66 -40.5t-68 -11.5q-38 0 -72 14t-60 44t-41.5 76.5t-15.5 111.5q0 66 15.5 115t41.5 81.5t61.5 48.5t75.5 16q34 0 68 -14t57 -38l3 1v42h155v-489h-135zM282 368q-34 0 -55.5 -33.5t-21.5 -96.5q0 -64 20.5 -91t57.5 -27q21 0 42 11.5
t36 27.5v168q-16 18 -36.5 29.5t-42.5 11.5zM367 728q-17 0 -36.5 7t-39.5 15.5t-39 15.5t-34 7q-14 0 -30.5 -7t-41.5 -38l-57 31q23 65 58.5 93.5t68.5 28.5q20 0 41.5 -7t42.5 -16t40 -16t34 -7q16 0 30.5 8t36.5 33l56 -30q-23 -66 -57.5 -92t-72.5 -26zM246 723
q65 -4 98.5 -30t33.5 -65q0 -32 -30 -62t-90 -44l-20 42q17 8 29 18.5t12 21.5q0 15 -11.5 24t-47.5 18z" />
    <glyph glyph-name="uni1F07" unicode="&#x1f07;" horiz-adv-x="568" 
d="M384 0l-16 43h-3q-32 -29 -66 -40.5t-68 -11.5q-38 0 -72 14t-60 44t-41.5 76.5t-15.5 111.5q0 66 15.5 115t41.5 81.5t61.5 48.5t75.5 16q34 0 68 -14t57 -38l3 1v42h155v-489h-135zM282 368q-34 0 -55.5 -33.5t-21.5 -96.5q0 -64 20.5 -91t57.5 -27q21 0 42 11.5
t36 27.5v168q-16 18 -36.5 29.5t-42.5 11.5zM360 728q-17 0 -36.5 7t-39.5 15.5t-39 15.5t-34 7t-31 -7t-41 -38l-57 31q23 65 58.5 93.5t68.5 28.5q20 0 41.5 -7t42.5 -16t40 -16t34 -7q16 0 30.5 8t36.5 33l56 -30q-23 -66 -57.5 -92t-72.5 -26zM360 646q-34 -10 -45 -19
t-11 -23q0 -11 11.5 -21t28.5 -17l-17 -43q-65 11 -95 39t-28 63q2 38 34.5 65.5t97.5 30.5z" />
    <glyph glyph-name="uni1F08" unicode="&#x1f08;" horiz-adv-x="687" 
d="M462 129h-239l-42 -129h-171l240 651h191l240 -651h-176zM342 494q-2 -5 -7.5 -23t-12 -38t-12 -37.5t-6.5 -21.5l-41 -122h159l-43 132q-2 4 -6.5 20t-10.5 34t-11 34.5t-6 21.5h-3zM-19 454q14 20 21.5 40t7.5 37q0 19 -13 36.5t-54 24.5l48 107q66 -13 99.5 -47.5
t33.5 -85.5q0 -24 -15 -62t-54 -75z" />
    <glyph glyph-name="uni1F09" unicode="&#x1f09;" horiz-adv-x="687" 
d="M462 129h-239l-42 -129h-171l240 651h191l240 -651h-176zM342 494q-2 -5 -7.5 -23t-12 -38t-12 -37.5t-6.5 -21.5l-41 -122h159l-43 132q-2 4 -6.5 20t-10.5 34t-11 34.5t-6 21.5h-3zM24 436q-39 36 -54.5 75t-15.5 63q0 51 35.5 87t106.5 44l36 -108q-42 -7 -53 -23
t-11 -35q0 -17 8 -37t21 -40z" />
    <glyph glyph-name="uni1F0A" unicode="&#x1f0a;" horiz-adv-x="687" 
d="M462 129h-239l-42 -129h-171l240 651h191l240 -651h-176zM342 494q-2 -5 -7.5 -23t-12 -38t-12 -37.5t-6.5 -21.5l-41 -122h159l-43 132q-2 4 -6.5 20t-10.5 34t-11 34.5t-6 21.5h-3zM-214 471q13 20 21 40t8 36q0 20 -13 37.5t-55 24.5l48 107q66 -13 100 -48t34 -86
q0 -23 -15.5 -61.5t-53.5 -74.5zM-76 680l148 28l81 -227l-88 -26z" />
    <glyph glyph-name="uni1F0C" unicode="&#x1f0c;" horiz-adv-x="687" 
d="M462 129h-239l-42 -129h-171l240 651h191l240 -651h-176zM342 494q-2 -5 -7.5 -23t-12 -38t-12 -37.5t-6.5 -21.5l-41 -122h159l-43 132q-2 4 -6.5 20t-10.5 34t-11 34.5t-6 21.5h-3zM-187 464q14 20 21.5 40.5t7.5 36.5q0 10 -2.5 19.5t-10 17.5t-20.5 14.5t-34 9.5
l47 108q66 -14 100 -48.5t34 -85.5q0 -24 -15 -62.5t-54 -74.5zM49 439l-88 26l82 226l147 -28z" />
    <glyph glyph-name="uni1F0B" unicode="&#x1f0b;" horiz-adv-x="687" 
d="M462 129h-239l-42 -129h-171l240 651h191l240 -651h-176zM342 494q-2 -5 -7.5 -23t-12 -38t-12 -37.5t-6.5 -21.5l-41 -122h159l-43 132q-2 4 -6.5 20t-10.5 34t-11 34.5t-6 21.5h-3zM-183 440q-39 36 -54 75t-15 63q0 51 35.5 87t105.5 44l36 -108q-41 -7 -52 -23
t-11 -35q0 -17 7.5 -37t21.5 -40zM-77 678l149 28l81 -226l-87 -26z" />
    <glyph glyph-name="uni1F0D" unicode="&#x1f0d;" horiz-adv-x="687" 
d="M462 129h-239l-42 -129h-171l240 651h191l240 -651h-176zM342 494q-2 -5 -7.5 -23t-12 -38t-12 -37.5t-6.5 -21.5l-41 -122h159l-43 132q-2 4 -6.5 20t-10.5 34t-11 34.5t-6 21.5h-3zM-147 445q-39 36 -54 75t-15 63q0 51 35.5 87.5t105.5 44.5l35 -108q-21 -3 -33 -9
t-19 -14t-9 -17t-2 -19q0 -16 7.5 -36.5t21.5 -40.5zM46 447l-88 26l81 226l149 -28z" />
    <glyph glyph-name="uni1F0E" unicode="&#x1f0e;" horiz-adv-x="687" 
d="M462 129h-239l-42 -129h-171l240 651h191l240 -651h-176zM342 494q-2 -5 -7.5 -23t-12 -38t-12 -37.5t-6.5 -21.5l-41 -122h159l-43 132q-2 4 -6.5 20t-10.5 34t-11 34.5t-6 21.5h-3zM75 577q-17 0 -36.5 7t-39.5 15.5t-39 15.5t-34 7q-14 0 -30.5 -7t-41.5 -38l-57 31
q23 65 58.5 93.5t68.5 28.5q20 0 41.5 -7t42.5 -16t40 -16t34 -7q16 0 30.5 8t36.5 33l56 -30q-23 -66 -57.5 -92t-72.5 -26zM-46 572q65 -4 98.5 -30t33.5 -65q0 -32 -30 -62t-90 -44l-20 42q17 8 29 18.5t12 21.5q0 15 -11.5 24t-47.5 18z" />
    <glyph glyph-name="uni1F0F" unicode="&#x1f0f;" horiz-adv-x="687" 
d="M462 129h-239l-42 -129h-171l240 651h191l240 -651h-176zM342 494q-2 -5 -7.5 -23t-12 -38t-12 -37.5t-6.5 -21.5l-41 -122h159l-43 132q-2 4 -6.5 20t-10.5 34t-11 34.5t-6 21.5h-3zM74 577q-17 0 -36.5 7t-39.5 15.5t-39 15.5t-34 7t-31 -7t-41 -38l-57 31
q23 65 58.5 93.5t68.5 28.5q20 0 41.5 -7t42.5 -16t40 -16t34 -7q16 0 30.5 8t36.5 33l56 -30q-23 -66 -57.5 -92t-72.5 -26zM74 495q-34 -10 -45 -19t-11 -23q0 -11 11.5 -21t28.5 -17l-17 -43q-65 11 -95 39t-28 63q2 38 34.5 65.5t97.5 30.5z" />
    <glyph glyph-name="uni1F10" unicode="&#x1f10;" horiz-adv-x="484" 
d="M470 71q-42 -44 -100 -63t-119 -19q-39 0 -77 8.5t-67 26t-47 45t-18 66.5q0 31 19 62.5t59 48.5q-40 14 -57.5 43t-17.5 55q0 39 17.5 68t47 48.5t67 29t77.5 9.5q56 0 107.5 -16.5t89.5 -55.5l-80 -95q-28 29 -53.5 38t-44.5 9q-20 0 -33.5 -5t-21.5 -12t-12 -15
t-4 -13q0 -21 13.5 -29.5t32.5 -8.5h62v-98h-61q-21 0 -36.5 -11.5t-15.5 -28.5q0 -8 3 -16.5t11.5 -16.5t22.5 -13t35 -5q16 0 46 10t70 48zM196 561q14 20 21.5 40t7.5 37q0 19 -13 36.5t-54 24.5l48 107q66 -13 99.5 -47.5t33.5 -85.5q0 -24 -15 -62t-54 -75z" />
    <glyph glyph-name="uni1F11" unicode="&#x1f11;" horiz-adv-x="484" 
d="M470 71q-42 -44 -100 -63t-119 -19q-39 0 -77 8.5t-67 26t-47 45t-18 66.5q0 31 19 62.5t59 48.5q-40 14 -57.5 43t-17.5 55q0 39 17.5 68t47 48.5t67 29t77.5 9.5q56 0 107.5 -16.5t89.5 -55.5l-80 -95q-28 29 -53.5 38t-44.5 9q-20 0 -33.5 -5t-21.5 -12t-12 -15
t-4 -13q0 -21 13.5 -29.5t32.5 -8.5h62v-98h-61q-21 0 -36.5 -11.5t-15.5 -28.5q0 -8 3 -16.5t11.5 -16.5t22.5 -13t35 -5q16 0 46 10t70 48zM234 535q-39 36 -54.5 75t-15.5 63q0 51 35.5 87t106.5 44l36 -108q-42 -7 -53 -23t-11 -35q0 -17 8 -37t21 -40z" />
    <glyph glyph-name="uni1F12" unicode="&#x1f12;" horiz-adv-x="484" 
d="M470 71q-42 -44 -100 -63t-119 -19q-39 0 -77 8.5t-67 26t-47 45t-18 66.5q0 31 19 62.5t59 48.5q-40 14 -57.5 43t-17.5 55q0 39 17.5 68t47 48.5t67 29t77.5 9.5q56 0 107.5 -16.5t89.5 -55.5l-80 -95q-28 29 -53.5 38t-44.5 9q-20 0 -33.5 -5t-21.5 -12t-12 -15
t-4 -13q0 -21 13.5 -29.5t32.5 -8.5h62v-98h-61q-21 0 -36.5 -11.5t-15.5 -28.5q0 -8 3 -16.5t11.5 -16.5t22.5 -13t35 -5q16 0 46 10t70 48zM224 775l148 28l81 -227l-88 -26zM86 566q13 20 21 40t8 36q0 20 -13 37.5t-55 24.5l48 107q66 -13 100 -48t34 -86
q0 -23 -15.5 -61.5t-53.5 -74.5z" />
    <glyph glyph-name="uni1F14" unicode="&#x1f14;" horiz-adv-x="484" 
d="M470 71q-42 -44 -100 -63t-119 -19q-39 0 -77 8.5t-67 26t-47 45t-18 66.5q0 31 19 62.5t59 48.5q-40 14 -57.5 43t-17.5 55q0 39 17.5 68t47 48.5t67 29t77.5 9.5q56 0 107.5 -16.5t89.5 -55.5l-80 -95q-28 29 -53.5 38t-44.5 9q-20 0 -33.5 -5t-21.5 -12t-12 -15
t-4 -13q0 -21 13.5 -29.5t32.5 -8.5h62v-98h-61q-21 0 -36.5 -11.5t-15.5 -28.5q0 -8 3 -16.5t11.5 -16.5t22.5 -13t35 -5q16 0 46 10t70 48zM121 566q14 20 21.5 40.5t7.5 36.5q0 10 -2.5 19.5t-10 17.5t-20.5 14.5t-34 9.5l47 108q66 -14 100 -48.5t34 -85.5
q0 -24 -15 -62.5t-54 -74.5zM357 541l-88 26l82 226l147 -28z" />
    <glyph glyph-name="uni1F13" unicode="&#x1f13;" horiz-adv-x="484" 
d="M470 71q-42 -44 -100 -63t-119 -19q-39 0 -77 8.5t-67 26t-47 45t-18 66.5q0 31 19 62.5t59 48.5q-40 14 -57.5 43t-17.5 55q0 39 17.5 68t47 48.5t67 29t77.5 9.5q56 0 107.5 -16.5t89.5 -55.5l-80 -95q-28 29 -53.5 38t-44.5 9q-20 0 -33.5 -5t-21.5 -12t-12 -15
t-4 -13q0 -21 13.5 -29.5t32.5 -8.5h62v-98h-61q-21 0 -36.5 -11.5t-15.5 -28.5q0 -8 3 -16.5t11.5 -16.5t22.5 -13t35 -5q16 0 46 10t70 48zM109 535q-39 36 -54 75t-15 63q0 51 35.5 87t105.5 44l36 -108q-41 -7 -52 -23t-11 -35q0 -17 7.5 -37t21.5 -40zM215 773l149 28
l81 -226l-87 -26z" />
    <glyph glyph-name="uni1F15" unicode="&#x1f15;" horiz-adv-x="484" 
d="M470 71q-42 -44 -100 -63t-119 -19q-39 0 -77 8.5t-67 26t-47 45t-18 66.5q0 31 19 62.5t59 48.5q-40 14 -57.5 43t-17.5 55q0 39 17.5 68t47 48.5t67 29t77.5 9.5q56 0 107.5 -16.5t89.5 -55.5l-80 -95q-28 29 -53.5 38t-44.5 9q-20 0 -33.5 -5t-21.5 -12t-12 -15
t-4 -13q0 -21 13.5 -29.5t32.5 -8.5h62v-98h-61q-21 0 -36.5 -11.5t-15.5 -28.5q0 -8 3 -16.5t11.5 -16.5t22.5 -13t35 -5q16 0 46 10t70 48zM345 540l-88 26l81 226l149 -28zM152 538q-39 36 -54 75t-15 63q0 51 35.5 87.5t105.5 44.5l35 -108q-21 -3 -33 -9t-19 -14
t-9 -17t-2 -19q0 -16 7.5 -36.5t21.5 -40.5z" />
    <glyph glyph-name="uni1F18" unicode="&#x1f18;" horiz-adv-x="571" 
d="M55 651h486v-138h-321v-107h223v-139h-223v-128h332v-139h-497v651zM-153 458q14 20 21.5 40t7.5 37q0 19 -13 36.5t-54 24.5l48 107q66 -13 99.5 -47.5t33.5 -85.5q0 -24 -15 -62t-54 -75z" />
    <glyph glyph-name="uni1F19" unicode="&#x1f19;" horiz-adv-x="571" 
d="M55 651h486v-138h-321v-107h223v-139h-223v-128h332v-139h-497v651zM-104 431q-39 36 -54.5 75t-15.5 63q0 51 35.5 87t106.5 44l36 -108q-42 -7 -53 -23t-11 -35q0 -17 8 -37t21 -40z" />
    <glyph glyph-name="uni1F1A" unicode="&#x1f1a;" horiz-adv-x="571" 
d="M55 651h486v-138h-321v-107h223v-139h-223v-128h332v-139h-497v651zM-341 458q13 20 21 40t8 36q0 20 -13 37.5t-55 24.5l48 107q66 -13 100 -48t34 -86q0 -23 -15.5 -61.5t-53.5 -74.5zM-203 667l148 28l81 -227l-88 -26z" />
    <glyph glyph-name="uni1F1C" unicode="&#x1f1c;" horiz-adv-x="571" 
d="M55 651h486v-138h-321v-107h223v-139h-223v-128h332v-139h-497v651zM-350 459q14 20 21.5 40.5t7.5 36.5q0 10 -2.5 19.5t-10 17.5t-20.5 14.5t-34 9.5l47 108q66 -14 100 -48.5t34 -85.5q0 -24 -15 -62.5t-54 -74.5zM-114 434l-88 26l82 226l147 -28z" />
    <glyph glyph-name="uni1F1B" unicode="&#x1f1b;" horiz-adv-x="571" 
d="M55 651h486v-138h-321v-107h223v-139h-223v-128h332v-139h-497v651zM-316 430q-39 36 -54 75t-15 63q0 51 35.5 87t105.5 44l36 -108q-41 -7 -52 -23t-11 -35q0 -17 7.5 -37t21.5 -40zM-210 668l149 28l81 -226l-87 -26z" />
    <glyph glyph-name="uni1F1D" unicode="&#x1f1d;" horiz-adv-x="571" 
d="M55 651h486v-138h-321v-107h223v-139h-223v-128h332v-139h-497v651zM-312 435q-39 36 -54 75t-15 63q0 51 35.5 87.5t105.5 44.5l35 -108q-21 -3 -33 -9t-19 -14t-9 -17t-2 -19q0 -16 7.5 -36.5t21.5 -40.5zM-119 437l-88 26l81 226l149 -28z" />
    <glyph glyph-name="uni1F20" unicode="&#x1f20;" horiz-adv-x="560" 
d="M516 0h-158v270q0 51 -19 72t-51 21q-28 0 -48 -14.5t-28 -43.5q-2 -9 -4 -20.5t-2 -24.5v-260h-157v488h157v-51h4q25 29 62.5 45t69.5 16q47 0 80 -14t54 -39.5t30.5 -62.5t9.5 -82v-300zM193 561q14 20 21.5 40t7.5 37q0 19 -13 36.5t-54 24.5l48 107
q66 -13 99.5 -47.5t33.5 -85.5q0 -24 -15 -62t-54 -75z" />
    <glyph glyph-name="uni1F21" unicode="&#x1f21;" horiz-adv-x="560" 
d="M516 0h-158v270q0 51 -19 72t-51 21q-28 0 -48 -14.5t-28 -43.5q-2 -9 -4 -20.5t-2 -24.5v-260h-157v488h157v-51h4q25 29 62.5 45t69.5 16q47 0 80 -14t54 -39.5t30.5 -62.5t9.5 -82v-300zM243 535q-39 36 -54.5 75t-15.5 63q0 51 35.5 87t106.5 44l36 -108
q-42 -7 -53 -23t-11 -35q0 -17 8 -37t21 -40z" />
    <glyph glyph-name="uni1F22" unicode="&#x1f22;" horiz-adv-x="560" 
d="M516 0h-158v270q0 51 -19 72t-51 21q-28 0 -48 -14.5t-28 -43.5q-2 -9 -4 -20.5t-2 -24.5v-260h-157v488h157v-51h4q25 29 62.5 45t69.5 16q47 0 80 -14t54 -39.5t30.5 -62.5t9.5 -82v-300zM97 575q13 20 21 40t8 36q0 20 -13 37.5t-55 24.5l48 107q66 -13 100 -48
t34 -86q0 -23 -15.5 -61.5t-53.5 -74.5zM235 784l148 28l81 -227l-88 -26z" />
    <glyph glyph-name="uni1F24" unicode="&#x1f24;" horiz-adv-x="560" 
d="M516 0h-158v270q0 51 -19 72t-51 21q-28 0 -48 -14.5t-28 -43.5q-2 -9 -4 -20.5t-2 -24.5v-260h-157v488h157v-51h4q25 29 62.5 45t69.5 16q47 0 80 -14t54 -39.5t30.5 -62.5t9.5 -82v-300zM116 564q14 20 21.5 40.5t7.5 36.5q0 10 -2.5 19.5t-10 17.5t-20.5 14.5
t-34 9.5l47 108q66 -14 100 -48.5t34 -85.5q0 -24 -15 -62.5t-54 -74.5zM352 539l-88 26l82 226l147 -28z" />
    <glyph glyph-name="uni1F23" unicode="&#x1f23;" horiz-adv-x="560" 
d="M516 0h-158v270q0 51 -19 72t-51 21q-28 0 -48 -14.5t-28 -43.5q-2 -9 -4 -20.5t-2 -24.5v-260h-157v488h157v-51h4q25 29 62.5 45t69.5 16q47 0 80 -14t54 -39.5t30.5 -62.5t9.5 -82v-300zM128 537q-39 36 -54 75t-15 63q0 51 35.5 87t105.5 44l36 -108q-41 -7 -52 -23
t-11 -35q0 -17 7.5 -37t21.5 -40zM234 775l149 28l81 -226l-87 -26z" />
    <glyph glyph-name="uni1F25" unicode="&#x1f25;" horiz-adv-x="560" 
d="M516 0h-158v270q0 51 -19 72t-51 21q-28 0 -48 -14.5t-28 -43.5q-2 -9 -4 -20.5t-2 -24.5v-260h-157v488h157v-51h4q25 29 62.5 45t69.5 16q47 0 80 -14t54 -39.5t30.5 -62.5t9.5 -82v-300zM154 537q-39 36 -54 75t-15 63q0 51 35.5 87.5t105.5 44.5l35 -108
q-21 -3 -33 -9t-19 -14t-9 -17t-2 -19q0 -16 7.5 -36.5t21.5 -40.5zM347 539l-88 26l81 226l149 -28z" />
    <glyph glyph-name="uni1F26" unicode="&#x1f26;" horiz-adv-x="560" 
d="M516 0h-158v270q0 51 -19 72t-51 21q-28 0 -48 -14.5t-28 -43.5q-2 -9 -4 -20.5t-2 -24.5v-260h-157v488h157v-51h4q25 29 62.5 45t69.5 16q47 0 80 -14t54 -39.5t30.5 -62.5t9.5 -82v-300zM338 724q-17 0 -36.5 7t-39.5 15.5t-39 15.5t-34 7q-14 0 -30.5 -7t-41.5 -38
l-57 31q23 65 58.5 93.5t68.5 28.5q20 0 41.5 -7t42.5 -16t40 -16t34 -7q16 0 30.5 8t36.5 33l56 -30q-23 -66 -57.5 -92t-72.5 -26zM217 719q65 -4 98.5 -30t33.5 -65q0 -32 -30 -62t-90 -44l-20 42q17 8 29 18.5t12 21.5q0 15 -11.5 24t-47.5 18z" />
    <glyph glyph-name="uni1F70" unicode="&#x1f70;" horiz-adv-x="568" 
d="M384 0l-16 43h-3q-32 -29 -66 -40.5t-68 -11.5q-38 0 -72 14t-60 44t-41.5 76.5t-15.5 111.5q0 66 15.5 115t41.5 81.5t61.5 48.5t75.5 16q34 0 68 -14t57 -38l3 1v42h155v-489h-135zM282 368q-34 0 -55.5 -33.5t-21.5 -96.5q0 -64 20.5 -91t57.5 -27q21 0 42 11.5
t36 27.5v168q-16 18 -36.5 29.5t-42.5 11.5zM119 768l154 28l81 -227l-93 -26z" />
    <glyph glyph-name="uni1F71" unicode="&#x1f71;" horiz-adv-x="568" 
d="M384 0l-16 43h-3q-32 -29 -66 -40.5t-68 -11.5q-38 0 -72 14t-60 44t-41.5 76.5t-15.5 111.5q0 66 15.5 115t41.5 81.5t61.5 48.5t75.5 16q34 0 68 -14t57 -38l3 1v42h155v-489h-135zM282 368q-34 0 -55.5 -33.5t-21.5 -96.5q0 -64 20.5 -91t57.5 -27q21 0 42 11.5
t36 27.5v168q-16 18 -36.5 29.5t-42.5 11.5zM322 544l-92 26l81 227l153 -28z" />
    <glyph glyph-name="uni1F27" unicode="&#x1f27;" horiz-adv-x="560" 
d="M516 0h-158v270q0 51 -19 72t-51 21q-28 0 -48 -14.5t-28 -43.5q-2 -9 -4 -20.5t-2 -24.5v-260h-157v488h157v-51h4q25 29 62.5 45t69.5 16q47 0 80 -14t54 -39.5t30.5 -62.5t9.5 -82v-300zM337 727q-17 0 -36.5 7t-39.5 15.5t-39 15.5t-34 7t-31 -7t-41 -38l-57 31
q23 65 58.5 93.5t68.5 28.5q20 0 41.5 -7t42.5 -16t40 -16t34 -7q16 0 30.5 8t36.5 33l56 -30q-23 -66 -57.5 -92t-72.5 -26zM337 645q-34 -10 -45 -19t-11 -23q0 -11 11.5 -21t28.5 -17l-17 -43q-65 11 -95 39t-28 63q2 38 34.5 65.5t97.5 30.5z" />
    <glyph glyph-name="uni1F28" unicode="&#x1f28;" horiz-adv-x="673" 
d="M452 263h-232v-263h-165v651h165v-248h232v248h165v-651h-165v263zM-154 453q14 20 21.5 40t7.5 37q0 19 -13 36.5t-54 24.5l48 107q66 -13 99.5 -47.5t33.5 -85.5q0 -24 -15 -62t-54 -75z" />
    <glyph glyph-name="uni1F29" unicode="&#x1f29;" horiz-adv-x="673" 
d="M452 263h-232v-263h-165v651h165v-248h232v248h165v-651h-165v263zM-103 426q-39 36 -54.5 75t-15.5 63q0 51 35.5 87t106.5 44l36 -108q-42 -7 -53 -23t-11 -35q0 -17 8 -37t21 -40z" />
    <glyph glyph-name="uni1F2A" unicode="&#x1f2a;" horiz-adv-x="673" 
d="M452 263h-232v-263h-165v651h165v-248h232v248h165v-651h-165v263zM-340 459q13 20 21 40t8 36q0 20 -13 37.5t-55 24.5l48 107q66 -13 100 -48t34 -86q0 -23 -15.5 -61.5t-53.5 -74.5zM-202 668l148 28l81 -227l-88 -26z" />
    <glyph glyph-name="uni1F2C" unicode="&#x1f2c;" horiz-adv-x="673" 
d="M452 263h-232v-263h-165v651h165v-248h232v248h165v-651h-165v263zM-344 465q14 20 21.5 40.5t7.5 36.5q0 10 -2.5 19.5t-10 17.5t-20.5 14.5t-34 9.5l47 108q66 -14 100 -48.5t34 -85.5q0 -24 -15 -62.5t-54 -74.5zM-108 440l-88 26l82 226l147 -28z" />
    <glyph glyph-name="uni1F2B" unicode="&#x1f2b;" horiz-adv-x="673" 
d="M452 263h-232v-263h-165v651h165v-248h232v248h165v-651h-165v263zM-308 427q-39 36 -54 75t-15 63q0 51 35.5 87t105.5 44l36 -108q-41 -7 -52 -23t-11 -35q0 -17 7.5 -37t21.5 -40zM-202 665l149 28l81 -226l-87 -26z" />
    <glyph glyph-name="uni1F2D" unicode="&#x1f2d;" horiz-adv-x="673" 
d="M452 263h-232v-263h-165v651h165v-248h232v248h165v-651h-165v263zM-303 436q-39 36 -54 75t-15 63q0 51 35.5 87.5t105.5 44.5l35 -108q-21 -3 -33 -9t-19 -14t-9 -17t-2 -19q0 -16 7.5 -36.5t21.5 -40.5zM-110 438l-88 26l81 226l149 -28z" />
    <glyph glyph-name="uni1F2E" unicode="&#x1f2e;" horiz-adv-x="673" 
d="M452 263h-232v-263h-165v651h165v-248h232v248h165v-651h-165v263zM-105 576q-17 0 -36.5 7t-39.5 15.5t-39 15.5t-34 7q-14 0 -30.5 -7t-41.5 -38l-57 31q23 65 58.5 93.5t68.5 28.5q20 0 41.5 -7t42.5 -16t40 -16t34 -7q16 0 30.5 8t36.5 33l56 -30q-23 -66 -57.5 -92
t-72.5 -26zM-226 571q65 -4 98.5 -30t33.5 -65q0 -32 -30 -62t-90 -44l-20 42q17 8 29 18.5t12 21.5q0 15 -11.5 24t-47.5 18z" />
    <glyph glyph-name="uni1F2F" unicode="&#x1f2f;" horiz-adv-x="673" 
d="M452 263h-232v-263h-165v651h165v-248h232v248h165v-651h-165v263zM-100 574q-17 0 -36.5 7t-39.5 15.5t-39 15.5t-34 7t-31 -7t-41 -38l-57 31q23 65 58.5 93.5t68.5 28.5q20 0 41.5 -7t42.5 -16t40 -16t34 -7q16 0 30.5 8t36.5 33l56 -30q-23 -66 -57.5 -92t-72.5 -26z
M-100 492q-34 -10 -45 -19t-11 -23q0 -11 11.5 -21t28.5 -17l-17 -43q-65 11 -95 39t-28 63q2 38 34.5 65.5t97.5 30.5z" />
    <glyph glyph-name="uni1F30" unicode="&#x1f30;" horiz-adv-x="290" 
d="M66 489h158v-489h-158v489zM89 562q14 20 21.5 40t7.5 37q0 19 -13 36.5t-54 24.5l48 107q66 -13 99.5 -47.5t33.5 -85.5q0 -24 -15 -62t-54 -75z" />
    <glyph glyph-name="uni1F31" unicode="&#x1f31;" horiz-adv-x="290" 
d="M66 489h158v-489h-158v489zM134 535q-39 36 -54.5 75t-15.5 63q0 51 35.5 87t106.5 44l36 -108q-42 -7 -53 -23t-11 -35q0 -17 8 -37t21 -40z" />
    <glyph glyph-name="uni1F32" unicode="&#x1f32;" horiz-adv-x="290" 
d="M66 489h158v-489h-158v489zM-21 575q13 20 21 40t8 36q0 20 -13 37.5t-55 24.5l48 107q66 -13 100 -48t34 -86q0 -23 -15.5 -61.5t-53.5 -74.5zM117 784l148 28l81 -227l-88 -26z" />
    <glyph glyph-name="uni1F34" unicode="&#x1f34;" horiz-adv-x="290" 
d="M66 489h158v-489h-158v489zM6 560q14 20 21.5 40.5t7.5 36.5q0 10 -2.5 19.5t-10 17.5t-20.5 14.5t-34 9.5l47 108q66 -14 100 -48.5t34 -85.5q0 -24 -15 -62.5t-54 -74.5zM242 535l-88 26l82 226l147 -28z" />
    <glyph glyph-name="uni1F33" unicode="&#x1f33;" horiz-adv-x="290" 
d="M66 489h158v-489h-158v489zM6 537q-39 36 -54 75t-15 63q0 51 35.5 87t105.5 44l36 -108q-41 -7 -52 -23t-11 -35q0 -17 7.5 -37t21.5 -40zM112 775l149 28l81 -226l-87 -26z" />
    <glyph glyph-name="uni1F35" unicode="&#x1f35;" horiz-adv-x="290" 
d="M66 489h158v-489h-158v489zM40 533q-39 36 -54 75t-15 63q0 51 35.5 87.5t105.5 44.5l35 -108q-21 -3 -33 -9t-19 -14t-9 -17t-2 -19q0 -16 7.5 -36.5t21.5 -40.5zM233 535l-88 26l81 226l149 -28z" />
    <glyph glyph-name="uni1F36" unicode="&#x1f36;" horiz-adv-x="290" 
d="M66 489h158v-489h-158v489zM217 734q-17 0 -36.5 7t-39.5 15.5t-39 15.5t-34 7q-14 0 -30.5 -7t-41.5 -38l-57 31q23 65 58.5 93.5t68.5 28.5q20 0 41.5 -7t42.5 -16t40 -16t34 -7q16 0 30.5 8t36.5 33l56 -30q-23 -66 -57.5 -92t-72.5 -26zM96 729q65 -4 98.5 -30
t33.5 -65q0 -32 -30 -62t-90 -44l-20 42q17 8 29 18.5t12 21.5q0 15 -11.5 24t-47.5 18z" />
    <glyph glyph-name="uni1F37" unicode="&#x1f37;" horiz-adv-x="290" 
d="M66 489h158v-489h-158v489zM218 734q-17 0 -36.5 7t-39.5 15.5t-39 15.5t-34 7t-31 -7t-41 -38l-57 31q23 65 58.5 93.5t68.5 28.5q20 0 41.5 -7t42.5 -16t40 -16t34 -7q16 0 30.5 8t36.5 33l56 -30q-23 -66 -57.5 -92t-72.5 -26zM218 652q-34 -10 -45 -19t-11 -23
q0 -11 11.5 -21t28.5 -17l-17 -43q-65 11 -95 39t-28 63q2 38 34.5 65.5t97.5 30.5z" />
    <glyph glyph-name="uni1F38" unicode="&#x1f38;" horiz-adv-x="299" 
d="M66 651h166v-651h-166v651zM-145 458q14 20 21.5 40t7.5 37q0 19 -13 36.5t-54 24.5l48 107q66 -13 99.5 -47.5t33.5 -85.5q0 -24 -15 -62t-54 -75z" />
    <glyph glyph-name="uni1F39" unicode="&#x1f39;" horiz-adv-x="299" 
d="M66 651h166v-651h-166v651zM-95 422q-39 36 -54.5 75t-15.5 63q0 51 35.5 87t106.5 44l36 -108q-42 -7 -53 -23t-11 -35q0 -17 8 -37t21 -40z" />
    <glyph glyph-name="uni1F3A" unicode="&#x1f3a;" horiz-adv-x="299" 
d="M66 651h166v-651h-166v651zM-330 457q13 20 21 40t8 36q0 20 -13 37.5t-55 24.5l48 107q66 -13 100 -48t34 -86q0 -23 -15.5 -61.5t-53.5 -74.5zM-192 666l148 28l81 -227l-88 -26z" />
    <glyph glyph-name="uni1F3C" unicode="&#x1f3c;" horiz-adv-x="299" 
d="M66 651h166v-651h-166v651zM-338 463q14 20 21.5 40.5t7.5 36.5q0 10 -2.5 19.5t-10 17.5t-20.5 14.5t-34 9.5l47 108q66 -14 100 -48.5t34 -85.5q0 -24 -15 -62.5t-54 -74.5zM-102 438l-88 26l82 226l147 -28z" />
    <glyph glyph-name="uni1F3B" unicode="&#x1f3b;" horiz-adv-x="299" 
d="M66 651h166v-651h-166v651zM-297 429q-39 36 -54 75t-15 63q0 51 35.5 87t105.5 44l36 -108q-41 -7 -52 -23t-11 -35q0 -17 7.5 -37t21.5 -40zM-191 667l149 28l81 -226l-87 -26z" />
    <glyph glyph-name="uni1F3D" unicode="&#x1f3d;" horiz-adv-x="299" 
d="M66 651h166v-651h-166v651zM-296 433q-39 36 -54 75t-15 63q0 51 35.5 87.5t105.5 44.5l35 -108q-21 -3 -33 -9t-19 -14t-9 -17t-2 -19q0 -16 7.5 -36.5t21.5 -40.5zM-103 435l-88 26l81 226l149 -28z" />
    <glyph glyph-name="uni1F3E" unicode="&#x1f3e;" horiz-adv-x="299" 
d="M66 651h166v-651h-166v651zM-75 575q-17 0 -36.5 7t-39.5 15.5t-39 15.5t-34 7q-14 0 -30.5 -7t-41.5 -38l-57 31q23 65 58.5 93.5t68.5 28.5q20 0 41.5 -7t42.5 -16t40 -16t34 -7q16 0 30.5 8t36.5 33l56 -30q-23 -66 -57.5 -92t-72.5 -26zM-196 570q65 -4 98.5 -30
t33.5 -65q0 -32 -30 -62t-90 -44l-20 42q17 8 29 18.5t12 21.5q0 15 -11.5 24t-47.5 18z" />
    <glyph glyph-name="uni1F3F" unicode="&#x1f3f;" horiz-adv-x="299" 
d="M66 651h166v-651h-166v651zM-75 576q-17 0 -36.5 7t-39.5 15.5t-39 15.5t-34 7t-31 -7t-41 -38l-57 31q23 65 58.5 93.5t68.5 28.5q20 0 41.5 -7t42.5 -16t40 -16t34 -7q16 0 30.5 8t36.5 33l56 -30q-23 -66 -57.5 -92t-72.5 -26zM-75 494q-34 -10 -45 -19t-11 -23
q0 -11 11.5 -21t28.5 -17l-17 -43q-65 11 -95 39t-28 63q2 38 34.5 65.5t97.5 30.5z" />
    <glyph glyph-name="uni1F48" unicode="&#x1f48;" horiz-adv-x="679" 
d="M338 -12q-74 0 -129.5 24.5t-92.5 69t-55.5 106t-18.5 135.5q0 75 18.5 137.5t56 107.5t93.5 69.5t130 24.5q72 0 127.5 -24t93 -68.5t57 -107t19.5 -138.5q0 -77 -19.5 -139t-57.5 -105.5t-93.5 -67.5t-128.5 -24zM338 517q-33 0 -56.5 -15t-39 -40.5t-23 -60
t-7.5 -74.5q0 -42 8 -77.5t24 -61.5t40 -40.5t56 -14.5t56 15.5t39.5 42t23 61.5t7.5 74q0 41 -7.5 76t-23.5 60.5t-40 40t-57 14.5zM-120 462q14 20 21.5 40t7.5 37q0 19 -13 36.5t-54 24.5l48 107q66 -13 99.5 -47.5t33.5 -85.5q0 -24 -15 -62t-54 -75z" />
    <glyph glyph-name="uni1F49" unicode="&#x1f49;" horiz-adv-x="679" 
d="M338 -12q-74 0 -129.5 24.5t-92.5 69t-55.5 106t-18.5 135.5q0 75 18.5 137.5t56 107.5t93.5 69.5t130 24.5q72 0 127.5 -24t93 -68.5t57 -107t19.5 -138.5q0 -77 -19.5 -139t-57.5 -105.5t-93.5 -67.5t-128.5 -24zM338 517q-33 0 -56.5 -15t-39 -40.5t-23 -60
t-7.5 -74.5q0 -42 8 -77.5t24 -61.5t40 -40.5t56 -14.5t56 15.5t39.5 42t23 61.5t7.5 74q0 41 -7.5 76t-23.5 60.5t-40 40t-57 14.5zM-75 438q-39 36 -54.5 75t-15.5 63q0 51 35.5 87t106.5 44l36 -108q-42 -7 -53 -23t-11 -35q0 -17 8 -37t21 -40z" />
    <glyph glyph-name="uni1F4A" unicode="&#x1f4a;" horiz-adv-x="679" 
d="M338 -12q-74 0 -129.5 24.5t-92.5 69t-55.5 106t-18.5 135.5q0 75 18.5 137.5t56 107.5t93.5 69.5t130 24.5q72 0 127.5 -24t93 -68.5t57 -107t19.5 -138.5q0 -77 -19.5 -139t-57.5 -105.5t-93.5 -67.5t-128.5 -24zM338 517q-33 0 -56.5 -15t-39 -40.5t-23 -60
t-7.5 -74.5q0 -42 8 -77.5t24 -61.5t40 -40.5t56 -14.5t56 15.5t39.5 42t23 61.5t7.5 74q0 41 -7.5 76t-23.5 60.5t-40 40t-57 14.5zM-327 462q13 20 21 40t8 36q0 20 -13 37.5t-55 24.5l48 107q66 -13 100 -48t34 -86q0 -23 -15.5 -61.5t-53.5 -74.5zM-189 671l148 28
l81 -227l-88 -26z" />
    <glyph glyph-name="uni1F4C" unicode="&#x1f4c;" horiz-adv-x="679" 
d="M338 -12q-74 0 -129.5 24.5t-92.5 69t-55.5 106t-18.5 135.5q0 75 18.5 137.5t56 107.5t93.5 69.5t130 24.5q72 0 127.5 -24t93 -68.5t57 -107t19.5 -138.5q0 -77 -19.5 -139t-57.5 -105.5t-93.5 -67.5t-128.5 -24zM338 517q-33 0 -56.5 -15t-39 -40.5t-23 -60
t-7.5 -74.5q0 -42 8 -77.5t24 -61.5t40 -40.5t56 -14.5t56 15.5t39.5 42t23 61.5t7.5 74q0 41 -7.5 76t-23.5 60.5t-40 40t-57 14.5zM-293 467q14 20 21.5 40.5t7.5 36.5q0 10 -2.5 19.5t-10 17.5t-20.5 14.5t-34 9.5l47 108q66 -14 100 -48.5t34 -85.5q0 -24 -15 -62.5
t-54 -74.5zM-57 442l-88 26l82 226l147 -28z" />
    <glyph glyph-name="uni1F4B" unicode="&#x1f4b;" horiz-adv-x="679" 
d="M338 -12q-74 0 -129.5 24.5t-92.5 69t-55.5 106t-18.5 135.5q0 75 18.5 137.5t56 107.5t93.5 69.5t130 24.5q72 0 127.5 -24t93 -68.5t57 -107t19.5 -138.5q0 -77 -19.5 -139t-57.5 -105.5t-93.5 -67.5t-128.5 -24zM338 517q-33 0 -56.5 -15t-39 -40.5t-23 -60
t-7.5 -74.5q0 -42 8 -77.5t24 -61.5t40 -40.5t56 -14.5t56 15.5t39.5 42t23 61.5t7.5 74q0 41 -7.5 76t-23.5 60.5t-40 40t-57 14.5zM-301 428q-39 36 -54 75t-15 63q0 51 35.5 87t105.5 44l36 -108q-41 -7 -52 -23t-11 -35q0 -17 7.5 -37t21.5 -40zM-195 666l149 28
l81 -226l-87 -26z" />
    <glyph glyph-name="uni1F4D" unicode="&#x1f4d;" horiz-adv-x="679" 
d="M338 -12q-74 0 -129.5 24.5t-92.5 69t-55.5 106t-18.5 135.5q0 75 18.5 137.5t56 107.5t93.5 69.5t130 24.5q72 0 127.5 -24t93 -68.5t57 -107t19.5 -138.5q0 -77 -19.5 -139t-57.5 -105.5t-93.5 -67.5t-128.5 -24zM338 517q-33 0 -56.5 -15t-39 -40.5t-23 -60
t-7.5 -74.5q0 -42 8 -77.5t24 -61.5t40 -40.5t56 -14.5t56 15.5t39.5 42t23 61.5t7.5 74q0 41 -7.5 76t-23.5 60.5t-40 40t-57 14.5zM-251 439q-39 36 -54 75t-15 63q0 51 35.5 87.5t105.5 44.5l35 -108q-21 -3 -33 -9t-19 -14t-9 -17t-2 -19q0 -16 7.5 -36.5t21.5 -40.5z
M-58 441l-88 26l81 226l149 -28z" />
    <glyph glyph-name="uni1F50" unicode="&#x1f50;" horiz-adv-x="569" 
d="M286 -12q-111 0 -175 58.5t-64 170.5v272h159v-271q0 -104 78 -104q43 0 62 26t19 78v271l158 -1v-271q0 -111 -62.5 -170t-174.5 -59zM218 561q14 20 21.5 40t7.5 37q0 19 -13 36.5t-54 24.5l48 107q66 -13 99.5 -47.5t33.5 -85.5q0 -24 -15 -62t-54 -75z" />
    <glyph glyph-name="uni1F51" unicode="&#x1f51;" horiz-adv-x="569" 
d="M286 -12q-111 0 -175 58.5t-64 170.5v272h159v-271q0 -104 78 -104q43 0 62 26t19 78v271l158 -1v-271q0 -111 -62.5 -170t-174.5 -59zM268 535q-39 36 -54.5 75t-15.5 63q0 51 35.5 87t106.5 44l36 -108q-42 -7 -53 -23t-11 -35q0 -17 8 -37t21 -40z" />
    <glyph glyph-name="uni1F52" unicode="&#x1f52;" horiz-adv-x="569" 
d="M286 -12q-111 0 -175 58.5t-64 170.5v272h159v-271q0 -104 78 -104q43 0 62 26t19 78v271l158 -1v-271q0 -111 -62.5 -170t-174.5 -59zM108 575q13 20 21 40t8 36q0 20 -13 37.5t-55 24.5l48 107q66 -13 100 -48t34 -86q0 -23 -15.5 -61.5t-53.5 -74.5zM246 784l148 28
l81 -227l-88 -26z" />
    <glyph glyph-name="uni1F54" unicode="&#x1f54;" horiz-adv-x="569" 
d="M286 -12q-111 0 -175 58.5t-64 170.5v272h159v-271q0 -104 78 -104q43 0 62 26t19 78v271l158 -1v-271q0 -111 -62.5 -170t-174.5 -59zM143 560q14 20 21.5 40.5t7.5 36.5q0 10 -2.5 19.5t-10 17.5t-20.5 14.5t-34 9.5l47 108q66 -14 100 -48.5t34 -85.5q0 -24 -15 -62.5
t-54 -74.5zM379 535l-88 26l82 226l147 -28z" />
    <glyph glyph-name="uni1F53" unicode="&#x1f53;" horiz-adv-x="569" 
d="M286 -12q-111 0 -175 58.5t-64 170.5v272h159v-271q0 -104 78 -104q43 0 62 26t19 78v271l158 -1v-271q0 -111 -62.5 -170t-174.5 -59zM135 537q-39 36 -54 75t-15 63q0 51 35.5 87t105.5 44l36 -108q-41 -7 -52 -23t-11 -35q0 -17 7.5 -37t21.5 -40zM241 775l149 28
l81 -226l-87 -26z" />
    <glyph glyph-name="uni1F55" unicode="&#x1f55;" horiz-adv-x="569" 
d="M286 -12q-111 0 -175 58.5t-64 170.5v272h159v-271q0 -104 78 -104q43 0 62 26t19 78v271l158 -1v-271q0 -111 -62.5 -170t-174.5 -59zM180 533q-39 36 -54 75t-15 63q0 51 35.5 87.5t105.5 44.5l35 -108q-21 -3 -33 -9t-19 -14t-9 -17t-2 -19q0 -16 7.5 -36.5
t21.5 -40.5zM373 535l-88 26l81 226l149 -28z" />
    <glyph glyph-name="uni1F56" unicode="&#x1f56;" horiz-adv-x="569" 
d="M286 -12q-111 0 -175 58.5t-64 170.5v272h159v-271q0 -104 78 -104q43 0 62 26t19 78v271l158 -1v-271q0 -111 -62.5 -170t-174.5 -59zM360 717q-17 0 -36.5 7t-39.5 15.5t-39 15.5t-34 7q-14 0 -30.5 -7t-41.5 -38l-57 31q23 65 58.5 93.5t68.5 28.5q20 0 41.5 -7
t42.5 -16t40 -16t34 -7q16 0 30.5 8t36.5 33l56 -30q-23 -66 -57.5 -92t-72.5 -26zM239 712q65 -4 98.5 -30t33.5 -65q0 -32 -30 -62t-90 -44l-20 42q17 8 29 18.5t12 21.5q0 15 -11.5 24t-47.5 18z" />
    <glyph glyph-name="uni1F57" unicode="&#x1f57;" horiz-adv-x="569" 
d="M286 -12q-111 0 -175 58.5t-64 170.5v272h159v-271q0 -104 78 -104q43 0 62 26t19 78v271l158 -1v-271q0 -111 -62.5 -170t-174.5 -59zM341 718q-17 0 -36.5 7t-39.5 15.5t-39 15.5t-34 7t-31 -7t-41 -38l-57 31q23 65 58.5 93.5t68.5 28.5q20 0 41.5 -7t42.5 -16t40 -16
t34 -7q16 0 30.5 8t36.5 33l56 -30q-23 -66 -57.5 -92t-72.5 -26zM341 636q-34 -10 -45 -19t-11 -23q0 -11 11.5 -21t28.5 -17l-17 -43q-65 11 -95 39t-28 63q2 38 34.5 65.5t97.5 30.5z" />
    <glyph glyph-name="uni1F7A" unicode="&#x1f7a;" horiz-adv-x="569" 
d="M286 -12q-111 0 -175 58.5t-64 170.5v272h159v-271q0 -104 78 -104q43 0 62 26t19 78v271l158 -1v-271q0 -111 -62.5 -170t-174.5 -59zM123 769l154 28l81 -227l-93 -26z" />
    <glyph glyph-name="uni1F7B" unicode="&#x1f7b;" horiz-adv-x="569" 
d="M286 -12q-111 0 -175 58.5t-64 170.5v272h159v-271q0 -104 78 -104q43 0 62 26t19 78v271l158 -1v-271q0 -111 -62.5 -170t-174.5 -59zM317 544l-92 26l81 227l153 -28z" />
    <glyph glyph-name="uni1F78" unicode="&#x1f78;" horiz-adv-x="579" 
d="M116 769l154 28l81 -227l-93 -26zM288 -12q-57 0 -102.5 18t-77.5 51.5t-49 80.5t-17 104q0 60 17.5 107.5t50 80.5t78 51t102.5 18q56 0 101.5 -18t78 -51.5t50 -80.5t17.5 -105q0 -59 -18 -106.5t-50.5 -80.5t-78.5 -51t-102 -18zM287 372q-43 0 -63.5 -36.5
t-20.5 -91.5q0 -61 21.5 -95t65.5 -34q22 0 38 10t26.5 27t15.5 40t5 50q0 58 -21 94t-67 36z" />
    <glyph glyph-name="uni1F79" unicode="&#x1f79;" horiz-adv-x="579" 
d="M306 544l-92 26l81 227l153 -28zM288 -12q-57 0 -102.5 18t-77.5 51.5t-49 80.5t-17 104q0 60 17.5 107.5t50 80.5t78 51t102.5 18q56 0 101.5 -18t78 -51.5t50 -80.5t17.5 -105q0 -59 -18 -106.5t-50.5 -80.5t-78.5 -51t-102 -18zM287 372q-43 0 -63.5 -36.5
t-20.5 -91.5q0 -61 21.5 -95t65.5 -34q22 0 38 10t26.5 27t15.5 40t5 50q0 58 -21 94t-67 36z" />
    <glyph glyph-name="uni1F75" unicode="&#x1f75;" horiz-adv-x="560" 
d="M516 0h-158v270q0 51 -19 72t-51 21q-28 0 -48 -14.5t-28 -43.5q-2 -9 -4 -20.5t-2 -24.5v-260h-157v488h157v-51h4q25 29 62.5 45t69.5 16q47 0 80 -14t54 -39.5t30.5 -62.5t9.5 -82v-300zM292 544l-92 26l81 227l153 -28z" />
    <glyph glyph-name="uni1F74" unicode="&#x1f74;" horiz-adv-x="560" 
d="M516 0h-158v270q0 51 -19 72t-51 21q-28 0 -48 -14.5t-28 -43.5q-2 -9 -4 -20.5t-2 -24.5v-260h-157v488h157v-51h4q25 29 62.5 45t69.5 16q47 0 80 -14t54 -39.5t30.5 -62.5t9.5 -82v-300zM100 768l154 28l81 -227l-93 -26z" />
    <glyph glyph-name="uni1F73" unicode="&#x1f73;" horiz-adv-x="484" 
d="M470 71q-42 -44 -100 -63t-119 -19q-39 0 -77 8.5t-67 26t-47 45t-18 66.5q0 31 19 62.5t59 48.5q-40 14 -57.5 43t-17.5 55q0 39 17.5 68t47 48.5t67 29t77.5 9.5q56 0 107.5 -16.5t89.5 -55.5l-80 -95q-28 29 -53.5 38t-44.5 9q-20 0 -33.5 -5t-21.5 -12t-12 -15
t-4 -13q0 -21 13.5 -29.5t32.5 -8.5h62v-98h-61q-21 0 -36.5 -11.5t-15.5 -28.5q0 -8 3 -16.5t11.5 -16.5t22.5 -13t35 -5q16 0 46 10t70 48zM277 544l-92 26l81 227l153 -28z" />
    <glyph glyph-name="uni1F72" unicode="&#x1f72;" horiz-adv-x="484" 
d="M470 71q-42 -44 -100 -63t-119 -19q-39 0 -77 8.5t-67 26t-47 45t-18 66.5q0 31 19 62.5t59 48.5q-40 14 -57.5 43t-17.5 55q0 39 17.5 68t47 48.5t67 29t77.5 9.5q56 0 107.5 -16.5t89.5 -55.5l-80 -95q-28 29 -53.5 38t-44.5 9q-20 0 -33.5 -5t-21.5 -12t-12 -15
t-4 -13q0 -21 13.5 -29.5t32.5 -8.5h62v-98h-61q-21 0 -36.5 -11.5t-15.5 -28.5q0 -8 3 -16.5t11.5 -16.5t22.5 -13t35 -5q16 0 46 10t70 48zM83 769l154 28l81 -227l-93 -26z" />
    <glyph glyph-name="uni1F76" unicode="&#x1f76;" horiz-adv-x="290" 
d="M66 489h158v-489h-158v489zM-32 769l154 28l81 -227l-93 -26z" />
    <glyph glyph-name="uni1F77" unicode="&#x1f77;" horiz-adv-x="290" 
d="M66 489h158v-489h-158v489zM176 544l-92 26l81 227l153 -28z" />
    <glyph glyph-name="uni1F60" unicode="&#x1f60;" horiz-adv-x="788" 
d="M393 62q-21 -33 -55.5 -52.5t-76.5 -19.5q-103 0 -161 66t-58 190q0 42 13.5 84t40 77t66 60t90.5 34l43 -114q-29 -9 -47 -26.5t-28 -38t-13.5 -41.5t-3.5 -37q0 -72 20.5 -101t47.5 -29t42.5 20t15.5 53v119h131v-121q0 -34 16 -52.5t42 -18.5q13 0 25.5 6.5t21.5 21.5
t14.5 40t5.5 61q0 16 -3.5 37t-13.5 41.5t-28 38t-46 26.5l43 114q52 -9 91 -34.5t65 -60.5t39.5 -77t13.5 -83q0 -59 -15 -106t-43 -80t-68.5 -51t-91.5 -18q-41 0 -76.5 19.5t-55.5 52.5h-3zM329 561q14 20 21.5 40t7.5 37q0 19 -13 36.5t-54 24.5l48 107
q66 -13 99.5 -47.5t33.5 -85.5q0 -24 -15 -62t-54 -75z" />
    <glyph glyph-name="uni1F61" unicode="&#x1f61;" horiz-adv-x="788" 
d="M393 62q-21 -33 -55.5 -52.5t-76.5 -19.5q-103 0 -161 66t-58 190q0 42 13.5 84t40 77t66 60t90.5 34l43 -114q-29 -9 -47 -26.5t-28 -38t-13.5 -41.5t-3.5 -37q0 -72 20.5 -101t47.5 -29t42.5 20t15.5 53v119h131v-121q0 -34 16 -52.5t42 -18.5q13 0 25.5 6.5t21.5 21.5
t14.5 40t5.5 61q0 16 -3.5 37t-13.5 41.5t-28 38t-46 26.5l43 114q52 -9 91 -34.5t65 -60.5t39.5 -77t13.5 -83q0 -59 -15 -106t-43 -80t-68.5 -51t-91.5 -18q-41 0 -76.5 19.5t-55.5 52.5h-3zM379 535q-39 36 -54.5 75t-15.5 63q0 51 35.5 87t106.5 44l36 -108
q-42 -7 -53 -23t-11 -35q0 -17 8 -37t21 -40z" />
    <glyph glyph-name="uni1F62" unicode="&#x1f62;" horiz-adv-x="788" 
d="M393 62q-21 -33 -55.5 -52.5t-76.5 -19.5q-103 0 -161 66t-58 190q0 42 13.5 84t40 77t66 60t90.5 34l43 -114q-29 -9 -47 -26.5t-28 -38t-13.5 -41.5t-3.5 -37q0 -72 20.5 -101t47.5 -29t42.5 20t15.5 53v119h131v-121q0 -34 16 -52.5t42 -18.5q13 0 25.5 6.5t21.5 21.5
t14.5 40t5.5 61q0 16 -3.5 37t-13.5 41.5t-28 38t-46 26.5l43 114q52 -9 91 -34.5t65 -60.5t39.5 -77t13.5 -83q0 -59 -15 -106t-43 -80t-68.5 -51t-91.5 -18q-41 0 -76.5 19.5t-55.5 52.5h-3zM223 567q13 20 21 40t8 36q0 20 -13 37.5t-55 24.5l48 107q66 -13 100 -48
t34 -86q0 -23 -15.5 -61.5t-53.5 -74.5zM361 776l148 28l81 -227l-88 -26z" />
    <glyph glyph-name="uni1F64" unicode="&#x1f64;" horiz-adv-x="788" 
d="M393 62q-21 -33 -55.5 -52.5t-76.5 -19.5q-103 0 -161 66t-58 190q0 42 13.5 84t40 77t66 60t90.5 34l43 -114q-29 -9 -47 -26.5t-28 -38t-13.5 -41.5t-3.5 -37q0 -72 20.5 -101t47.5 -29t42.5 20t15.5 53v119h131v-121q0 -34 16 -52.5t42 -18.5q13 0 25.5 6.5t21.5 21.5
t14.5 40t5.5 61q0 16 -3.5 37t-13.5 41.5t-28 38t-46 26.5l43 114q52 -9 91 -34.5t65 -60.5t39.5 -77t13.5 -83q0 -59 -15 -106t-43 -80t-68.5 -51t-91.5 -18q-41 0 -76.5 19.5t-55.5 52.5h-3zM260 558q14 20 21.5 40.5t7.5 36.5q0 10 -2.5 19.5t-10 17.5t-20.5 14.5
t-34 9.5l47 108q66 -14 100 -48.5t34 -85.5q0 -24 -15 -62.5t-54 -74.5zM496 533l-88 26l82 226l147 -28z" />
    <glyph glyph-name="uni1F63" unicode="&#x1f63;" horiz-adv-x="788" 
d="M393 62q-21 -33 -55.5 -52.5t-76.5 -19.5q-103 0 -161 66t-58 190q0 42 13.5 84t40 77t66 60t90.5 34l43 -114q-29 -9 -47 -26.5t-28 -38t-13.5 -41.5t-3.5 -37q0 -72 20.5 -101t47.5 -29t42.5 20t15.5 53v119h131v-121q0 -34 16 -52.5t42 -18.5q13 0 25.5 6.5t21.5 21.5
t14.5 40t5.5 61q0 16 -3.5 37t-13.5 41.5t-28 38t-46 26.5l43 114q52 -9 91 -34.5t65 -60.5t39.5 -77t13.5 -83q0 -59 -15 -106t-43 -80t-68.5 -51t-91.5 -18q-41 0 -76.5 19.5t-55.5 52.5h-3zM246 536q-39 36 -54 75t-15 63q0 51 35.5 87t105.5 44l36 -108q-41 -7 -52 -23
t-11 -35q0 -17 7.5 -37t21.5 -40zM352 774l149 28l81 -226l-87 -26z" />
    <glyph glyph-name="uni1F65" unicode="&#x1f65;" horiz-adv-x="788" 
d="M393 62q-21 -33 -55.5 -52.5t-76.5 -19.5q-103 0 -161 66t-58 190q0 42 13.5 84t40 77t66 60t90.5 34l43 -114q-29 -9 -47 -26.5t-28 -38t-13.5 -41.5t-3.5 -37q0 -72 20.5 -101t47.5 -29t42.5 20t15.5 53v119h131v-121q0 -34 16 -52.5t42 -18.5q13 0 25.5 6.5t21.5 21.5
t14.5 40t5.5 61q0 16 -3.5 37t-13.5 41.5t-28 38t-46 26.5l43 114q52 -9 91 -34.5t65 -60.5t39.5 -77t13.5 -83q0 -59 -15 -106t-43 -80t-68.5 -51t-91.5 -18q-41 0 -76.5 19.5t-55.5 52.5h-3zM289 533q-39 36 -54 75t-15 63q0 51 35.5 87.5t105.5 44.5l35 -108
q-21 -3 -33 -9t-19 -14t-9 -17t-2 -19q0 -16 7.5 -36.5t21.5 -40.5zM482 535l-88 26l81 226l149 -28z" />
    <glyph glyph-name="uni1F66" unicode="&#x1f66;" horiz-adv-x="788" 
d="M393 62q-21 -33 -55.5 -52.5t-76.5 -19.5q-103 0 -161 66t-58 190q0 42 13.5 84t40 77t66 60t90.5 34l43 -114q-29 -9 -47 -26.5t-28 -38t-13.5 -41.5t-3.5 -37q0 -72 20.5 -101t47.5 -29t42.5 20t15.5 53v119h131v-121q0 -34 16 -52.5t42 -18.5q13 0 25.5 6.5t21.5 21.5
t14.5 40t5.5 61q0 16 -3.5 37t-13.5 41.5t-28 38t-46 26.5l43 114q52 -9 91 -34.5t65 -60.5t39.5 -77t13.5 -83q0 -59 -15 -106t-43 -80t-68.5 -51t-91.5 -18q-41 0 -76.5 19.5t-55.5 52.5h-3zM465 703q-17 0 -36.5 7t-39.5 15.5t-39 15.5t-34 7q-14 0 -30.5 -7t-41.5 -38
l-57 31q23 65 58.5 93.5t68.5 28.5q20 0 41.5 -7t42.5 -16t40 -16t34 -7q16 0 30.5 8t36.5 33l56 -30q-23 -66 -57.5 -92t-72.5 -26zM344 698q65 -4 98.5 -30t33.5 -65q0 -32 -30 -62t-90 -44l-20 42q17 8 29 18.5t12 21.5q0 15 -11.5 24t-47.5 18z" />
    <glyph glyph-name="uni1F67" unicode="&#x1f67;" horiz-adv-x="788" 
d="M393 62q-21 -33 -55.5 -52.5t-76.5 -19.5q-103 0 -161 66t-58 190q0 42 13.5 84t40 77t66 60t90.5 34l43 -114q-29 -9 -47 -26.5t-28 -38t-13.5 -41.5t-3.5 -37q0 -72 20.5 -101t47.5 -29t42.5 20t15.5 53v119h131v-121q0 -34 16 -52.5t42 -18.5q13 0 25.5 6.5t21.5 21.5
t14.5 40t5.5 61q0 16 -3.5 37t-13.5 41.5t-28 38t-46 26.5l43 114q52 -9 91 -34.5t65 -60.5t39.5 -77t13.5 -83q0 -59 -15 -106t-43 -80t-68.5 -51t-91.5 -18q-41 0 -76.5 19.5t-55.5 52.5h-3zM460 699q-17 0 -36.5 7t-39.5 15.5t-39 15.5t-34 7t-31 -7t-41 -38l-57 31
q23 65 58.5 93.5t68.5 28.5q20 0 41.5 -7t42.5 -16t40 -16t34 -7q16 0 30.5 8t36.5 33l56 -30q-23 -66 -57.5 -92t-72.5 -26zM460 617q-34 -10 -45 -19t-11 -23q0 -11 11.5 -21t28.5 -17l-17 -43q-65 11 -95 39t-28 63q2 38 34.5 65.5t97.5 30.5z" />
    <glyph glyph-name="uni1F7C" unicode="&#x1f7c;" horiz-adv-x="788" 
d="M393 62q-21 -33 -55.5 -52.5t-76.5 -19.5q-103 0 -161 66t-58 190q0 42 13.5 84t40 77t66 60t90.5 34l43 -114q-29 -9 -47 -26.5t-28 -38t-13.5 -41.5t-3.5 -37q0 -72 20.5 -101t47.5 -29t42.5 20t15.5 53v119h131v-121q0 -34 16 -52.5t42 -18.5q13 0 25.5 6.5t21.5 21.5
t14.5 40t5.5 61q0 16 -3.5 37t-13.5 41.5t-28 38t-46 26.5l43 114q52 -9 91 -34.5t65 -60.5t39.5 -77t13.5 -83q0 -59 -15 -106t-43 -80t-68.5 -51t-91.5 -18q-41 0 -76.5 19.5t-55.5 52.5h-3zM222 769l154 28l81 -227l-93 -26z" />
    <glyph glyph-name="uni1F7D" unicode="&#x1f7d;" horiz-adv-x="788" 
d="M393 62q-21 -33 -55.5 -52.5t-76.5 -19.5q-103 0 -161 66t-58 190q0 42 13.5 84t40 77t66 60t90.5 34l43 -114q-29 -9 -47 -26.5t-28 -38t-13.5 -41.5t-3.5 -37q0 -72 20.5 -101t47.5 -29t42.5 20t15.5 53v119h131v-121q0 -34 16 -52.5t42 -18.5q13 0 25.5 6.5t21.5 21.5
t14.5 40t5.5 61q0 16 -3.5 37t-13.5 41.5t-28 38t-46 26.5l43 114q52 -9 91 -34.5t65 -60.5t39.5 -77t13.5 -83q0 -59 -15 -106t-43 -80t-68.5 -51t-91.5 -18q-41 0 -76.5 19.5t-55.5 52.5h-3zM408 544l-92 26l81 227l153 -28z" />
    <glyph glyph-name="uni1F68" unicode="&#x1f68;" horiz-adv-x="704" 
d="M353 662q69 0 124.5 -22.5t94.5 -64t60 -100.5t21 -132q0 -26 -4.5 -55t-14.5 -56.5t-24.5 -52t-35.5 -42.5h83v-137h-266v140q47 17 70 65.5t23 120.5q0 43 -8 78t-24.5 60t-41 39t-57.5 14q-32 0 -56 -13.5t-41 -38t-25.5 -58t-8.5 -73.5q0 -74 20.5 -124t71.5 -69
v-141h-269v136h84q-19 15 -33 37t-23 48t-13.5 54.5t-4.5 57.5q0 75 20.5 136t58.5 103.5t93.5 66t125.5 23.5zM-114 459q14 20 21.5 40t7.5 37q0 19 -13 36.5t-54 24.5l48 107q66 -13 99.5 -47.5t33.5 -85.5q0 -24 -15 -62t-54 -75z" />
    <glyph glyph-name="uni1F69" unicode="&#x1f69;" horiz-adv-x="704" 
d="M353 662q69 0 124.5 -22.5t94.5 -64t60 -100.5t21 -132q0 -26 -4.5 -55t-14.5 -56.5t-24.5 -52t-35.5 -42.5h83v-137h-266v140q47 17 70 65.5t23 120.5q0 43 -8 78t-24.5 60t-41 39t-57.5 14q-32 0 -56 -13.5t-41 -38t-25.5 -58t-8.5 -73.5q0 -74 20.5 -124t71.5 -69
v-141h-269v136h84q-19 15 -33 37t-23 48t-13.5 54.5t-4.5 57.5q0 75 20.5 136t58.5 103.5t93.5 66t125.5 23.5zM-74 436q-39 36 -54.5 75t-15.5 63q0 51 35.5 87t106.5 44l36 -108q-42 -7 -53 -23t-11 -35q0 -17 8 -37t21 -40z" />
    <glyph glyph-name="uni1F6A" unicode="&#x1f6a;" horiz-adv-x="704" 
d="M353 662q69 0 124.5 -22.5t94.5 -64t60 -100.5t21 -132q0 -26 -4.5 -55t-14.5 -56.5t-24.5 -52t-35.5 -42.5h83v-137h-266v140q47 17 70 65.5t23 120.5q0 43 -8 78t-24.5 60t-41 39t-57.5 14q-32 0 -56 -13.5t-41 -38t-25.5 -58t-8.5 -73.5q0 -74 20.5 -124t71.5 -69
v-141h-269v136h84q-19 15 -33 37t-23 48t-13.5 54.5t-4.5 57.5q0 75 20.5 136t58.5 103.5t93.5 66t125.5 23.5zM-310 469q13 20 21 40t8 36q0 20 -13 37.5t-55 24.5l48 107q66 -13 100 -48t34 -86q0 -23 -15.5 -61.5t-53.5 -74.5zM-172 678l148 28l81 -227l-88 -26z" />
    <glyph glyph-name="uni1F6C" unicode="&#x1f6c;" horiz-adv-x="704" 
d="M353 662q69 0 124.5 -22.5t94.5 -64t60 -100.5t21 -132q0 -26 -4.5 -55t-14.5 -56.5t-24.5 -52t-35.5 -42.5h83v-137h-266v140q47 17 70 65.5t23 120.5q0 43 -8 78t-24.5 60t-41 39t-57.5 14q-32 0 -56 -13.5t-41 -38t-25.5 -58t-8.5 -73.5q0 -74 20.5 -124t71.5 -69
v-141h-269v136h84q-19 15 -33 37t-23 48t-13.5 54.5t-4.5 57.5q0 75 20.5 136t58.5 103.5t93.5 66t125.5 23.5zM-265 467q14 20 21.5 40.5t7.5 36.5q0 10 -2.5 19.5t-10 17.5t-20.5 14.5t-34 9.5l47 108q66 -14 100 -48.5t34 -85.5q0 -24 -15 -62.5t-54 -74.5zM-29 442
l-88 26l82 226l147 -28z" />
    <glyph glyph-name="uni1F6B" unicode="&#x1f6b;" horiz-adv-x="704" 
d="M353 662q69 0 124.5 -22.5t94.5 -64t60 -100.5t21 -132q0 -26 -4.5 -55t-14.5 -56.5t-24.5 -52t-35.5 -42.5h83v-137h-266v140q47 17 70 65.5t23 120.5q0 43 -8 78t-24.5 60t-41 39t-57.5 14q-32 0 -56 -13.5t-41 -38t-25.5 -58t-8.5 -73.5q0 -74 20.5 -124t71.5 -69
v-141h-269v136h84q-19 15 -33 37t-23 48t-13.5 54.5t-4.5 57.5q0 75 20.5 136t58.5 103.5t93.5 66t125.5 23.5zM-289 440q-39 36 -54 75t-15 63q0 51 35.5 87t105.5 44l36 -108q-41 -7 -52 -23t-11 -35q0 -17 7.5 -37t21.5 -40zM-183 678l149 28l81 -226l-87 -26z" />
    <glyph glyph-name="uni1F6D" unicode="&#x1f6d;" horiz-adv-x="704" 
d="M353 662q69 0 124.5 -22.5t94.5 -64t60 -100.5t21 -132q0 -26 -4.5 -55t-14.5 -56.5t-24.5 -52t-35.5 -42.5h83v-137h-266v140q47 17 70 65.5t23 120.5q0 43 -8 78t-24.5 60t-41 39t-57.5 14q-32 0 -56 -13.5t-41 -38t-25.5 -58t-8.5 -73.5q0 -74 20.5 -124t71.5 -69
v-141h-269v136h84q-19 15 -33 37t-23 48t-13.5 54.5t-4.5 57.5q0 75 20.5 136t58.5 103.5t93.5 66t125.5 23.5zM-219 444q-39 36 -54 75t-15 63q0 51 35.5 87.5t105.5 44.5l35 -108q-21 -3 -33 -9t-19 -14t-9 -17t-2 -19q0 -16 7.5 -36.5t21.5 -40.5zM-26 446l-88 26l81 226
l149 -28z" />
    <glyph glyph-name="uni1F6E" unicode="&#x1f6e;" horiz-adv-x="704" 
d="M353 662q69 0 124.5 -22.5t94.5 -64t60 -100.5t21 -132q0 -26 -4.5 -55t-14.5 -56.5t-24.5 -52t-35.5 -42.5h83v-137h-266v140q47 17 70 65.5t23 120.5q0 43 -8 78t-24.5 60t-41 39t-57.5 14q-32 0 -56 -13.5t-41 -38t-25.5 -58t-8.5 -73.5q0 -74 20.5 -124t71.5 -69
v-141h-269v136h84q-19 15 -33 37t-23 48t-13.5 54.5t-4.5 57.5q0 75 20.5 136t58.5 103.5t93.5 66t125.5 23.5zM-14 575q-17 0 -36.5 7t-39.5 15.5t-39 15.5t-34 7q-14 0 -30.5 -7t-41.5 -38l-57 31q23 65 58.5 93.5t68.5 28.5q20 0 41.5 -7t42.5 -16t40 -16t34 -7
q16 0 30.5 8t36.5 33l56 -30q-23 -66 -57.5 -92t-72.5 -26zM-135 570q65 -4 98.5 -30t33.5 -65q0 -32 -30 -62t-90 -44l-20 42q17 8 29 18.5t12 21.5q0 15 -11.5 24t-47.5 18z" />
    <glyph glyph-name="uni1F6F" unicode="&#x1f6f;" horiz-adv-x="704" 
d="M353 662q69 0 124.5 -22.5t94.5 -64t60 -100.5t21 -132q0 -26 -4.5 -55t-14.5 -56.5t-24.5 -52t-35.5 -42.5h83v-137h-266v140q47 17 70 65.5t23 120.5q0 43 -8 78t-24.5 60t-41 39t-57.5 14q-32 0 -56 -13.5t-41 -38t-25.5 -58t-8.5 -73.5q0 -74 20.5 -124t71.5 -69
v-141h-269v136h84q-19 15 -33 37t-23 48t-13.5 54.5t-4.5 57.5q0 75 20.5 136t58.5 103.5t93.5 66t125.5 23.5zM-6 574q-17 0 -36.5 7t-39.5 15.5t-39 15.5t-34 7t-31 -7t-41 -38l-57 31q23 65 58.5 93.5t68.5 28.5q20 0 41.5 -7t42.5 -16t40 -16t34 -7q16 0 30.5 8t36.5 33
l56 -30q-23 -66 -57.5 -92t-72.5 -26zM-6 492q-34 -10 -45 -19t-11 -23q0 -11 11.5 -21t28.5 -17l-17 -43q-65 11 -95 39t-28 63q2 38 34.5 65.5t97.5 30.5z" />
    <glyph glyph-name="uni1F59" unicode="&#x1f59;" horiz-adv-x="662" 
d="M413 0h-164v218l-246 433h179l75 -151l75 -155l77 159q5 9 15 29.5t21 43.5t21.5 43.5t15.5 30.5h177l-246 -431v-220zM-116 435q-39 36 -54.5 75t-15.5 63q0 51 35.5 87t106.5 44l36 -108q-42 -7 -53 -23t-11 -35q0 -17 8 -37t21 -40z" />
    <glyph glyph-name="uni1F5B" unicode="&#x1f5b;" horiz-adv-x="662" 
d="M413 0h-164v218l-246 433h179l75 -151l75 -155l77 159q5 9 15 29.5t21 43.5t21.5 43.5t15.5 30.5h177l-246 -431v-220zM-319 440q-39 36 -54 75t-15 63q0 51 35.5 87t105.5 44l36 -108q-41 -7 -52 -23t-11 -35q0 -17 7.5 -37t21.5 -40zM-213 678l149 28l81 -226l-87 -26z
" />
    <glyph glyph-name="uni1F5D" unicode="&#x1f5d;" horiz-adv-x="662" 
d="M413 0h-164v218l-246 433h179l75 -151l75 -155l77 159q5 9 15 29.5t21 43.5t21.5 43.5t15.5 30.5h177l-246 -431v-220zM-153 438l-88 26l81 226l149 -28zM-346 436q-39 36 -54 75t-15 63q0 51 35.5 87.5t105.5 44.5l35 -108q-21 -3 -33 -9t-19 -14t-9 -17t-2 -19
q0 -16 7.5 -36.5t21.5 -40.5z" />
    <glyph glyph-name="uni1F5F" unicode="&#x1f5f;" horiz-adv-x="662" 
d="M413 0h-164v218l-246 433h179l75 -151l75 -155l77 159q5 9 15 29.5t21 43.5t21.5 43.5t15.5 30.5h177l-246 -431v-220zM-136 576q-17 0 -36.5 7t-39.5 15.5t-39 15.5t-34 7t-31 -7t-41 -38l-57 31q23 65 58.5 93.5t68.5 28.5q20 0 41.5 -7t42.5 -16t40 -16t34 -7
q16 0 30.5 8t36.5 33l56 -30q-23 -66 -57.5 -92t-72.5 -26zM-136 494q-34 -10 -45 -19t-11 -23q0 -11 11.5 -21t28.5 -17l-17 -43q-65 11 -95 39t-28 63q2 38 34.5 65.5t97.5 30.5z" />
    <glyph glyph-name="uni1F80" unicode="&#x1f80;" horiz-adv-x="568" 
d="M384 0l-16 43h-3q-32 -29 -66 -40.5t-68 -11.5q-38 0 -72 14t-60 44t-41.5 76.5t-15.5 111.5q0 66 15.5 115t41.5 81.5t61.5 48.5t75.5 16q34 0 68 -14t57 -38l3 1v42h155v-489h-135zM282 368q-34 0 -55.5 -33.5t-21.5 -96.5q0 -64 20.5 -91t57.5 -27q21 0 42 11.5
t36 27.5v168q-16 18 -36.5 29.5t-42.5 11.5zM223 561q14 20 21.5 40t7.5 37q0 19 -13 36.5t-54 24.5l48 107q66 -13 99.5 -47.5t33.5 -85.5q0 -24 -15 -62t-54 -75zM329 -53v-93q0 -28 17 -34.5t46 -4.5v-80q-14 -5 -33 -7.5t-35 -2.5q-21 0 -39 4.5t-32 16.5t-22 32t-8 52
v117h106z" />
    <glyph glyph-name="uni1F81" unicode="&#x1f81;" horiz-adv-x="568" 
d="M384 0l-16 43h-3q-32 -29 -66 -40.5t-68 -11.5q-38 0 -72 14t-60 44t-41.5 76.5t-15.5 111.5q0 66 15.5 115t41.5 81.5t61.5 48.5t75.5 16q34 0 68 -14t57 -38l3 1v42h155v-489h-135zM282 368q-34 0 -55.5 -33.5t-21.5 -96.5q0 -64 20.5 -91t57.5 -27q21 0 42 11.5
t36 27.5v168q-16 18 -36.5 29.5t-42.5 11.5zM270 535q-39 36 -54.5 75t-15.5 63q0 51 35.5 87t106.5 44l36 -108q-42 -7 -53 -23t-11 -35q0 -17 8 -37t21 -40zM329 -53v-93q0 -28 17 -34.5t46 -4.5v-80q-14 -5 -33 -7.5t-35 -2.5q-21 0 -39 4.5t-32 16.5t-22 32t-8 52v117
h106z" />
    <glyph glyph-name="uni1F82" unicode="&#x1f82;" horiz-adv-x="568" 
d="M384 0l-16 43h-3q-32 -29 -66 -40.5t-68 -11.5q-38 0 -72 14t-60 44t-41.5 76.5t-15.5 111.5q0 66 15.5 115t41.5 81.5t61.5 48.5t75.5 16q34 0 68 -14t57 -38l3 1v42h155v-489h-135zM282 368q-34 0 -55.5 -33.5t-21.5 -96.5q0 -64 20.5 -91t57.5 -27q21 0 42 11.5
t36 27.5v168q-16 18 -36.5 29.5t-42.5 11.5zM118 567q13 20 21 40t8 36q0 20 -13 37.5t-55 24.5l48 107q66 -13 100 -48t34 -86q0 -23 -15.5 -61.5t-53.5 -74.5zM256 776l148 28l81 -227l-88 -26zM329 -53v-93q0 -28 17 -34.5t46 -4.5v-80q-14 -5 -33 -7.5t-35 -2.5
q-21 0 -39 4.5t-32 16.5t-22 32t-8 52v117h106z" />
    <glyph glyph-name="uni1F83" unicode="&#x1f83;" horiz-adv-x="568" 
d="M384 0l-16 43h-3q-32 -29 -66 -40.5t-68 -11.5q-38 0 -72 14t-60 44t-41.5 76.5t-15.5 111.5q0 66 15.5 115t41.5 81.5t61.5 48.5t75.5 16q34 0 68 -14t57 -38l3 1v42h155v-489h-135zM282 368q-34 0 -55.5 -33.5t-21.5 -96.5q0 -64 20.5 -91t57.5 -27q21 0 42 11.5
t36 27.5v168q-16 18 -36.5 29.5t-42.5 11.5zM151 536q-39 36 -54 75t-15 63q0 51 35.5 87t105.5 44l36 -108q-41 -7 -52 -23t-11 -35q0 -17 7.5 -37t21.5 -40zM257 774l149 28l81 -226l-87 -26zM329 -53v-93q0 -28 17 -34.5t46 -4.5v-80q-14 -5 -33 -7.5t-35 -2.5
q-21 0 -39 4.5t-32 16.5t-22 32t-8 52v117h106z" />
    <glyph glyph-name="uni1F84" unicode="&#x1f84;" horiz-adv-x="568" 
d="M384 0l-16 43h-3q-32 -29 -66 -40.5t-68 -11.5q-38 0 -72 14t-60 44t-41.5 76.5t-15.5 111.5q0 66 15.5 115t41.5 81.5t61.5 48.5t75.5 16q34 0 68 -14t57 -38l3 1v42h155v-489h-135zM282 368q-34 0 -55.5 -33.5t-21.5 -96.5q0 -64 20.5 -91t57.5 -27q21 0 42 11.5
t36 27.5v168q-16 18 -36.5 29.5t-42.5 11.5zM158 562q14 20 21.5 40.5t7.5 36.5q0 10 -2.5 19.5t-10 17.5t-20.5 14.5t-34 9.5l47 108q66 -14 100 -48.5t34 -85.5q0 -24 -15 -62.5t-54 -74.5zM394 537l-88 26l82 226l147 -28zM329 -53v-93q0 -28 17 -34.5t46 -4.5v-80
q-14 -5 -33 -7.5t-35 -2.5q-21 0 -39 4.5t-32 16.5t-22 32t-8 52v117h106z" />
    <glyph glyph-name="uni1F85" unicode="&#x1f85;" horiz-adv-x="568" 
d="M384 0l-16 43h-3q-32 -29 -66 -40.5t-68 -11.5q-38 0 -72 14t-60 44t-41.5 76.5t-15.5 111.5q0 66 15.5 115t41.5 81.5t61.5 48.5t75.5 16q34 0 68 -14t57 -38l3 1v42h155v-489h-135zM282 368q-34 0 -55.5 -33.5t-21.5 -96.5q0 -64 20.5 -91t57.5 -27q21 0 42 11.5
t36 27.5v168q-16 18 -36.5 29.5t-42.5 11.5zM192 534q-39 36 -54 75t-15 63q0 51 35.5 87.5t105.5 44.5l35 -108q-21 -3 -33 -9t-19 -14t-9 -17t-2 -19q0 -16 7.5 -36.5t21.5 -40.5zM385 536l-88 26l81 226l149 -28zM329 -53v-93q0 -28 17 -34.5t46 -4.5v-80
q-14 -5 -33 -7.5t-35 -2.5q-21 0 -39 4.5t-32 16.5t-22 32t-8 52v117h106z" />
    <glyph glyph-name="uni1F86" unicode="&#x1f86;" horiz-adv-x="568" 
d="M384 0l-16 43h-3q-32 -29 -66 -40.5t-68 -11.5q-38 0 -72 14t-60 44t-41.5 76.5t-15.5 111.5q0 66 15.5 115t41.5 81.5t61.5 48.5t75.5 16q34 0 68 -14t57 -38l3 1v42h155v-489h-135zM282 368q-34 0 -55.5 -33.5t-21.5 -96.5q0 -64 20.5 -91t57.5 -27q21 0 42 11.5
t36 27.5v168q-16 18 -36.5 29.5t-42.5 11.5zM368 729q-17 0 -36.5 7t-39.5 15.5t-39 15.5t-34 7q-14 0 -30.5 -7t-41.5 -38l-57 31q23 65 58.5 93.5t68.5 28.5q20 0 41.5 -7t42.5 -16t40 -16t34 -7q16 0 30.5 8t36.5 33l56 -30q-23 -66 -57.5 -92t-72.5 -26zM247 724
q65 -4 98.5 -30t33.5 -65q0 -32 -30 -62t-90 -44l-20 42q17 8 29 18.5t12 21.5q0 15 -11.5 24t-47.5 18zM329 -53v-93q0 -28 17 -34.5t46 -4.5v-80q-14 -5 -33 -7.5t-35 -2.5q-21 0 -39 4.5t-32 16.5t-22 32t-8 52v117h106z" />
    <glyph glyph-name="uni1F87" unicode="&#x1f87;" horiz-adv-x="568" 
d="M384 0l-16 43h-3q-32 -29 -66 -40.5t-68 -11.5q-38 0 -72 14t-60 44t-41.5 76.5t-15.5 111.5q0 66 15.5 115t41.5 81.5t61.5 48.5t75.5 16q34 0 68 -14t57 -38l3 1v42h155v-489h-135zM282 368q-34 0 -55.5 -33.5t-21.5 -96.5q0 -64 20.5 -91t57.5 -27q21 0 42 11.5
t36 27.5v168q-16 18 -36.5 29.5t-42.5 11.5zM370 730q-17 0 -36.5 7t-39.5 15.5t-39 15.5t-34 7t-31 -7t-41 -38l-57 31q23 65 58.5 93.5t68.5 28.5q20 0 41.5 -7t42.5 -16t40 -16t34 -7q16 0 30.5 8t36.5 33l56 -30q-23 -66 -57.5 -92t-72.5 -26zM370 648q-34 -10 -45 -19
t-11 -23q0 -11 11.5 -21t28.5 -17l-17 -43q-65 11 -95 39t-28 63q2 38 34.5 65.5t97.5 30.5zM329 -53v-93q0 -28 17 -34.5t46 -4.5v-80q-14 -5 -33 -7.5t-35 -2.5q-21 0 -39 4.5t-32 16.5t-22 32t-8 52v117h106z" />
    <glyph glyph-name="uni1F90" unicode="&#x1f90;" horiz-adv-x="560" 
d="M516 0h-158v270q0 51 -19 72t-51 21q-28 0 -48 -14.5t-28 -43.5q-2 -9 -4 -20.5t-2 -24.5v-260h-157v488h157v-51h4q25 29 62.5 45t69.5 16q47 0 80 -14t54 -39.5t30.5 -62.5t9.5 -82v-300zM200 561q14 20 21.5 40t7.5 37q0 19 -13 36.5t-54 24.5l48 107
q66 -13 99.5 -47.5t33.5 -85.5q0 -24 -15 -62t-54 -75zM332 -53v-93q0 -28 17 -34.5t46 -4.5v-80q-14 -5 -33 -7.5t-35 -2.5q-21 0 -39 4.5t-32 16.5t-22 32t-8 52v117h106z" />
    <glyph glyph-name="uni1F91" unicode="&#x1f91;" horiz-adv-x="560" 
d="M516 0h-158v270q0 51 -19 72t-51 21q-28 0 -48 -14.5t-28 -43.5q-2 -9 -4 -20.5t-2 -24.5v-260h-157v488h157v-51h4q25 29 62.5 45t69.5 16q47 0 80 -14t54 -39.5t30.5 -62.5t9.5 -82v-300zM247 535q-39 36 -54.5 75t-15.5 63q0 51 35.5 87t106.5 44l36 -108
q-42 -7 -53 -23t-11 -35q0 -17 8 -37t21 -40zM334 -53v-93q0 -28 17 -34.5t46 -4.5v-80q-14 -5 -33 -7.5t-35 -2.5q-21 0 -39 4.5t-32 16.5t-22 32t-8 52v117h106z" />
    <glyph glyph-name="uni1F92" unicode="&#x1f92;" horiz-adv-x="560" 
d="M516 0h-158v270q0 51 -19 72t-51 21q-28 0 -48 -14.5t-28 -43.5q-2 -9 -4 -20.5t-2 -24.5v-260h-157v488h157v-51h4q25 29 62.5 45t69.5 16q47 0 80 -14t54 -39.5t30.5 -62.5t9.5 -82v-300zM92 567q13 20 21 40t8 36q0 20 -13 37.5t-55 24.5l48 107q66 -13 100 -48
t34 -86q0 -23 -15.5 -61.5t-53.5 -74.5zM230 776l148 28l81 -227l-88 -26zM334 -53v-93q0 -28 17 -34.5t46 -4.5v-80q-14 -5 -33 -7.5t-35 -2.5q-21 0 -39 4.5t-32 16.5t-22 32t-8 52v117h106z" />
    <glyph glyph-name="uni1F93" unicode="&#x1f93;" horiz-adv-x="560" 
d="M516 0h-158v270q0 51 -19 72t-51 21q-28 0 -48 -14.5t-28 -43.5q-2 -9 -4 -20.5t-2 -24.5v-260h-157v488h157v-51h4q25 29 62.5 45t69.5 16q47 0 80 -14t54 -39.5t30.5 -62.5t9.5 -82v-300zM126 538q-39 36 -54 75t-15 63q0 51 35.5 87t105.5 44l36 -108q-41 -7 -52 -23
t-11 -35q0 -17 7.5 -37t21.5 -40zM232 776l149 28l81 -226l-87 -26zM334 -53v-93q0 -28 17 -34.5t46 -4.5v-80q-14 -5 -33 -7.5t-35 -2.5q-21 0 -39 4.5t-32 16.5t-22 32t-8 52v117h106z" />
    <glyph glyph-name="uni1F94" unicode="&#x1f94;" horiz-adv-x="560" 
d="M516 0h-158v270q0 51 -19 72t-51 21q-28 0 -48 -14.5t-28 -43.5q-2 -9 -4 -20.5t-2 -24.5v-260h-157v488h157v-51h4q25 29 62.5 45t69.5 16q47 0 80 -14t54 -39.5t30.5 -62.5t9.5 -82v-300zM122 558q14 20 21.5 40.5t7.5 36.5q0 10 -2.5 19.5t-10 17.5t-20.5 14.5
t-34 9.5l47 108q66 -14 100 -48.5t34 -85.5q0 -24 -15 -62.5t-54 -74.5zM358 533l-88 26l82 226l147 -28zM334 -53v-93q0 -28 17 -34.5t46 -4.5v-80q-14 -5 -33 -7.5t-35 -2.5q-21 0 -39 4.5t-32 16.5t-22 32t-8 52v117h106z" />
    <glyph glyph-name="uni1F95" unicode="&#x1f95;" horiz-adv-x="560" 
d="M516 0h-158v270q0 51 -19 72t-51 21q-28 0 -48 -14.5t-28 -43.5q-2 -9 -4 -20.5t-2 -24.5v-260h-157v488h157v-51h4q25 29 62.5 45t69.5 16q47 0 80 -14t54 -39.5t30.5 -62.5t9.5 -82v-300zM168 532q-39 36 -54 75t-15 63q0 51 35.5 87.5t105.5 44.5l35 -108
q-21 -3 -33 -9t-19 -14t-9 -17t-2 -19q0 -16 7.5 -36.5t21.5 -40.5zM361 534l-88 26l81 226l149 -28zM334 -53v-93q0 -28 17 -34.5t46 -4.5v-80q-14 -5 -33 -7.5t-35 -2.5q-21 0 -39 4.5t-32 16.5t-22 32t-8 52v117h106z" />
    <glyph glyph-name="uni1F96" unicode="&#x1f96;" horiz-adv-x="560" 
d="M516 0h-158v270q0 51 -19 72t-51 21q-28 0 -48 -14.5t-28 -43.5q-2 -9 -4 -20.5t-2 -24.5v-260h-157v488h157v-51h4q25 29 62.5 45t69.5 16q47 0 80 -14t54 -39.5t30.5 -62.5t9.5 -82v-300zM337 720q-17 0 -36.5 7t-39.5 15.5t-39 15.5t-34 7q-14 0 -30.5 -7t-41.5 -38
l-57 31q23 65 58.5 93.5t68.5 28.5q20 0 41.5 -7t42.5 -16t40 -16t34 -7q16 0 30.5 8t36.5 33l56 -30q-23 -66 -57.5 -92t-72.5 -26zM216 715q65 -4 98.5 -30t33.5 -65q0 -32 -30 -62t-90 -44l-20 42q17 8 29 18.5t12 21.5q0 15 -11.5 24t-47.5 18zM334 -53v-93
q0 -28 17 -34.5t46 -4.5v-80q-14 -5 -33 -7.5t-35 -2.5q-21 0 -39 4.5t-32 16.5t-22 32t-8 52v117h106z" />
    <glyph glyph-name="uni1F97" unicode="&#x1f97;" horiz-adv-x="560" 
d="M516 0h-158v270q0 51 -19 72t-51 21q-28 0 -48 -14.5t-28 -43.5q-2 -9 -4 -20.5t-2 -24.5v-260h-157v488h157v-51h4q25 29 62.5 45t69.5 16q47 0 80 -14t54 -39.5t30.5 -62.5t9.5 -82v-300zM338 727q-17 0 -36.5 7t-39.5 15.5t-39 15.5t-34 7t-31 -7t-41 -38l-57 31
q23 65 58.5 93.5t68.5 28.5q20 0 41.5 -7t42.5 -16t40 -16t34 -7q16 0 30.5 8t36.5 33l56 -30q-23 -66 -57.5 -92t-72.5 -26zM338 645q-34 -10 -45 -19t-11 -23q0 -11 11.5 -21t28.5 -17l-17 -43q-65 11 -95 39t-28 63q2 38 34.5 65.5t97.5 30.5zM334 -53v-93
q0 -28 17 -34.5t46 -4.5v-80q-14 -5 -33 -7.5t-35 -2.5q-21 0 -39 4.5t-32 16.5t-22 32t-8 52v117h106z" />
    <glyph glyph-name="uni1FA0" unicode="&#x1fa0;" horiz-adv-x="788" 
d="M393 62q-21 -33 -55.5 -52.5t-76.5 -19.5q-103 0 -161 66t-58 190q0 42 13.5 84t40 77t66 60t90.5 34l43 -114q-29 -9 -47 -26.5t-28 -38t-13.5 -41.5t-3.5 -37q0 -72 20.5 -101t47.5 -29t42.5 20t15.5 53v119h131v-121q0 -34 16 -52.5t42 -18.5q13 0 25.5 6.5t21.5 21.5
t14.5 40t5.5 61q0 16 -3.5 37t-13.5 41.5t-28 38t-46 26.5l43 114q52 -9 91 -34.5t65 -60.5t39.5 -77t13.5 -83q0 -59 -15 -106t-43 -80t-68.5 -51t-91.5 -18q-41 0 -76.5 19.5t-55.5 52.5h-3zM334 561q14 20 21.5 40t7.5 37q0 19 -13 36.5t-54 24.5l48 107
q66 -13 99.5 -47.5t33.5 -85.5q0 -24 -15 -62t-54 -75zM449 -53v-93q0 -28 17 -34.5t46 -4.5v-80q-14 -5 -33 -7.5t-35 -2.5q-21 0 -39 4.5t-32 16.5t-22 32t-8 52v117h106z" />
    <glyph glyph-name="uni1FA1" unicode="&#x1fa1;" horiz-adv-x="788" 
d="M393 62q-21 -33 -55.5 -52.5t-76.5 -19.5q-103 0 -161 66t-58 190q0 42 13.5 84t40 77t66 60t90.5 34l43 -114q-29 -9 -47 -26.5t-28 -38t-13.5 -41.5t-3.5 -37q0 -72 20.5 -101t47.5 -29t42.5 20t15.5 53v119h131v-121q0 -34 16 -52.5t42 -18.5q13 0 25.5 6.5t21.5 21.5
t14.5 40t5.5 61q0 16 -3.5 37t-13.5 41.5t-28 38t-46 26.5l43 114q52 -9 91 -34.5t65 -60.5t39.5 -77t13.5 -83q0 -59 -15 -106t-43 -80t-68.5 -51t-91.5 -18q-41 0 -76.5 19.5t-55.5 52.5h-3zM377 536q-39 36 -54.5 75t-15.5 63q0 51 35.5 87t106.5 44l36 -108
q-42 -7 -53 -23t-11 -35q0 -17 8 -37t21 -40zM446 -53v-93q0 -28 17 -34.5t46 -4.5v-80q-14 -5 -33 -7.5t-35 -2.5q-21 0 -39 4.5t-32 16.5t-22 32t-8 52v117h106z" />
    <glyph glyph-name="uni1FA2" unicode="&#x1fa2;" horiz-adv-x="788" 
d="M393 62q-21 -33 -55.5 -52.5t-76.5 -19.5q-103 0 -161 66t-58 190q0 42 13.5 84t40 77t66 60t90.5 34l43 -114q-29 -9 -47 -26.5t-28 -38t-13.5 -41.5t-3.5 -37q0 -72 20.5 -101t47.5 -29t42.5 20t15.5 53v119h131v-121q0 -34 16 -52.5t42 -18.5q13 0 25.5 6.5t21.5 21.5
t14.5 40t5.5 61q0 16 -3.5 37t-13.5 41.5t-28 38t-46 26.5l43 114q52 -9 91 -34.5t65 -60.5t39.5 -77t13.5 -83q0 -59 -15 -106t-43 -80t-68.5 -51t-91.5 -18q-41 0 -76.5 19.5t-55.5 52.5h-3zM225 567q13 20 21 40t8 36q0 20 -13 37.5t-55 24.5l48 107q66 -13 100 -48
t34 -86q0 -23 -15.5 -61.5t-53.5 -74.5zM363 776l148 28l81 -227l-88 -26zM450 -53v-93q0 -28 17 -34.5t46 -4.5v-80q-14 -5 -33 -7.5t-35 -2.5q-21 0 -39 4.5t-32 16.5t-22 32t-8 52v117h106z" />
    <glyph glyph-name="uni1FA3" unicode="&#x1fa3;" horiz-adv-x="788" 
d="M393 62q-21 -33 -55.5 -52.5t-76.5 -19.5q-103 0 -161 66t-58 190q0 42 13.5 84t40 77t66 60t90.5 34l43 -114q-29 -9 -47 -26.5t-28 -38t-13.5 -41.5t-3.5 -37q0 -72 20.5 -101t47.5 -29t42.5 20t15.5 53v119h131v-121q0 -34 16 -52.5t42 -18.5q13 0 25.5 6.5t21.5 21.5
t14.5 40t5.5 61q0 16 -3.5 37t-13.5 41.5t-28 38t-46 26.5l43 114q52 -9 91 -34.5t65 -60.5t39.5 -77t13.5 -83q0 -59 -15 -106t-43 -80t-68.5 -51t-91.5 -18q-41 0 -76.5 19.5t-55.5 52.5h-3zM252 539q-39 36 -54 75t-15 63q0 51 35.5 87t105.5 44l36 -108q-41 -7 -52 -23
t-11 -35q0 -17 7.5 -37t21.5 -40zM358 777l149 28l81 -226l-87 -26zM446 -53v-93q0 -28 17 -34.5t46 -4.5v-80q-14 -5 -33 -7.5t-35 -2.5q-21 0 -39 4.5t-32 16.5t-22 32t-8 52v117h106z" />
    <glyph glyph-name="uni1FA4" unicode="&#x1fa4;" horiz-adv-x="788" 
d="M393 62q-21 -33 -55.5 -52.5t-76.5 -19.5q-103 0 -161 66t-58 190q0 42 13.5 84t40 77t66 60t90.5 34l43 -114q-29 -9 -47 -26.5t-28 -38t-13.5 -41.5t-3.5 -37q0 -72 20.5 -101t47.5 -29t42.5 20t15.5 53v119h131v-121q0 -34 16 -52.5t42 -18.5q13 0 25.5 6.5t21.5 21.5
t14.5 40t5.5 61q0 16 -3.5 37t-13.5 41.5t-28 38t-46 26.5l43 114q52 -9 91 -34.5t65 -60.5t39.5 -77t13.5 -83q0 -59 -15 -106t-43 -80t-68.5 -51t-91.5 -18q-41 0 -76.5 19.5t-55.5 52.5h-3zM251 562q14 20 21.5 40.5t7.5 36.5q0 10 -2.5 19.5t-10 17.5t-20.5 14.5
t-34 9.5l47 108q66 -14 100 -48.5t34 -85.5q0 -24 -15 -62.5t-54 -74.5zM487 537l-88 26l82 226l147 -28zM443 -53v-93q0 -28 17 -34.5t46 -4.5v-80q-14 -5 -33 -7.5t-35 -2.5q-21 0 -39 4.5t-32 16.5t-22 32t-8 52v117h106z" />
    <glyph glyph-name="uni1FA5" unicode="&#x1fa5;" horiz-adv-x="788" 
d="M393 62q-21 -33 -55.5 -52.5t-76.5 -19.5q-103 0 -161 66t-58 190q0 42 13.5 84t40 77t66 60t90.5 34l43 -114q-29 -9 -47 -26.5t-28 -38t-13.5 -41.5t-3.5 -37q0 -72 20.5 -101t47.5 -29t42.5 20t15.5 53v119h131v-121q0 -34 16 -52.5t42 -18.5q13 0 25.5 6.5t21.5 21.5
t14.5 40t5.5 61q0 16 -3.5 37t-13.5 41.5t-28 38t-46 26.5l43 114q52 -9 91 -34.5t65 -60.5t39.5 -77t13.5 -83q0 -59 -15 -106t-43 -80t-68.5 -51t-91.5 -18q-41 0 -76.5 19.5t-55.5 52.5h-3zM296 534q-39 36 -54 75t-15 63q0 51 35.5 87.5t105.5 44.5l35 -108
q-21 -3 -33 -9t-19 -14t-9 -17t-2 -19q0 -16 7.5 -36.5t21.5 -40.5zM489 536l-88 26l81 226l149 -28zM442 -53v-93q0 -28 17 -34.5t46 -4.5v-80q-14 -5 -33 -7.5t-35 -2.5q-21 0 -39 4.5t-32 16.5t-22 32t-8 52v117h106z" />
    <glyph glyph-name="uni1FA6" unicode="&#x1fa6;" horiz-adv-x="788" 
d="M393 62q-21 -33 -55.5 -52.5t-76.5 -19.5q-103 0 -161 66t-58 190q0 42 13.5 84t40 77t66 60t90.5 34l43 -114q-29 -9 -47 -26.5t-28 -38t-13.5 -41.5t-3.5 -37q0 -72 20.5 -101t47.5 -29t42.5 20t15.5 53v119h131v-121q0 -34 16 -52.5t42 -18.5q13 0 25.5 6.5t21.5 21.5
t14.5 40t5.5 61q0 16 -3.5 37t-13.5 41.5t-28 38t-46 26.5l43 114q52 -9 91 -34.5t65 -60.5t39.5 -77t13.5 -83q0 -59 -15 -106t-43 -80t-68.5 -51t-91.5 -18q-41 0 -76.5 19.5t-55.5 52.5h-3zM463 698q-17 0 -36.5 7t-39.5 15.5t-39 15.5t-34 7q-14 0 -30.5 -7t-41.5 -38
l-57 31q23 65 58.5 93.5t68.5 28.5q20 0 41.5 -7t42.5 -16t40 -16t34 -7q16 0 30.5 8t36.5 33l56 -30q-23 -66 -57.5 -92t-72.5 -26zM342 693q65 -4 98.5 -30t33.5 -65q0 -32 -30 -62t-90 -44l-20 42q17 8 29 18.5t12 21.5q0 15 -11.5 24t-47.5 18zM453 -53v-93
q0 -28 17 -34.5t46 -4.5v-80q-14 -5 -33 -7.5t-35 -2.5q-21 0 -39 4.5t-32 16.5t-22 32t-8 52v117h106z" />
    <glyph glyph-name="uni1FA7" unicode="&#x1fa7;" horiz-adv-x="788" 
d="M393 62q-21 -33 -55.5 -52.5t-76.5 -19.5q-103 0 -161 66t-58 190q0 42 13.5 84t40 77t66 60t90.5 34l43 -114q-29 -9 -47 -26.5t-28 -38t-13.5 -41.5t-3.5 -37q0 -72 20.5 -101t47.5 -29t42.5 20t15.5 53v119h131v-121q0 -34 16 -52.5t42 -18.5q13 0 25.5 6.5t21.5 21.5
t14.5 40t5.5 61q0 16 -3.5 37t-13.5 41.5t-28 38t-46 26.5l43 114q52 -9 91 -34.5t65 -60.5t39.5 -77t13.5 -83q0 -59 -15 -106t-43 -80t-68.5 -51t-91.5 -18q-41 0 -76.5 19.5t-55.5 52.5h-3zM454 694q-17 0 -36.5 7t-39.5 15.5t-39 15.5t-34 7t-31 -7t-41 -38l-57 31
q23 65 58.5 93.5t68.5 28.5q20 0 41.5 -7t42.5 -16t40 -16t34 -7q16 0 30.5 8t36.5 33l56 -30q-23 -66 -57.5 -92t-72.5 -26zM454 612q-34 -10 -45 -19t-11 -23q0 -11 11.5 -21t28.5 -17l-17 -43q-65 11 -95 39t-28 63q2 38 34.5 65.5t97.5 30.5zM441 -53v-93
q0 -28 17 -34.5t46 -4.5v-80q-14 -5 -33 -7.5t-35 -2.5q-21 0 -39 4.5t-32 16.5t-22 32t-8 52v117h106z" />
    <glyph glyph-name="uni1FB2" unicode="&#x1fb2;" horiz-adv-x="568" 
d="M384 0l-16 43h-3q-32 -29 -66 -40.5t-68 -11.5q-38 0 -72 14t-60 44t-41.5 76.5t-15.5 111.5q0 66 15.5 115t41.5 81.5t61.5 48.5t75.5 16q34 0 68 -14t57 -38l3 1v42h155v-489h-135zM282 368q-34 0 -55.5 -33.5t-21.5 -96.5q0 -64 20.5 -91t57.5 -27q21 0 42 11.5
t36 27.5v168q-16 18 -36.5 29.5t-42.5 11.5zM129 769l154 28l81 -227l-93 -26zM325 -53v-93q0 -28 17 -34.5t46 -4.5v-80q-14 -5 -33 -7.5t-35 -2.5q-21 0 -39 4.5t-32 16.5t-22 32t-8 52v117h106z" />
    <glyph glyph-name="uni1FB4" unicode="&#x1fb4;" horiz-adv-x="568" 
d="M384 0l-16 43h-3q-32 -29 -66 -40.5t-68 -11.5q-38 0 -72 14t-60 44t-41.5 76.5t-15.5 111.5q0 66 15.5 115t41.5 81.5t61.5 48.5t75.5 16q34 0 68 -14t57 -38l3 1v42h155v-489h-135zM282 368q-34 0 -55.5 -33.5t-21.5 -96.5q0 -64 20.5 -91t57.5 -27q21 0 42 11.5
t36 27.5v168q-16 18 -36.5 29.5t-42.5 11.5zM312 544l-92 26l81 227l153 -28zM325 -53v-93q0 -28 17 -34.5t46 -4.5v-80q-14 -5 -33 -7.5t-35 -2.5q-21 0 -39 4.5t-32 16.5t-22 32t-8 52v117h106z" />
    <glyph glyph-name="uni1FB3" unicode="&#x1fb3;" horiz-adv-x="568" 
d="M384 0l-16 43h-3q-32 -29 -66 -40.5t-68 -11.5q-38 0 -72 14t-60 44t-41.5 76.5t-15.5 111.5q0 66 15.5 115t41.5 81.5t61.5 48.5t75.5 16q34 0 68 -14t57 -38l3 1v42h155v-489h-135zM282 368q-34 0 -55.5 -33.5t-21.5 -96.5q0 -64 20.5 -91t57.5 -27q21 0 42 11.5
t36 27.5v168q-16 18 -36.5 29.5t-42.5 11.5zM325 -53v-93q0 -28 17 -34.5t46 -4.5v-80q-14 -5 -33 -7.5t-35 -2.5q-21 0 -39 4.5t-32 16.5t-22 32t-8 52v117h106z" />
    <glyph glyph-name="uni1FB6" unicode="&#x1fb6;" horiz-adv-x="568" 
d="M384 0l-16 43h-3q-32 -29 -66 -40.5t-68 -11.5q-38 0 -72 14t-60 44t-41.5 76.5t-15.5 111.5q0 66 15.5 115t41.5 81.5t61.5 48.5t75.5 16q34 0 68 -14t57 -38l3 1v42h155v-489h-135zM282 368q-34 0 -55.5 -33.5t-21.5 -96.5q0 -64 20.5 -91t57.5 -27q21 0 42 11.5
t36 27.5v168q-16 18 -36.5 29.5t-42.5 11.5zM373 552q-17 0 -37.5 8t-40.5 18t-39.5 18t-35.5 8t-32.5 -9.5t-36.5 -40.5l-68 31q12 38 28 63.5t34 41t37 22t37 6.5q21 0 43.5 -8t44 -18t41.5 -18t35 -8q17 0 29.5 9.5t31.5 35.5l65 -31q-12 -37 -27.5 -61.5t-33 -39.5
t-37 -21t-38.5 -6z" />
    <glyph glyph-name="uni1FB7" unicode="&#x1fb7;" horiz-adv-x="568" 
d="M374 554q-17 0 -37.5 8t-40.5 18t-39.5 18t-35.5 8t-32.5 -9.5t-36.5 -40.5l-68 31q12 38 28 63.5t34 41t37 22t37 6.5q21 0 43.5 -8t44 -18t41.5 -18t35 -8q17 0 29.5 9.5t31.5 35.5l65 -31q-12 -37 -27.5 -61.5t-33 -39.5t-37 -21t-38.5 -6zM384 0l-16 43h-3
q-32 -29 -66 -40.5t-68 -11.5q-38 0 -72 14t-60 44t-41.5 76.5t-15.5 111.5q0 66 15.5 115t41.5 81.5t61.5 48.5t75.5 16q34 0 68 -14t57 -38l3 1v42h155v-489h-135zM282 368q-34 0 -55.5 -33.5t-21.5 -96.5q0 -64 20.5 -91t57.5 -27q21 0 42 11.5t36 27.5v168
q-16 18 -36.5 29.5t-42.5 11.5zM335 -53v-93q0 -28 17 -34.5t46 -4.5v-80q-14 -5 -33 -7.5t-35 -2.5q-21 0 -39 4.5t-32 16.5t-22 32t-8 52v117h106z" />
    <glyph glyph-name="uni1FBA" unicode="&#x1fba;" horiz-adv-x="687" 
d="M462 129h-239l-42 -129h-171l240 651h191l240 -651h-176zM342 494q-2 -5 -7.5 -23t-12 -38t-12 -37.5t-6.5 -21.5l-41 -122h159l-43 132q-2 4 -6.5 20t-10.5 34t-11 34.5t-6 21.5h-3zM-82 673l154 28l81 -227l-93 -26z" />
    <glyph glyph-name="uni1FBB" unicode="&#x1fbb;" horiz-adv-x="687" 
d="M462 129h-239l-42 -129h-171l240 651h191l240 -651h-176zM342 494q-2 -5 -7.5 -23t-12 -38t-12 -37.5t-6.5 -21.5l-41 -122h159l-43 132q-2 4 -6.5 20t-10.5 34t-11 34.5t-6 21.5h-3zM30 452l-92 26l81 227l153 -28z" />
    <glyph glyph-name="uni1FB9" unicode="&#x1fb9;" horiz-adv-x="687" 
d="M199 829h286v-111h-286v111zM462 129h-239l-42 -129h-171l240 651h191l240 -651h-176zM342 494q-2 -5 -7.5 -23t-12 -38t-12 -37.5t-6.5 -21.5l-41 -122h159l-43 132q-2 4 -6.5 20t-10.5 34t-11 34.5t-6 21.5h-3z" />
    <glyph glyph-name="uni1FB8" unicode="&#x1fb8;" horiz-adv-x="687" 
d="M462 129h-239l-42 -129h-171l240 651h191l240 -651h-176zM342 494q-2 -5 -7.5 -23t-12 -38t-12 -37.5t-6.5 -21.5l-41 -122h159l-43 132q-2 4 -6.5 20t-10.5 34t-11 34.5t-6 21.5h-3zM269 860q5 -29 23.5 -49t49.5 -20q16 0 29 6.5t21 16.5t12.5 22.5t4.5 23.5h109
q0 -25 -8.5 -54.5t-29 -55t-54 -43t-84.5 -17.5t-85.5 17.5t-55.5 43t-29.5 55t-8.5 54.5h106z" />
    <glyph glyph-name="uni1FBE" unicode="&#x1fbe;" horiz-adv-x="528" 
d="M330 -53v-93q0 -28 17 -34.5t46 -4.5v-80q-14 -5 -33 -7.5t-35 -2.5q-21 0 -39 4.5t-32 16.5t-22 32t-8 52v117h106z" />
    <glyph glyph-name="uni1FC2" unicode="&#x1fc2;" horiz-adv-x="560" 
d="M516 0h-158v270q0 51 -19 72t-51 21q-28 0 -48 -14.5t-28 -43.5q-2 -9 -4 -20.5t-2 -24.5v-260h-157v488h157v-51h4q25 29 62.5 45t69.5 16q47 0 80 -14t54 -39.5t30.5 -62.5t9.5 -82v-300zM328 -53v-93q0 -28 17 -34.5t46 -4.5v-80q-14 -5 -33 -7.5t-35 -2.5
q-21 0 -39 4.5t-32 16.5t-22 32t-8 52v117h106zM106 769l154 28l81 -227l-93 -26z" />
    <glyph glyph-name="uni1FC3" unicode="&#x1fc3;" horiz-adv-x="560" 
d="M516 0h-158v270q0 51 -19 72t-51 21q-28 0 -48 -14.5t-28 -43.5q-2 -9 -4 -20.5t-2 -24.5v-260h-157v488h157v-51h4q25 29 62.5 45t69.5 16q47 0 80 -14t54 -39.5t30.5 -62.5t9.5 -82v-300zM328 -53v-93q0 -28 17 -34.5t46 -4.5v-80q-14 -5 -33 -7.5t-35 -2.5
q-21 0 -39 4.5t-32 16.5t-22 32t-8 52v117h106z" />
    <glyph glyph-name="uni1FC4" unicode="&#x1fc4;" horiz-adv-x="560" 
d="M516 0h-158v270q0 51 -19 72t-51 21q-28 0 -48 -14.5t-28 -43.5q-2 -9 -4 -20.5t-2 -24.5v-260h-157v488h157v-51h4q25 29 62.5 45t69.5 16q47 0 80 -14t54 -39.5t30.5 -62.5t9.5 -82v-300zM328 -53v-93q0 -28 17 -34.5t46 -4.5v-80q-14 -5 -33 -7.5t-35 -2.5
q-21 0 -39 4.5t-32 16.5t-22 32t-8 52v117h106zM280 544l-92 26l81 227l153 -28z" />
    <glyph glyph-name="uni1FC6" unicode="&#x1fc6;" horiz-adv-x="560" 
d="M516 0h-158v270q0 51 -19 72t-51 21q-28 0 -48 -14.5t-28 -43.5q-2 -9 -4 -20.5t-2 -24.5v-260h-157v488h157v-51h4q25 29 62.5 45t69.5 16q47 0 80 -14t54 -39.5t30.5 -62.5t9.5 -82v-300zM349 554q-17 0 -37.5 8t-40.5 18t-39.5 18t-35.5 8t-32.5 -9.5t-36.5 -40.5
l-68 31q12 38 28 63.5t34 41t37 22t37 6.5q21 0 43.5 -8t44 -18t41.5 -18t35 -8q17 0 29.5 9.5t31.5 35.5l65 -31q-12 -37 -27.5 -61.5t-33 -39.5t-37 -21t-38.5 -6z" />
    <glyph glyph-name="uni1FC7" unicode="&#x1fc7;" horiz-adv-x="560" 
d="M516 0h-158v270q0 51 -19 72t-51 21q-28 0 -48 -14.5t-28 -43.5q-2 -9 -4 -20.5t-2 -24.5v-260h-157v488h157v-51h4q25 29 62.5 45t69.5 16q47 0 80 -14t54 -39.5t30.5 -62.5t9.5 -82v-300zM344 554q-17 0 -37.5 8t-40.5 18t-39.5 18t-35.5 8t-32.5 -9.5t-36.5 -40.5
l-68 31q12 38 28 63.5t34 41t37 22t37 6.5q21 0 43.5 -8t44 -18t41.5 -18t35 -8q17 0 29.5 9.5t31.5 35.5l65 -31q-12 -37 -27.5 -61.5t-33 -39.5t-37 -21t-38.5 -6zM329 -53v-93q0 -28 17 -34.5t46 -4.5v-80q-14 -5 -33 -7.5t-35 -2.5q-21 0 -39 4.5t-32 16.5t-22 32t-8 52
v117h106z" />
    <glyph glyph-name="uni1FBD" unicode="&#x1fbd;" horiz-adv-x="528" 
d="M213 561q14 20 21.5 40t7.5 37q0 19 -13 36.5t-54 24.5l48 107q66 -13 99.5 -47.5t33.5 -85.5q0 -24 -15 -62t-54 -75z" />
    <glyph glyph-name="uni1FC1" unicode="&#x1fc1;" horiz-adv-x="524" 
d="M338 697q-17 0 -36 8t-38.5 17t-38 17t-33.5 8t-30.5 -8t-36.5 -38l-65 28q12 36 27.5 61t32.5 40.5t35.5 22.5t35.5 7q20 0 41.5 -8t41.5 -17.5t38.5 -17.5t33.5 -8q16 0 29.5 9t30.5 34l65 -30q-12 -35 -27 -59t-32 -38.5t-36 -21t-38 -6.5zM378 524q-16 0 -30 6
t-24.5 16.5t-17 24.5t-6.5 29q0 31 23 53.5t55 22.5q31 0 53 -22.5t22 -53.5q0 -30 -22 -53t-53 -23zM160 524q-15 0 -29 6t-24.5 16.5t-17 24.5t-6.5 29q0 31 23 53.5t54 22.5q30 0 53 -22.5t23 -53.5q0 -15 -6.5 -29t-17 -24.5t-24 -16.5t-28.5 -6z" />
    <glyph glyph-name="uni1FC8" unicode="&#x1fc8;" horiz-adv-x="571" 
d="M55 651h486v-138h-321v-107h223v-139h-223v-128h332v-139h-497v651zM-219 667l154 28l81 -227l-93 -26z" />
    <glyph glyph-name="uni1FC9" unicode="&#x1fc9;" horiz-adv-x="571" 
d="M55 651h486v-138h-321v-107h223v-139h-223v-128h332v-139h-497v651zM-115 442l-92 26l81 227l153 -28z" />
    <glyph glyph-name="uni1FCA" unicode="&#x1fca;" horiz-adv-x="673" 
d="M452 263h-232v-263h-165v651h165v-248h232v248h165v-651h-165v263zM-224 667l154 28l81 -227l-93 -26z" />
    <glyph glyph-name="uni1FCB" unicode="&#x1fcb;" horiz-adv-x="673" 
d="M452 263h-232v-263h-165v651h165v-248h232v248h165v-651h-165v263zM-113 442l-92 26l81 227l153 -28z" />
    <glyph glyph-name="uni1FCD" unicode="&#x1fcd;" horiz-adv-x="528" 
d="M113 562q13 20 21 40t8 36q0 20 -13 37.5t-55 24.5l48 107q66 -13 100 -48t34 -86q0 -23 -15.5 -61.5t-53.5 -74.5zM251 771l148 28l81 -227l-88 -26z" />
    <glyph glyph-name="uni1FCE" unicode="&#x1fce;" horiz-adv-x="559" 
d="M146 563q14 20 21.5 40.5t7.5 36.5q0 10 -2.5 19.5t-10 17.5t-20.5 14.5t-34 9.5l47 108q66 -14 100 -48.5t34 -85.5q0 -24 -15 -62.5t-54 -74.5zM382 538l-88 26l82 226l147 -28z" />
    <glyph glyph-name="uni1FCF" unicode="&#x1fcf;" horiz-adv-x="528" 
d="M344 734q-17 0 -36.5 7t-39.5 15.5t-39 15.5t-34 7q-14 0 -30.5 -7t-41.5 -38l-57 31q23 65 58.5 93.5t68.5 28.5q20 0 41.5 -7t42.5 -16t40 -16t34 -7q16 0 30.5 8t36.5 33l56 -30q-23 -66 -57.5 -92t-72.5 -26zM223 729q65 -4 98.5 -30t33.5 -65q0 -32 -30 -62t-90 -44
l-20 42q17 8 29 18.5t12 21.5q0 15 -11.5 24t-47.5 18z" />
    <glyph glyph-name="uni1FDD" unicode="&#x1fdd;" horiz-adv-x="528" 
d="M142 534q-39 36 -54 75t-15 63q0 51 35.5 87t105.5 44l36 -108q-41 -7 -52 -23t-11 -35q0 -17 7.5 -37t21.5 -40zM248 772l149 28l81 -226l-87 -26z" />
    <glyph glyph-name="uni1FDE" unicode="&#x1fde;" horiz-adv-x="535" 
d="M165 537q-39 36 -54 75t-15 63q0 51 35.5 87.5t105.5 44.5l35 -108q-21 -3 -33 -9t-19 -14t-9 -17t-2 -19q0 -16 7.5 -36.5t21.5 -40.5zM358 539l-88 26l81 226l149 -28z" />
    <glyph glyph-name="uni1FDF" unicode="&#x1fdf;" horiz-adv-x="528" 
d="M344 734q-17 0 -36.5 7t-39.5 15.5t-39 15.5t-34 7t-31 -7t-41 -38l-57 31q23 65 58.5 93.5t68.5 28.5q20 0 41.5 -7t42.5 -16t40 -16t34 -7q16 0 30.5 8t36.5 33l56 -30q-23 -66 -57.5 -92t-72.5 -26zM344 652q-34 -10 -45 -19t-11 -23q0 -11 11.5 -21t28.5 -17l-17 -43
q-65 11 -95 39t-28 63q2 38 34.5 65.5t97.5 30.5z" />
    <glyph glyph-name="uni1FE4" unicode="&#x1fe4;" horiz-adv-x="573" 
d="M531 246q0 -50 -11.5 -96.5t-35.5 -82t-62.5 -56.5t-92.5 -21q-13 0 -29 2.5t-32.5 7.5t-32 14t-27.5 21h-2v-192q-40 -14 -79.5 -28t-78.5 -28v458q0 48 13.5 94t42 82t72.5 58t104 23q63 0 110.5 -19.5t78.5 -54t46.5 -81t15.5 -101.5zM368 241q0 22 -3.5 44.5
t-12.5 41t-24 30t-39 11.5q-26 0 -42 -11t-25 -26.5t-12.5 -34t-3.5 -33.5v-105q17 -18 37.5 -28.5t42.5 -10.5q35 0 58.5 28t23.5 94zM218 561q14 20 21.5 40t7.5 37q0 19 -13 36.5t-54 24.5l48 107q66 -13 99.5 -47.5t33.5 -85.5q0 -24 -15 -62t-54 -75z" />
    <glyph glyph-name="uni1FE5" unicode="&#x1fe5;" horiz-adv-x="573" 
d="M531 246q0 -50 -11.5 -96.5t-35.5 -82t-62.5 -56.5t-92.5 -21q-13 0 -29 2.5t-32.5 7.5t-32 14t-27.5 21h-2v-192q-40 -14 -79.5 -28t-78.5 -28v458q0 48 13.5 94t42 82t72.5 58t104 23q63 0 110.5 -19.5t78.5 -54t46.5 -81t15.5 -101.5zM368 241q0 22 -3.5 44.5
t-12.5 41t-24 30t-39 11.5q-26 0 -42 -11t-25 -26.5t-12.5 -34t-3.5 -33.5v-105q17 -18 37.5 -28.5t42.5 -10.5q35 0 58.5 28t23.5 94zM264 535q-39 36 -54.5 75t-15.5 63q0 51 35.5 87t106.5 44l36 -108q-42 -7 -53 -23t-11 -35q0 -17 8 -37t21 -40z" />
    <glyph glyph-name="uni1FE6" unicode="&#x1fe6;" horiz-adv-x="569" 
d="M286 -12q-111 0 -175 58.5t-64 170.5v272h159v-271q0 -104 78 -104q43 0 62 26t19 78v271l158 -1v-271q0 -111 -62.5 -170t-174.5 -59zM364 554q-17 0 -37.5 8t-40.5 18t-39.5 18t-35.5 8t-32.5 -9.5t-36.5 -40.5l-68 31q12 38 28 63.5t34 41t37 22t37 6.5q21 0 43.5 -8
t44 -18t41.5 -18t35 -8q17 0 29.5 9.5t31.5 35.5l65 -31q-12 -37 -27.5 -61.5t-33 -39.5t-37 -21t-38.5 -6z" />
    <glyph glyph-name="uni1FE7" unicode="&#x1fe7;" horiz-adv-x="569" 
d="M286 -12q-111 0 -175 58.5t-64 170.5v272h159v-271q0 -104 78 -104q43 0 62 26t19 78v271l158 -1v-271q0 -111 -62.5 -170t-174.5 -59zM359 702q-17 0 -36 8t-38.5 17t-38 17t-33.5 8t-30.5 -8t-36.5 -38l-65 28q12 36 27.5 61t32.5 40.5t35.5 22.5t35.5 7q20 0 41.5 -8
t41.5 -17.5t38.5 -17.5t33.5 -8q16 0 29.5 9t30.5 34l65 -30q-12 -35 -27 -59t-32 -38.5t-36 -21t-38 -6.5zM399 529q-16 0 -30 6t-24.5 16.5t-17 24.5t-6.5 29q0 31 23 53.5t55 22.5q31 0 53 -22.5t22 -53.5q0 -30 -22 -53t-53 -23zM181 529q-15 0 -29 6t-24.5 16.5
t-17 24.5t-6.5 29q0 31 23 53.5t54 22.5q30 0 53 -22.5t23 -53.5q0 -15 -6.5 -29t-17 -24.5t-24 -16.5t-28.5 -6z" />
    <glyph glyph-name="uni1FE0" unicode="&#x1fe0;" horiz-adv-x="569" 
d="M286 -12q-111 0 -175 58.5t-64 170.5v272h159v-271q0 -104 78 -104q43 0 62 26t19 78v271l158 -1v-271q0 -111 -62.5 -170t-174.5 -59zM213 711q5 -29 23.5 -49t49.5 -20q16 0 29 6.5t21 16.5t12.5 22.5t4.5 23.5h109q0 -25 -8.5 -54.5t-29 -55t-54 -43t-84.5 -17.5
t-85.5 17.5t-55.5 43t-29.5 55t-8.5 54.5h106z" />
    <glyph glyph-name="uni1FE1" unicode="&#x1fe1;" horiz-adv-x="569" 
d="M286 -12q-111 0 -175 58.5t-64 170.5v272h159v-271q0 -104 78 -104q43 0 62 26t19 78v271l158 -1v-271q0 -111 -62.5 -170t-174.5 -59zM138 676h286v-111h-286v111z" />
    <glyph glyph-name="uni1FE2" unicode="&#x1fe2;" horiz-adv-x="569" 
d="M286 -12q-111 0 -175 58.5t-64 170.5v272h159v-271q0 -104 78 -104q43 0 62 26t19 78v271l158 -1v-271q0 -111 -62.5 -170t-174.5 -59zM146 775l155 19l67 -232l-93 -19zM456 549q-32 0 -54.5 22.5t-22.5 53.5q0 32 22.5 54t54.5 22q31 0 53.5 -22t22.5 -54
q0 -31 -22.5 -53.5t-53.5 -22.5zM116 549q-32 0 -55 22.5t-23 53.5q0 32 23 54t55 22q31 0 53.5 -22t22.5 -54q0 -31 -22.5 -53.5t-53.5 -22.5z" />
    <glyph glyph-name="uni1FE3" unicode="&#x1fe3;" horiz-adv-x="569" 
d="M286 -12q-111 0 -175 58.5t-64 170.5v272h159v-271q0 -104 78 -104q43 0 62 26t19 78v271l158 -1v-271q0 -111 -62.5 -170t-174.5 -59zM300 543l-93 19l68 232l154 -19zM462 549q-16 0 -30.5 6t-25 16.5t-16.5 24.5t-6 29q0 32 23 54t55 22q30 0 52.5 -22t22.5 -54
q0 -31 -22.5 -53.5t-52.5 -22.5zM121 549q-32 0 -55 22.5t-23 53.5q0 32 23 54t55 22q31 0 53.5 -22t22.5 -54q0 -31 -22.5 -53.5t-53.5 -22.5z" />
    <glyph glyph-name="uni1FED" unicode="&#x1fed;" horiz-adv-x="576" 
d="M147 775l155 19l67 -232l-93 -19zM457 549q-32 0 -54.5 22.5t-22.5 53.5q0 32 22.5 54t54.5 22q31 0 53.5 -22t22.5 -54q0 -31 -22.5 -53.5t-53.5 -22.5zM117 549q-32 0 -55 22.5t-23 53.5q0 32 23 54t55 22q31 0 53.5 -22t22.5 -54q0 -31 -22.5 -53.5t-53.5 -22.5z" />
    <glyph glyph-name="uni1FEE" unicode="&#x1fee;" horiz-adv-x="576" 
d="M298 543l-93 19l68 232l154 -19zM460 549q-16 0 -30.5 6t-25 16.5t-16.5 24.5t-6 29q0 32 23 54t55 22q30 0 52.5 -22t22.5 -54q0 -31 -22.5 -53.5t-52.5 -22.5zM119 549q-32 0 -55 22.5t-23 53.5q0 32 23 54t55 22q31 0 53.5 -22t22.5 -54q0 -31 -22.5 -53.5
t-53.5 -22.5z" />
    <glyph glyph-name="uni1FD0" unicode="&#x1fd0;" horiz-adv-x="290" 
d="M66 489h158v-489h-158v489zM76 692q5 -29 23.5 -49t49.5 -20q16 0 29 6.5t21 16.5t12.5 22.5t4.5 23.5h109q0 -25 -8.5 -54.5t-29 -55t-54 -43t-84.5 -17.5t-85.5 17.5t-55.5 43t-29.5 55t-8.5 54.5h106z" />
    <glyph glyph-name="uni1FD1" unicode="&#x1fd1;" horiz-adv-x="290" 
d="M66 489h158v-489h-158v489zM0 669h286v-111h-286v111z" />
    <glyph glyph-name="uni1FD2" unicode="&#x1fd2;" horiz-adv-x="290" 
d="M66 489h158v-489h-158v489zM10 775l155 19l67 -232l-93 -19zM320 549q-32 0 -54.5 22.5t-22.5 53.5q0 32 22.5 54t54.5 22q31 0 53.5 -22t22.5 -54q0 -31 -22.5 -53.5t-53.5 -22.5zM-20 549q-32 0 -55 22.5t-23 53.5q0 32 23 54t55 22q31 0 53.5 -22t22.5 -54
q0 -31 -22.5 -53.5t-53.5 -22.5z" />
    <glyph glyph-name="uni1FD3" unicode="&#x1fd3;" horiz-adv-x="290" 
d="M66 489h158v-489h-158v489zM162 543l-93 19l68 232l154 -19zM324 549q-16 0 -30.5 6t-25 16.5t-16.5 24.5t-6 29q0 32 23 54t55 22q30 0 52.5 -22t22.5 -54q0 -31 -22.5 -53.5t-52.5 -22.5zM-17 549q-32 0 -55 22.5t-23 53.5q0 32 23 54t55 22q31 0 53.5 -22t22.5 -54
q0 -31 -22.5 -53.5t-53.5 -22.5z" />
    <glyph glyph-name="uni1FD6" unicode="&#x1fd6;" horiz-adv-x="290" 
d="M66 489h158v-489h-158v489zM226 554q-17 0 -37.5 8t-40.5 18t-39.5 18t-35.5 8t-32.5 -9.5t-36.5 -40.5l-68 31q12 38 28 63.5t34 41t37 22t37 6.5q21 0 43.5 -8t44 -18t41.5 -18t35 -8q17 0 29.5 9.5t31.5 35.5l65 -31q-12 -37 -27.5 -61.5t-33 -39.5t-37 -21t-38.5 -6z
" />
    <glyph glyph-name="uni1FD7" unicode="&#x1fd7;" horiz-adv-x="290" 
d="M66 489h158v-489h-158v489zM222 707q-17 0 -36 8t-38.5 17t-38 17t-33.5 8t-30.5 -8t-36.5 -38l-65 28q12 36 27.5 61t32.5 40.5t35.5 22.5t35.5 7q20 0 41.5 -8t41.5 -17.5t38.5 -17.5t33.5 -8q16 0 29.5 9t30.5 34l65 -30q-12 -35 -27 -59t-32 -38.5t-36 -21t-38 -6.5z
M262 534q-16 0 -30 6t-24.5 16.5t-17 24.5t-6.5 29q0 31 23 53.5t55 22.5q31 0 53 -22.5t22 -53.5q0 -30 -22 -53t-53 -23zM44 534q-15 0 -29 6t-24.5 16.5t-17 24.5t-6.5 29q0 31 23 53.5t54 22.5q30 0 53 -22.5t23 -53.5q0 -15 -6.5 -29t-17 -24.5t-24 -16.5t-28.5 -6z
" />
    <glyph glyph-name="uni1FD8" unicode="&#x1fd8;" horiz-adv-x="299" 
d="M66 651h166v-651h-166v651zM80 856q5 -29 23.5 -49t49.5 -20q16 0 29 6.5t21 16.5t12.5 22.5t4.5 23.5h109q0 -25 -8.5 -54.5t-29 -55t-54 -43t-84.5 -17.5t-85.5 17.5t-55.5 43t-29.5 55t-8.5 54.5h106z" />
    <glyph glyph-name="uni1FD9" unicode="&#x1fd9;" horiz-adv-x="299" 
d="M66 651h166v-651h-166v651zM4 825h286v-111h-286v111z" />
    <glyph glyph-name="uni1FDA" unicode="&#x1fda;" horiz-adv-x="299" 
d="M66 651h166v-651h-166v651zM-215 675l154 28l81 -227l-93 -26z" />
    <glyph glyph-name="uni1FDB" unicode="&#x1fdb;" horiz-adv-x="299" 
d="M66 651h166v-651h-166v651zM-101 443l-92 26l81 227l153 -28z" />
    <glyph glyph-name="uni1FEA" unicode="&#x1fea;" horiz-adv-x="662" 
d="M413 0h-164v218l-246 433h179l75 -151l75 -155l77 159q5 9 15 29.5t21 43.5t21.5 43.5t15.5 30.5h177l-246 -431v-220zM-238 683l154 28l81 -227l-93 -26z" />
    <glyph glyph-name="uni1FEB" unicode="&#x1feb;" horiz-adv-x="662" 
d="M413 0h-164v218l-246 433h179l75 -151l75 -155l77 159q5 9 15 29.5t21 43.5t21.5 43.5t15.5 30.5h177l-246 -431v-220zM-151 452l-92 26l81 227l153 -28z" />
    <glyph glyph-name="uni1FEC" unicode="&#x1fec;" horiz-adv-x="590" 
d="M581 439q0 -54 -18 -95t-49.5 -68.5t-75.5 -41.5t-96 -14h-123v-220h-164v651h294q50 0 92.5 -13t73.5 -39.5t48.5 -66t17.5 -93.5zM218 513v-156h106q37 0 62 17t25 62q0 43 -27.5 60t-63.5 17h-102zM-158 443q14 20 21.5 40t7.5 37q0 19 -13 36.5t-54 24.5l48 107
q66 -13 99.5 -47.5t33.5 -85.5q0 -24 -15 -62t-54 -75z" />
    <glyph glyph-name="uni1FF2" unicode="&#x1ff2;" horiz-adv-x="788" 
d="M393 62q-21 -33 -55.5 -52.5t-76.5 -19.5q-103 0 -161 66t-58 190q0 42 13.5 84t40 77t66 60t90.5 34l43 -114q-29 -9 -47 -26.5t-28 -38t-13.5 -41.5t-3.5 -37q0 -72 20.5 -101t47.5 -29t42.5 20t15.5 53v119h131v-121q0 -34 16 -52.5t42 -18.5q13 0 25.5 6.5t21.5 21.5
t14.5 40t5.5 61q0 16 -3.5 37t-13.5 41.5t-28 38t-46 26.5l43 114q52 -9 91 -34.5t65 -60.5t39.5 -77t13.5 -83q0 -59 -15 -106t-43 -80t-68.5 -51t-91.5 -18q-41 0 -76.5 19.5t-55.5 52.5h-3zM221 769l154 28l81 -227l-93 -26zM441 -53v-93q0 -28 17 -34.5t46 -4.5v-80
q-14 -5 -33 -7.5t-35 -2.5q-21 0 -39 4.5t-32 16.5t-22 32t-8 52v117h106z" />
    <glyph glyph-name="uni1FF3" unicode="&#x1ff3;" horiz-adv-x="788" 
d="M393 62q-21 -33 -55.5 -52.5t-76.5 -19.5q-103 0 -161 66t-58 190q0 42 13.5 84t40 77t66 60t90.5 34l43 -114q-29 -9 -47 -26.5t-28 -38t-13.5 -41.5t-3.5 -37q0 -72 20.5 -101t47.5 -29t42.5 20t15.5 53v119h131v-121q0 -34 16 -52.5t42 -18.5q13 0 25.5 6.5t21.5 21.5
t14.5 40t5.5 61q0 16 -3.5 37t-13.5 41.5t-28 38t-46 26.5l43 114q52 -9 91 -34.5t65 -60.5t39.5 -77t13.5 -83q0 -59 -15 -106t-43 -80t-68.5 -51t-91.5 -18q-41 0 -76.5 19.5t-55.5 52.5h-3zM441 -53v-93q0 -28 17 -34.5t46 -4.5v-80q-14 -5 -33 -7.5t-35 -2.5
q-21 0 -39 4.5t-32 16.5t-22 32t-8 52v117h106z" />
    <glyph glyph-name="uni1FF4" unicode="&#x1ff4;" horiz-adv-x="788" 
d="M393 62q-21 -33 -55.5 -52.5t-76.5 -19.5q-103 0 -161 66t-58 190q0 42 13.5 84t40 77t66 60t90.5 34l43 -114q-29 -9 -47 -26.5t-28 -38t-13.5 -41.5t-3.5 -37q0 -72 20.5 -101t47.5 -29t42.5 20t15.5 53v119h131v-121q0 -34 16 -52.5t42 -18.5q13 0 25.5 6.5t21.5 21.5
t14.5 40t5.5 61q0 16 -3.5 37t-13.5 41.5t-28 38t-46 26.5l43 114q52 -9 91 -34.5t65 -60.5t39.5 -77t13.5 -83q0 -59 -15 -106t-43 -80t-68.5 -51t-91.5 -18q-41 0 -76.5 19.5t-55.5 52.5h-3zM421 544l-92 26l81 227l153 -28zM441 -53v-93q0 -28 17 -34.5t46 -4.5v-80
q-14 -5 -33 -7.5t-35 -2.5q-21 0 -39 4.5t-32 16.5t-22 32t-8 52v117h106z" />
    <glyph glyph-name="uni1FF6" unicode="&#x1ff6;" horiz-adv-x="788" 
d="M393 62q-21 -33 -55.5 -52.5t-76.5 -19.5q-103 0 -161 66t-58 190q0 42 13.5 84t40 77t66 60t90.5 34l43 -114q-29 -9 -47 -26.5t-28 -38t-13.5 -41.5t-3.5 -37q0 -72 20.5 -101t47.5 -29t42.5 20t15.5 53v119h131v-121q0 -34 16 -52.5t42 -18.5q13 0 25.5 6.5t21.5 21.5
t14.5 40t5.5 61q0 16 -3.5 37t-13.5 41.5t-28 38t-46 26.5l43 114q52 -9 91 -34.5t65 -60.5t39.5 -77t13.5 -83q0 -59 -15 -106t-43 -80t-68.5 -51t-91.5 -18q-41 0 -76.5 19.5t-55.5 52.5h-3zM469 554q-17 0 -37.5 8t-40.5 18t-39.5 18t-35.5 8t-32.5 -9.5t-36.5 -40.5
l-68 31q12 38 28 63.5t34 41t37 22t37 6.5q21 0 43.5 -8t44 -18t41.5 -18t35 -8q17 0 29.5 9.5t31.5 35.5l65 -31q-12 -37 -27.5 -61.5t-33 -39.5t-37 -21t-38.5 -6z" />
    <glyph glyph-name="uni1FF7" unicode="&#x1ff7;" horiz-adv-x="788" 
d="M393 62q-21 -33 -55.5 -52.5t-76.5 -19.5q-103 0 -161 66t-58 190q0 42 13.5 84t40 77t66 60t90.5 34l43 -114q-29 -9 -47 -26.5t-28 -38t-13.5 -41.5t-3.5 -37q0 -72 20.5 -101t47.5 -29t42.5 20t15.5 53v119h131v-121q0 -34 16 -52.5t42 -18.5q13 0 25.5 6.5t21.5 21.5
t14.5 40t5.5 61q0 16 -3.5 37t-13.5 41.5t-28 38t-46 26.5l43 114q52 -9 91 -34.5t65 -60.5t39.5 -77t13.5 -83q0 -59 -15 -106t-43 -80t-68.5 -51t-91.5 -18q-41 0 -76.5 19.5t-55.5 52.5h-3zM471 554q-17 0 -37.5 8t-40.5 18t-39.5 18t-35.5 8t-32.5 -9.5t-36.5 -40.5
l-68 31q12 38 28 63.5t34 41t37 22t37 6.5q21 0 43.5 -8t44 -18t41.5 -18t35 -8q17 0 29.5 9.5t31.5 35.5l65 -31q-12 -37 -27.5 -61.5t-33 -39.5t-37 -21t-38.5 -6zM441 -53v-93q0 -28 17 -34.5t46 -4.5v-80q-14 -5 -33 -7.5t-35 -2.5q-21 0 -39 4.5t-32 16.5t-22 32t-8 52
v117h106z" />
    <glyph glyph-name="uni1FF8" unicode="&#x1ff8;" horiz-adv-x="679" 
d="M338 -12q-74 0 -129.5 24.5t-92.5 69t-55.5 106t-18.5 135.5q0 75 18.5 137.5t56 107.5t93.5 69.5t130 24.5q72 0 127.5 -24t93 -68.5t57 -107t19.5 -138.5q0 -77 -19.5 -139t-57.5 -105.5t-93.5 -67.5t-128.5 -24zM338 517q-33 0 -56.5 -15t-39 -40.5t-23 -60
t-7.5 -74.5q0 -42 8 -77.5t24 -61.5t40 -40.5t56 -14.5t56 15.5t39.5 42t23 61.5t7.5 74q0 41 -7.5 76t-23.5 60.5t-40 40t-57 14.5zM-226 670l154 28l81 -227l-93 -26z" />
    <glyph glyph-name="uni1FF9" unicode="&#x1ff9;" horiz-adv-x="679" 
d="M338 -12q-74 0 -129.5 24.5t-92.5 69t-55.5 106t-18.5 135.5q0 75 18.5 137.5t56 107.5t93.5 69.5t130 24.5q72 0 127.5 -24t93 -68.5t57 -107t19.5 -138.5q0 -77 -19.5 -139t-57.5 -105.5t-93.5 -67.5t-128.5 -24zM338 517q-33 0 -56.5 -15t-39 -40.5t-23 -60
t-7.5 -74.5q0 -42 8 -77.5t24 -61.5t40 -40.5t56 -14.5t56 15.5t39.5 42t23 61.5t7.5 74q0 41 -7.5 76t-23.5 60.5t-40 40t-57 14.5zM-61 447l-92 26l81 227l153 -28z" />
    <glyph glyph-name="uni1FFA" unicode="&#x1ffa;" horiz-adv-x="704" 
d="M353 662q69 0 124.5 -22.5t94.5 -64t60 -100.5t21 -132q0 -26 -4.5 -55t-14.5 -56.5t-24.5 -52t-35.5 -42.5h83v-137h-266v140q47 17 70 65.5t23 120.5q0 43 -8 78t-24.5 60t-41 39t-57.5 14q-32 0 -56 -13.5t-41 -38t-25.5 -58t-8.5 -73.5q0 -74 20.5 -124t71.5 -69
v-141h-269v136h84q-19 15 -33 37t-23 48t-13.5 54.5t-4.5 57.5q0 75 20.5 136t58.5 103.5t93.5 66t125.5 23.5zM-203 667l154 28l81 -227l-93 -26z" />
    <glyph glyph-name="uni1FFB" unicode="&#x1ffb;" horiz-adv-x="704" 
d="M353 662q69 0 124.5 -22.5t94.5 -64t60 -100.5t21 -132q0 -26 -4.5 -55t-14.5 -56.5t-24.5 -52t-35.5 -42.5h83v-137h-266v140q47 17 70 65.5t23 120.5q0 43 -8 78t-24.5 60t-41 39t-57.5 14q-32 0 -56 -13.5t-41 -38t-25.5 -58t-8.5 -73.5q0 -74 20.5 -124t71.5 -69
v-141h-269v136h84q-19 15 -33 37t-23 48t-13.5 54.5t-4.5 57.5q0 75 20.5 136t58.5 103.5t93.5 66t125.5 23.5zM-50 445l-92 26l81 227l153 -28z" />
    <glyph glyph-name="uni1FFE" unicode="&#x1ffe;" horiz-adv-x="528" 
d="M259 535q-39 36 -54.5 75t-15.5 63q0 51 35.5 87t106.5 44l36 -108q-42 -7 -53 -23t-11 -35q0 -17 8 -37t21 -40z" />
    <glyph glyph-name="uni1FB0" unicode="&#x1fb0;" horiz-adv-x="568" 
d="M384 0l-16 43h-3q-32 -29 -66 -40.5t-68 -11.5q-38 0 -72 14t-60 44t-41.5 76.5t-15.5 111.5q0 66 15.5 115t41.5 81.5t61.5 48.5t75.5 16q34 0 68 -14t57 -38l3 1v42h155v-489h-135zM282 368q-34 0 -55.5 -33.5t-21.5 -96.5q0 -64 20.5 -91t57.5 -27q21 0 42 11.5
t36 27.5v168q-16 18 -36.5 29.5t-42.5 11.5zM222 711q5 -29 23.5 -49t49.5 -20q16 0 29 6.5t21 16.5t12.5 22.5t4.5 23.5h109q0 -25 -8.5 -54.5t-29 -55t-54 -43t-84.5 -17.5t-85.5 17.5t-55.5 43t-29.5 55t-8.5 54.5h106z" />
    <glyph glyph-name="uni1FB1" unicode="&#x1fb1;" horiz-adv-x="568" 
d="M384 0l-16 43h-3q-32 -29 -66 -40.5t-68 -11.5q-38 0 -72 14t-60 44t-41.5 76.5t-15.5 111.5q0 66 15.5 115t41.5 81.5t61.5 48.5t75.5 16q34 0 68 -14t57 -38l3 1v42h155v-489h-135zM282 368q-34 0 -55.5 -33.5t-21.5 -96.5q0 -64 20.5 -91t57.5 -27q21 0 42 11.5
t36 27.5v168q-16 18 -36.5 29.5t-42.5 11.5zM156 679h286v-111h-286v111z" />
    <glyph glyph-name="afii10051" unicode="&#x402;" horiz-adv-x="773" 
d="M740 183q0 -50 -15 -94.5t-45 -78t-75.5 -53t-106.5 -19.5q-6 0 -12 0.5t-13 0.5v112q28 4 47 17t30 32t15.5 41.5t4.5 45.5q0 22 -6 42t-18 35.5t-30 24.5t-43 9q-27 0 -58.5 -8.5t-66.5 -33.5v-256h-161v513h-175v138h572v-138h-236v-127q36 24 78.5 35.5t83.5 11.5
q59 0 102.5 -19t72 -52.5t42 -79t13.5 -99.5z" />
    <glyph glyph-name="afii10053" unicode="&#x404;" horiz-adv-x="593" 
d="M42 330q0 73 19.5 134.5t57.5 105t94 68t128 24.5q87 0 142 -31.5t90 -80.5l-119 -98q-28 37 -56 50t-58 13q-51 0 -82.5 -33.5t-39.5 -90.5h205v-121h-206q7 -61 38.5 -98t85.5 -37q32 0 62.5 15.5t59.5 54.5l120 -96q-18 -24 -41 -46t-53 -38.5t-67 -26.5t-82 -10
q-72 0 -127.5 24t-93.5 68.5t-57.5 108t-19.5 141.5z" />
    <glyph glyph-name="afii10058" unicode="&#x409;" horiz-adv-x="941" 
d="M275 341q0 -69 -3.5 -132.5t-24 -113t-64.5 -79t-125 -29.5q-9 0 -19 0.5t-21 1.5l-5 130q41 4 63 14.5t32 35t11.5 66.5t1.5 110v306h428v-241h129q52 0 95 -13t74 -38.5t48 -64.5t17 -91t-17 -90.5t-47.5 -63.5t-72 -37t-90.5 -12h-301v512h-109v-171zM550 277v-139
h115q35 0 60 15t25 56q0 19 -7.5 32t-19.5 21t-28 11.5t-33 3.5h-112z" />
    <glyph glyph-name="afii10059" unicode="&#x40a;" horiz-adv-x="936" 
d="M379 276h-159v-276h-165v652h165v-241h159v241h165v-241h128q52 0 95 -13t74 -39t48.5 -65t17.5 -91q0 -53 -18 -91.5t-49 -63.5t-73 -36.5t-90 -11.5h-298v276zM544 278v-140h116q34 0 59.5 14.5t25.5 56.5q0 38 -26 53.5t-62 15.5h-113z" />
    <glyph glyph-name="afii10060" unicode="&#x40b;" horiz-adv-x="769" 
d="M562 0v193q0 57 -24.5 80.5t-72.5 23.5q-24 0 -55.5 -10t-59.5 -33v-254h-162v513h-169v138h564v-138h-233v-124l1 -1q40 23 82.5 34t81.5 11q45 0 83.5 -13t66 -39t43.5 -65.5t16 -92.5v-223h-162z" />
    <glyph glyph-name="afii10145" unicode="&#x40f;" horiz-adv-x="672" 
d="M410 0v-187h-147v187h-209v651h165v-514h234v514h164v-651h-207z" />
    <glyph glyph-name="afii10018" unicode="&#x411;" horiz-adv-x="621" 
d="M219 278v-141h117q38 0 61.5 16.5t23.5 55.5q0 38 -26 53.5t-61 15.5h-115zM54 652h464v-140h-299v-104h129q51 0 94.5 -12t74.5 -37.5t48.5 -64t17.5 -92.5q0 -50 -17 -87.5t-47.5 -63t-72.5 -38.5t-92 -13h-300v652z" />
    <glyph glyph-name="afii10021" unicode="&#x414;" horiz-adv-x="741" 
d="M713 -171h-146v171h-403v-171h-144v304l57 1q40 29 60.5 93.5t25.5 170.5l10 252h475v-514h65v-307zM485 513h-167l-4 -90q-2 -36 -4.5 -75.5t-8.5 -78t-17 -73t-29 -59.5h230v376z" />
    <glyph glyph-name="afii10024" unicode="&#x416;" horiz-adv-x="947" 
d="M218 335l-208 316h187l191 -302l3 1v301h163v-301l3 -1l191 302h187l-208 -316l208 -335h-196l-182 316l-3 -1v-315h-163v315l-3 1l-182 -316h-195z" />
    <glyph glyph-name="afii10025" unicode="&#x417;" horiz-adv-x="589" 
d="M445 340q54 -18 79 -58t25 -85q0 -53 -21.5 -92t-59 -64.5t-88.5 -38t-111 -12.5q-75 0 -142 24.5t-117 75.5q1 1 15.5 17t31.5 34.5t32 34.5t16 17q41 -38 81 -51.5t82 -13.5q54 0 83.5 24t29.5 57q0 38 -25.5 53.5t-65.5 15.5h-94v118h89q39 0 63.5 17t24.5 47
q0 23 -19 43t-67 20q-38 0 -81 -11.5t-86 -43.5q-1 1 -12.5 17.5t-25.5 35.5t-26 35.5t-12 17.5q50 44 117 65.5t136 21.5t116.5 -14.5t76.5 -39t42 -56t13 -65.5q0 -45 -27.5 -84.5t-72.5 -56.5v-5z" />
    <glyph glyph-name="afii10026" unicode="&#x418;" horiz-adv-x="695" 
d="M223 255l82 129l172 267h164v-651h-164v384h-4l-80 -125l-175 -259h-164v651h164v-396h5z" />
    <glyph glyph-name="afii10027" unicode="&#x419;" horiz-adv-x="697" 
d="M265 862q5 -29 23.5 -49t49.5 -20q16 0 29 6.5t21 16.5t12.5 22.5t4.5 23.5h109q0 -25 -8.5 -54.5t-29 -55t-54 -43t-84.5 -17.5t-85.5 17.5t-55.5 43t-29.5 55t-8.5 54.5h106zM223 255l82 129l172 267h164v-651h-164v384h-4l-80 -125l-175 -259h-164v651h164v-396h5z
" />
    <glyph glyph-name="afii10029" unicode="&#x41b;" horiz-adv-x="637" 
d="M417 0v513h-144v-172q0 -69 -3.5 -132.5t-24 -113t-64 -79t-124.5 -29.5q-9 0 -19 0.5t-21 1.5l-5 130q41 4 63 14.5t32 35t11.5 66.5t1.5 110v306h462v-651h-165z" />
    <glyph glyph-name="afii10037" unicode="&#x423;" horiz-adv-x="622" 
d="M318 329q18 45 34 90.5t32 89.5l53 142h178l-216 -510q-19 -44 -41 -74t-46.5 -48t-51.5 -26t-57 -8h-90v131h50q19 0 32.5 6t23.5 26l7 16q-9 20 -26 58.5t-38.5 85.5t-45 99t-45 99.5t-38.5 85.5t-26 59h179l59 -145l68 -177h5z" />
    <glyph glyph-name="afii10040" unicode="&#x426;" horiz-adv-x="698" 
d="M680 -172h-146v172h-480v651h164v-514h233v514h165v-515h64v-308z" />
    <glyph glyph-name="afii10041" unicode="&#x427;" horiz-adv-x="646" 
d="M427 0v241q-40 -14 -83 -22.5t-81 -8.5q-49 0 -91 12.5t-73 38t-48.5 64t-17.5 91.5v235h163v-185q0 -66 30.5 -92.5t86.5 -26.5q9 0 23 2t30 6t31.5 10.5t29.5 15.5v270h164v-651h-164z" />
    <glyph glyph-name="afii10042" unicode="&#x428;" horiz-adv-x="879" 
d="M54 0v651h166v-514h138v514h165v-514h136v514h165v-651h-770z" />
    <glyph glyph-name="afii10043" unicode="&#x429;" horiz-adv-x="909" 
d="M54 651h166v-514h138v514h165v-514h136v514h166v-514h64v-309h-147v172h-688v651z" />
    <glyph glyph-name="afii10044" unicode="&#x42a;" horiz-adv-x="740" 
d="M8 652h338v-243h128q52 0 95 -12.5t74 -38t48 -64.5t17 -91t-17 -90.5t-47 -63.5t-72 -37t-91 -12h-300v512h-173v140zM346 277v-139h115q35 0 60.5 15t25.5 56q0 19 -7.5 32t-19.5 21t-28 11.5t-33 3.5h-113z" />
    <glyph glyph-name="afii10045" unicode="&#x42b;" horiz-adv-x="857" 
d="M54 652h165v-243h129q52 0 95 -12.5t74 -38t48 -64.5t17 -91t-17 -90.5t-47.5 -63.5t-72 -37t-90.5 -12h-301v652zM219 277v-139h116q17 0 32.5 3.5t27 11.5t18 21.5t6.5 34.5q0 37 -26.5 52.5t-60.5 15.5h-113zM637 651h165v-651h-165v651z" />
    <glyph glyph-name="afii10046" unicode="&#x42c;" horiz-adv-x="616" 
d="M54 652h165v-243h129q52 0 95 -12.5t74 -38t48 -64.5t17 -91t-17 -90.5t-47.5 -63.5t-72 -37t-90.5 -12h-301v652zM219 277v-139h116q17 0 32.5 3.5t27 11.5t18 21.5t6.5 34.5q0 37 -26.5 52.5t-60.5 15.5h-113z" />
    <glyph glyph-name="afii10047" unicode="&#x42d;" horiz-adv-x="604" 
d="M562 330q0 -78 -20 -141.5t-58.5 -108t-94 -68.5t-127.5 -24q-45 0 -82 9.5t-67 26t-53 38.5t-40 46l118 97q29 -39 60 -54.5t63 -15.5q53 0 86 37t39 98h-206v121h205q-7 56 -39 90t-82 34q-28 0 -56.5 -12t-57.5 -48l-111 99q20 24 43 44t51 34t63 22t79 8
q72 0 126 -24.5t89.5 -68t53.5 -105t18 -134.5z" />
    <glyph glyph-name="afii10048" unicode="&#x42e;" horiz-adv-x="896" 
d="M854 327q0 -75 -20 -137.5t-57 -107t-90.5 -69.5t-120.5 -25q-68 0 -119.5 22.5t-86.5 61.5t-55 91t-26 111h-60v-274h-165v651h165v-244h64q9 54 30.5 100.5t56 81t83.5 54t113 19.5q68 0 121.5 -24.5t90.5 -69t56.5 -106t19.5 -135.5zM684 326q0 94 -29.5 143.5
t-88.5 49.5q-60 0 -89 -52t-29 -140t29 -141t89 -53t89 52.5t29 140.5z" />
    <glyph glyph-name="afii10049" unicode="&#x42f;" horiz-adv-x="621" 
d="M34 436q0 54 17.5 94t49 67t74 40.5t92.5 13.5h299v-651h-165v229h-96l-98 -229h-172l118 250q-55 23 -87 68t-32 118zM292 514q-35 0 -60.5 -19.5t-25.5 -57.5t23.5 -55t63.5 -17h109v149h-110z" />
    <glyph glyph-name="afii10066" unicode="&#x431;" horiz-adv-x="586" 
d="M298 357q-39 0 -64 -31.5t-25 -92.5q0 -55 21.5 -87.5t65.5 -32.5q42 0 63.5 34t21.5 91q0 56 -22 87.5t-61 31.5zM211 446q20 15 51.5 24t60.5 9q47 0 87.5 -15.5t70 -46t46.5 -75t17 -102.5q0 -59 -18 -105.5t-51 -78.5t-79 -49.5t-101 -17.5q-73 0 -121.5 25.5t-78 67
t-42 94.5t-12.5 109q0 78 11.5 141.5t38.5 112t72 83t112 54.5q27 8 49.5 13t44.5 9.5t45.5 10t53.5 13.5l33 -115q-28 -11 -51 -16.5t-43 -9.5t-39.5 -8t-39.5 -11q-36 -11 -71 -39t-48 -71z" />
    <glyph glyph-name="afii10067" unicode="&#x432;" horiz-adv-x="535" 
d="M482 360q0 -29 -16.5 -56t-44.5 -41q37 -16 56.5 -46.5t19.5 -65.5q0 -30 -11.5 -57.5t-33.5 -48.5t-55 -33t-76 -12h-273v489h272q34 0 63.5 -8t51.5 -23.5t34.5 -40t12.5 -57.5zM201 372v-66h93q18 0 28.5 8.5t10.5 25.5q0 32 -38 32h-94zM340 159q0 24 -15.5 34
t-34.5 10h-89v-87h89q23 0 36.5 10.5t13.5 32.5z" />
    <glyph glyph-name="afii10068" unicode="&#x433;" horiz-adv-x="460" 
d="M205 369v-369h-157v489h406v-120h-249z" />
    <glyph glyph-name="afii10069" unicode="&#x434;" horiz-adv-x="607" 
d="M16 118h51q28 25 41.5 66.5t19.5 110.5l12 193h391v-370h51v-268h-137v150h-296v-150h-133v268zM374 370h-103l-3 -62q-2 -48 -10 -96.5t-33 -93.5h149v252z" />
    <glyph glyph-name="afii10072" unicode="&#x436;" horiz-adv-x="793" 
d="M179 487l139 -216v216h157v-216l139 216h164l-151 -225l153 -262h-170l-135 249v-249h-157v249l-135 -249h-169l152 262l-151 225h164z" />
    <glyph glyph-name="afii10073" unicode="&#x437;" horiz-adv-x="485" 
d="M369 260q39 -26 57 -50.5t18 -57.5q0 -42 -17.5 -72.5t-47 -50t-69 -29t-83.5 -9.5q-60 0 -117 19t-94 54l75 95q35 -32 67.5 -40.5t59.5 -8.5q35 0 51.5 14.5t16.5 32.5q0 23 -17 32.5t-46 9.5h-60v90h66q26 0 39.5 13.5t13.5 28.5q0 21 -15.5 33.5t-44.5 12.5
q-25 0 -57 -12t-55 -33q-17 23 -34 47.5t-34 48.5q46 37 97.5 53t106.5 16q51 0 87.5 -11t59.5 -29.5t34 -42.5t11 -50q0 -29 -16.5 -57t-52.5 -47z" />
    <glyph glyph-name="afii10074" unicode="&#x438;" horiz-adv-x="578" 
d="M366 243q-14 -20 -27 -41t-27 -41q-26 -40 -53 -80.5t-54 -80.5h-158v489h158v-256h5q17 26 32.5 51.5t32.5 51.5q25 38 49 76.5t48 76.5h157v-489h-157v243h-6z" />
    <glyph glyph-name="afii10075" unicode="&#x439;" horiz-adv-x="578" 
d="M217 711q5 -29 23.5 -49t49.5 -20q16 0 29 6.5t21 16.5t12.5 22.5t4.5 23.5h109q0 -25 -8.5 -54.5t-29 -55t-54 -43t-84.5 -17.5t-85.5 17.5t-55.5 43t-29.5 55t-8.5 54.5h106zM366 243q-14 -20 -27 -41t-27 -41q-26 -40 -53 -80.5t-54 -80.5h-158v489h158v-256h5
q17 26 32.5 51.5t32.5 51.5q25 38 49 76.5t48 76.5h157v-489h-157v243h-6z" />
    <glyph glyph-name="afii10077" unicode="&#x43b;" horiz-adv-x="537" 
d="M238 312q0 -63 -3 -121.5t-20.5 -104t-54.5 -72.5t-106 -27q-22 0 -46 3l-5 119q32 3 50.5 10.5t27.5 27t11.5 54t2.5 92.5v196h394v-489h-159v370h-92v-58z" />
    <glyph glyph-name="afii10078" unicode="&#x43c;" horiz-adv-x="650" 
d="M327 246l120 242h154v-488h-155v219h-3q-8 -15 -15.5 -30t-15.5 -30q-7 -12 -19 -34t-25.5 -46t-25.5 -46t-19 -34q-29 54 -60 109.5t-60 110.5h-2v-219h-154v488h153q31 -61 62 -121.5t61 -120.5h4z" />
    <glyph glyph-name="afii10079" unicode="&#x43d;" horiz-adv-x="570" 
d="M362 0v193h-156v-193h-157v489h157v-178h156v178h158v-489h-158z" />
    <glyph glyph-name="afii10084" unicode="&#x442;" horiz-adv-x="468" 
d="M314 369v-369h-159v369h-136v120h433v-120h-138z" />
    <glyph glyph-name="afii10086" unicode="&#x444;" horiz-adv-x="747" 
d="M453 -158l-158 -57v202q-57 3 -104 23t-80 53.5t-51.5 80t-18.5 103.5q0 53 19.5 98t54 78t81 52.5t99.5 22.5v162l157 56v-218q54 -3 100.5 -22.5t80.5 -52t53.5 -77.5t19.5 -99q0 -57 -19 -103t-52.5 -79.5t-80 -53t-101.5 -22.5v-147zM295 379q-49 -5 -75 -43t-26 -92
q0 -64 28.5 -97.5t72.5 -38.5v271zM452 107q43 5 71.5 39t28.5 98q0 54 -25 92t-75 43v-272z" />
    <glyph glyph-name="afii10088" unicode="&#x446;" horiz-adv-x="593" 
d="M572 -151h-137v151h-387v488h157v-370h157v370h159v-370h51v-269z" />
    <glyph glyph-name="afii10089" unicode="&#x447;" horiz-adv-x="538" 
d="M333 -1v194h-4q-29 -26 -66 -36.5t-63 -10.5q-96 0 -134.5 48.5t-38.5 136.5v157h157v-140q0 -38 15.5 -55t50.5 -17q41 2 83 36v176h157v-489h-157z" />
    <glyph glyph-name="afii10090" unicode="&#x448;" horiz-adv-x="787" 
d="M48 0v488h155v-369h113v370h155v-370h113v369h155v-488h-691z" />
    <glyph glyph-name="afii10091" unicode="&#x449;" horiz-adv-x="809" 
d="M584 119v369h154v-370h52v-269h-138v151h-604v488h155v-369h113v370h155v-370h113z" />
    <glyph glyph-name="afii10092" unicode="&#x44a;" horiz-adv-x="611" 
d="M290 489v-166h100q41 0 76 -10.5t60 -31.5t39 -51.5t14 -70.5t-13.5 -70t-37.5 -49.5t-57.5 -29.5t-73.5 -10h-264v369h-127v120h284zM419 162q0 24 -16.5 34.5t-34.5 10.5h-78v-91h78q20 0 35.5 10.5t15.5 35.5z" />
    <glyph glyph-name="afii10093" unicode="&#x44b;" horiz-adv-x="740" 
d="M534 0v489h157v-489h-157zM494 158q0 -41 -13.5 -70.5t-37.5 -49t-57.5 -29t-73.5 -9.5h-263v489h156v-167h100q41 0 76 -10.5t60 -31.5t39 -51.5t14 -70.5zM334 161q0 25 -15.5 35.5t-35.5 10.5h-78v-92h79q20 0 35 10.5t15 35.5z" />
    <glyph glyph-name="afii10094" unicode="&#x44c;" horiz-adv-x="530" 
d="M494 158q0 -41 -13.5 -70.5t-37.5 -49t-57.5 -29t-73.5 -9.5h-263v489h157v-167h100q41 0 75.5 -10.5t59.5 -31.5t39 -51.5t14 -70.5zM335 161q0 25 -16 35.5t-36 10.5h-77v-92h78q21 0 36 10.5t15 35.5z" />
    <glyph glyph-name="afii10095" unicode="&#x44d;" horiz-adv-x="480" 
d="M138 199v91h136q-5 38 -26.5 57.5t-53.5 19.5q-23 0 -44 -9t-41 -29l-78 103q42 38 87 52.5t90 14.5q58 0 101 -18.5t71.5 -51.5t43 -79t14.5 -101q0 -59 -15.5 -107t-46 -81.5t-75.5 -51.5t-103 -18q-47 0 -91.5 15.5t-85.5 56.5l80 101q41 -41 89 -41q33 0 55 21t27 55
h-134z" />
    <glyph glyph-name="afii10096" unicode="&#x44e;" horiz-adv-x="754" 
d="M712 247q0 -56 -16 -103t-46 -81t-74 -53.5t-100 -19.5t-96.5 16.5t-68 45t-43.5 66.5t-22 80h-40v-198h-158v489h158v-179h45q7 34 22.5 68t41.5 61t65.5 43.5t95.5 16.5q58 0 102 -19t74 -52.5t45 -79.5t15 -101zM557 246q0 63 -21.5 95.5t-59.5 32.5q-37 0 -58 -33
t-21 -94q0 -63 19 -98.5t60 -35.5q42 0 61.5 35.5t19.5 97.5z" />
    <glyph glyph-name="afii10097" unicode="&#x44f;" horiz-adv-x="543" 
d="M36 0l95 186q-42 17 -66.5 49.5t-24.5 87.5q0 40 14 71t38.5 52t58 31.5t72.5 10.5h271v-488h-157v168h-66q-7 -16 -17.5 -38.5t-21.5 -46t-21.5 -45.5t-17.5 -38h-157zM195 324q0 -25 16 -35.5t40 -10.5h84v95h-86q-20 0 -37 -12.5t-17 -36.5z" />
    <glyph glyph-name="afii10099" unicode="&#x452;" horiz-adv-x="597" 
d="M230 0h-158v517h-51v84h51v59l158 57v-116h184v-84h-184v-98h3q32 25 65 36t66 11q41 0 75.5 -16.5t60 -47t40 -75t14.5 -100.5q0 -55 -14 -102.5t-44 -84.5t-76 -62t-110 -36l-26 122q37 10 60 26.5t35.5 37t16.5 44.5t4 48q0 61 -25.5 90t-63.5 29q-15 0 -29.5 -6.5
t-26 -18.5t-18.5 -30t-7 -42v-242z" />
    <glyph glyph-name="afii10100" unicode="&#x453;" horiz-adv-x="460" 
d="M238 533l-87 28l80 200l145 -27zM205 369v-369h-157v489h406v-120h-249z" />
    <glyph glyph-name="afii10101" unicode="&#x454;" horiz-adv-x="478" 
d="M207 198q6 -35 28 -55t55 -20q25 0 46.5 10.5t41.5 30.5l79 -100q-40 -42 -83.5 -57.5t-91.5 -15.5q-57 0 -102 17.5t-75.5 50.5t-46.5 79.5t-16 104.5q0 57 15 104t45 80.5t74 52.5t102 19q45 0 89 -15t86 -56l-80 -102q-35 41 -84 41q-33 0 -56 -20t-28 -57h136v-92
h-134z" />
    <glyph glyph-name="afii10106" unicode="&#x459;" horiz-adv-x="782" 
d="M599 161q0 24 -15.5 35t-35.5 11h-78v-92h79q20 0 35 10.5t15 35.5zM470 489v-167h100q41 0 76 -10.5t60 -31t39 -51t14 -70.5q0 -41 -13.5 -71t-37.5 -49.5t-57.5 -29t-73.5 -9.5h-263v370h-75v-58q0 -63 -3.5 -121.5t-21 -104t-55 -72.5t-106.5 -27q-22 0 -46 3l-5 119
q32 3 50.5 10.5t27.5 27t11.5 54t2.5 92.5v196h376z" />
    <glyph glyph-name="afii10107" unicode="&#x45a;" horiz-adv-x="788" 
d="M468 319h100q84 0 136 -40t52 -120q0 -41 -14 -71t-38 -49.5t-57.5 -29t-72.5 -9.5h-264l-1 201h-104v-201h-156v488h156v-168h104v168l159 1v-170zM596 160q0 24 -15 33.5t-35 9.5h-78v-88h78q20 0 35 10t15 35z" />
    <glyph glyph-name="afii10108" unicode="&#x45b;" horiz-adv-x="568" 
d="M524 0h-158v244q0 52 -19.5 72.5t-50.5 20.5q-47 0 -64 -34t-17 -101v-202h-158v517h-47v84h47v59l158 57v-116h179v-84h-179v-99h3q28 26 64 40t68 14q47 0 80 -14t54 -40t30.5 -63t9.5 -82v-273z" />
    <glyph glyph-name="afii10193" unicode="&#x45f;" horiz-adv-x="568" 
d="M355 0v-164h-138v164h-169v489h158v-371h155v371h159v-489h-165z" />
    <glyph glyph-name="afii10050" unicode="&#x490;" horiz-adv-x="548" 
d="M538 513h-319v-513h-165v651h340v131h144v-269z" />
    <glyph glyph-name="afii10098" unicode="&#x491;" horiz-adv-x="477" 
d="M467 370h-264v-370h-156v489h285v108h135v-227z" />
    <glyph glyph-name="afii61352" unicode="&#x2116;" horiz-adv-x="997" 
d="M411 0l-204 371h-2v-371h-157v651h147q49 -90 98 -178.5t97 -178.5h3v357h158v-651h-140zM783 319q-80 0 -126.5 46t-46.5 124q0 79 47 124.5t127 45.5q81 0 128 -45.5t47 -123.5q0 -80 -47.5 -125.5t-128.5 -45.5zM630 181v93h312v-93h-312zM783 563q-25 0 -37 -20.5
t-12 -52.5q0 -35 13 -54.5t37 -19.5q25 0 37.5 21t12.5 52q0 33 -12.5 53.5t-38.5 20.5z" />
    <glyph glyph-name="space" unicode=" " horiz-adv-x="281" 
 />
    <glyph glyph-name="Hbar" unicode="&#x126;" horiz-adv-x="673" 
d="M452 263h-232v-263h-165v483h-39v73h39v95h165v-95h232v95h165v-95h40v-73h-40v-483h-165v263zM452 403v80h-232v-80h232z" />
    <glyph glyph-name="hbar" unicode="&#x127;" horiz-adv-x="561" 
d="M516 0h-157v241q0 52 -21.5 73t-49.5 21q-38 0 -59.5 -26.5t-21.5 -77.5v-231h-158v515h-39v81h39v64l158 57v-121h171v-81h-171v-99h3q28 26 64 39.5t68 13.5q47 0 80 -14t54 -39.5t30.5 -62.5t9.5 -82v-271z" />
    <glyph glyph-name="Jcircumflex" unicode="&#x134;" horiz-adv-x="600" 
d="M540 264q0 -131 -65.5 -203t-197.5 -72q-58 0 -101.5 13.5t-76 39.5t-54 63t-35.5 85l154 49q20 -57 45.5 -82t66.5 -25q98 0 98 134v386h166v-388zM456 773l-147 -100l-60 55l150 150h118l149 -150l-62 -56z" />
    <glyph glyph-name="jcircumflex" unicode="&#x135;" horiz-adv-x="407" 
d="M280 -17q0 -107 -60 -156t-192 -49l-10 127q34 6 54.5 13.5t32 19.5t15 30t3.5 44v476h157v-505zM202 624l-147 -103l-60 55l150 154h117l150 -154l-63 -56z" />
    <glyph glyph-name="Tbar" unicode="&#x166;" horiz-adv-x="556" 
d="M362 379h172v-86h-172v-293h-165v293h-171v86h171v134h-186v138h537v-138h-186v-134z" />
    <glyph glyph-name="tbar" unicode="&#x167;" horiz-adv-x="407" 
d="M257 488h104v-113h-104v-74h91v-81h-91v-24q0 -38 11.5 -53t47.5 -15q12 0 26 1t32 3l12 -124q-74 -20 -137 -20q-71 0 -110 34.5t-39 117.5v80h-70v81h70v74h-73v113h75v114l155 57v-171z" />
    <glyph glyph-name="Caron" unicode="&#xe297;" horiz-adv-x="558" 
d="M436 890l63 -54l-150 -151h-118l-149 151l59 54l147 -100z" />
    <glyph glyph-name="Grave" unicode="&#xe29c;" horiz-adv-x="674" 
d="M125 777l110 98l168 -128l-61 -69z" />
    <glyph glyph-name="Acute" unicode="&#xe29d;" horiz-adv-x="674" 
d="M327 678l-61 69l168 128l110 -98z" />
    <glyph glyph-name="Circumflex" unicode="&#xe298;" horiz-adv-x="618" 
d="M332 773l-147 -100l-60 55l150 150h118l149 -150l-62 -56z" />
    <glyph glyph-name="ring" unicode="&#x2da;" horiz-adv-x="518" 
d="M276 536q-26 0 -48 8.5t-39 24.5t-26.5 38t-9.5 48q0 25 9.5 46.5t26.5 37.5t39 25t48 9q25 0 47 -9t38.5 -25t26 -37.5t9.5 -46.5q0 -26 -9.5 -47.5t-26 -37.5t-38.5 -25t-47 -9zM276 703q-22 0 -33.5 -14.5t-11.5 -32.5q0 -22 11.5 -35t33.5 -13q18 0 31 13t13 35
q0 19 -11.5 33t-32.5 14z" />
    <glyph glyph-name="commaaccent" unicode="&#xe29b;" horiz-adv-x="637" 
d="M268 -266q29 20 41 37t16 39q-26 2 -45.5 18.5t-19.5 49.5t23.5 55t57.5 22q42 0 66.5 -27.5t24.5 -69.5q0 -60 -33.5 -104.5t-90.5 -70.5q-10 13 -19.5 25.5t-20.5 25.5z" />
    <glyph glyph-name="UniE29A" unicode="&#xe29a;" horiz-adv-x="956" 
d="M865 488v-332q0 -32 13.5 -41t50.5 -10v-97q-18 -8 -43.5 -12t-45.5 -4q-31 0 -54.5 6.5t-39 23t-23.5 43.5t-8 69v354h150z" />
    <glyph glyph-name="Hungarumlaut" unicode="&#xe296;" horiz-adv-x="677" 
d="M224 685l-70 58l146 153l125 -80zM436 675l-69 58l145 153l124 -80z" />
    <glyph glyph-name="uniE29E" unicode="&#xe29e;" horiz-adv-x="538" 
d="M90 769l154 28l81 -227l-93 -26z" />
    <glyph glyph-name="uniE29F" unicode="&#xe29f;" horiz-adv-x="538" 
d="M317 544l-92 26l81 227l153 -28z" />
    <glyph glyph-name="uniE2A0" unicode="&#xe2a0;" horiz-adv-x="528" 
d="M354 554q-17 0 -37.5 8t-40.5 18t-39.5 18t-35.5 8t-32.5 -9.5t-36.5 -40.5l-68 31q12 38 28 63.5t34 41t37 22t37 6.5q21 0 43.5 -8t44 -18t41.5 -18t35 -8q17 0 29.5 9.5t31.5 35.5l65 -31q-12 -37 -27.5 -61.5t-33 -39.5t-37 -21t-38.5 -6z" />
    <glyph glyph-name="Scaron" unicode="&#x160;" horiz-adv-x="591" 
d="M303 663q69 0 132 -22t110 -63l-89 -118q-43 35 -84.5 49t-77.5 14q-39 0 -55.5 -16t-16.5 -36q0 -14 8 -23t22.5 -16.5t33.5 -13.5t41 -12q37 -10 78.5 -23.5t76.5 -37t58.5 -59.5t23.5 -92q0 -53 -20.5 -91.5t-56 -64.5t-84 -38.5t-103.5 -12.5q-77 0 -148.5 26
t-119.5 72l93 115q43 -37 90.5 -54t86.5 -17q46 0 68.5 16t22.5 42q0 12 -5.5 21.5t-18 17.5t-34.5 15.5t-55 16.5q-53 14 -94.5 30.5t-71 39.5t-45 55.5t-15.5 78.5q0 50 20.5 87.5t55 63t79.5 38t94 12.5zM451 890l63 -54l-150 -151h-118l-149 151l59 54l147 -100z" />
    <glyph glyph-name="Zcaron" unicode="&#x17d;" horiz-adv-x="591" 
d="M34 125l327 388h-308v138h504v-127l-329 -385h332v-139h-526v125zM458 890l63 -54l-150 -151h-118l-149 151l59 54l147 -100z" />
    <glyph glyph-name="scaron" unicode="&#x161;" horiz-adv-x="494" 
d="M457 142q0 -37 -15.5 -66t-43 -48.5t-67 -29.5t-87.5 -10q-53 0 -107.5 15t-103.5 42l52 108q45 -23 84.5 -34.5t68.5 -11.5q24 0 41 8t17 26q0 20 -16.5 29.5t-51.5 20.5q-48 14 -81.5 28.5t-54 32.5t-30 41.5t-9.5 54.5q0 67 52 109t149 42q51 0 98.5 -12t94.5 -35
l-49 -111q-45 24 -80.5 31t-55.5 7q-22 0 -35 -9.5t-13 -20.5q0 -13 12.5 -22t44.5 -18q47 -13 82 -27t58 -33t34.5 -45t11.5 -62zM393 748l63 -54l-149 -155h-118l-150 155l60 54l147 -103z" />
    <glyph glyph-name="zcaron" unicode="&#x17e;" horiz-adv-x="493" 
d="M453 488v-116l-245 -253l1 -1h252v-118h-431v117l237 252l-1 1h-224v118h411zM397 748l63 -54l-149 -155h-118l-150 155l60 54l147 -103z" />
    <glyph glyph-name="Ydieresis" unicode="&#x178;" horiz-adv-x="662" 
d="M413 0h-164v218l-246 433h179l75 -151l75 -155l77 159q5 9 15 29.5t21 43.5t21.5 43.5t15.5 30.5h177l-246 -431v-220zM221 697q-32 0 -55 22.5t-23 53.5q0 32 23 54t55 22q31 0 53.5 -22t22.5 -54q0 -31 -22.5 -53.5t-53.5 -22.5zM446 697q-16 0 -30.5 6t-25 16.5
t-16.5 24.5t-6 29q0 32 23 54t55 22q30 0 52 -22t22 -54q0 -31 -22 -53.5t-52 -22.5z" />
    <glyph glyph-name="Agrave" unicode="&#xc0;" horiz-adv-x="686" 
d="M462 129h-239l-42 -129h-171l240 651h191l240 -651h-176zM342 494q-2 -5 -7.5 -23t-12 -38t-12 -37.5t-6.5 -21.5l-41 -122h159l-43 132q-2 4 -6.5 20t-10.5 34t-11 34.5t-6 21.5h-3zM137 777l110 98l168 -128l-61 -69z" />
    <glyph glyph-name="Aacute" unicode="&#xc1;" horiz-adv-x="687" 
d="M462 129h-239l-42 -129h-171l240 651h191l240 -651h-176zM342 494q-2 -5 -7.5 -23t-12 -38t-12 -37.5t-6.5 -21.5l-41 -122h159l-43 132q-2 4 -6.5 20t-10.5 34t-11 34.5t-6 21.5h-3zM335 678l-61 69l168 128l110 -98z" />
    <glyph glyph-name="Acircumflex" unicode="&#xc2;" horiz-adv-x="687" 
d="M462 129h-239l-42 -129h-171l240 651h191l240 -651h-176zM342 494q-2 -5 -7.5 -23t-12 -38t-12 -37.5t-6.5 -21.5l-41 -122h159l-43 132q-2 4 -6.5 20t-10.5 34t-11 34.5t-6 21.5h-3zM344 773l-147 -100l-60 55l150 150h118l149 -150l-62 -56z" />
    <glyph glyph-name="Atilde" unicode="&#xc3;" horiz-adv-x="687" 
d="M462 129h-239l-42 -129h-171l240 651h191l240 -651h-176zM342 494q-2 -5 -7.5 -23t-12 -38t-12 -37.5t-6.5 -21.5l-41 -122h159l-43 132q-2 4 -6.5 20t-10.5 34t-11 34.5t-6 21.5h-3zM419 695q-17 0 -37.5 8t-41.5 17.5t-40.5 17.5t-34.5 8q-17 0 -32 -9.5t-35 -39.5
l-67 31q12 36 28 61t34 40t37 21.5t37 6.5q20 0 42 -8t43.5 -17.5t41 -17.5t34.5 -8q17 0 30 9.5t32 34.5l64 -30q-25 -72 -60.5 -98.5t-74.5 -26.5z" />
    <glyph glyph-name="Adieresis" unicode="&#xc4;" horiz-adv-x="687" 
d="M462 129h-239l-42 -129h-171l240 651h191l240 -651h-176zM342 494q-2 -5 -7.5 -23t-12 -38t-12 -37.5t-6.5 -21.5l-41 -122h159l-43 132q-2 4 -6.5 20t-10.5 34t-11 34.5t-6 21.5h-3zM456 696q-16 0 -30.5 6t-25 16.5t-16.5 24.5t-6 29q0 32 23 54t55 22q30 0 52 -22
t22 -54q0 -31 -22 -53.5t-52 -22.5zM231 696q-32 0 -55 22.5t-23 53.5q0 32 23 54t55 22q31 0 53.5 -22t22.5 -54q0 -31 -22.5 -53.5t-53.5 -22.5z" />
    <glyph glyph-name="Aring" unicode="&#xc5;" horiz-adv-x="687" 
d="M462 129h-239l-42 -129h-171l240 651h191l240 -651h-176zM342 494q-2 -5 -7.5 -23t-12 -38t-12 -37.5t-6.5 -21.5l-41 -122h159l-43 132q-2 4 -6.5 20t-10.5 34t-11 34.5t-6 21.5h-3zM343 666q-26 0 -48 8.5t-39 24.5t-26.5 38t-9.5 48q0 25 9.5 46.5t26.5 37.5t39 25
t48 9q25 0 47 -9t38.5 -25t26 -37.5t9.5 -46.5q0 -26 -9.5 -47.5t-26 -37.5t-38.5 -25t-47 -9zM343 833q-22 0 -33.5 -14.5t-11.5 -32.5q0 -22 11.5 -35t33.5 -13q18 0 31 13t13 35q0 19 -11.5 33t-32.5 14z" />
    <glyph glyph-name="Egrave" unicode="&#xc8;" horiz-adv-x="571" 
d="M55 651h486v-138h-321v-107h223v-139h-223v-128h332v-139h-497v651zM144 777l110 98l168 -128l-61 -69z" />
    <glyph glyph-name="Eacute" unicode="&#xc9;" horiz-adv-x="571" 
d="M55 651h486v-138h-321v-107h223v-139h-223v-128h332v-139h-497v651zM271 678l-61 69l168 128l110 -98z" />
    <glyph glyph-name="Ecircumflex" unicode="&#xca;" horiz-adv-x="571" 
d="M55 651h486v-138h-321v-107h223v-139h-223v-128h332v-139h-497v651zM301 773l-147 -100l-60 55l150 150h118l149 -150l-62 -56z" />
    <glyph glyph-name="Edieresis" unicode="&#xcb;" horiz-adv-x="571" 
d="M55 651h486v-138h-321v-107h223v-139h-223v-128h332v-139h-497v651zM421 697q-16 0 -30.5 6t-25 16.5t-16.5 24.5t-6 29q0 32 23 54t55 22q30 0 52 -22t22 -54q0 -31 -22 -53.5t-52 -22.5zM196 697q-32 0 -55 22.5t-23 53.5q0 32 23 54t55 22q31 0 53.5 -22t22.5 -54
q0 -31 -22.5 -53.5t-53.5 -22.5z" />
    <glyph glyph-name="Igrave" unicode="&#xcc;" horiz-adv-x="299" 
d="M66 651h166v-651h-166v651zM-51 777l110 98l168 -128l-61 -69z" />
    <glyph glyph-name="Iacute" unicode="&#xcd;" horiz-adv-x="299" 
d="M66 651h166v-651h-166v651zM148 678l-61 69l168 128l110 -98z" />
    <glyph glyph-name="Icircumflex" unicode="&#xce;" horiz-adv-x="299" 
d="M66 651h166v-651h-166v651zM150 773l-147 -100l-60 55l150 150h118l149 -150l-62 -56z" />
    <glyph glyph-name="Idieresis" unicode="&#xcf;" horiz-adv-x="299" 
d="M66 651h166v-651h-166v651zM264 694q-16 0 -30.5 6t-25 16.5t-16.5 24.5t-6 29q0 32 23 54t55 22q30 0 52 -22t22 -54q0 -31 -22 -53.5t-52 -22.5zM39 694q-32 0 -55 22.5t-23 53.5q0 32 23 54t55 22q31 0 53.5 -22t22.5 -54q0 -31 -22.5 -53.5t-53.5 -22.5z" />
    <glyph glyph-name="Eth" unicode="&#xd0;" horiz-adv-x="658" 
d="M57 0v278h-53v87h53v286h224q69 0 129.5 -17.5t105.5 -56t71 -100.5t26 -150q0 -89 -26.5 -151t-72 -101t-107.5 -57t-132 -18h-218zM223 512v-147h93v-87h-93v-140h39q88 0 134.5 46t46.5 141t-46.5 141t-137.5 46h-36z" />
    <glyph glyph-name="Ntilde" unicode="&#xd1;" horiz-adv-x="676" 
d="M319 233l-101 154h-3v-387h-162v651h152l142 -206q7 -10 22.5 -33.5t33 -50t33 -50.5t22.5 -34h3v374h163v-651h-144zM415 692q-17 0 -37.5 8t-41.5 17.5t-40.5 17.5t-34.5 8q-17 0 -32 -9.5t-35 -39.5l-67 31q12 36 28 61t34 40t37 21.5t37 6.5q20 0 42 -8t43.5 -17.5
t41 -17.5t34.5 -8q17 0 30 9.5t32 34.5l64 -30q-25 -72 -60.5 -98.5t-74.5 -26.5z" />
    <glyph glyph-name="Ograve" unicode="&#xd2;" horiz-adv-x="679" 
d="M338 -12q-74 0 -129.5 24.5t-92.5 69t-55.5 106t-18.5 135.5q0 75 18.5 137.5t56 107.5t93.5 69.5t130 24.5q72 0 127.5 -24t93 -68.5t57 -107t19.5 -138.5q0 -77 -19.5 -139t-57.5 -105.5t-93.5 -67.5t-128.5 -24zM338 517q-33 0 -56.5 -15t-39 -40.5t-23 -60
t-7.5 -74.5q0 -42 8 -77.5t24 -61.5t40 -40.5t56 -14.5t56 15.5t39.5 42t23 61.5t7.5 74q0 41 -7.5 76t-23.5 60.5t-40 40t-57 14.5zM129 777l110 98l168 -128l-61 -69z" />
    <glyph glyph-name="Oacute" unicode="&#xd3;" horiz-adv-x="679" 
d="M338 -12q-74 0 -129.5 24.5t-92.5 69t-55.5 106t-18.5 135.5q0 75 18.5 137.5t56 107.5t93.5 69.5t130 24.5q72 0 127.5 -24t93 -68.5t57 -107t19.5 -138.5q0 -77 -19.5 -139t-57.5 -105.5t-93.5 -67.5t-128.5 -24zM338 517q-33 0 -56.5 -15t-39 -40.5t-23 -60
t-7.5 -74.5q0 -42 8 -77.5t24 -61.5t40 -40.5t56 -14.5t56 15.5t39.5 42t23 61.5t7.5 74q0 41 -7.5 76t-23.5 60.5t-40 40t-57 14.5zM324 678l-61 69l168 128l110 -98z" />
    <glyph glyph-name="Ocircumflex" unicode="&#xd4;" horiz-adv-x="679" 
d="M338 -12q-74 0 -129.5 24.5t-92.5 69t-55.5 106t-18.5 135.5q0 75 18.5 137.5t56 107.5t93.5 69.5t130 24.5q72 0 127.5 -24t93 -68.5t57 -107t19.5 -138.5q0 -77 -19.5 -139t-57.5 -105.5t-93.5 -67.5t-128.5 -24zM338 517q-33 0 -56.5 -15t-39 -40.5t-23 -60
t-7.5 -74.5q0 -42 8 -77.5t24 -61.5t40 -40.5t56 -14.5t56 15.5t39.5 42t23 61.5t7.5 74q0 41 -7.5 76t-23.5 60.5t-40 40t-57 14.5zM337 773l-147 -100l-60 55l150 150h118l149 -150l-62 -56z" />
    <glyph glyph-name="Otilde" unicode="&#xd5;" horiz-adv-x="679" 
d="M338 -12q-74 0 -129.5 24.5t-92.5 69t-55.5 106t-18.5 135.5q0 75 18.5 137.5t56 107.5t93.5 69.5t130 24.5q72 0 127.5 -24t93 -68.5t57 -107t19.5 -138.5q0 -77 -19.5 -139t-57.5 -105.5t-93.5 -67.5t-128.5 -24zM338 517q-33 0 -56.5 -15t-39 -40.5t-23 -60
t-7.5 -74.5q0 -42 8 -77.5t24 -61.5t40 -40.5t56 -14.5t56 15.5t39.5 42t23 61.5t7.5 74q0 41 -7.5 76t-23.5 60.5t-40 40t-57 14.5zM420 695q-17 0 -37.5 8t-41.5 17.5t-40.5 17.5t-34.5 8q-17 0 -32 -9.5t-35 -39.5l-67 31q12 36 28 61t34 40t37 21.5t37 6.5q20 0 42 -8
t43.5 -17.5t41 -17.5t34.5 -8q17 0 30 9.5t32 34.5l64 -30q-25 -72 -60.5 -98.5t-74.5 -26.5z" />
    <glyph glyph-name="Odieresis" unicode="&#xd6;" horiz-adv-x="679" 
d="M338 -12q-74 0 -129.5 24.5t-92.5 69t-55.5 106t-18.5 135.5q0 75 18.5 137.5t56 107.5t93.5 69.5t130 24.5q72 0 127.5 -24t93 -68.5t57 -107t19.5 -138.5q0 -77 -19.5 -139t-57.5 -105.5t-93.5 -67.5t-128.5 -24zM338 517q-33 0 -56.5 -15t-39 -40.5t-23 -60
t-7.5 -74.5q0 -42 8 -77.5t24 -61.5t40 -40.5t56 -14.5t56 15.5t39.5 42t23 61.5t7.5 74q0 41 -7.5 76t-23.5 60.5t-40 40t-57 14.5zM451 692q-16 0 -30.5 6t-25 16.5t-16.5 24.5t-6 29q0 32 23 54t55 22q30 0 52 -22t22 -54q0 -31 -22 -53.5t-52 -22.5zM226 692
q-32 0 -55 22.5t-23 53.5q0 32 23 54t55 22q31 0 53.5 -22t22.5 -54q0 -31 -22.5 -53.5t-53.5 -22.5z" />
    <glyph glyph-name="Ugrave" unicode="&#xd9;" horiz-adv-x="668" 
d="M333 -10q-63 0 -114.5 18t-87.5 54t-56 89.5t-20 125.5v374h165v-366q0 -73 29.5 -112t85.5 -39q57 0 85.5 37.5t28.5 109.5v370h166v-374q0 -72 -20.5 -126t-57.5 -90t-89 -53.5t-115 -17.5zM155 777l110 98l168 -128l-61 -69z" />
    <glyph glyph-name="Uacute" unicode="&#xda;" horiz-adv-x="668" 
d="M333 -10q-63 0 -114.5 18t-87.5 54t-56 89.5t-20 125.5v374h165v-366q0 -73 29.5 -112t85.5 -39q57 0 85.5 37.5t28.5 109.5v370h166v-374q0 -72 -20.5 -126t-57.5 -90t-89 -53.5t-115 -17.5zM317 678l-61 69l168 128l110 -98z" />
    <glyph glyph-name="Ucircumflex" unicode="&#xdb;" horiz-adv-x="668" 
d="M333 -10q-63 0 -114.5 18t-87.5 54t-56 89.5t-20 125.5v374h165v-366q0 -73 29.5 -112t85.5 -39q57 0 85.5 37.5t28.5 109.5v370h166v-374q0 -72 -20.5 -126t-57.5 -90t-89 -53.5t-115 -17.5zM334 773l-147 -100l-60 55l150 150h118l149 -150l-62 -56z" />
    <glyph glyph-name="Udieresis" unicode="&#xdc;" horiz-adv-x="668" 
d="M333 -10q-63 0 -114.5 18t-87.5 54t-56 89.5t-20 125.5v374h165v-366q0 -73 29.5 -112t85.5 -39q57 0 85.5 37.5t28.5 109.5v370h166v-374q0 -72 -20.5 -126t-57.5 -90t-89 -53.5t-115 -17.5zM451 696q-16 0 -30.5 6t-25 16.5t-16.5 24.5t-6 29q0 32 23 54t55 22
q30 0 52 -22t22 -54q0 -31 -22 -53.5t-52 -22.5zM226 696q-32 0 -55 22.5t-23 53.5q0 32 23 54t55 22q31 0 53.5 -22t22.5 -54q0 -31 -22.5 -53.5t-53.5 -22.5z" />
    <glyph glyph-name="Yacute" unicode="&#xdd;" horiz-adv-x="662" 
d="M413 0h-164v218l-246 433h179l75 -151l75 -155l77 159q5 9 15 29.5t21 43.5t21.5 43.5t15.5 30.5h177l-246 -431v-220zM307 678l-61 69l168 128l110 -98z" />
    <glyph glyph-name="agrave" unicode="&#xe0;" horiz-adv-x="536" 
d="M331 0v42l-3 1q-16 -17 -35 -28t-37 -17t-34 -8.5t-27 -2.5q-36 0 -66 9t-51.5 28.5t-34 50t-12.5 73.5q0 40 15 70.5t41 50.5t59.5 30t71.5 10q29 0 55.5 -3.5t57.5 -15.5v23q0 63 -80 63q-64 0 -134 -28l-38 112q43 20 93.5 30t101.5 10q212 0 212 -182v-318h-155z
M331 189q-14 8 -32 14t-41 6q-27 0 -46.5 -13t-19.5 -40q0 -25 17.5 -38t45.5 -13q20 0 41 8.5t35 22.5v53zM128 733l145 27l80 -199l-88 -28z" />
    <glyph glyph-name="aacute" unicode="&#xe1;" horiz-adv-x="536" 
d="M331 0v42l-3 1q-16 -17 -35 -28t-37 -17t-34 -8.5t-27 -2.5q-36 0 -66 9t-51.5 28.5t-34 50t-12.5 73.5q0 40 15 70.5t41 50.5t59.5 30t71.5 10q29 0 55.5 -3.5t57.5 -15.5v23q0 63 -80 63q-64 0 -134 -28l-38 112q43 20 93.5 30t101.5 10q212 0 212 -182v-318h-155z
M331 189q-14 8 -32 14t-41 6q-27 0 -46.5 -13t-19.5 -40q0 -25 17.5 -38t45.5 -13q20 0 41 8.5t35 22.5v53zM302 533l-87 28l80 200l145 -27z" />
    <glyph glyph-name="acircumflex" unicode="&#xe2;" horiz-adv-x="536" 
d="M331 0v42l-3 1q-16 -17 -35 -28t-37 -17t-34 -8.5t-27 -2.5q-36 0 -66 9t-51.5 28.5t-34 50t-12.5 73.5q0 40 15 70.5t41 50.5t59.5 30t71.5 10q29 0 55.5 -3.5t57.5 -15.5v23q0 63 -80 63q-64 0 -134 -28l-38 112q43 20 93.5 30t101.5 10q212 0 212 -182v-318h-155z
M331 189q-14 8 -32 14t-41 6q-27 0 -46.5 -13t-19.5 -40q0 -25 17.5 -38t45.5 -13q20 0 41 8.5t35 22.5v53zM272 624l-147 -103l-60 55l150 154h118l149 -154l-62 -56z" />
    <glyph glyph-name="atilde" unicode="&#xe3;" horiz-adv-x="536" 
d="M331 0v42l-3 1q-16 -17 -35 -28t-37 -17t-34 -8.5t-27 -2.5q-36 0 -66 9t-51.5 28.5t-34 50t-12.5 73.5q0 40 15 70.5t41 50.5t59.5 30t71.5 10q29 0 55.5 -3.5t57.5 -15.5v23q0 63 -80 63q-64 0 -134 -28l-38 112q43 20 93.5 30t101.5 10q212 0 212 -182v-318h-155z
M331 189q-14 8 -32 14t-41 6q-27 0 -46.5 -13t-19.5 -40q0 -25 17.5 -38t45.5 -13q20 0 41 8.5t35 22.5v53zM354 550q-17 0 -37.5 8t-41.5 17.5t-40.5 17.5t-34.5 8q-17 0 -32 -9.5t-35 -39.5l-67 31q12 36 28 61t34 40t37 21.5t37 6.5q20 0 42 -8t43.5 -17.5t41 -17.5
t34.5 -8q17 0 30 9.5t32 34.5l64 -30q-25 -72 -60.5 -98.5t-74.5 -26.5z" />
    <glyph glyph-name="adieresis" unicode="&#xe4;" horiz-adv-x="536" 
d="M331 0v42l-3 1q-16 -17 -35 -28t-37 -17t-34 -8.5t-27 -2.5q-36 0 -66 9t-51.5 28.5t-34 50t-12.5 73.5q0 40 15 70.5t41 50.5t59.5 30t71.5 10q29 0 55.5 -3.5t57.5 -15.5v23q0 63 -80 63q-64 0 -134 -28l-38 112q43 20 93.5 30t101.5 10q212 0 212 -182v-318h-155z
M331 189q-14 8 -32 14t-41 6q-27 0 -46.5 -13t-19.5 -40q0 -25 17.5 -38t45.5 -13q20 0 41 8.5t35 22.5v53zM385 549q-16 0 -30.5 6t-25 16.5t-16.5 24.5t-6 29q0 32 23 54t55 22q30 0 52 -22t22 -54q0 -31 -22 -53.5t-52 -22.5zM160 549q-32 0 -55 22.5t-23 53.5
q0 32 23 54t55 22q31 0 53.5 -22t22.5 -54q0 -31 -22.5 -53.5t-53.5 -22.5z" />
    <glyph glyph-name="aring" unicode="&#xe5;" horiz-adv-x="536" 
d="M331 0v42l-3 1q-16 -17 -35 -28t-37 -17t-34 -8.5t-27 -2.5q-36 0 -66 9t-51.5 28.5t-34 50t-12.5 73.5q0 40 15 70.5t41 50.5t59.5 30t71.5 10q29 0 55.5 -3.5t57.5 -15.5v23q0 63 -80 63q-64 0 -134 -28l-38 112q43 20 93.5 30t101.5 10q212 0 212 -182v-318h-155z
M331 189q-14 8 -32 14t-41 6q-27 0 -46.5 -13t-19.5 -40q0 -25 17.5 -38t45.5 -13q20 0 41 8.5t35 22.5v53zM287 531q-26 0 -48 8.5t-39 24.5t-26.5 38t-9.5 48q0 25 9.5 46.5t26.5 37.5t39 25t48 9q25 0 47 -9t38.5 -25t26 -37.5t9.5 -46.5q0 -26 -9.5 -47.5t-26 -37.5
t-38.5 -25t-47 -9zM287 698q-22 0 -33.5 -14.5t-11.5 -32.5q0 -22 11.5 -35t33.5 -13q18 0 31 13t13 35q0 19 -11.5 33t-32.5 14z" />
    <glyph glyph-name="egrave" unicode="&#xe8;" horiz-adv-x="543" 
d="M508 203h-305q8 -89 101 -89q28 0 59.5 8.5t62.5 22.5l53 -103q-50 -30 -96.5 -41.5t-94.5 -11.5q-62 0 -108.5 18.5t-77 51.5t-45.5 80t-15 104q0 58 17 105.5t48.5 81t76 51.5t100.5 18q60 0 102.5 -19t69.5 -53t39.5 -81t12.5 -102v-41zM351 291q-2 37 -17.5 62
t-56.5 25q-29 0 -50 -22t-24 -65h148zM128 733l145 27l80 -199l-88 -28z" />
    <glyph glyph-name="eacute" unicode="&#xe9;" horiz-adv-x="543" 
d="M508 203h-305q8 -89 101 -89q28 0 59.5 8.5t62.5 22.5l53 -103q-50 -30 -96.5 -41.5t-94.5 -11.5q-62 0 -108.5 18.5t-77 51.5t-45.5 80t-15 104q0 58 17 105.5t48.5 81t76 51.5t100.5 18q60 0 102.5 -19t69.5 -53t39.5 -81t12.5 -102v-41zM351 291q-2 37 -17.5 62
t-56.5 25q-29 0 -50 -22t-24 -65h148zM308 533l-87 28l80 200l145 -27z" />
    <glyph glyph-name="ecircumflex" unicode="&#xea;" horiz-adv-x="543" 
d="M508 203h-305q8 -89 101 -89q28 0 59.5 8.5t62.5 22.5l53 -103q-50 -30 -96.5 -41.5t-94.5 -11.5q-62 0 -108.5 18.5t-77 51.5t-45.5 80t-15 104q0 58 17 105.5t48.5 81t76 51.5t100.5 18q60 0 102.5 -19t69.5 -53t39.5 -81t12.5 -102v-41zM351 291q-2 37 -17.5 62
t-56.5 25q-29 0 -50 -22t-24 -65h148zM280 624l-147 -103l-60 55l150 154h118l149 -154l-62 -56z" />
    <glyph glyph-name="edieresis" unicode="&#xeb;" horiz-adv-x="543" 
d="M508 203h-305q8 -89 101 -89q28 0 59.5 8.5t62.5 22.5l53 -103q-50 -30 -96.5 -41.5t-94.5 -11.5q-62 0 -108.5 18.5t-77 51.5t-45.5 80t-15 104q0 58 17 105.5t48.5 81t76 51.5t100.5 18q60 0 102.5 -19t69.5 -53t39.5 -81t12.5 -102v-41zM351 291q-2 37 -17.5 62
t-56.5 25q-29 0 -50 -22t-24 -65h148zM393 539q-16 0 -30.5 6t-25 16.5t-16.5 24.5t-6 29q0 32 23 54t55 22q30 0 52 -22t22 -54q0 -31 -22 -53.5t-52 -22.5zM168 539q-32 0 -55 22.5t-23 53.5q0 32 23 54t55 22q31 0 53.5 -22t22.5 -54q0 -31 -22.5 -53.5t-53.5 -22.5z" />
    <glyph glyph-name="igrave" unicode="&#xec;" horiz-adv-x="293" 
d="M-20 733l145 27l80 -199l-88 -28zM69 489h158v-489h-158v489z" />
    <glyph glyph-name="iacute" unicode="&#xed;" horiz-adv-x="293" 
d="M168 533l-87 28l80 200l145 -27zM69 489h158v-489h-158v489z" />
    <glyph glyph-name="icircumflex" unicode="&#xee;" horiz-adv-x="397" 
d="M197 624l-147 -103l-60 55l150 154h118l149 -154l-62 -56zM114 489h158v-489h-158v489z" />
    <glyph glyph-name="idieresis" unicode="&#xef;" horiz-adv-x="357" 
d="M293 549q-16 0 -30.5 6t-25 16.5t-16.5 24.5t-6 29q0 32 23 54t55 22q30 0 52 -22t22 -54q0 -31 -22 -53.5t-52 -22.5zM68 549q-32 0 -55 22.5t-23 53.5q0 32 23 54t55 22q31 0 53.5 -22t22.5 -54q0 -31 -22.5 -53.5t-53.5 -22.5zM99 489h158v-489h-158v489z" />
    <glyph glyph-name="ntilde" unicode="&#xf1;" horiz-adv-x="564" 
d="M516 0h-158v270q0 51 -19 72t-51 21q-28 0 -48 -14.5t-28 -43.5q-2 -9 -4 -20.5t-2 -24.5v-260h-157v488h157v-51h4q25 29 62.5 45t69.5 16q47 0 80 -14t54 -39.5t30.5 -62.5t9.5 -82v-300zM347 550q-17 0 -37.5 8t-41.5 17.5t-40.5 17.5t-34.5 8q-17 0 -32 -9.5
t-35 -39.5l-67 31q12 36 28 61t34 40t37 21.5t37 6.5q20 0 42 -8t43.5 -17.5t41 -17.5t34.5 -8q17 0 30 9.5t32 34.5l64 -30q-25 -72 -60.5 -98.5t-74.5 -26.5z" />
    <glyph glyph-name="ograve" unicode="&#xf2;" horiz-adv-x="579" 
d="M288 -12q-57 0 -102.5 18t-77.5 51.5t-49 80.5t-17 104q0 60 17.5 107.5t50 80.5t78 51t102.5 18q56 0 101.5 -18t78 -51.5t50 -80.5t17.5 -105q0 -59 -18 -106.5t-50.5 -80.5t-78.5 -51t-102 -18zM287 372q-43 0 -63.5 -36.5t-20.5 -91.5q0 -61 21.5 -95t65.5 -34
q22 0 38 10t26.5 27t15.5 40t5 50q0 58 -21 94t-67 36zM130 733l145 27l80 -199l-88 -28z" />
    <glyph glyph-name="oacute" unicode="&#xf3;" horiz-adv-x="579" 
d="M288 -12q-57 0 -102.5 18t-77.5 51.5t-49 80.5t-17 104q0 60 17.5 107.5t50 80.5t78 51t102.5 18q56 0 101.5 -18t78 -51.5t50 -80.5t17.5 -105q0 -59 -18 -106.5t-50.5 -80.5t-78.5 -51t-102 -18zM287 372q-43 0 -63.5 -36.5t-20.5 -91.5q0 -61 21.5 -95t65.5 -34
q22 0 38 10t26.5 27t15.5 40t5 50q0 58 -21 94t-67 36zM309 533l-87 28l80 200l145 -27z" />
    <glyph glyph-name="ocircumflex" unicode="&#xf4;" horiz-adv-x="579" 
d="M288 -12q-57 0 -102.5 18t-77.5 51.5t-49 80.5t-17 104q0 60 17.5 107.5t50 80.5t78 51t102.5 18q56 0 101.5 -18t78 -51.5t50 -80.5t17.5 -105q0 -59 -18 -106.5t-50.5 -80.5t-78.5 -51t-102 -18zM287 372q-43 0 -63.5 -36.5t-20.5 -91.5q0 -61 21.5 -95t65.5 -34
q22 0 38 10t26.5 27t15.5 40t5 50q0 58 -21 94t-67 36zM286 624l-147 -103l-60 55l150 154h118l149 -154l-62 -56z" />
    <glyph glyph-name="otilde" unicode="&#xf5;" horiz-adv-x="579" 
d="M288 -12q-57 0 -102.5 18t-77.5 51.5t-49 80.5t-17 104q0 60 17.5 107.5t50 80.5t78 51t102.5 18q56 0 101.5 -18t78 -51.5t50 -80.5t17.5 -105q0 -59 -18 -106.5t-50.5 -80.5t-78.5 -51t-102 -18zM287 372q-43 0 -63.5 -36.5t-20.5 -91.5q0 -61 21.5 -95t65.5 -34
q22 0 38 10t26.5 27t15.5 40t5 50q0 58 -21 94t-67 36zM367 550q-17 0 -37.5 8t-41.5 17.5t-40.5 17.5t-34.5 8q-17 0 -32 -9.5t-35 -39.5l-67 31q12 36 28 61t34 40t37 21.5t37 6.5q20 0 42 -8t43.5 -17.5t41 -17.5t34.5 -8q17 0 30 9.5t32 34.5l64 -30
q-25 -72 -60.5 -98.5t-74.5 -26.5z" />
    <glyph glyph-name="odieresis" unicode="&#xf6;" horiz-adv-x="579" 
d="M288 -12q-57 0 -102.5 18t-77.5 51.5t-49 80.5t-17 104q0 60 17.5 107.5t50 80.5t78 51t102.5 18q56 0 101.5 -18t78 -51.5t50 -80.5t17.5 -105q0 -59 -18 -106.5t-50.5 -80.5t-78.5 -51t-102 -18zM287 372q-43 0 -63.5 -36.5t-20.5 -91.5q0 -61 21.5 -95t65.5 -34
q22 0 38 10t26.5 27t15.5 40t5 50q0 58 -21 94t-67 36zM404 549q-16 0 -30.5 6t-25 16.5t-16.5 24.5t-6 29q0 32 23 54t55 22q30 0 52 -22t22 -54q0 -31 -22 -53.5t-52 -22.5zM179 549q-32 0 -55 22.5t-23 53.5q0 32 23 54t55 22q31 0 53.5 -22t22.5 -54q0 -31 -22.5 -53.5
t-53.5 -22.5z" />
    <glyph glyph-name="ugrave" unicode="&#xf9;" horiz-adv-x="560" 
d="M48 488h158v-271q0 -48 18 -68.5t49 -20.5q26 0 45.5 12.5t28.5 41.5q5 20 5 45v261h158v-488h-158v50h-3q-32 -35 -66 -47.5t-66 -12.5q-91 0 -130 49.5t-39 140.5v308zM117 733l145 27l80 -199l-88 -28z" />
    <glyph glyph-name="uacute" unicode="&#xfa;" horiz-adv-x="560" 
d="M48 488h158v-271q0 -48 18 -68.5t49 -20.5q26 0 45.5 12.5t28.5 41.5q5 20 5 45v261h158v-488h-158v50h-3q-32 -35 -66 -47.5t-66 -12.5q-91 0 -130 49.5t-39 140.5v308zM292 533l-87 28l80 200l145 -27z" />
    <glyph glyph-name="ucircumflex" unicode="&#xfb;" horiz-adv-x="560" 
d="M48 488h158v-271q0 -48 18 -68.5t49 -20.5q26 0 45.5 12.5t28.5 41.5q5 20 5 45v261h158v-488h-158v50h-3q-32 -35 -66 -47.5t-66 -12.5q-91 0 -130 49.5t-39 140.5v308zM280 624l-147 -103l-60 55l150 154h118l149 -154l-62 -56z" />
    <glyph glyph-name="udieresis" unicode="&#xfc;" horiz-adv-x="560" 
d="M48 488h158v-271q0 -48 18 -68.5t49 -20.5q26 0 45.5 12.5t28.5 41.5q5 20 5 45v261h158v-488h-158v50h-3q-32 -35 -66 -47.5t-66 -12.5q-91 0 -130 49.5t-39 140.5v308zM395 549q-16 0 -30.5 6t-25 16.5t-16.5 24.5t-6 29q0 32 23 54t55 22q30 0 52 -22t22 -54
q0 -31 -22 -53.5t-52 -22.5zM170 549q-32 0 -55 22.5t-23 53.5q0 32 23 54t55 22q31 0 53.5 -22t22.5 -54q0 -31 -22.5 -53.5t-53.5 -22.5z" />
    <glyph glyph-name="yacute" unicode="&#xfd;" horiz-adv-x="546" 
d="M134 -195l63 174l-191 509h162l60 -188l43 -149h4l45 149l61 188h157l-249 -683h-155zM304 533l-87 28l80 200l145 -27z" />
    <glyph glyph-name="ydieresis" unicode="&#xff;" horiz-adv-x="546" 
d="M134 -195l63 174l-191 509h162l60 -188l43 -149h4l45 149l61 188h157l-249 -683h-155zM391 549q-16 0 -30.5 6t-25 16.5t-16.5 24.5t-6 29q0 32 23 54t55 22q30 0 52 -22t22 -54q0 -31 -22 -53.5t-52 -22.5zM166 549q-32 0 -55 22.5t-23 53.5q0 32 23 54t55 22
q31 0 53.5 -22t22.5 -54q0 -31 -22.5 -53.5t-53.5 -22.5z" />
    <glyph glyph-name="Amacron" unicode="&#x100;" horiz-adv-x="687" 
d="M462 129h-239l-42 -129h-171l240 651h191l240 -651h-176zM342 494q-2 -5 -7.5 -23t-12 -38t-12 -37.5t-6.5 -21.5l-41 -122h159l-43 132q-2 4 -6.5 20t-10.5 34t-11 34.5t-6 21.5h-3zM201 830h286v-111h-286v111z" />
    <glyph glyph-name="amacron" unicode="&#x101;" horiz-adv-x="536" 
d="M331 0v42l-3 1q-16 -17 -35 -28t-37 -17t-34 -8.5t-27 -2.5q-36 0 -66 9t-51.5 28.5t-34 50t-12.5 73.5q0 40 15 70.5t41 50.5t59.5 30t71.5 10q29 0 55.5 -3.5t57.5 -15.5v23q0 63 -80 63q-64 0 -134 -28l-38 112q43 20 93.5 30t101.5 10q212 0 212 -182v-318h-155z
M331 189q-14 8 -32 14t-41 6q-27 0 -46.5 -13t-19.5 -40q0 -25 17.5 -38t45.5 -13q20 0 41 8.5t35 22.5v53zM133 679h286v-111h-286v111z" />
    <glyph glyph-name="Abreve" unicode="&#x102;" horiz-adv-x="687" 
d="M462 129h-239l-42 -129h-171l240 651h191l240 -651h-176zM342 494q-2 -5 -7.5 -23t-12 -38t-12 -37.5t-6.5 -21.5l-41 -122h159l-43 132q-2 4 -6.5 20t-10.5 34t-11 34.5t-6 21.5h-3zM270 862q5 -29 23.5 -49t49.5 -20q16 0 29 6.5t21 16.5t12.5 22.5t4.5 23.5h109
q0 -25 -8.5 -54.5t-29 -55t-54 -43t-84.5 -17.5t-85.5 17.5t-55.5 43t-29.5 55t-8.5 54.5h106z" />
    <glyph glyph-name="abreve" unicode="&#x103;" horiz-adv-x="536" 
d="M331 0v42l-3 1q-16 -17 -35 -28t-37 -17t-34 -8.5t-27 -2.5q-36 0 -66 9t-51.5 28.5t-34 50t-12.5 73.5q0 40 15 70.5t41 50.5t59.5 30t71.5 10q29 0 55.5 -3.5t57.5 -15.5v23q0 63 -80 63q-64 0 -134 -28l-38 112q43 20 93.5 30t101.5 10q212 0 212 -182v-318h-155z
M331 189q-14 8 -32 14t-41 6q-27 0 -46.5 -13t-19.5 -40q0 -25 17.5 -38t45.5 -13q20 0 41 8.5t35 22.5v53zM207 711q5 -29 23.5 -49t49.5 -20q16 0 29 6.5t21 16.5t12.5 22.5t4.5 23.5h109q0 -25 -8.5 -54.5t-29 -55t-54 -43t-84.5 -17.5t-85.5 17.5t-55.5 43t-29.5 55
t-8.5 54.5h106z" />
    <glyph glyph-name="Aogonek" unicode="&#x104;" horiz-adv-x="687" 
d="M574 0q-37 -52 -37 -92q0 -23 15 -33.5t38 -10.5q29 0 61 12q5 -17 11.5 -34.5t11.5 -34.5q-22 -12 -53 -19.5t-59 -7.5q-50 0 -82.5 26.5t-32.5 73.5q0 22 12.5 54t44.5 68l-42 127h-239l-42 -129h-171l240 651h191l240 -651h-107zM342 494q-2 -5 -7.5 -23t-12 -38
t-12 -37.5t-6.5 -21.5l-41 -122h159l-43 132q-2 4 -6.5 20t-10.5 34t-11 34.5t-6 21.5h-3z" />
    <glyph glyph-name="aogonek" unicode="&#x105;" horiz-adv-x="536" 
d="M400 0q-37 -52 -37 -92q0 -23 15 -33.5t38 -10.5q29 0 61 12q5 -17 11.5 -34.5t11.5 -34.5q-22 -12 -53 -19.5t-59 -7.5q-50 0 -82.5 26.5t-32.5 73.5q0 23 12.5 54.5t45.5 68.5v39l-3 1q-16 -17 -35 -28t-37 -17t-34 -8.5t-27 -2.5q-36 0 -66 9t-51.5 28.5t-34 50
t-12.5 73.5q0 40 15 70.5t41 50.5t59.5 30t71.5 10q29 0 55.5 -3.5t57.5 -15.5v23q0 63 -80 63q-64 0 -134 -28l-38 112q43 20 93.5 30t101.5 10q212 0 212 -182v-318h-86zM331 189q-14 8 -32 14t-41 6q-27 0 -46.5 -13t-19.5 -40q0 -25 17.5 -38t45.5 -13q20 0 41 8.5
t35 22.5v53z" />
    <glyph glyph-name="Cacute" unicode="&#x106;" horiz-adv-x="595" 
d="M42 330q0 73 19.5 134.5t57.5 105t94 68t128 24.5q87 0 142 -31.5t90 -80.5l-119 -98q-28 37 -56 50t-58 13q-32 0 -56 -14.5t-40 -39.5t-24 -59.5t-8 -74.5q0 -39 8 -74t24 -61.5t40 -41.5t57 -15q32 0 62.5 15.5t59.5 54.5l120 -96q-18 -24 -41 -46t-53 -38.5
t-67 -26.5t-82 -10q-72 0 -127.5 24t-93.5 68.5t-57.5 108t-19.5 141.5zM308 678l-61 69l168 128l110 -98z" />
    <glyph glyph-name="cacute" unicode="&#x107;" horiz-adv-x="487" 
d="M42 242q0 58 15.5 105.5t46 81.5t75.5 52t103 18q45 0 91 -15t88 -60l-90 -101q-25 26 -43.5 35t-41.5 9q-42 0 -63 -32.5t-21 -86.5q0 -57 21 -91.5t64 -34.5q44 0 92 49l90 -99q-41 -45 -90.5 -64t-97.5 -19q-58 0 -102.5 17.5t-75 50.5t-46 80t-15.5 105zM280 533
l-87 28l80 200l145 -27z" />
    <glyph glyph-name="Ccircumflex" unicode="&#x108;" horiz-adv-x="595" 
d="M42 330q0 73 19.5 134.5t57.5 105t94 68t128 24.5q87 0 142 -31.5t90 -80.5l-119 -98q-28 37 -56 50t-58 13q-32 0 -56 -14.5t-40 -39.5t-24 -59.5t-8 -74.5q0 -39 8 -74t24 -61.5t40 -41.5t57 -15q32 0 62.5 15.5t59.5 54.5l120 -96q-18 -24 -41 -46t-53 -38.5
t-67 -26.5t-82 -10q-72 0 -127.5 24t-93.5 68.5t-57.5 108t-19.5 141.5zM324 773l-147 -100l-60 55l150 150h118l149 -150l-62 -56z" />
    <glyph glyph-name="ccircumflex" unicode="&#x109;" horiz-adv-x="487" 
d="M42 242q0 58 15.5 105.5t46 81.5t75.5 52t103 18q45 0 91 -15t88 -60l-90 -101q-25 26 -43.5 35t-41.5 9q-42 0 -63 -32.5t-21 -86.5q0 -57 21 -91.5t64 -34.5q44 0 92 49l90 -99q-41 -45 -90.5 -64t-97.5 -19q-58 0 -102.5 17.5t-75 50.5t-46 80t-15.5 105zM264 626
l-147 -103l-60 55l150 154h118l149 -154l-62 -56z" />
    <glyph glyph-name="Cdotaccent" unicode="&#x10a;" horiz-adv-x="595" 
d="M42 330q0 73 19.5 134.5t57.5 105t94 68t128 24.5q87 0 142 -31.5t90 -80.5l-119 -98q-28 37 -56 50t-58 13q-32 0 -56 -14.5t-40 -39.5t-24 -59.5t-8 -74.5q0 -39 8 -74t24 -61.5t40 -41.5t57 -15q32 0 62.5 15.5t59.5 54.5l120 -96q-18 -24 -41 -46t-53 -38.5
t-67 -26.5t-82 -10q-72 0 -127.5 24t-93.5 68.5t-57.5 108t-19.5 141.5zM246 776q0 34 23.5 58t57.5 24t58 -24t24 -58q0 -35 -24 -59t-58 -24t-57.5 24t-23.5 59z" />
    <glyph glyph-name="cdotaccent" unicode="&#x10b;" horiz-adv-x="487" 
d="M42 242q0 58 15.5 105.5t46 81.5t75.5 52t103 18q45 0 91 -15t88 -60l-90 -101q-25 26 -43.5 35t-41.5 9q-42 0 -63 -32.5t-21 -86.5q0 -57 21 -91.5t64 -34.5q44 0 92 49l90 -99q-41 -45 -90.5 -64t-97.5 -19q-58 0 -102.5 17.5t-75 50.5t-46 80t-15.5 105zM187 631
q0 34 23.5 58t57.5 24t58 -24t24 -58q0 -35 -24 -59t-58 -24t-57.5 24t-23.5 59z" />
    <glyph glyph-name="Ccaron" unicode="&#x10c;" horiz-adv-x="595" 
d="M42 330q0 73 19.5 134.5t57.5 105t94 68t128 24.5q87 0 142 -31.5t90 -80.5l-119 -98q-28 37 -56 50t-58 13q-32 0 -56 -14.5t-40 -39.5t-24 -59.5t-8 -74.5q0 -39 8 -74t24 -61.5t40 -41.5t57 -15q32 0 62.5 15.5t59.5 54.5l120 -96q-18 -24 -41 -46t-53 -38.5
t-67 -26.5t-82 -10q-72 0 -127.5 24t-93.5 68.5t-57.5 108t-19.5 141.5zM480 891l63 -54l-150 -151h-118l-149 151l59 54l147 -100z" />
    <glyph glyph-name="ccaron" unicode="&#x10d;" horiz-adv-x="487" 
d="M42 242q0 58 15.5 105.5t46 81.5t75.5 52t103 18q45 0 91 -15t88 -60l-90 -101q-25 26 -43.5 35t-41.5 9q-42 0 -63 -32.5t-21 -86.5q0 -57 21 -91.5t64 -34.5q44 0 92 49l90 -99q-41 -45 -90.5 -64t-97.5 -19q-58 0 -102.5 17.5t-75 50.5t-46 80t-15.5 105zM416 748
l63 -54l-149 -155h-118l-150 155l60 54l147 -103z" />
    <glyph glyph-name="Dcaron" unicode="&#x10e;" horiz-adv-x="658" 
d="M57 0v651h224q69 0 129.5 -17.5t105.5 -56t71 -100.5t26 -150q0 -89 -26.5 -151t-72 -101t-107.5 -57t-132 -18h-218zM223 512v-374h39q88 0 134.5 46t46.5 141t-46.5 141t-137.5 46h-36zM434 891l63 -54l-150 -151h-118l-149 151l59 54l147 -100z" />
    <glyph glyph-name="dcaron" unicode="&#x10f;" horiz-adv-x="724" 
d="M41 238q0 66 17 115t45 81t64 48t74 16q35 0 64 -11.5t52 -31.5h4v205q39 15 78.5 29.5t79.5 28.5v-718h-157v41q-1 0 -1.5 0.5t-1.5 0.5q-28 -27 -62 -39.5t-67 -12.5q-39 0 -73.5 13.5t-60 43t-40.5 76.5t-15 115zM204 238q0 -64 20 -91.5t55 -27.5q21 0 43 11t39 30
v169q-16 17 -36 28.5t-41 11.5q-36 0 -58 -31t-22 -100zM571 513q29 20 41 37t17 39q-26 3 -44 22t-18 48q0 31 22.5 53t54.5 22q42 0 67 -27.5t25 -69.5q0 -60 -34.5 -105t-89.5 -70z" />
    <glyph glyph-name="Emacron" unicode="&#x112;" horiz-adv-x="571" 
d="M55 651h486v-138h-321v-107h223v-139h-223v-128h332v-139h-497v651zM156 829h286v-111h-286v111z" />
    <glyph glyph-name="emacron" unicode="&#x113;" horiz-adv-x="543" 
d="M508 203h-305q8 -89 101 -89q28 0 59.5 8.5t62.5 22.5l53 -103q-50 -30 -96.5 -41.5t-94.5 -11.5q-62 0 -108.5 18.5t-77 51.5t-45.5 80t-15 104q0 58 17 105.5t48.5 81t76 51.5t100.5 18q60 0 102.5 -19t69.5 -53t39.5 -81t12.5 -102v-41zM351 291q-2 37 -17.5 62
t-56.5 25q-29 0 -50 -22t-24 -65h148zM137 679h286v-111h-286v111z" />
    <glyph glyph-name="Ebreve" unicode="&#x114;" horiz-adv-x="571" 
d="M55 651h486v-138h-321v-107h223v-139h-223v-128h332v-139h-497v651zM223 862q5 -29 23.5 -49t49.5 -20q16 0 29 6.5t21 16.5t12.5 22.5t4.5 23.5h109q0 -25 -8.5 -54.5t-29 -55t-54 -43t-84.5 -17.5t-85.5 17.5t-55.5 43t-29.5 55t-8.5 54.5h106z" />
    <glyph glyph-name="ebreve" unicode="&#x115;" horiz-adv-x="543" 
d="M508 203h-305q8 -89 101 -89q28 0 59.5 8.5t62.5 22.5l53 -103q-50 -30 -96.5 -41.5t-94.5 -11.5q-62 0 -108.5 18.5t-77 51.5t-45.5 80t-15 104q0 58 17 105.5t48.5 81t76 51.5t100.5 18q60 0 102.5 -19t69.5 -53t39.5 -81t12.5 -102v-41zM351 291q-2 37 -17.5 62
t-56.5 25q-29 0 -50 -22t-24 -65h148zM208 711q5 -29 23.5 -49t49.5 -20q16 0 29 6.5t21 16.5t12.5 22.5t4.5 23.5h109q0 -25 -8.5 -54.5t-29 -55t-54 -43t-84.5 -17.5t-85.5 17.5t-55.5 43t-29.5 55t-8.5 54.5h106z" />
    <glyph glyph-name="Edotaccent" unicode="&#x116;" horiz-adv-x="571" 
d="M55 651h486v-138h-321v-107h223v-139h-223v-128h332v-139h-497v651zM224 772q0 34 23.5 58t57.5 24t58 -24t24 -58q0 -35 -24 -59t-58 -24t-57.5 24t-23.5 59z" />
    <glyph glyph-name="edotaccent" unicode="&#x117;" horiz-adv-x="543" 
d="M508 203h-305q8 -89 101 -89q28 0 59.5 8.5t62.5 22.5l53 -103q-50 -30 -96.5 -41.5t-94.5 -11.5q-62 0 -108.5 18.5t-77 51.5t-45.5 80t-15 104q0 58 17 105.5t48.5 81t76 51.5t100.5 18q60 0 102.5 -19t69.5 -53t39.5 -81t12.5 -102v-41zM351 291q-2 37 -17.5 62
t-56.5 25q-29 0 -50 -22t-24 -65h148zM198 626q0 34 23.5 58t57.5 24t58 -24t24 -58q0 -35 -24 -59t-58 -24t-57.5 24t-23.5 59z" />
    <glyph glyph-name="Eogonek" unicode="&#x118;" horiz-adv-x="571" 
d="M55 651h486v-138h-321v-107h223v-139h-223v-128h332v-139h-33q-37 -52 -37 -92q0 -23 15 -33.5t38 -10.5q29 0 61 12q5 -17 11.5 -34.5t11.5 -34.5q-22 -12 -53 -19.5t-59 -7.5q-50 0 -82.5 26.5t-32.5 73.5q0 22 12 53.5t43 66.5h-392v651z" />
    <glyph glyph-name="eogonek" unicode="&#x119;" horiz-adv-x="543" 
d="M508 203h-305q8 -89 101 -89q28 0 59.5 8.5t62.5 22.5l53 -103q-31 -19 -59 -29q-27 -44 -27 -77q0 -23 15 -33.5t38 -10.5q29 0 61 12q5 -17 11.5 -34.5t11.5 -34.5q-22 -12 -53 -19.5t-59 -7.5q-50 0 -82.5 26.5t-32.5 73.5q0 16 6 37t22 46q-11 -1 -21.5 -1.5
t-21.5 -0.5q-62 0 -108.5 18.5t-77 51.5t-45.5 80t-15 104q0 58 17 105.5t48.5 81t76 51.5t100.5 18q60 0 102.5 -19t69.5 -53t39.5 -81t12.5 -102v-41zM351 291q-2 37 -17.5 62t-56.5 25q-29 0 -50 -22t-24 -65h148z" />
    <glyph glyph-name="Ecaron" unicode="&#x11a;" horiz-adv-x="571" 
d="M55 651h486v-138h-321v-107h223v-139h-223v-128h332v-139h-497v651zM439 890l63 -54l-150 -151h-118l-149 151l59 54l147 -100z" />
    <glyph glyph-name="ecaron" unicode="&#x11b;" horiz-adv-x="543" 
d="M508 203h-305q8 -89 101 -89q28 0 59.5 8.5t62.5 22.5l53 -103q-50 -30 -96.5 -41.5t-94.5 -11.5q-62 0 -108.5 18.5t-77 51.5t-45.5 80t-15 104q0 58 17 105.5t48.5 81t76 51.5t100.5 18q60 0 102.5 -19t69.5 -53t39.5 -81t12.5 -102v-41zM351 291q-2 37 -17.5 62
t-56.5 25q-29 0 -50 -22t-24 -65h148zM422 745l63 -54l-149 -155h-118l-150 155l60 54l147 -103z" />
    <glyph glyph-name="Gcircumflex" unicode="&#x11c;" horiz-adv-x="647" 
d="M352 235v122h257v-97q0 -62 -17.5 -112t-52 -85t-86 -54.5t-118.5 -19.5q-74 0 -129 24t-92 68.5t-55.5 107.5t-18.5 140q0 74 19.5 135t58 105t94 68t127.5 24q81 0 135.5 -28t93.5 -84q-6 -5 -24.5 -19t-39.5 -29.5t-39 -30t-24 -19.5q-24 38 -52 50.5t-55 12.5
q-32 0 -55 -14.5t-38 -40t-22.5 -59.5t-7.5 -74q0 -95 32.5 -143.5t94.5 -48.5q52 0 77 29t28 72h-91zM326 773l-147 -100l-60 55l150 150h118l149 -150l-62 -56z" />
    <glyph glyph-name="gcircumflex" unicode="&#x11d;" horiz-adv-x="569" 
d="M520 46q0 -47 -13.5 -89.5t-44 -78.5t-79 -63t-118.5 -42l-48 126q50 16 79 33.5t44 35t19 33.5t4 30v19h-4q-29 -27 -61 -39.5t-67 -12.5q-38 0 -72 14t-60 43t-41.5 75t-15.5 110q0 66 15 114.5t41.5 80t61.5 47t75 15.5q35 0 68 -13.5t56 -37.5l3 1v42h158v-443z
M293 624l-147 -103l-60 55l150 154h118l149 -154l-62 -56zM282 367q-34 0 -55.5 -30t-21.5 -91q0 -66 20.5 -92.5t57.5 -26.5q21 0 41.5 11t36.5 28v161q-16 18 -36.5 29t-42.5 11z" />
    <glyph glyph-name="Gbreve" unicode="&#x11e;" horiz-adv-x="647" 
d="M352 235v122h257v-97q0 -62 -17.5 -112t-52 -85t-86 -54.5t-118.5 -19.5q-74 0 -129 24t-92 68.5t-55.5 107.5t-18.5 140q0 74 19.5 135t58 105t94 68t127.5 24q81 0 135.5 -28t93.5 -84q-6 -5 -24.5 -19t-39.5 -29.5t-39 -30t-24 -19.5q-24 38 -52 50.5t-55 12.5
q-32 0 -55 -14.5t-38 -40t-22.5 -59.5t-7.5 -74q0 -95 32.5 -143.5t94.5 -48.5q52 0 77 29t28 72h-91zM256 863q5 -29 23.5 -49t49.5 -20q16 0 29 6.5t21 16.5t12.5 22.5t4.5 23.5h109q0 -25 -8.5 -54.5t-29 -55t-54 -43t-84.5 -17.5t-85.5 17.5t-55.5 43t-29.5 55
t-8.5 54.5h106z" />
    <glyph glyph-name="gbreve" unicode="&#x11f;" horiz-adv-x="569" 
d="M520 46q0 -47 -13.5 -89.5t-44 -78.5t-79 -63t-118.5 -42l-48 126q50 16 79 33.5t44 35t19 33.5t4 30v19h-4q-29 -27 -61 -39.5t-67 -12.5q-38 0 -72 14t-60 43t-41.5 75t-15.5 110q0 66 15 114.5t41.5 80t61.5 47t75 15.5q35 0 68 -13.5t56 -37.5l3 1v42h158v-443z
M225 711q5 -29 23.5 -49t49.5 -20q16 0 29 6.5t21 16.5t12.5 22.5t4.5 23.5h109q0 -25 -8.5 -54.5t-29 -55t-54 -43t-84.5 -17.5t-85.5 17.5t-55.5 43t-29.5 55t-8.5 54.5h106zM282 367q-34 0 -55.5 -30t-21.5 -91q0 -66 20.5 -92.5t57.5 -26.5q21 0 41.5 11t36.5 28v161
q-16 18 -36.5 29t-42.5 11z" />
    <glyph glyph-name="Gdotaccent" unicode="&#x120;" horiz-adv-x="647" 
d="M352 235v122h257v-97q0 -62 -17.5 -112t-52 -85t-86 -54.5t-118.5 -19.5q-74 0 -129 24t-92 68.5t-55.5 107.5t-18.5 140q0 74 19.5 135t58 105t94 68t127.5 24q81 0 135.5 -28t93.5 -84q-6 -5 -24.5 -19t-39.5 -29.5t-39 -30t-24 -19.5q-24 38 -52 50.5t-55 12.5
q-32 0 -55 -14.5t-38 -40t-22.5 -59.5t-7.5 -74q0 -95 32.5 -143.5t94.5 -48.5q52 0 77 29t28 72h-91zM253 772q0 34 23.5 58t57.5 24t58 -24t24 -58q0 -35 -24 -59t-58 -24t-57.5 24t-23.5 59z" />
    <glyph glyph-name="gdotaccent" unicode="&#x121;" horiz-adv-x="569" 
d="M520 46q0 -47 -13.5 -89.5t-44 -78.5t-79 -63t-118.5 -42l-48 126q50 16 79 33.5t44 35t19 33.5t4 30v19h-4q-29 -27 -61 -39.5t-67 -12.5q-38 0 -72 14t-60 43t-41.5 75t-15.5 110q0 66 15 114.5t41.5 80t61.5 47t75 15.5q35 0 68 -13.5t56 -37.5l3 1v42h158v-443z
M282 367q-34 0 -55.5 -30t-21.5 -91q0 -66 20.5 -92.5t57.5 -26.5q21 0 41.5 11t36.5 28v161q-16 18 -36.5 29t-42.5 11zM233 631q0 34 23.5 58t57.5 24t58 -24t24 -58q0 -35 -24 -59t-58 -24t-57.5 24t-23.5 59z" />
    <glyph glyph-name="Gcommaaccent" unicode="&#x122;" horiz-adv-x="647" 
d="M352 235v122h257v-97q0 -62 -17.5 -112t-52 -85t-86 -54.5t-118.5 -19.5q-74 0 -129 24t-92 68.5t-55.5 107.5t-18.5 140q0 74 19.5 135t58 105t94 68t127.5 24q81 0 135.5 -28t93.5 -84q-6 -5 -24.5 -19t-39.5 -29.5t-39 -30t-24 -19.5q-24 38 -52 50.5t-55 12.5
q-32 0 -55 -14.5t-38 -40t-22.5 -59.5t-7.5 -74q0 -95 32.5 -143.5t94.5 -48.5q52 0 77 29t28 72h-91zM261 -266q29 20 41 37t16 39q-26 2 -45.5 18.5t-19.5 49.5t23.5 55t57.5 22q42 0 66.5 -27.5t24.5 -69.5q0 -60 -33.5 -104.5t-90.5 -70.5q-10 13 -19.5 25.5t-20.5 25.5
z" />
    <glyph glyph-name="gcommaaccent" unicode="&#x123;" horiz-adv-x="569" 
d="M520 46q0 -47 -13.5 -89.5t-44 -78.5t-79 -63t-118.5 -42l-48 126q50 16 79 33.5t44 35t19 33.5t4 30v19h-4q-29 -27 -61 -39.5t-67 -12.5q-38 0 -72 14t-60 43t-41.5 75t-15.5 110q0 66 15 114.5t41.5 80t61.5 47t75 15.5q35 0 68 -13.5t56 -37.5l3 1v42h158v-443z
M282 367q-34 0 -55.5 -30t-21.5 -91q0 -66 20.5 -92.5t57.5 -26.5q21 0 41.5 11t36.5 28v161q-16 18 -36.5 29t-42.5 11zM371 760q-30 -20 -42 -39.5t-17 -39.5h1q9 0 19.5 -4t19.5 -12.5t15 -21t6 -29.5q0 -32 -22 -52.5t-54 -20.5q-37 0 -60.5 25.5t-23.5 67.5
q0 58 33.5 104.5t87.5 71.5z" />
    </font>
</defs>
</svg>
