<?xml version="1.0" standalone="no"?>
<!DOCTYPE svg PUBLIC "-//W3C//DTD SVG 1.1//EN" "http://www.w3.org/Graphics/SVG/1.1/DTD/svg11.dtd" >
<svg xmlns="http://www.w3.org/2000/svg" xmlns:xlink="http://www.w3.org/1999/xlink" version="1.1">
<metadata>
Created by FontForge 20190801 at Mon Jul  4 08:34:17 2016
 By Jimmy Wärting
LCG stand for Latin, Cyrillic and Greek.
</metadata>
<defs>
<font id="GraphikLCG-ThinItalic" horiz-adv-x="600" >
  <font-face 
    font-family="Graphik LCG"
    font-weight="250"
    font-style="italic"
    font-stretch="normal"
    units-per-em="1000"
    panose-1="2 11 2 3 3 2 2 13 2 3"
    ascent="818"
    descent="-182"
    x-height="523"
    cap-height="715"
    bbox="-234 -210 1027 1068"
    underline-thickness="50"
    underline-position="-100"
    slope="-8"
    stemh="34"
    stemv="20"
    unicode-range="U+000D-FB02"
  />
<missing-glyph horiz-adv-x="500" 
 />
    <glyph glyph-name="f_f" unicode="ff" horiz-adv-x="584" 
d="M414 507h-250l-79 -507h-18l79 507h-85l3 16h85l15 95c18 119 87 149 156 149c19 0 38 -3 55 -8l-2 -16c-19 7 -33 8 -53 8c-64 0 -119 -23 -138 -134l-15 -94h249l16 98c19 123 89 155 158 155c23 0 40 -3 57 -8l-2 -16c-19 7 -32 8 -55 8c-63 0 -121 -24 -140 -140
l-16 -97h166l-3 -16h-165l-80 -507h-18z" />
    <glyph glyph-name=".notdef" horiz-adv-x="500" 
 />
    <glyph glyph-name="NULL" horiz-adv-x="0" 
 />
    <glyph glyph-name="NULL" horiz-adv-x="0" 
 />
    <glyph glyph-name="CR" unicode="&#xd;" horiz-adv-x="225" 
 />
    <glyph glyph-name="space" unicode=" " horiz-adv-x="225" 
 />
    <glyph glyph-name="exclam" unicode="!" horiz-adv-x="254" 
d="M189 715h20l-91 -563h-16zM86 -5c-11 0 -17 8 -17 17s6 17 17 17s17 -8 17 -17s-6 -17 -17 -17z" />
    <glyph glyph-name="quotedbl" unicode="&#x22;" horiz-adv-x="223" 
d="M126 715h20l-29 -167h-16zM219 715h20l-29 -167h-16z" />
    <glyph glyph-name="numbersign" unicode="#" horiz-adv-x="478" 
d="M306 310h-148l-49 -211h-17l49 211h-98l2 16h100l44 186h-100l2 16h102l44 187h17l-44 -187h148l44 187h17l-44 -187h100l-2 -16h-102l-44 -186h102l-2 -16h-104l-49 -211h-17zM162 326h148l44 186h-148z" />
    <glyph glyph-name="dollar" unicode="$" horiz-adv-x="582" 
d="M275 -6c-7 0 -15 0 -22 1l-20 -130h-17l20 131c-112 11 -199 69 -207 194h18c11 -112 81 -167 192 -178l56 354c-132 37 -188 86 -188 169c0 123 99 186 224 186c7 0 13 0 20 -1l15 93h17l-15 -94c100 -11 168 -61 179 -157h-18c-13 85 -72 131 -164 140l-51 -324
c135 -37 200 -71 200 -176c0 -135 -102 -208 -239 -208zM495 202c0 91 -57 126 -184 160l-55 -351h18c128 0 221 65 221 191zM126 535c0 -75 50 -117 171 -152l51 320c-5 0 -11 1 -16 1c-117 0 -206 -53 -206 -169z" />
    <glyph glyph-name="percent" unicode="%" horiz-adv-x="745" 
d="M113 552c1 -71 48 -121 119 -121c82 0 140 61 140 149c-1 68 -47 123 -120 123c-83 0 -139 -68 -139 -151zM232 415c-77 0 -137 57 -137 137c0 90 65 167 157 167c77 0 138 -59 138 -139c0 -100 -70 -165 -158 -165zM670 715h21l-590 -715h-21zM398 132
c1 -71 48 -121 119 -121c82 0 140 61 140 149c-1 68 -47 123 -120 123c-83 0 -139 -68 -139 -151zM517 -5c-77 0 -137 57 -137 137c0 90 65 167 157 167c77 0 138 -59 138 -139c0 -100 -70 -165 -158 -165z" />
    <glyph glyph-name="ampersand" unicode="&#x26;" horiz-adv-x="632" 
d="M537 0l-84 123c-49 -62 -126 -130 -230 -130c-105 0 -190 61 -190 176c0 131 107 187 220 235c-37 55 -65 102 -65 159c0 85 64 156 156 156c80 0 127 -57 127 -130c0 -107 -111 -156 -192 -191l174 -247l136 202h21l-148 -215l97 -138h-22zM53 170
c0 -99 70 -160 170 -160c96 0 175 68 220 127l-181 254c-107 -45 -209 -96 -209 -221zM343 702c-80 0 -136 -61 -136 -139c0 -53 27 -100 63 -152c77 35 182 76 182 178c0 67 -38 112 -109 113z" />
    <glyph glyph-name="quotesingle" unicode="'" horiz-adv-x="130" 
d="M126 715h20l-29 -167h-16z" />
    <glyph glyph-name="parenleft" unicode="(" horiz-adv-x="273" 
d="M165 -148c-60 91 -106 212 -106 361c0 224 101 424 245 560h20c-157 -155 -247 -345 -247 -560c0 -148 48 -268 107 -361h-19z" />
    <glyph glyph-name="parenright" unicode=")" horiz-adv-x="273" 
d="M122 773c60 -91 106 -212 106 -361c0 -224 -101 -424 -245 -560h-20c157 155 247 345 247 560c0 148 -48 268 -107 361h19z" />
    <glyph glyph-name="asterisk" unicode="*" horiz-adv-x="412" 
d="M123 461l120 115l-135 62l8 17l133 -64l23 152h19l-25 -154l148 43l4 -17l-150 -41l78 -130l-16 -10l-77 130l-117 -116z" />
    <glyph glyph-name="plus" unicode="+" horiz-adv-x="500" 
d="M251 334h-204l3 16h204l35 219h18l-35 -219h204l-3 -16h-204l-34 -219h-18z" />
    <glyph glyph-name="comma" unicode="," horiz-adv-x="166" 
d="M-24 -102l69 140l18 -8l-73 -139z" />
    <glyph glyph-name="hyphen" unicode="-" horiz-adv-x="332" 
d="M65 288h204l-3 -17h-204z" />
    <glyph glyph-name="period" unicode="." horiz-adv-x="166" 
d="M42 -5c-11 0 -17 8 -17 17s6 17 17 17s17 -8 17 -17s-6 -17 -17 -17z" />
    <glyph glyph-name="slash" unicode="/" horiz-adv-x="376" 
d="M391 776h20l-435 -924h-20z" />
    <glyph glyph-name="zero" unicode="0" horiz-adv-x="634" 
d="M300 -6c-171 0 -244 106 -244 253c0 31 2 58 7 89l13 82c31 197 136 303 291 303c168 0 237 -110 237 -251c0 -31 -2 -59 -7 -90l-13 -82c-32 -200 -125 -304 -284 -304zM300 11c149 0 235 96 266 288l13 82c5 31 7 58 7 89c0 134 -64 234 -219 234
c-147 0 -244 -100 -273 -287l-13 -82c-5 -31 -7 -59 -7 -88c0 -137 66 -236 226 -236z" />
    <glyph glyph-name="one" unicode="1" horiz-adv-x="331" 
d="M255 688l-185 -112l3 19l196 120h8l-113 -715h-18z" />
    <glyph glyph-name="two" unicode="2" horiz-adv-x="518" 
d="M-29 5l342 286c95 79 162 151 162 258c0 96 -62 155 -166 155c-99 0 -184 -53 -213 -183h-18c27 136 125 200 231 200c115 0 184 -68 184 -172c0 -115 -71 -187 -163 -265l-319 -267h420l-3 -17h-458z" />
    <glyph glyph-name="three" unicode="3" horiz-adv-x="524" 
d="M238 -6c-124 0 -218 70 -218 197h19c3 -117 80 -180 199 -180c113 0 213 66 213 202c0 80 -48 153 -163 153h-43l3 17h48c100 0 180 56 180 174c0 88 -59 147 -159 147s-177 -62 -200 -166h-18c22 113 114 183 218 183c101 0 177 -60 177 -164c0 -97 -54 -164 -147 -183
c75 -16 122 -78 122 -162c0 -144 -107 -218 -231 -218z" />
    <glyph glyph-name="four" unicode="4" horiz-adv-x="569" 
d="M393 173h-381l1 5l451 537h34l-83 -525h99l-3 -17h-99l-27 -173h-19zM396 190l81 513l-431 -513h350z" />
    <glyph glyph-name="five" unicode="5" horiz-adv-x="531" 
d="M232 -6c-120 0 -206 70 -214 179h18c9 -96 83 -162 196 -162c147 0 228 105 228 246c0 104 -70 183 -177 183c-88 0 -146 -37 -190 -88h-8l58 363h376l-3 -17h-358l-49 -311c32 34 96 70 174 70c116 0 195 -84 195 -200c0 -150 -90 -263 -246 -263z" />
    <glyph glyph-name="six" unicode="6" horiz-adv-x="577" 
d="M277 -6c-135 0 -218 76 -217 221c0 32 5 65 9 92l12 75c43 260 149 339 289 339c108 0 178 -50 186 -150h-18c-9 89 -68 133 -168 133c-133 0 -231 -74 -271 -323l-12 -75c43 93 134 138 224 138c117 0 215 -63 215 -191c0 -149 -97 -259 -249 -259zM79 204
c0 -120 74 -193 198 -193c144 0 231 105 231 242c0 115 -84 174 -197 174c-125 0 -232 -87 -232 -223z" />
    <glyph glyph-name="seven" unicode="7" horiz-adv-x="480" 
d="M506 698h-414l3 17h440l-1 -5l-403 -710h-21z" />
    <glyph glyph-name="eight" unicode="8" horiz-adv-x="555" 
d="M262 -6c-113 0 -226 59 -226 187s91 195 211 208c-69 16 -127 71 -127 157c0 112 103 175 208 175c102 0 188 -66 188 -166c0 -107 -66 -161 -167 -174c87 -21 151 -81 151 -177c0 -145 -115 -210 -238 -210zM54 181c0 -117 101 -170 209 -170c116 0 219 61 219 194
c0 101 -81 171 -202 171c-116 0 -226 -61 -226 -195zM138 546c0 -85 67 -153 177 -153c96 0 183 46 183 162c0 88 -73 149 -170 149c-93 0 -190 -53 -190 -158z" />
    <glyph glyph-name="nine" unicode="9" horiz-adv-x="574" 
d="M244 -6c-108 0 -184 52 -196 155h18c12 -92 78 -138 178 -138c140 0 225 70 265 323l12 75c-45 -93 -133 -139 -223 -139c-118 0 -216 66 -216 196c0 149 97 255 249 255c130 0 217 -76 217 -221c0 -32 -5 -65 -9 -92l-12 -75c-43 -270 -139 -339 -283 -339zM100 466
c0 -116 85 -179 198 -179c125 0 231 93 231 224c0 120 -74 193 -198 193c-144 0 -231 -101 -231 -238z" />
    <glyph glyph-name="colon" unicode=":" horiz-adv-x="172" 
d="M45 -5c-11 0 -17 8 -17 17s6 17 17 17s17 -8 17 -17s-6 -17 -17 -17zM102 352c-11 0 -17 8 -17 17s6 17 17 17s17 -8 17 -17s-6 -17 -17 -17z" />
    <glyph glyph-name="semicolon" unicode=";" horiz-adv-x="172" 
d="M-28 -102l69 140l18 -8l-73 -139zM102 352c-11 0 -17 8 -17 17s6 17 17 17s17 -8 17 -17s-6 -17 -17 -17z" />
    <glyph glyph-name="less" unicode="&#x3c;" horiz-adv-x="487" 
d="M56 326l1 6l416 192l-3 -19l-386 -178l327 -194l-3 -18z" />
    <glyph glyph-name="equal" unicode="=" horiz-adv-x="484" 
d="M37 249h404l-3 -16h-404zM61 401h404l-3 -16h-404z" />
    <glyph glyph-name="greater" unicode="&#x3e;" horiz-adv-x="487" 
d="M448 313l-1 -6l-416 -192l3 19l386 178l-327 194l3 18z" />
    <glyph glyph-name="question" unicode="?" horiz-adv-x="462" 
d="M191 224c11 80 53 118 124 173c68 54 129 91 129 185c0 88 -75 122 -149 122c-101 0 -172 -57 -195 -172h-18c19 121 103 189 213 189c83 0 168 -39 168 -139c0 -104 -69 -143 -138 -198c-68 -55 -105 -86 -116 -162l-11 -70h-18zM166 -5c-11 0 -17 8 -17 17s6 17 17 17
s17 -8 17 -17s-6 -17 -17 -17z" />
    <glyph glyph-name="at" unicode="@" horiz-adv-x="902" 
d="M606 237c-16 -85 6 -148 85 -148c81 0 154 74 154 234c0 200 -134 349 -367 349c-216 0 -409 -179 -409 -412c0 -204 134 -391 394 -391c157 0 264 62 314 131h18c-48 -75 -164 -147 -332 -147c-269 0 -412 192 -412 407c0 244 206 428 427 428c239 0 385 -159 385 -364
c0 -179 -93 -250 -173 -250c-67 0 -108 41 -105 118c-21 -52 -77 -126 -164 -126s-151 63 -151 163c0 120 81 243 199 243c75 0 129 -50 138 -122l17 113h18zM421 82c94 0 176 104 176 220c1 92 -49 154 -128 154c-108 0 -181 -114 -181 -227c0 -91 53 -147 133 -147z" />
    <glyph glyph-name="A" unicode="A" horiz-adv-x="630" 
d="M486 235h-355l-124 -235h-19l380 715h26l164 -715h-18zM140 252h342l-103 449z" />
    <glyph glyph-name="B" unicode="B" horiz-adv-x="582" 
d="M166 715h179c115 0 184 -59 184 -159c0 -108 -67 -164 -166 -183c97 -12 150 -73 150 -158c0 -139 -99 -215 -232 -215h-228zM281 17c120 0 213 65 213 198c0 92 -62 150 -193 150h-172l-55 -348h207zM302 382c100 0 208 42 208 174c0 88 -62 142 -165 142h-163l-50 -316
h170z" />
    <glyph glyph-name="C" unicode="C" horiz-adv-x="722" 
d="M366 -6c-188 0 -310 121 -310 321c0 217 143 406 375 406c129 0 243 -76 264 -211h-17c-24 123 -124 194 -247 194c-222 0 -355 -179 -355 -389c0 -189 110 -304 290 -304c137 0 245 73 292 210h18c-45 -148 -168 -227 -310 -227z" />
    <glyph glyph-name="D" unicode="D" horiz-adv-x="677" 
d="M166 715h171c211 0 312 -132 312 -304c0 -261 -161 -411 -406 -411h-190zM243 17c237 0 387 146 387 394c0 158 -92 287 -293 287h-155l-108 -681h169z" />
    <glyph glyph-name="E" unicode="E" horiz-adv-x="566" 
d="M166 715h397l-3 -17h-378l-51 -320h314l-3 -17h-313l-55 -344h404l-4 -17h-421z" />
    <glyph glyph-name="F" unicode="F" horiz-adv-x="534" 
d="M166 715h393l-3 -17h-374l-51 -320h297l-3 -17h-296l-57 -361h-19z" />
    <glyph glyph-name="G" unicode="G" horiz-adv-x="744" 
d="M383 -6c-208 0 -325 138 -325 323c0 223 151 404 372 404c131 0 249 -63 270 -195h-19c-16 119 -127 178 -251 178c-211 0 -353 -171 -353 -387c0 -172 109 -306 306 -306c169 0 283 94 304 306h-238l3 17h256c-19 -243 -149 -340 -325 -340z" />
    <glyph glyph-name="H" unicode="H" horiz-adv-x="702" 
d="M166 715h19l-55 -344h474l55 344h19l-113 -715h-19l56 354h-474l-56 -354h-19z" />
    <glyph glyph-name="I" unicode="I" horiz-adv-x="219" 
d="M171 715h19l-113 -715h-19z" />
    <glyph glyph-name="J" unicode="J" horiz-adv-x="378" 
d="M114 -4c-57 0 -94 14 -117 29l3 18c31 -19 65 -30 114 -30c80 0 132 40 148 140l89 562h19l-89 -563c-19 -115 -79 -156 -167 -156z" />
    <glyph glyph-name="K" unicode="K" horiz-adv-x="579" 
d="M479 0l-339 368l430 347h26l-431 -348l338 -367h-24zM166 715h19l-113 -715h-19z" />
    <glyph glyph-name="L" unicode="L" horiz-adv-x="525" 
d="M166 715h19l-111 -698h372l-3 -17h-390z" />
    <glyph glyph-name="M" unicode="M" horiz-adv-x="846" 
d="M166 715h30l181 -680l406 680h31l-113 -715h-19l110 695l-415 -695h-9l-186 695l-110 -695h-19z" />
    <glyph glyph-name="N" unicode="N" horiz-adv-x="701" 
d="M166 715h29l353 -693l110 693h19l-113 -715h-25l-357 700l-110 -700h-19z" />
    <glyph glyph-name="O" unicode="O" horiz-adv-x="780" 
d="M752 389c0 -204 -148 -395 -372 -395c-203 0 -324 145 -324 337c0 203 151 390 374 390c192 0 322 -144 322 -332zM733 389c0 169 -112 315 -303 315c-211 0 -352 -173 -355 -373c-3 -174 110 -320 305 -320c211 0 353 179 353 378z" />
    <glyph glyph-name="P" unicode="P" horiz-adv-x="552" 
d="M166 715h156c132 0 221 -51 221 -173c0 -155 -97 -219 -249 -219h-172l-51 -323h-18zM294 340c139 0 230 53 230 202c0 116 -84 156 -203 156h-140l-57 -358h170z" />
    <glyph glyph-name="Q" unicode="Q" horiz-adv-x="780" 
d="M591 61c-59 -43 -128 -67 -211 -67c-203 0 -324 145 -324 337c0 203 151 390 374 390c192 0 322 -144 322 -332c0 -125 -55 -242 -148 -317l80 -86l-12 -12zM380 11c77 0 143 24 199 63l-118 129l12 12l120 -131c88 72 139 184 140 305c0 169 -112 315 -303 315
c-211 0 -352 -173 -355 -373c-3 -174 110 -320 305 -320z" />
    <glyph glyph-name="R" unicode="R" horiz-adv-x="581" 
d="M166 715h157c134 0 218 -53 218 -169c0 -142 -91 -193 -222 -201l184 -345h-20l-183 343h-175l-54 -343h-18zM284 360c125 0 238 33 238 186c0 108 -80 152 -199 152h-142l-53 -338h156z" />
    <glyph glyph-name="S" unicode="S" horiz-adv-x="568" 
d="M266 -6c-131 0 -238 57 -246 196h18c12 -123 96 -179 227 -179c128 0 223 68 223 193c0 97 -58 129 -192 167c-136 37 -194 80 -194 164c0 123 93 186 218 186c120 0 200 -52 211 -159h-18c-15 96 -80 142 -192 142c-116 0 -200 -53 -200 -169c0 -76 53 -114 183 -148
c140 -38 203 -77 203 -183c0 -135 -104 -210 -241 -210z" />
    <glyph glyph-name="T" unicode="T" horiz-adv-x="557" 
d="M335 698h-238l3 17h495l-3 -17h-238l-110 -698h-19z" />
    <glyph glyph-name="U" unicode="U" horiz-adv-x="666" 
d="M315 -4c-181 0 -264 101 -237 266l72 453h19l-72 -453c-24 -155 44 -249 219 -249c151 0 224 74 247 223l76 479h19l-76 -479c-25 -160 -104 -240 -267 -240z" />
    <glyph glyph-name="V" unicode="V" horiz-adv-x="616" 
d="M92 715h18l162 -692l361 692h19l-372 -715h-22z" />
    <glyph glyph-name="W" unicode="W" horiz-adv-x="910" 
d="M98 715h18l81 -687l318 687h13l93 -689l306 689h19l-317 -715h-24l-90 675l-310 -675h-24z" />
    <glyph glyph-name="X" unicode="X" horiz-adv-x="622" 
d="M318 374l-179 341h19l174 -328l275 328h23l-289 -343l197 -372h-19l-191 359l-305 -359h-23z" />
    <glyph glyph-name="Y" unicode="Y" horiz-adv-x="554" 
d="M279 325l-194 390h19l187 -373l282 373h22l-297 -391l-51 -324h-19z" />
    <glyph glyph-name="Z" unicode="Z" horiz-adv-x="577" 
d="M-15 7l594 691h-449l3 17h479l-1 -7l-594 -691h479l-3 -17h-509z" />
    <glyph glyph-name="bracketleft" unicode="[" horiz-adv-x="322" 
d="M179 776h185l-3 -16h-166l-141 -892h166l-3 -16h-184z" />
    <glyph glyph-name="backslash" unicode="\" horiz-adv-x="376" 
d="M125 776h19l145 -924h-19z" />
    <glyph glyph-name="bracketright" unicode="]" horiz-adv-x="322" 
d="M-24 -132h166l141 892h-166l3 16h183l-146 -924h-184z" />
    <glyph glyph-name="asciicircum" unicode="^" horiz-adv-x="445" 
d="M285 715h16l123 -277h-20l-113 257l-195 -257h-21z" />
    <glyph glyph-name="underscore" unicode="_" horiz-adv-x="384" 
d="M-62 -125h385l-3 -17h-385z" />
    <glyph glyph-name="grave" unicode="`" horiz-adv-x="400" 
d="M189 743h19l53 -147h-17z" />
    <glyph glyph-name="a" unicode="a" horiz-adv-x="515" 
d="M206 -7c-120 0 -173 63 -173 140c0 126 103 159 218 159h175l7 47c16 109 -25 175 -148 175c-84 0 -152 -35 -181 -131h-18c26 103 111 147 199 147c135 0 185 -79 166 -192l-31 -196c-11 -72 -11 -113 -14 -142h-18c1 23 4 58 7 90c-29 -48 -95 -97 -189 -97zM206 9
c100 0 185 61 198 143l19 124h-172c-101 0 -200 -23 -200 -143c0 -70 46 -124 155 -124z" />
    <glyph glyph-name="b" unicode="b" horiz-adv-x="586" 
d="M295 -7c-134 0 -200 104 -211 184l-28 -177h-18l122 773h18l-62 -394c37 83 116 151 224 151c115 0 209 -93 209 -237c0 -165 -85 -300 -254 -300zM295 9c156 0 236 128 236 284c0 139 -90 221 -191 221c-155 0 -242 -146 -245 -277c-3 -143 85 -228 200 -228z" />
    <glyph glyph-name="c" unicode="c" horiz-adv-x="539" 
d="M268 -7c-140 0 -226 98 -226 238c0 164 108 299 269 299c107 0 188 -67 193 -167h-18c-5 85 -72 151 -176 151c-153 0 -250 -130 -250 -283c0 -136 84 -222 208 -222c104 0 182 56 210 161h18c-30 -118 -117 -177 -228 -177z" />
    <glyph glyph-name="d" unicode="d" horiz-adv-x="588" 
d="M250 -7c-120 0 -213 88 -213 232c0 165 101 305 261 305c136 0 193 -107 204 -184l68 427h18l-95 -600c-15 -92 -16 -144 -19 -173h-18c0 35 9 102 14 143c-37 -83 -112 -150 -220 -150zM250 9c155 0 238 146 241 277c3 143 -79 228 -193 228c-152 0 -243 -132 -243 -289
c0 -138 88 -216 195 -216z" />
    <glyph glyph-name="e" unicode="e" horiz-adv-x="529" 
d="M57 219c0 -135 67 -210 196 -210c96 0 165 44 200 132h18c-35 -99 -113 -148 -218 -148c-144 0 -215 85 -215 226c0 161 96 311 261 311c152 0 213 -111 192 -247l-2 -13h-429c-2 -17 -3 -34 -3 -51zM299 514c-135 0 -216 -103 -237 -228h412c19 128 -34 228 -175 228z
" />
    <glyph glyph-name="f" unicode="f" horiz-adv-x="317" 
d="M64 523h85l16 98c19 123 89 155 158 155c23 0 40 -3 57 -8l-2 -16c-19 7 -32 8 -55 8c-63 0 -121 -24 -140 -140l-16 -97h166l-3 -16h-165l-80 -507h-18l80 507h-86z" />
    <glyph glyph-name="g" unicode="g" horiz-adv-x="594" 
d="M255 33c148 0 244 137 244 283c0 109 -64 198 -192 198c-149 0 -246 -120 -246 -276c0 -115 68 -205 194 -205zM474 15c-23 -137 -113 -200 -242 -200c-109 0 -204 47 -220 155h18c15 -89 90 -139 202 -139c121 0 205 60 224 184l24 153c-34 -71 -108 -151 -226 -151
c-131 0 -211 89 -211 221c0 161 105 292 264 292c113 0 185 -66 204 -166l25 159h18z" />
    <glyph glyph-name="h" unicode="h" horiz-adv-x="559" 
d="M160 773h18l-59 -373c35 69 109 130 208 130c115 0 187 -75 163 -220l-49 -310h-18l49 310c21 138 -41 204 -145 204c-97 0 -202 -69 -221 -197l-50 -317h-18z" />
    <glyph glyph-name="i" unicode="i" horiz-adv-x="182" 
d="M151 639c-11 0 -17 8 -17 17s6 17 17 17s17 -8 17 -17s-6 -17 -17 -17zM122 523h18l-82 -523h-18z" />
    <glyph glyph-name="j" unicode="j" horiz-adv-x="182" 
d="M-63 -168c59 3 79 29 90 92l95 599h18l-95 -599c-13 -80 -44 -105 -111 -108zM151 639c-11 0 -17 8 -17 17s6 17 17 17s17 -8 17 -17s-6 -17 -17 -17z" />
    <glyph glyph-name="k" unicode="k" horiz-adv-x="452" 
d="M106 281l323 242h26l-324 -243l260 -280h-23zM160 773h18l-122 -773h-18z" />
    <glyph glyph-name="l" unicode="l" horiz-adv-x="182" 
d="M162 773h18l-122 -773h-18z" />
    <glyph glyph-name="m" unicode="m" horiz-adv-x="884" 
d="M99 389c11 69 12 105 15 134h18c-1 -27 -5 -72 -13 -121c35 67 95 128 191 128c92 0 149 -51 154 -147c32 82 107 147 200 147c113 0 174 -71 151 -220l-49 -310h-18l49 310c21 141 -32 204 -133 204c-95 0 -184 -74 -203 -197l-50 -317h-18l49 310
c23 139 -31 204 -132 204c-95 0 -185 -74 -204 -197l-50 -317h-18z" />
    <glyph glyph-name="n" unicode="n" horiz-adv-x="559" 
d="M99 389c11 69 12 105 15 134h18c-1 -27 -5 -74 -13 -123c35 69 109 130 208 130c115 0 187 -75 163 -220l-49 -310h-18l49 310c21 138 -41 204 -145 204c-97 0 -202 -69 -221 -197l-50 -317h-18z" />
    <glyph glyph-name="o" unicode="o" horiz-adv-x="567" 
d="M263 -7c-135 0 -226 107 -226 238c0 156 100 298 271 298c140 0 222 -112 222 -237c0 -168 -102 -299 -267 -299zM263 9c154 0 249 124 249 283c0 117 -73 221 -204 221c-163 0 -253 -133 -253 -282c0 -118 80 -222 208 -222z" />
    <glyph glyph-name="p" unicode="p" horiz-adv-x="586" 
d="M340 530c115 0 209 -93 209 -237c0 -165 -85 -300 -254 -300c-136 0 -198 103 -211 182l-57 -357h-18l84 532c15 89 18 144 21 173h18c0 -26 -9 -99 -17 -148c40 88 116 155 225 155zM295 9c156 0 236 128 236 284c0 139 -90 221 -191 221c-155 0 -242 -146 -245 -277
c-3 -143 85 -228 200 -228z" />
    <glyph glyph-name="q" unicode="q" horiz-adv-x="588" 
d="M470 143c-37 -83 -112 -150 -220 -150c-120 0 -213 88 -213 232c0 165 101 305 261 305c136 0 193 -107 204 -184l28 177h18l-111 -705h-18zM250 9c155 0 238 146 241 277c3 143 -79 228 -193 228c-152 0 -243 -132 -243 -289c0 -138 88 -216 195 -216z" />
    <glyph glyph-name="r" unicode="r" horiz-adv-x="316" 
d="M99 389c11 69 12 105 15 134h18c-1 -27 -5 -76 -14 -129c32 71 95 130 204 133l-3 -16c-103 -3 -193 -67 -217 -218l-46 -293h-18z" />
    <glyph glyph-name="s" unicode="s" horiz-adv-x="444" 
d="M200 -9c-111 0 -182 49 -189 160h18c7 -92 59 -144 171 -144c88 0 162 41 162 131c0 67 -41 95 -138 123c-103 31 -154 60 -154 135c0 88 77 133 168 133c90 0 162 -35 170 -131h-18c-8 77 -59 115 -152 115c-84 0 -150 -37 -150 -117c0 -62 40 -90 142 -119
c99 -29 150 -58 150 -139c0 -99 -85 -147 -180 -147z" />
    <glyph glyph-name="t" unicode="t" horiz-adv-x="319" 
d="M175 -7c-72 0 -110 45 -95 134l60 380h-80l3 16h79l19 119h18l-19 -119h155l-3 -16h-154l-60 -380c-13 -84 18 -118 77 -118c27 0 48 5 67 12l-3 -16c-16 -7 -37 -12 -64 -12z" />
    <glyph glyph-name="u" unicode="u" horiz-adv-x="555" 
d="M452 134c-9 -60 -12 -109 -13 -134h-18c1 31 4 78 11 121c-34 -68 -109 -128 -207 -128c-117 0 -184 75 -161 220l49 310h18l-49 -310c-21 -138 38 -204 143 -204c99 0 199 69 220 197l50 317h18z" />
    <glyph glyph-name="v" unicode="v" horiz-adv-x="493" 
d="M66 523h18l127 -505l277 505h19l-285 -523h-26z" />
    <glyph glyph-name="w" unicode="w" horiz-adv-x="749" 
d="M70 523h18l82 -502l236 502h14l86 -502l234 502h19l-243 -523h-24l-83 489l-230 -489h-24z" />
    <glyph glyph-name="x" unicode="x" horiz-adv-x="485" 
d="M230 273l-147 250h21l139 -238l209 238h22l-221 -252l159 -271h-21l-152 259l-228 -259h-22z" />
    <glyph glyph-name="y" unicode="y" horiz-adv-x="480" 
d="M200 36l-134 487h18l129 -466l261 466h20l-396 -705h-20z" />
    <glyph glyph-name="z" unicode="z" horiz-adv-x="457" 
d="M-15 5l449 502h-339l3 16h370l-1 -5l-449 -502h360l-3 -16h-391z" />
    <glyph glyph-name="braceleft" unicode="{" horiz-adv-x="341" 
d="M236 -144c-125 8 -171 76 -128 193l45 126c29 81 6 139 -101 146l3 16c107 0 147 45 143 129l-6 132c-5 136 62 173 190 178l-3 -16c-110 -5 -175 -34 -170 -162l6 -131c3 -95 -43 -129 -112 -140c67 -16 97 -70 66 -157l-45 -126c-39 -109 0 -164 115 -172z" />
    <glyph glyph-name="bar" unicode="|" horiz-adv-x="226" 
d="M114 776h18v-924h-18v924z" />
    <glyph glyph-name="braceright" unicode="}" horiz-adv-x="341" 
d="M120 776c125 -8 171 -76 128 -193l-45 -126c-29 -80 -6 -141 101 -146l-3 -16c-107 0 -147 -45 -143 -129l6 -132c5 -136 -62 -173 -190 -178l3 16c110 5 175 34 170 162l-6 131c-5 94 45 130 112 140c-67 16 -97 70 -66 157l45 126c39 109 0 164 -115 172z" />
    <glyph glyph-name="asciitilde" unicode="~" horiz-adv-x="429" 
d="M48 242c11 49 40 89 89 89c62 0 105 -71 160 -71c41 0 63 36 71 73h18c-11 -49 -40 -89 -89 -89c-63 0 -106 71 -160 71c-40 0 -63 -36 -71 -73h-18z" />
    <glyph glyph-name="uni00A0" unicode="&#xa0;" horiz-adv-x="780" 
 />
    <glyph glyph-name="exclamdown" unicode="&#xa1;" horiz-adv-x="254" 
d="M75 -117h-20l91 563h16zM178 603c11 0 17 -8 17 -17s-6 -17 -17 -17s-17 8 -17 17s6 17 17 17z" />
    <glyph glyph-name="cent" unicode="&#xa2;" horiz-adv-x="539" 
d="M268 -7c-7 0 -14 0 -21 1l-20 -129h-17l20 131c-117 16 -188 107 -188 235c0 164 108 299 269 299h4l16 99h17l-16 -100c97 -8 167 -74 172 -166h-18c-4 80 -65 142 -157 150l-79 -504h18c104 0 182 56 210 161h18c-30 -118 -117 -177 -228 -177zM60 231
c0 -124 69 -204 173 -220l79 503h-2c-153 0 -250 -130 -250 -283z" />
    <glyph glyph-name="sterling" unicode="&#xa3;" horiz-adv-x="581" 
d="M64 358h80c-5 40 -11 78 -11 121c0 141 81 242 233 242c130 0 188 -76 191 -176h-18c-4 95 -58 159 -173 159c-136 0 -214 -89 -214 -225c0 -41 6 -81 11 -121h246l-3 -16h-241c3 -24 5 -48 5 -73c0 -80 -16 -127 -48 -174c88 0 166 -84 263 -84c63 0 113 45 124 126h19
c-11 -94 -76 -143 -143 -143c-101 0 -183 84 -264 84c-49 0 -86 -31 -97 -78h-20c11 45 45 84 94 93c39 49 53 100 53 176c0 25 -2 49 -5 73h-85z" />
    <glyph glyph-name="yen" unicode="&#xa5;" horiz-adv-x="516" 
d="M72 349h190l-163 366h20l160 -359l259 359h21l-265 -366h187l-3 -16h-193l-19 -120h193l-3 -16h-192l-31 -197h-19l31 197h-198l3 16h197l19 120h-197z" />
    <glyph glyph-name="brokenbar" unicode="&#xa6;" horiz-adv-x="226" 
d="M114 297h18v-445h-18v445zM114 776h18v-409h-18v409z" />
    <glyph glyph-name="section" unicode="&#xa7;" horiz-adv-x="530" 
d="M215 -137c-92 0 -161 46 -172 141h19c11 -81 69 -124 153 -124c83 0 154 51 154 137c0 67 -42 105 -143 144c-105 39 -165 81 -165 158c0 89 85 123 169 139c-40 27 -66 64 -66 119c0 81 70 147 166 147c82 0 149 -41 149 -133h-18c0 75 -51 116 -131 116
c-81 0 -147 -51 -147 -129c0 -59 28 -103 137 -146c101 -40 159 -83 159 -160c0 -79 -75 -123 -160 -136c40 -24 69 -62 69 -119c0 -89 -73 -154 -173 -154zM302 149c85 11 158 49 158 123c0 68 -51 103 -143 143l-70 31c-90 -16 -167 -44 -167 -127c0 -68 56 -105 147 -140
z" />
    <glyph glyph-name="dieresis" unicode="&#xa8;" horiz-adv-x="400" 
d="M190 639c-11 0 -17 8 -17 17s6 17 17 17s17 -8 17 -17s-6 -17 -17 -17zM332 639c-11 0 -17 8 -17 17s6 17 17 17s17 -8 17 -17s-6 -17 -17 -17z" />
    <glyph glyph-name="copyright" unicode="&#xa9;" horiz-adv-x="844" 
d="M437 146c-120 0 -198 88 -198 214v6c0 124 89 214 197 214c88 0 156 -44 172 -128h-18c-16 72 -70 112 -154 112c-100 0 -179 -82 -179 -198v-6c0 -120 72 -198 180 -198c84 0 143 46 159 122h17c-16 -87 -87 -138 -176 -138zM433 6c197 0 351 153 351 353
c0 195 -150 350 -349 350c-197 0 -351 -156 -351 -352c0 -199 154 -351 349 -351zM433 -9c-204 0 -366 159 -366 366c0 204 162 367 368 367c208 0 366 -162 366 -365c0 -209 -162 -368 -368 -368z" />
    <glyph glyph-name="ordfeminine" unicode="&#xaa;" horiz-adv-x="417" 
d="M199 316c-88 0 -128 46 -128 106c0 98 84 120 173 120h119l6 35c11 80 -17 128 -108 128c-61 0 -111 -27 -132 -96h-18c18 79 85 112 150 112c103 0 141 -57 126 -145l-23 -147c-8 -53 -9 -85 -10 -108h-18c0 17 1 41 4 65c-23 -37 -72 -70 -141 -70zM201 332
c73 0 135 45 146 107l14 87h-118c-76 0 -154 -13 -154 -103c0 -52 33 -91 112 -91z" />
    <glyph glyph-name="guillemotleft" unicode="&#xab;" horiz-adv-x="387" 
d="M48 261l168 178h22l-169 -179l110 -177h-19zM182 261l168 178h22l-169 -179l110 -177h-19z" />
    <glyph glyph-name="registered" unicode="&#xae;" horiz-adv-x="514" 
d="M221 630h72c49 0 83 -23 83 -67v-1c0 -39 -26 -58 -65 -63l78 -112h-20l-78 111h-53v-111h-17v243zM294 513c43 0 64 16 64 49v1c0 34 -21 51 -64 51h-56v-101h56zM293 297c115 0 205 89 205 206c0 115 -88 206 -205 206c-115 0 -205 -91 -205 -207
c0 -117 90 -205 205 -205zM293 282c-123 0 -222 96 -222 220c0 123 97 222 222 222s222 -97 222 -221c0 -125 -99 -221 -222 -221z" />
    <glyph glyph-name="macron" unicode="&#xaf;" horiz-adv-x="400" 
d="M153 663h219l-3 -17h-219z" />
    <glyph glyph-name="degree" unicode="&#xb0;" horiz-adv-x="384" 
d="M238 468c72 0 125 56 125 126c0 63 -50 114 -118 114c-67 0 -126 -53 -126 -125c0 -63 50 -115 119 -115zM238 452c-77 0 -137 59 -137 131c0 75 65 141 144 141c76 0 136 -58 136 -130c0 -78 -63 -142 -143 -142z" />
    <glyph glyph-name="plusminus" unicode="&#xb1;" horiz-adv-x="500" 
d="M251 334h-204l3 16h204l35 219h18l-35 -219h204l-3 -16h-204l-34 -219h-18zM-3 16h426l-3 -16h-426z" />
    <glyph glyph-name="twosuperior" unicode="&#xb2;" horiz-adv-x="284" 
d="M37 377l151 122c49 40 92 73 92 131c0 41 -29 73 -77 73c-53 0 -91 -32 -106 -92h-17c13 71 63 107 123 107s95 -37 95 -88c0 -64 -46 -100 -99 -143l-125 -101h195l-3 -16h-230z" />
    <glyph glyph-name="threesuperior" unicode="&#xb3;" horiz-adv-x="305" 
d="M184 367c-67 0 -118 34 -122 98h18c4 -51 44 -82 104 -82c55 0 99 27 99 87c0 39 -27 73 -80 73h-24l3 16h29c43 0 80 23 80 74c0 47 -36 70 -80 70c-56 0 -89 -34 -101 -79h-17c12 55 54 94 118 94c50 0 98 -29 98 -85c0 -43 -25 -72 -68 -83c35 -11 60 -39 60 -80
c0 -67 -53 -103 -117 -103z" />
    <glyph glyph-name="acute" unicode="&#xb4;" horiz-adv-x="400" 
d="M340 743h21l-101 -147h-18z" />
    <glyph glyph-name="mu" unicode="&#xb5;" horiz-adv-x="562" 
d="M459 134c-9 -60 -12 -109 -13 -134h-18c1 31 4 78 11 121c-34 -69 -107 -128 -207 -128c-85 0 -143 42 -159 118l-46 -293h-18l111 705h18l-50 -318c-21 -128 48 -196 144 -196c99 0 199 71 220 196l50 318h18z" />
    <glyph glyph-name="paragraph" unicode="&#xb6;" horiz-adv-x="526" 
d="M281 361h-5c-115 0 -191 59 -191 162c0 134 99 192 228 192h189l-129 -815h-18l126 799h-129l-126 -799h-18z" />
    <glyph glyph-name="periodcentered" unicode="&#xb7;" horiz-adv-x="166" 
d="M91 303c-11 0 -17 8 -17 17s6 17 17 17s17 -8 17 -17s-6 -17 -17 -17z" />
    <glyph glyph-name="cedilla" unicode="&#xb8;" horiz-adv-x="400" 
d="M144 -210c-51 0 -83 27 -86 72h19c3 -35 26 -56 67 -56c32 0 70 15 70 62c0 39 -25 52 -56 52c-23 0 -37 -7 -46 -12l-8 8l56 84h18l-48 -71c49 19 101 -6 101 -61c0 -48 -36 -78 -87 -78z" />
    <glyph glyph-name="onesuperior" unicode="&#xb9;" horiz-adv-x="205" 
d="M180 689l-106 -68l3 20l115 74h10l-55 -345h-18z" />
    <glyph glyph-name="ordmasculine" unicode="&#xba;" horiz-adv-x="454" 
d="M250 316c-104 0 -171 79 -171 178c0 120 76 226 206 226c108 0 168 -84 168 -178c0 -127 -78 -226 -203 -226zM250 332c115 0 184 92 184 210c0 86 -54 162 -150 162c-117 0 -186 -98 -186 -210c0 -87 57 -162 152 -162z" />
    <glyph glyph-name="guillemotright" unicode="&#xbb;" horiz-adv-x="387" 
d="M337 260l-168 -177h-22l169 179l-110 177h19zM203 260l-168 -177h-22l169 179l-110 177h19z" />
    <glyph glyph-name="onequarter" unicode="&#xbc;" horiz-adv-x="659" 
d="M183 689l-106 -68l3 20l115 74h10l-55 -345h-18zM621 715h21l-588 -715h-21zM531 80h-187l1 6l217 259h29l-40 -249h49l-3 -16h-48l-13 -80h-18zM533 96l38 235l-197 -235h159z" />
    <glyph glyph-name="onehalf" unicode="&#xbd;" horiz-adv-x="659" 
d="M183 689l-106 -68l3 20l115 74h10l-55 -345h-18zM590 715h21l-588 -715h-21zM351 7l151 122c49 40 92 73 92 131c0 41 -29 73 -77 73c-53 0 -91 -32 -106 -92h-17c13 71 63 107 123 107s95 -37 95 -88c0 -64 -46 -100 -99 -143l-125 -101h195l-3 -16h-230z" />
    <glyph glyph-name="threequarters" unicode="&#xbe;" horiz-adv-x="687" 
d="M187 367c-67 0 -118 34 -122 98h18c4 -51 44 -82 104 -82c55 0 99 27 99 87c0 39 -27 73 -80 73h-24l3 16h29c43 0 80 23 80 74c0 47 -36 70 -80 70c-56 0 -89 -34 -101 -79h-17c12 55 54 94 118 94c50 0 98 -29 98 -85c0 -43 -25 -72 -68 -83c35 -11 60 -39 60 -80
c0 -67 -53 -103 -117 -103zM676 715h21l-588 -715h-21zM559 80h-187l1 6l217 259h29l-40 -249h49l-3 -16h-48l-13 -80h-18zM561 96l38 235l-197 -235h159z" />
    <glyph glyph-name="questiondown" unicode="&#xbf;" horiz-adv-x="462" 
d="M281 374c-13 -80 -51 -116 -124 -173c-69 -53 -129 -92 -129 -185c0 -88 75 -122 149 -122c101 0 172 57 195 172h18c-19 -121 -103 -189 -213 -189c-83 0 -168 39 -168 139c0 104 69 143 138 198c68 57 103 84 116 162l11 70h18zM306 603c11 0 17 -8 17 -17
s-6 -17 -17 -17s-17 8 -17 17s6 17 17 17z" />
    <glyph glyph-name="Agrave" unicode="&#xc0;" horiz-adv-x="630" 
d="M486 235h-355l-124 -235h-19l380 715h26l164 -715h-18zM140 252h342l-103 449zM319 888h21l61 -117h-18z" />
    <glyph glyph-name="Aacute" unicode="&#xc1;" horiz-adv-x="630" 
d="M486 235h-355l-124 -235h-19l380 715h26l164 -715h-18zM140 252h342l-103 449zM455 888h22l-84 -117h-19z" />
    <glyph glyph-name="Acircumflex" unicode="&#xc2;" horiz-adv-x="630" 
d="M486 235h-355l-124 -235h-19l380 715h26l164 -715h-18zM140 252h342l-103 449zM387 888h20l97 -117h-19l-89 102l-115 -102h-21z" />
    <glyph glyph-name="Atilde" unicode="&#xc3;" horiz-adv-x="630" 
d="M486 235h-355l-124 -235h-19l380 715h26l164 -715h-18zM140 252h342l-103 449zM455 774c-52 0 -93 64 -136 64c-25 0 -50 -20 -59 -63h-17c11 55 41 79 77 79c48 0 93 -64 136 -64c24 0 49 20 58 63h17c-11 -53 -41 -79 -76 -79z" />
    <glyph glyph-name="Adieresis" unicode="&#xc4;" horiz-adv-x="630" 
d="M486 235h-355l-124 -235h-19l380 715h26l164 -715h-18zM140 252h342l-103 449zM310 787c-11 0 -17 8 -17 17s6 17 17 17s17 -8 17 -17s-6 -17 -17 -17zM464 787c-11 0 -17 8 -17 17s6 17 17 17s17 -8 17 -17s-6 -17 -17 -17z" />
    <glyph glyph-name="Aring" unicode="&#xc5;" horiz-adv-x="630" 
d="M486 235h-355l-124 -235h-19l380 715h26l164 -715h-18zM140 252h342l-103 449zM387 764c43 0 72 30 72 73c0 39 -26 68 -69 68c-40 0 -72 -30 -72 -73c0 -37 29 -68 69 -68zM387 749c-49 0 -86 39 -86 83c0 48 40 88 89 88c51 0 86 -38 86 -83c0 -51 -38 -88 -89 -88z
" />
    <glyph glyph-name="AE" unicode="&#xc6;" horiz-adv-x="941" 
d="M454 715h484l-3 -17h-378l-51 -320h314l-3 -17h-313l-55 -344h403l-3 -17h-421l37 235h-303l-154 -235h-22zM173 252h294l71 446h-73z" />
    <glyph glyph-name="Ccedilla" unicode="&#xc7;" horiz-adv-x="722" 
d="M296 -210c-51 0 -83 27 -86 72h19c3 -35 26 -56 67 -56c32 0 70 15 70 62c0 39 -25 52 -56 52c-23 0 -37 -7 -46 -12l-8 8l54 82c-157 21 -254 136 -254 317c0 217 143 406 375 406c129 0 243 -76 264 -211h-17c-24 123 -124 194 -247 194c-222 0 -355 -179 -355 -389
c0 -189 110 -304 290 -304c137 0 245 73 292 210h18c-45 -148 -168 -227 -310 -227c-15 0 -28 1 -39 2l-45 -67c49 19 101 -6 101 -61c0 -48 -36 -78 -87 -78z" />
    <glyph glyph-name="Egrave" unicode="&#xc8;" horiz-adv-x="566" 
d="M166 715h397l-3 -17h-378l-51 -320h314l-3 -17h-313l-55 -344h404l-4 -17h-421zM305 888h21l61 -117h-18z" />
    <glyph glyph-name="Eacute" unicode="&#xc9;" horiz-adv-x="566" 
d="M166 715h397l-3 -17h-378l-51 -320h314l-3 -17h-313l-55 -344h404l-4 -17h-421zM428 888h22l-84 -117h-19z" />
    <glyph glyph-name="Ecircumflex" unicode="&#xca;" horiz-adv-x="566" 
d="M166 715h397l-3 -17h-378l-51 -320h314l-3 -17h-313l-55 -344h404l-4 -17h-421zM369 888h20l97 -117h-19l-89 102l-115 -102h-21z" />
    <glyph glyph-name="Edieresis" unicode="&#xcb;" horiz-adv-x="566" 
d="M166 715h397l-3 -17h-378l-51 -320h314l-3 -17h-313l-55 -344h404l-4 -17h-421zM291 787c-11 0 -17 8 -17 17s6 17 17 17s17 -8 17 -17s-6 -17 -17 -17zM445 787c-11 0 -17 8 -17 17s6 17 17 17s17 -8 17 -17s-6 -17 -17 -17z" />
    <glyph glyph-name="Igrave" unicode="&#xcc;" horiz-adv-x="219" 
d="M171 715h19l-113 -715h-19zM120 888h21l61 -117h-18z" />
    <glyph glyph-name="Iacute" unicode="&#xcd;" horiz-adv-x="219" 
d="M171 715h19l-113 -715h-19zM256 888h22l-84 -117h-19z" />
    <glyph glyph-name="Icircumflex" unicode="&#xce;" horiz-adv-x="219" 
d="M171 715h19l-113 -715h-19zM194 888h20l97 -117h-19l-89 102l-115 -102h-21z" />
    <glyph glyph-name="Idieresis" unicode="&#xcf;" horiz-adv-x="219" 
d="M171 715h19l-113 -715h-19zM116 787c-11 0 -17 8 -17 17s6 17 17 17s17 -8 17 -17s-6 -17 -17 -17zM270 787c-11 0 -17 8 -17 17s6 17 17 17s17 -8 17 -17s-6 -17 -17 -17z" />
    <glyph glyph-name="Eth" unicode="&#xd0;" horiz-adv-x="677" 
d="M37 369h74l55 346h171c211 0 312 -132 312 -304c0 -261 -161 -411 -406 -411h-190l55 352h-74zM243 17c237 0 387 146 387 394c0 161 -91 287 -293 287h-155l-52 -329h210l-3 -17h-210l-53 -335h169z" />
    <glyph glyph-name="Ntilde" unicode="&#xd1;" horiz-adv-x="701" 
d="M166 715h29l353 -693l110 693h19l-113 -715h-25l-357 700l-110 -700h-19zM507 774c-52 0 -93 64 -136 64c-25 0 -50 -20 -59 -63h-17c11 55 41 79 77 79c48 0 93 -64 136 -64c24 0 49 20 58 63h17c-11 -53 -41 -79 -76 -79z" />
    <glyph glyph-name="Ograve" unicode="&#xd2;" horiz-adv-x="780" 
d="M752 389c0 -204 -148 -395 -372 -395c-203 0 -324 145 -324 337c0 203 151 390 374 390c192 0 322 -144 322 -332zM733 389c0 169 -112 315 -303 315c-211 0 -352 -173 -355 -373c-3 -174 110 -320 305 -320c211 0 353 179 353 378zM376 888h21l61 -117h-18z" />
    <glyph glyph-name="Oacute" unicode="&#xd3;" horiz-adv-x="780" 
d="M752 389c0 -204 -148 -395 -372 -395c-203 0 -324 145 -324 337c0 203 151 390 374 390c192 0 322 -144 322 -332zM733 389c0 169 -112 315 -303 315c-211 0 -352 -173 -355 -373c-3 -174 110 -320 305 -320c211 0 353 179 353 378zM512 888h22l-84 -117h-19z" />
    <glyph glyph-name="Ocircumflex" unicode="&#xd4;" horiz-adv-x="780" 
d="M752 389c0 -204 -148 -395 -372 -395c-203 0 -324 145 -324 337c0 203 151 390 374 390c192 0 322 -144 322 -332zM733 389c0 169 -112 315 -303 315c-211 0 -352 -173 -355 -373c-3 -174 110 -320 305 -320c211 0 353 179 353 378zM446 888h20l97 -117h-19l-89 102
l-115 -102h-21z" />
    <glyph glyph-name="Otilde" unicode="&#xd5;" horiz-adv-x="780" 
d="M752 389c0 -204 -148 -395 -372 -395c-203 0 -324 145 -324 337c0 203 151 390 374 390c192 0 322 -144 322 -332zM733 389c0 169 -112 315 -303 315c-211 0 -352 -173 -355 -373c-3 -174 110 -320 305 -320c211 0 353 179 353 378zM512 774c-52 0 -93 64 -136 64
c-25 0 -50 -20 -59 -63h-17c11 55 41 79 77 79c48 0 93 -64 136 -64c24 0 49 20 58 63h17c-11 -53 -41 -79 -76 -79z" />
    <glyph glyph-name="Odieresis" unicode="&#xd6;" horiz-adv-x="780" 
d="M752 389c0 -204 -148 -395 -372 -395c-203 0 -324 145 -324 337c0 203 151 390 374 390c192 0 322 -144 322 -332zM733 389c0 169 -112 315 -303 315c-211 0 -352 -173 -355 -373c-3 -174 110 -320 305 -320c211 0 353 179 353 378zM366 787c-11 0 -17 8 -17 17
s6 17 17 17s17 -8 17 -17s-6 -17 -17 -17zM520 787c-11 0 -17 8 -17 17s6 17 17 17s17 -8 17 -17s-6 -17 -17 -17z" />
    <glyph glyph-name="multiply" unicode="&#xd7;" horiz-adv-x="500" 
d="M49 169l189 168l-146 168l13 12l146 -168l190 168l11 -13l-189 -168l147 -168l-13 -12l-147 168l-190 -168z" />
    <glyph glyph-name="Oslash" unicode="&#xd8;" horiz-adv-x="780" 
d="M37 -3l97 102c-51 60 -78 140 -78 232c0 203 151 390 374 390c89 0 164 -31 220 -83l93 97l11 -11l-93 -97c59 -60 91 -142 91 -238c0 -204 -148 -395 -372 -395c-100 0 -179 34 -235 93l-97 -101zM733 389c0 88 -28 169 -83 226l-493 -515c53 -56 127 -89 223 -89
c211 0 353 179 353 378zM75 331c-3 -85 24 -162 72 -219l492 514c-51 48 -121 78 -209 78c-211 0 -352 -173 -355 -373z" />
    <glyph glyph-name="Ugrave" unicode="&#xd9;" horiz-adv-x="666" 
d="M315 -4c-181 0 -264 101 -237 266l72 453h19l-72 -453c-24 -155 44 -249 219 -249c151 0 224 74 247 223l76 479h19l-76 -479c-25 -160 -104 -240 -267 -240zM340 888h21l61 -117h-18z" />
    <glyph glyph-name="Uacute" unicode="&#xda;" horiz-adv-x="666" 
d="M315 -4c-181 0 -264 101 -237 266l72 453h19l-72 -453c-24 -155 44 -249 219 -249c151 0 224 74 247 223l76 479h19l-76 -479c-25 -160 -104 -240 -267 -240zM470 888h22l-84 -117h-19z" />
    <glyph glyph-name="Ucircumflex" unicode="&#xdb;" horiz-adv-x="666" 
d="M315 -4c-181 0 -264 101 -237 266l72 453h19l-72 -453c-24 -155 44 -249 219 -249c151 0 224 74 247 223l76 479h19l-76 -479c-25 -160 -104 -240 -267 -240zM414 888h20l97 -117h-19l-89 102l-115 -102h-21z" />
    <glyph glyph-name="Udieresis" unicode="&#xdc;" horiz-adv-x="666" 
d="M315 -4c-181 0 -264 101 -237 266l72 453h19l-72 -453c-24 -155 44 -249 219 -249c151 0 224 74 247 223l76 479h19l-76 -479c-25 -160 -104 -240 -267 -240zM334 787c-11 0 -17 8 -17 17s6 17 17 17s17 -8 17 -17s-6 -17 -17 -17zM488 787c-11 0 -17 8 -17 17
s6 17 17 17s17 -8 17 -17s-6 -17 -17 -17z" />
    <glyph glyph-name="Yacute" unicode="&#xdd;" horiz-adv-x="554" 
d="M279 325l-194 390h19l187 -373l282 373h22l-297 -391l-51 -324h-19zM410 888h22l-84 -117h-19z" />
    <glyph glyph-name="Thorn" unicode="&#xde;" horiz-adv-x="552" 
d="M159 559h143c132 0 221 -55 221 -172c0 -152 -99 -206 -250 -206h-174l-28 -181h-18l113 715h18zM156 542l-54 -344h171c140 0 231 45 231 189c0 111 -80 155 -203 155h-145z" />
    <glyph glyph-name="germandbls" unicode="&#xdf;" horiz-adv-x="540" 
d="M271 -4c-44 0 -80 7 -108 22l3 17c29 -15 60 -23 105 -23c122 0 205 80 205 217c0 117 -88 209 -205 214l3 16c111 3 199 66 199 170c0 86 -65 131 -139 131c-104 1 -170 -67 -186 -174l-92 -586h-18l92 587c19 119 96 189 204 189c85 0 157 -54 157 -147
c0 -100 -79 -165 -170 -178c87 -21 173 -99 173 -222c0 -146 -90 -233 -223 -233z" />
    <glyph glyph-name="agrave" unicode="&#xe0;" horiz-adv-x="515" 
d="M206 -7c-120 0 -173 63 -173 140c0 126 103 159 218 159h175l7 47c16 109 -25 175 -148 175c-84 0 -152 -35 -181 -131h-18c26 103 111 147 199 147c135 0 185 -79 166 -192l-31 -196c-11 -72 -11 -113 -14 -142h-18c1 23 4 58 7 90c-29 -48 -95 -97 -189 -97zM206 9
c100 0 185 61 198 143l19 124h-172c-101 0 -200 -23 -200 -143c0 -70 46 -124 155 -124zM235 743h19l53 -147h-17z" />
    <glyph glyph-name="aacute" unicode="&#xe1;" horiz-adv-x="515" 
d="M206 -7c-120 0 -173 63 -173 140c0 126 103 159 218 159h175l7 47c16 109 -25 175 -148 175c-84 0 -152 -35 -181 -131h-18c26 103 111 147 199 147c135 0 185 -79 166 -192l-31 -196c-11 -72 -11 -113 -14 -142h-18c1 23 4 58 7 90c-29 -48 -95 -97 -189 -97zM206 9
c100 0 185 61 198 143l19 124h-172c-101 0 -200 -23 -200 -143c0 -70 46 -124 155 -124zM381 743h21l-101 -147h-18z" />
    <glyph glyph-name="acircumflex" unicode="&#xe2;" horiz-adv-x="515" 
d="M206 -7c-120 0 -173 63 -173 140c0 126 103 159 218 159h175l7 47c16 109 -25 175 -148 175c-84 0 -152 -35 -181 -131h-18c26 103 111 147 199 147c135 0 185 -79 166 -192l-31 -196c-11 -72 -11 -113 -14 -142h-18c1 23 4 58 7 90c-29 -48 -95 -97 -189 -97zM206 9
c100 0 185 61 198 143l19 124h-172c-101 0 -200 -23 -200 -143c0 -70 46 -124 155 -124zM304 720h19l96 -124h-19l-88 109l-114 -109h-21z" />
    <glyph glyph-name="atilde" unicode="&#xe3;" horiz-adv-x="515" 
d="M206 -7c-120 0 -173 63 -173 140c0 126 103 159 218 159h175l7 47c16 109 -25 175 -148 175c-84 0 -152 -35 -181 -131h-18c26 103 111 147 199 147c135 0 185 -79 166 -192l-31 -196c-11 -72 -11 -113 -14 -142h-18c1 23 4 58 7 90c-29 -48 -95 -97 -189 -97zM206 9
c100 0 185 61 198 143l19 124h-172c-101 0 -200 -23 -200 -143c0 -70 46 -124 155 -124zM371 613c-52 0 -93 64 -136 64c-25 0 -50 -20 -59 -63h-17c11 55 41 79 77 79c48 0 93 -64 136 -64c24 0 49 20 58 63h17c-11 -53 -41 -79 -76 -79z" />
    <glyph glyph-name="adieresis" unicode="&#xe4;" horiz-adv-x="515" 
d="M206 -7c-120 0 -173 63 -173 140c0 126 103 159 218 159h175l7 47c16 109 -25 175 -148 175c-84 0 -152 -35 -181 -131h-18c26 103 111 147 199 147c135 0 185 -79 166 -192l-31 -196c-11 -72 -11 -113 -14 -142h-18c1 23 4 58 7 90c-29 -48 -95 -97 -189 -97zM206 9
c100 0 185 61 198 143l19 124h-172c-101 0 -200 -23 -200 -143c0 -70 46 -124 155 -124zM233 639c-11 0 -17 8 -17 17s6 17 17 17s17 -8 17 -17s-6 -17 -17 -17zM375 639c-11 0 -17 8 -17 17s6 17 17 17s17 -8 17 -17s-6 -17 -17 -17z" />
    <glyph glyph-name="aring" unicode="&#xe5;" horiz-adv-x="515" 
d="M206 -7c-120 0 -173 63 -173 140c0 126 103 159 218 159h175l7 47c16 109 -25 175 -148 175c-84 0 -152 -35 -181 -131h-18c26 103 111 147 199 147c135 0 185 -79 166 -192l-31 -196c-11 -72 -11 -113 -14 -142h-18c1 23 4 58 7 90c-29 -48 -95 -97 -189 -97zM206 9
c100 0 185 61 198 143l19 124h-172c-101 0 -200 -23 -200 -143c0 -70 46 -124 155 -124zM311 619c43 0 72 30 72 73c0 39 -26 68 -69 68c-40 0 -72 -30 -72 -73c0 -37 29 -68 69 -68zM311 604c-49 0 -86 39 -86 83c0 48 40 88 89 88c51 0 86 -38 86 -83
c0 -51 -38 -88 -89 -88z" />
    <glyph glyph-name="ae" unicode="&#xe6;" horiz-adv-x="904" 
d="M439 219c0 -135 62 -210 191 -210c97 0 163 44 198 132h18c-35 -99 -111 -148 -216 -148c-128 0 -193 68 -206 181c-21 -131 -125 -181 -218 -181c-120 0 -173 61 -173 139c0 122 103 154 218 154h175l8 53c16 109 -26 175 -149 175c-84 0 -152 -35 -181 -131h-18
c26 103 111 147 199 147c119 0 169 -61 168 -153c40 89 115 153 223 153c152 0 211 -111 190 -247l-2 -13h-422c-2 -17 -3 -34 -3 -51zM206 9c101 0 185 59 204 176l13 85h-172c-101 0 -200 -21 -200 -138c0 -69 46 -123 155 -123zM676 514c-133 0 -213 -103 -232 -228h405
c19 128 -33 228 -173 228z" />
    <glyph glyph-name="ccedilla" unicode="&#xe7;" horiz-adv-x="539" 
d="M209 -210c-51 0 -83 27 -86 72h19c3 -35 26 -56 67 -56c32 0 70 15 70 62c0 39 -25 52 -56 52c-23 0 -37 -7 -46 -12l-8 8l54 81c-115 19 -181 109 -181 234c0 164 108 299 269 299c107 0 188 -67 193 -167h-18c-5 85 -72 151 -176 151c-153 0 -250 -130 -250 -283
c0 -136 84 -222 208 -222c104 0 182 56 210 161h18c-30 -118 -117 -177 -228 -177c-11 0 -22 1 -29 2l-44 -66c49 19 101 -6 101 -61c0 -48 -36 -78 -87 -78z" />
    <glyph glyph-name="egrave" unicode="&#xe8;" horiz-adv-x="529" 
d="M57 219c0 -135 67 -210 196 -210c96 0 165 44 200 132h18c-35 -99 -113 -148 -218 -148c-144 0 -215 85 -215 226c0 161 96 311 261 311c152 0 213 -111 192 -247l-2 -13h-429c-2 -17 -3 -34 -3 -51zM299 514c-135 0 -216 -103 -237 -228h412c19 128 -34 228 -175 228z
M243 743h19l53 -147h-17z" />
    <glyph glyph-name="eacute" unicode="&#xe9;" horiz-adv-x="529" 
d="M57 219c0 -135 67 -210 196 -210c96 0 165 44 200 132h18c-35 -99 -113 -148 -218 -148c-144 0 -215 85 -215 226c0 161 96 311 261 311c152 0 213 -111 192 -247l-2 -13h-429c-2 -17 -3 -34 -3 -51zM299 514c-135 0 -216 -103 -237 -228h412c19 128 -34 228 -175 228z
M389 743h21l-101 -147h-18z" />
    <glyph glyph-name="ecircumflex" unicode="&#xea;" horiz-adv-x="529" 
d="M57 219c0 -135 67 -210 196 -210c96 0 165 44 200 132h18c-35 -99 -113 -148 -218 -148c-144 0 -215 85 -215 226c0 161 96 311 261 311c152 0 213 -111 192 -247l-2 -13h-429c-2 -17 -3 -34 -3 -51zM299 514c-135 0 -216 -103 -237 -228h412c19 128 -34 228 -175 228z
M312 720h19l96 -124h-19l-88 109l-114 -109h-21z" />
    <glyph glyph-name="edieresis" unicode="&#xeb;" horiz-adv-x="529" 
d="M57 219c0 -135 67 -210 196 -210c96 0 165 44 200 132h18c-35 -99 -113 -148 -218 -148c-144 0 -215 85 -215 226c0 161 96 311 261 311c152 0 213 -111 192 -247l-2 -13h-429c-2 -17 -3 -34 -3 -51zM299 514c-135 0 -216 -103 -237 -228h412c19 128 -34 228 -175 228z
M241 639c-11 0 -17 8 -17 17s6 17 17 17s17 -8 17 -17s-6 -17 -17 -17zM383 639c-11 0 -17 8 -17 17s6 17 17 17s17 -8 17 -17s-6 -17 -17 -17z" />
    <glyph glyph-name="igrave" unicode="&#xec;" horiz-adv-x="182" 
d="M122 523h18l-82 -523h-18zM77 743h19l53 -147h-17z" />
    <glyph glyph-name="iacute" unicode="&#xed;" horiz-adv-x="182" 
d="M122 523h18l-82 -523h-18zM229 743h21l-101 -147h-18z" />
    <glyph glyph-name="icircumflex" unicode="&#xee;" horiz-adv-x="182" 
d="M122 523h18l-82 -523h-18zM146 720h19l96 -124h-19l-88 109l-114 -109h-21z" />
    <glyph glyph-name="idieresis" unicode="&#xef;" horiz-adv-x="182" 
d="M96 639c-11 0 -17 8 -17 17s6 17 17 17s17 -8 17 -17s-6 -17 -17 -17zM208 639c-11 0 -17 8 -17 17s6 17 17 17s17 -8 17 -17s-6 -17 -17 -17zM122 523h18l-82 -523h-18z" />
    <glyph glyph-name="eth" unicode="&#xf0;" horiz-adv-x="570" 
d="M154 610l160 83c-35 29 -73 55 -114 80h27c35 -21 68 -44 103 -71l129 67l6 -13l-123 -64c103 -87 188 -214 188 -395c0 -172 -103 -304 -269 -304c-135 0 -224 107 -224 238c0 156 102 298 270 298c110 0 166 -61 196 -121c-31 117 -92 203 -177 275l-166 -86zM55 231
c0 -118 78 -222 206 -222c155 0 251 124 251 283c0 135 -85 221 -205 221c-159 0 -252 -133 -252 -282z" />
    <glyph glyph-name="ntilde" unicode="&#xf1;" horiz-adv-x="559" 
d="M99 389c11 69 12 105 15 134h18c-1 -27 -5 -74 -13 -123c35 69 109 130 208 130c115 0 187 -75 163 -220l-49 -310h-18l49 310c21 138 -41 204 -145 204c-97 0 -202 -69 -221 -197l-50 -317h-18zM389 613c-52 0 -93 64 -136 64c-25 0 -50 -20 -59 -63h-17
c11 55 41 79 77 79c48 0 93 -64 136 -64c24 0 49 20 58 63h17c-11 -53 -41 -79 -76 -79z" />
    <glyph glyph-name="ograve" unicode="&#xf2;" horiz-adv-x="567" 
d="M263 -7c-135 0 -226 107 -226 238c0 156 100 298 271 298c140 0 222 -112 222 -237c0 -168 -102 -299 -267 -299zM263 9c154 0 249 124 249 283c0 117 -73 221 -204 221c-163 0 -253 -133 -253 -282c0 -118 80 -222 208 -222zM259 743h19l53 -147h-17z" />
    <glyph glyph-name="oacute" unicode="&#xf3;" horiz-adv-x="567" 
d="M263 -7c-135 0 -226 107 -226 238c0 156 100 298 271 298c140 0 222 -112 222 -237c0 -168 -102 -299 -267 -299zM263 9c154 0 249 124 249 283c0 117 -73 221 -204 221c-163 0 -253 -133 -253 -282c0 -118 80 -222 208 -222zM407 743h21l-101 -147h-18z" />
    <glyph glyph-name="ocircumflex" unicode="&#xf4;" horiz-adv-x="567" 
d="M263 -7c-135 0 -226 107 -226 238c0 156 100 298 271 298c140 0 222 -112 222 -237c0 -168 -102 -299 -267 -299zM263 9c154 0 249 124 249 283c0 117 -73 221 -204 221c-163 0 -253 -133 -253 -282c0 -118 80 -222 208 -222zM326 720h19l96 -124h-19l-88 109l-114 -109
h-21z" />
    <glyph glyph-name="otilde" unicode="&#xf5;" horiz-adv-x="567" 
d="M263 -7c-135 0 -226 107 -226 238c0 156 100 298 271 298c140 0 222 -112 222 -237c0 -168 -102 -299 -267 -299zM263 9c154 0 249 124 249 283c0 117 -73 221 -204 221c-163 0 -253 -133 -253 -282c0 -118 80 -222 208 -222zM392 613c-52 0 -93 64 -136 64
c-25 0 -50 -20 -59 -63h-17c11 55 41 79 77 79c48 0 93 -64 136 -64c24 0 49 20 58 63h17c-11 -53 -41 -79 -76 -79z" />
    <glyph glyph-name="odieresis" unicode="&#xf6;" horiz-adv-x="567" 
d="M263 -7c-135 0 -226 107 -226 238c0 156 100 298 271 298c140 0 222 -112 222 -237c0 -168 -102 -299 -267 -299zM263 9c154 0 249 124 249 283c0 117 -73 221 -204 221c-163 0 -253 -133 -253 -282c0 -118 80 -222 208 -222zM254 639c-11 0 -17 8 -17 17s6 17 17 17
s17 -8 17 -17s-6 -17 -17 -17zM396 639c-11 0 -17 8 -17 17s6 17 17 17s17 -8 17 -17s-6 -17 -17 -17z" />
    <glyph glyph-name="divide" unicode="&#xf7;" horiz-adv-x="500" 
d="M50 350h426l-3 -16h-426zM239 161c-11 0 -17 8 -17 17s6 17 17 17s17 -8 17 -17s-6 -17 -17 -17zM285 489c-11 0 -17 8 -17 17s6 17 17 17s17 -8 17 -17s-6 -17 -17 -17z" />
    <glyph glyph-name="oslash" unicode="&#xf8;" horiz-adv-x="567" 
d="M20 -1l71 73c-36 43 -54 96 -54 159c0 156 100 298 271 298c68 0 120 -26 159 -67l68 71l11 -10l-70 -72c35 -43 54 -99 54 -159c0 -168 -102 -299 -267 -299c-68 0 -122 25 -162 68l-69 -72zM263 9c154 0 249 124 249 283c0 56 -16 107 -47 147l-352 -366
c36 -40 86 -64 150 -64zM55 231c0 -56 17 -107 48 -146l352 365c-35 39 -83 63 -147 63c-163 0 -253 -133 -253 -282z" />
    <glyph glyph-name="ugrave" unicode="&#xf9;" horiz-adv-x="555" 
d="M452 134c-9 -60 -12 -109 -13 -134h-18c1 31 4 78 11 121c-34 -68 -109 -128 -207 -128c-117 0 -184 75 -161 220l49 310h18l-49 -310c-21 -138 38 -204 143 -204c99 0 199 69 220 197l50 317h18zM256 743h19l53 -147h-17z" />
    <glyph glyph-name="uacute" unicode="&#xfa;" horiz-adv-x="555" 
d="M452 134c-9 -60 -12 -109 -13 -134h-18c1 31 4 78 11 121c-34 -68 -109 -128 -207 -128c-117 0 -184 75 -161 220l49 310h18l-49 -310c-21 -138 38 -204 143 -204c99 0 199 69 220 197l50 317h18zM398 743h21l-101 -147h-18z" />
    <glyph glyph-name="ucircumflex" unicode="&#xfb;" horiz-adv-x="555" 
d="M452 134c-9 -60 -12 -109 -13 -134h-18c1 31 4 78 11 121c-34 -68 -109 -128 -207 -128c-117 0 -184 75 -161 220l49 310h18l-49 -310c-21 -138 38 -204 143 -204c99 0 199 69 220 197l50 317h18zM320 720h19l96 -124h-19l-88 109l-114 -109h-21z" />
    <glyph glyph-name="udieresis" unicode="&#xfc;" horiz-adv-x="555" 
d="M452 134c-9 -60 -12 -109 -13 -134h-18c1 31 4 78 11 121c-34 -68 -109 -128 -207 -128c-117 0 -184 75 -161 220l49 310h18l-49 -310c-21 -138 38 -204 143 -204c99 0 199 69 220 197l50 317h18zM255 639c-11 0 -17 8 -17 17s6 17 17 17s17 -8 17 -17s-6 -17 -17 -17z
M397 639c-11 0 -17 8 -17 17s6 17 17 17s17 -8 17 -17s-6 -17 -17 -17z" />
    <glyph glyph-name="yacute" unicode="&#xfd;" horiz-adv-x="480" 
d="M200 36l-134 487h18l129 -466l261 466h20l-396 -705h-20zM373 743h21l-101 -147h-18z" />
    <glyph glyph-name="thorn" unicode="&#xfe;" horiz-adv-x="586" 
d="M160 773h18l-62 -395c37 83 116 152 224 152c115 0 209 -93 209 -237c0 -165 -85 -300 -254 -300c-134 0 -200 104 -211 184l-57 -359h-18zM295 9c156 0 236 128 236 284c0 139 -90 221 -191 221c-155 0 -242 -146 -245 -277c-3 -143 85 -228 200 -228z" />
    <glyph glyph-name="ydieresis" unicode="&#xff;" horiz-adv-x="480" 
d="M200 36l-134 487h18l129 -466l261 466h20l-396 -705h-20zM229 639c-11 0 -17 8 -17 17s6 17 17 17s17 -8 17 -17s-6 -17 -17 -17zM371 639c-11 0 -17 8 -17 17s6 17 17 17s17 -8 17 -17s-6 -17 -17 -17z" />
    <glyph glyph-name="Amacron" unicode="&#x100;" horiz-adv-x="630" 
d="M486 235h-355l-124 -235h-19l380 715h26l164 -715h-18zM140 252h342l-103 449zM280 814h226l-3 -17h-226z" />
    <glyph glyph-name="amacron" unicode="&#x101;" horiz-adv-x="515" 
d="M206 -7c-120 0 -173 63 -173 140c0 126 103 159 218 159h175l7 47c16 109 -25 175 -148 175c-84 0 -152 -35 -181 -131h-18c26 103 111 147 199 147c135 0 185 -79 166 -192l-31 -196c-11 -72 -11 -113 -14 -142h-18c1 23 4 58 7 90c-29 -48 -95 -97 -189 -97zM206 9
c100 0 185 61 198 143l19 124h-172c-101 0 -200 -23 -200 -143c0 -70 46 -124 155 -124zM202 663h219l-3 -17h-219z" />
    <glyph glyph-name="Abreve" unicode="&#x102;" horiz-adv-x="630" 
d="M486 235h-355l-124 -235h-19l380 715h26l164 -715h-18zM140 252h342l-103 449zM386 775c-68 0 -109 47 -110 112h18c1 -56 36 -96 92 -96c55 0 101 39 112 96h18c-11 -67 -68 -112 -130 -112z" />
    <glyph glyph-name="abreve" unicode="&#x103;" horiz-adv-x="515" 
d="M206 -7c-120 0 -173 63 -173 140c0 126 103 159 218 159h175l7 47c16 109 -25 175 -148 175c-84 0 -152 -35 -181 -131h-18c26 103 111 147 199 147c135 0 185 -79 166 -192l-31 -196c-11 -72 -11 -113 -14 -142h-18c1 23 4 58 7 90c-29 -48 -95 -97 -189 -97zM206 9
c100 0 185 61 198 143l19 124h-172c-101 0 -200 -23 -200 -143c0 -70 46 -124 155 -124zM302 612c-65 0 -101 44 -102 108h18c0 -56 31 -92 84 -92c52 0 93 36 104 92h18c-12 -68 -62 -108 -122 -108z" />
    <glyph glyph-name="Aogonek" unicode="&#x104;" horiz-adv-x="630" 
d="M486 235h-355l-124 -235h-19l380 715h26l164 -715c-37 -21 -104 -62 -104 -115c0 -28 16 -51 59 -51c16 0 28 2 45 7l-3 -16c-12 -4 -27 -7 -43 -7c-55 0 -76 30 -76 67c0 57 67 98 103 119zM140 252h342l-103 449z" />
    <glyph glyph-name="aogonek" unicode="&#x105;" horiz-adv-x="515" 
d="M361 -182c-55 0 -76 30 -76 67c0 59 70 98 103 120c1 23 4 54 7 85c-29 -48 -95 -97 -189 -97c-120 0 -173 63 -173 140c0 126 103 159 218 159h175l7 47c16 109 -25 175 -148 175c-84 0 -152 -35 -181 -131h-18c26 103 111 147 199 147c135 0 185 -79 166 -192l-31 -196
c-11 -72 -11 -113 -14 -142c-37 -21 -103 -62 -103 -115c0 -28 16 -51 59 -51c16 0 28 2 45 7l-3 -16c-12 -4 -27 -7 -43 -7zM206 9c100 0 185 61 198 143l19 124h-172c-101 0 -200 -23 -200 -143c0 -70 46 -124 155 -124z" />
    <glyph glyph-name="Cacute" unicode="&#x106;" horiz-adv-x="722" 
d="M366 -6c-188 0 -310 121 -310 321c0 217 143 406 375 406c129 0 243 -76 264 -211h-17c-24 123 -124 194 -247 194c-222 0 -355 -179 -355 -389c0 -189 110 -304 290 -304c137 0 245 73 292 210h18c-45 -148 -168 -227 -310 -227zM502 888h22l-84 -117h-19z" />
    <glyph glyph-name="cacute" unicode="&#x107;" horiz-adv-x="539" 
d="M268 -7c-140 0 -226 98 -226 238c0 164 108 299 269 299c107 0 188 -67 193 -167h-18c-5 85 -72 151 -176 151c-153 0 -250 -130 -250 -283c0 -136 84 -222 208 -222c104 0 182 56 210 161h18c-30 -118 -117 -177 -228 -177zM398 743h21l-101 -147h-18z" />
    <glyph glyph-name="Ccircumflex" unicode="&#x108;" horiz-adv-x="722" 
d="M366 -6c-188 0 -310 121 -310 321c0 217 143 406 375 406c129 0 243 -76 264 -211h-17c-24 123 -124 194 -247 194c-222 0 -355 -179 -355 -389c0 -189 110 -304 290 -304c137 0 245 73 292 210h18c-45 -148 -168 -227 -310 -227zM440 888h20l97 -117h-19l-89 102
l-115 -102h-21z" />
    <glyph glyph-name="ccircumflex" unicode="&#x109;" horiz-adv-x="539" 
d="M268 -7c-140 0 -226 98 -226 238c0 164 108 299 269 299c107 0 188 -67 193 -167h-18c-5 85 -72 151 -176 151c-153 0 -250 -130 -250 -283c0 -136 84 -222 208 -222c104 0 182 56 210 161h18c-30 -118 -117 -177 -228 -177zM315 720h19l96 -124h-19l-88 109l-114 -109
h-21z" />
    <glyph glyph-name="Cdotaccent" unicode="&#x10a;" horiz-adv-x="722" 
d="M366 -6c-188 0 -310 121 -310 321c0 217 143 406 375 406c129 0 243 -76 264 -211h-17c-24 123 -124 194 -247 194c-222 0 -355 -179 -355 -389c0 -189 110 -304 290 -304c137 0 245 73 292 210h18c-45 -148 -168 -227 -310 -227zM427 787c-11 0 -17 8 -17 17s6 17 17 17
s17 -8 17 -17s-6 -17 -17 -17z" />
    <glyph glyph-name="cdotaccent" unicode="&#x10b;" horiz-adv-x="539" 
d="M268 -7c-140 0 -226 98 -226 238c0 164 108 299 269 299c107 0 188 -67 193 -167h-18c-5 85 -72 151 -176 151c-153 0 -250 -130 -250 -283c0 -136 84 -222 208 -222c104 0 182 56 210 161h18c-30 -118 -117 -177 -228 -177zM317 639c-11 0 -17 8 -17 17s6 17 17 17
s17 -8 17 -17s-6 -17 -17 -17z" />
    <glyph glyph-name="Ccaron" unicode="&#x10c;" horiz-adv-x="722" 
d="M366 -6c-188 0 -310 121 -310 321c0 217 143 406 375 406c129 0 243 -76 264 -211h-17c-24 123 -124 194 -247 194c-222 0 -355 -179 -355 -389c0 -189 110 -304 290 -304c137 0 245 73 292 210h18c-45 -148 -168 -227 -310 -227zM447 771h-20l-97 117h19l89 -102
l115 102h21z" />
    <glyph glyph-name="ccaron" unicode="&#x10d;" horiz-adv-x="539" 
d="M268 -7c-140 0 -226 98 -226 238c0 164 108 299 269 299c107 0 188 -67 193 -167h-18c-5 85 -72 151 -176 151c-153 0 -250 -130 -250 -283c0 -136 84 -222 208 -222c104 0 182 56 210 161h18c-30 -118 -117 -177 -228 -177zM325 613h-19l-96 124h19l88 -109l114 109h21z
" />
    <glyph glyph-name="Dcaron" unicode="&#x10e;" horiz-adv-x="677" 
d="M166 715h171c211 0 312 -132 312 -304c0 -261 -161 -411 -406 -411h-190zM243 17c237 0 387 146 387 394c0 158 -92 287 -293 287h-155l-108 -681h169zM388 771h-20l-97 117h19l89 -102l115 102h21z" />
    <glyph glyph-name="dcaron" unicode="&#x10f;" horiz-adv-x="588" 
d="M250 -7c-120 0 -213 88 -213 232c0 165 101 305 261 305c136 0 193 -107 204 -184l68 427h18l-95 -600c-15 -92 -16 -144 -19 -173h-18c0 35 9 102 14 143c-37 -83 -112 -150 -220 -150zM250 9c155 0 238 146 241 277c3 143 -79 228 -193 228c-152 0 -243 -132 -243 -289
c0 -138 88 -216 195 -216zM665 773h19l-41 -147h-17z" />
    <glyph glyph-name="Dcroat" unicode="&#x110;" horiz-adv-x="677" 
d="M37 369h74l55 346h171c211 0 312 -132 312 -304c0 -261 -161 -411 -406 -411h-190l55 352h-74zM243 17c237 0 387 146 387 394c0 161 -91 287 -293 287h-155l-52 -329h210l-3 -17h-210l-53 -335h169z" />
    <glyph glyph-name="dcroat" unicode="&#x111;" horiz-adv-x="588" 
d="M354 649h196l20 124h18l-20 -124h82l-3 -16h-81l-73 -460c-15 -92 -16 -144 -19 -173h-18c0 35 9 102 14 143c-37 -83 -112 -150 -220 -150c-120 0 -213 88 -213 232c0 165 101 305 261 305c136 0 193 -107 204 -184l45 287h-196zM298 514c-152 0 -243 -132 -243 -289
c0 -138 88 -216 195 -216c155 0 238 146 241 277c3 143 -79 228 -193 228z" />
    <glyph glyph-name="Emacron" unicode="&#x112;" horiz-adv-x="566" 
d="M166 715h397l-3 -17h-378l-51 -320h314l-3 -17h-313l-55 -344h404l-4 -17h-421zM259 814h226l-3 -17h-226z" />
    <glyph glyph-name="emacron" unicode="&#x113;" horiz-adv-x="529" 
d="M57 219c0 -135 67 -210 196 -210c96 0 165 44 200 132h18c-35 -99 -113 -148 -218 -148c-144 0 -215 85 -215 226c0 161 96 311 261 311c152 0 213 -111 192 -247l-2 -13h-429c-2 -17 -3 -34 -3 -51zM299 514c-135 0 -216 -103 -237 -228h412c19 128 -34 228 -175 228z
M207 663h219l-3 -17h-219z" />
    <glyph glyph-name="Ebreve" unicode="&#x114;" horiz-adv-x="566" 
d="M166 715h397l-3 -17h-378l-51 -320h314l-3 -17h-313l-55 -344h404l-4 -17h-421zM369 775c-68 0 -109 47 -110 112h18c1 -56 36 -96 92 -96c55 0 101 39 112 96h18c-11 -67 -68 -112 -130 -112z" />
    <glyph glyph-name="ebreve" unicode="&#x115;" horiz-adv-x="529" 
d="M57 219c0 -135 67 -210 196 -210c96 0 165 44 200 132h18c-35 -99 -113 -148 -218 -148c-144 0 -215 85 -215 226c0 161 96 311 261 311c152 0 213 -111 192 -247l-2 -13h-429c-2 -17 -3 -34 -3 -51zM299 514c-135 0 -216 -103 -237 -228h412c19 128 -34 228 -175 228z
M309 612c-65 0 -101 44 -102 108h18c0 -56 31 -92 84 -92c52 0 93 36 104 92h18c-12 -68 -62 -108 -122 -108z" />
    <glyph glyph-name="Edotaccent" unicode="&#x116;" horiz-adv-x="566" 
d="M166 715h397l-3 -17h-378l-51 -320h314l-3 -17h-313l-55 -344h404l-4 -17h-421zM367 787c-11 0 -17 8 -17 17s6 17 17 17s17 -8 17 -17s-6 -17 -17 -17z" />
    <glyph glyph-name="edotaccent" unicode="&#x117;" horiz-adv-x="529" 
d="M57 219c0 -135 67 -210 196 -210c96 0 165 44 200 132h18c-35 -99 -113 -148 -218 -148c-144 0 -215 85 -215 226c0 161 96 311 261 311c152 0 213 -111 192 -247l-2 -13h-429c-2 -17 -3 -34 -3 -51zM299 514c-135 0 -216 -103 -237 -228h412c19 128 -34 228 -175 228z
M312 639c-11 0 -17 8 -17 17s6 17 17 17s17 -8 17 -17s-6 -17 -17 -17z" />
    <glyph glyph-name="Eogonek" unicode="&#x118;" horiz-adv-x="566" 
d="M166 715h397l-3 -17h-378l-51 -320h314l-3 -17h-313l-55 -344h403l-3 -17h-61c-41 -22 -107 -61 -107 -115c0 -28 16 -51 59 -51c16 0 28 2 45 7l-3 -16c-12 -4 -27 -7 -43 -7c-55 0 -76 30 -76 67c0 56 64 96 96 115h-331z" />
    <glyph glyph-name="eogonek" unicode="&#x119;" horiz-adv-x="529" 
d="M293 -182c-55 0 -76 30 -76 67c0 56 65 95 103 117c-20 -4 -44 -9 -67 -9c-144 0 -215 85 -215 226c0 161 96 311 261 311c152 0 213 -111 192 -247l-2 -13h-429c-2 -17 -3 -34 -3 -51c0 -135 67 -210 196 -210c96 0 165 44 200 132h18c-17 -47 -43 -80 -78 -107
c-76 -55 -158 -87 -158 -149c0 -28 16 -51 59 -51c16 0 28 2 45 7l-3 -16c-12 -4 -27 -7 -43 -7zM299 514c-135 0 -215 -103 -236 -228h411c19 128 -34 228 -175 228z" />
    <glyph glyph-name="Ecaron" unicode="&#x11a;" horiz-adv-x="566" 
d="M166 715h397l-3 -17h-378l-51 -320h314l-3 -17h-313l-55 -344h404l-4 -17h-421zM376 771h-20l-97 117h19l89 -102l115 102h21z" />
    <glyph glyph-name="ecaron" unicode="&#x11b;" horiz-adv-x="529" 
d="M57 219c0 -135 67 -210 196 -210c96 0 165 44 200 132h18c-35 -99 -113 -148 -218 -148c-144 0 -215 85 -215 226c0 161 96 311 261 311c152 0 213 -111 192 -247l-2 -13h-429c-2 -17 -3 -34 -3 -51zM299 514c-135 0 -216 -103 -237 -228h412c19 128 -34 228 -175 228z
M318 613h-19l-96 124h19l88 -109l114 109h21z" />
    <glyph glyph-name="Gcircumflex" unicode="&#x11c;" horiz-adv-x="744" 
d="M383 -6c-208 0 -325 138 -325 323c0 223 151 404 372 404c131 0 249 -63 270 -195h-19c-16 119 -127 178 -251 178c-211 0 -353 -171 -353 -387c0 -172 109 -306 306 -306c169 0 283 94 304 306h-238l3 17h256c-19 -243 -149 -340 -325 -340zM444 888h20l97 -117h-19
l-89 102l-115 -102h-21z" />
    <glyph glyph-name="gcircumflex" unicode="&#x11d;" horiz-adv-x="594" 
d="M255 33c148 0 244 137 244 283c0 109 -64 198 -192 198c-149 0 -246 -120 -246 -276c0 -115 68 -205 194 -205zM474 15c-23 -137 -113 -200 -242 -200c-109 0 -204 47 -220 155h18c15 -89 90 -139 202 -139c121 0 205 60 224 184l24 153c-34 -71 -108 -151 -226 -151
c-131 0 -211 89 -211 221c0 161 105 292 264 292c113 0 185 -66 204 -166l25 159h18zM327 720h19l96 -124h-19l-88 109l-114 -109h-21z" />
    <glyph glyph-name="Gbreve" unicode="&#x11e;" horiz-adv-x="744" 
d="M383 -6c-208 0 -325 138 -325 323c0 223 151 404 372 404c131 0 249 -63 270 -195h-19c-16 119 -127 178 -251 178c-211 0 -353 -171 -353 -387c0 -172 109 -306 306 -306c169 0 283 94 304 306h-238l3 17h256c-19 -243 -149 -340 -325 -340zM434 775
c-68 0 -109 47 -110 112h18c1 -56 36 -96 92 -96c55 0 101 39 112 96h18c-11 -67 -68 -112 -130 -112z" />
    <glyph glyph-name="gbreve" unicode="&#x11f;" horiz-adv-x="594" 
d="M255 33c148 0 244 137 244 283c0 109 -64 198 -192 198c-149 0 -246 -120 -246 -276c0 -115 68 -205 194 -205zM474 15c-23 -137 -113 -200 -242 -200c-109 0 -204 47 -220 155h18c15 -89 90 -139 202 -139c121 0 205 60 224 184l24 153c-34 -71 -108 -151 -226 -151
c-131 0 -211 89 -211 221c0 161 105 292 264 292c113 0 185 -66 204 -166l25 159h18zM325 612c-65 0 -101 44 -102 108h18c0 -56 31 -92 84 -92c52 0 93 36 104 92h18c-12 -68 -62 -108 -122 -108z" />
    <glyph glyph-name="Gdotaccent" unicode="&#x120;" horiz-adv-x="744" 
d="M383 -6c-208 0 -325 138 -325 323c0 223 151 404 372 404c131 0 249 -63 270 -195h-19c-16 119 -127 178 -251 178c-211 0 -353 -171 -353 -387c0 -172 109 -306 306 -306c169 0 283 94 304 306h-238l3 17h256c-19 -243 -149 -340 -325 -340zM442 787c-11 0 -17 8 -17 17
s6 17 17 17s17 -8 17 -17s-6 -17 -17 -17z" />
    <glyph glyph-name="gdotaccent" unicode="&#x121;" horiz-adv-x="594" 
d="M255 33c148 0 244 137 244 283c0 109 -64 198 -192 198c-149 0 -246 -120 -246 -276c0 -115 68 -205 194 -205zM474 15c-23 -137 -113 -200 -242 -200c-109 0 -204 47 -220 155h18c15 -89 90 -139 202 -139c121 0 205 60 224 184l24 153c-34 -71 -108 -151 -226 -151
c-131 0 -211 89 -211 221c0 161 105 292 264 292c113 0 185 -66 204 -166l25 159h18zM330 639c-11 0 -17 8 -17 17s6 17 17 17s17 -8 17 -17s-6 -17 -17 -17z" />
    <glyph glyph-name="uni0122" unicode="&#x122;" horiz-adv-x="744" 
d="M383 -6c-208 0 -325 138 -325 323c0 223 151 404 372 404c131 0 249 -63 270 -195h-19c-16 119 -127 178 -251 178c-211 0 -353 -171 -353 -387c0 -172 109 -306 306 -306c169 0 283 94 304 306h-238l3 17h256c-19 -243 -149 -340 -325 -340zM255 -179l67 133l19 -5
l-72 -135z" />
    <glyph glyph-name="uni0123" unicode="&#x123;" horiz-adv-x="594" 
d="M255 33c148 0 244 137 244 283c0 109 -64 198 -192 198c-149 0 -246 -120 -246 -276c0 -115 68 -205 194 -205zM474 15c-23 -137 -113 -200 -242 -200c-109 0 -204 47 -220 155h18c15 -89 90 -139 202 -139c121 0 205 60 224 184l24 153c-34 -71 -108 -151 -226 -151
c-131 0 -211 89 -211 221c0 161 105 292 264 292c113 0 185 -66 204 -166l25 159h18zM391 746l-67 -133l-19 5l72 135z" />
    <glyph glyph-name="Hcircumflex" unicode="&#x124;" horiz-adv-x="702" 
d="M166 715h19l-55 -344h474l55 344h19l-113 -715h-19l56 354h-474l-56 -354h-19zM427 888h20l97 -117h-19l-89 102l-115 -102h-21z" />
    <glyph glyph-name="hcircumflex" unicode="&#x125;" horiz-adv-x="559" 
d="M160 773h18l-59 -373c35 69 109 130 208 130c115 0 187 -75 163 -220l-49 -310h-18l49 310c21 138 -41 204 -145 204c-97 0 -202 -69 -221 -197l-50 -317h-18zM355 928h20l97 -117h-19l-89 102l-115 -102h-21z" />
    <glyph glyph-name="Hbar" unicode="&#x126;" horiz-adv-x="702" 
d="M49 547h90l27 168h19l-27 -168h474l27 168h19l-27 -168h92l-3 -16h-91l-84 -531h-19l56 354h-474l-56 -354h-19l84 531h-91zM604 371l25 160h-474l-25 -160h474z" />
    <glyph glyph-name="hbar" unicode="&#x127;" horiz-adv-x="559" 
d="M59 649h81l20 124h18l-20 -124h196l-3 -16h-195l-37 -233c35 69 109 130 208 130c115 0 187 -75 163 -220l-49 -310h-18l49 310c21 138 -41 204 -145 204c-97 0 -202 -69 -221 -197l-50 -317h-18l100 633h-82z" />
    <glyph glyph-name="Itilde" unicode="&#x128;" horiz-adv-x="219" 
d="M171 715h19l-113 -715h-19zM256 774c-52 0 -93 64 -136 64c-25 0 -50 -20 -59 -63h-17c11 55 41 79 77 79c48 0 93 -64 136 -64c24 0 49 20 58 63h17c-11 -53 -41 -79 -76 -79z" />
    <glyph glyph-name="itilde" unicode="&#x129;" horiz-adv-x="182" 
d="M122 523h18l-82 -523h-18zM213 613c-52 0 -93 64 -136 64c-25 0 -50 -20 -59 -63h-17c11 55 41 79 77 79c48 0 93 -64 136 -64c24 0 49 20 58 63h17c-11 -53 -41 -79 -76 -79z" />
    <glyph glyph-name="Imacron" unicode="&#x12a;" horiz-adv-x="219" 
d="M171 715h19l-113 -715h-19zM84 814h226l-3 -17h-226z" />
    <glyph glyph-name="imacron" unicode="&#x12b;" horiz-adv-x="182" 
d="M79 663h150l-3 -17h-150zM122 523h18l-82 -523h-18z" />
    <glyph glyph-name="Ibreve" unicode="&#x12c;" horiz-adv-x="219" 
d="M171 715h19l-113 -715h-19zM187 775c-68 0 -109 47 -110 112h18c1 -56 36 -96 92 -96c55 0 101 39 112 96h18c-11 -67 -68 -112 -130 -112z" />
    <glyph glyph-name="ibreve" unicode="&#x12d;" horiz-adv-x="182" 
d="M122 523h18l-82 -523h-18zM144 612c-65 0 -101 44 -102 108h18c0 -56 31 -92 84 -92c52 0 93 36 104 92h18c-12 -68 -62 -108 -122 -108z" />
    <glyph glyph-name="Iogonek" unicode="&#x12e;" horiz-adv-x="219" 
d="M50 -182c-55 0 -76 30 -76 67c0 55 56 99 85 120l112 710h19l-113 -715c-35 -27 -85 -64 -85 -115c0 -28 16 -51 59 -51c16 0 28 2 45 7l-3 -16c-12 -4 -27 -7 -43 -7z" />
    <glyph glyph-name="iogonek" unicode="&#x12f;" horiz-adv-x="182" 
d="M122 523h18l-82 -523c-34 -26 -81 -65 -81 -115c0 -28 16 -51 59 -51c16 0 28 2 45 7l-3 -16c-12 -4 -27 -7 -43 -7c-55 0 -76 30 -76 67c0 55 53 98 82 119zM151 639c-11 0 -17 8 -17 17s6 17 17 17s17 -8 17 -17s-6 -17 -17 -17z" />
    <glyph glyph-name="Idotaccent" unicode="&#x130;" horiz-adv-x="219" 
d="M171 715h19l-113 -715h-19zM192 787c-11 0 -17 8 -17 17s6 17 17 17s17 -8 17 -17s-6 -17 -17 -17z" />
    <glyph glyph-name="dotlessi" unicode="&#x131;" horiz-adv-x="182" 
d="M122 523h18l-82 -523h-18z" />
    <glyph glyph-name="IJ" unicode="&#x132;" horiz-adv-x="567" 
d="M171 715h19l-113 -715h-19zM303 -4c-57 0 -94 14 -117 29l3 18c31 -19 65 -30 114 -30c80 0 132 40 148 140l89 562h19l-89 -563c-19 -115 -79 -156 -167 -156z" />
    <glyph glyph-name="ij" unicode="&#x133;" horiz-adv-x="182" 
d="M151 639c-11 0 -17 8 -17 17s6 17 17 17s17 -8 17 -17s-6 -17 -17 -17zM122 523h18l-82 -523h-18zM119 -168c59 3 79 29 90 92l95 599h18l-95 -599c-13 -80 -44 -105 -111 -108zM333 639c-11 0 -17 8 -17 17s6 17 17 17s17 -8 17 -17s-6 -17 -17 -17z" />
    <glyph glyph-name="Jcircumflex" unicode="&#x134;" horiz-adv-x="378" 
d="M114 -4c-57 0 -94 14 -117 29l3 18c31 -19 65 -30 114 -30c80 0 132 40 148 140l89 562h19l-89 -563c-19 -115 -79 -156 -167 -156zM365 888h20l97 -117h-19l-89 102l-115 -102h-21z" />
    <glyph glyph-name="jcircumflex" unicode="&#x135;" horiz-adv-x="182" 
d="M-63 -168c59 3 79 29 90 92l95 599h18l-95 -599c-13 -80 -44 -105 -111 -108zM144 720h19l96 -124h-19l-88 109l-114 -109h-21z" />
    <glyph glyph-name="uni0136" unicode="&#x136;" horiz-adv-x="579" 
d="M479 0l-339 368l430 347h26l-431 -348l338 -367h-24zM166 715h19l-113 -715h-19zM191 -179l67 133l19 -5l-72 -135z" />
    <glyph glyph-name="uni0137" unicode="&#x137;" horiz-adv-x="452" 
d="M106 281l323 242h26l-324 -243l260 -280h-23zM160 773h18l-122 -773h-18zM116 -179l67 133l19 -5l-72 -135z" />
    <glyph glyph-name="Lacute" unicode="&#x139;" horiz-adv-x="525" 
d="M166 715h19l-111 -698h372l-3 -17h-390zM252 888h22l-84 -117h-19z" />
    <glyph glyph-name="lacute" unicode="&#x13a;" horiz-adv-x="182" 
d="M162 773h18l-122 -773h-18zM250 928h22l-84 -117h-19z" />
    <glyph glyph-name="uni013B" unicode="&#x13b;" horiz-adv-x="525" 
d="M166 715h19l-111 -698h372l-3 -17h-390zM163 -179l67 133l19 -5l-72 -135z" />
    <glyph glyph-name="uni013C" unicode="&#x13c;" horiz-adv-x="182" 
d="M162 773h18l-122 -773h-18zM-32 -179l67 133l19 -5l-72 -135z" />
    <glyph glyph-name="Lcaron" unicode="&#x13d;" horiz-adv-x="525" 
d="M414 715h19l-49 -157h-18zM166 715h19l-111 -698h372l-3 -17h-390z" />
    <glyph glyph-name="lcaron" unicode="&#x13e;" horiz-adv-x="182" 
d="M162 773h18l-122 -773h-18zM257 773h19l-41 -147h-17z" />
    <glyph glyph-name="Ldot" unicode="&#x13f;" horiz-adv-x="525" 
d="M166 715h19l-111 -698h372l-3 -17h-390zM438 350c-11 0 -17 8 -17 17s6 17 17 17s17 -8 17 -17s-6 -17 -17 -17z" />
    <glyph glyph-name="ldot" unicode="&#x140;" horiz-adv-x="222" 
d="M162 773h18l-122 -773h-18zM219 363c-11 0 -17 8 -17 17s6 17 17 17s17 -8 17 -17s-6 -17 -17 -17z" />
    <glyph glyph-name="Lslash" unicode="&#x141;" horiz-adv-x="534" 
d="M28 286l84 29l63 400h19l-63 -393l265 94l-2 -18l-266 -94l-45 -287h371l-2 -17h-390l47 297l-84 -29z" />
    <glyph glyph-name="lslash" unicode="&#x142;" horiz-adv-x="206" 
d="M33 375l87 56l54 342h18l-52 -329l91 59l-3 -20l-91 -59l-67 -424h-18l65 411l-87 -56z" />
    <glyph glyph-name="Nacute" unicode="&#x143;" horiz-adv-x="701" 
d="M166 715h29l353 -693l110 693h19l-113 -715h-25l-357 700l-110 -700h-19zM507 888h22l-84 -117h-19z" />
    <glyph glyph-name="nacute" unicode="&#x144;" horiz-adv-x="559" 
d="M99 389c11 69 12 105 15 134h18c-1 -27 -5 -74 -13 -123c35 69 109 130 208 130c115 0 187 -75 163 -220l-49 -310h-18l49 310c21 138 -41 204 -145 204c-97 0 -202 -69 -221 -197l-50 -317h-18zM410 743h21l-101 -147h-18z" />
    <glyph glyph-name="uni0145" unicode="&#x145;" horiz-adv-x="701" 
d="M166 715h29l353 -693l110 693h19l-113 -715h-25l-357 700l-110 -700h-19zM232 -179l67 133l19 -5l-72 -135z" />
    <glyph glyph-name="uni0146" unicode="&#x146;" horiz-adv-x="559" 
d="M99 389c11 69 12 105 15 134h18c-1 -27 -5 -74 -13 -123c35 69 109 130 208 130c115 0 187 -75 163 -220l-49 -310h-18l49 310c21 138 -41 204 -145 204c-97 0 -202 -69 -221 -197l-50 -317h-18zM169 -179l67 133l19 -5l-72 -135z" />
    <glyph glyph-name="Ncaron" unicode="&#x147;" horiz-adv-x="701" 
d="M166 715h29l353 -693l110 693h19l-113 -715h-25l-357 700l-110 -700h-19zM452 771h-20l-97 117h19l89 -102l115 102h21z" />
    <glyph glyph-name="ncaron" unicode="&#x148;" horiz-adv-x="559" 
d="M99 389c11 69 12 105 15 134h18c-1 -27 -5 -74 -13 -123c35 69 109 130 208 130c115 0 187 -75 163 -220l-49 -310h-18l49 310c21 138 -41 204 -145 204c-97 0 -202 -69 -221 -197l-50 -317h-18zM335 613h-19l-96 124h19l88 -109l114 109h21z" />
    <glyph glyph-name="napostrophe" unicode="&#x149;" horiz-adv-x="574" 
d="M114 389c11 69 12 105 15 134h18c-1 -27 -5 -74 -13 -123c35 69 109 130 208 130c115 0 187 -75 163 -220l-49 -310h-18l49 310c21 138 -41 204 -145 204c-97 0 -202 -69 -221 -197l-50 -317h-18zM33 581l68 137l17 -8l-71 -136z" />
    <glyph glyph-name="Eng" unicode="&#x14a;" horiz-adv-x="701" 
d="M374 -170c88 0 150 41 169 161l-361 709l-110 -700h-19l113 715h29l353 -693l110 693h19l-114 -722c-21 -133 -93 -180 -189 -180c-49 0 -82 12 -101 21l3 18c23 -11 55 -22 98 -22z" />
    <glyph glyph-name="eng" unicode="&#x14b;" horiz-adv-x="559" 
d="M99 389c11 69 12 105 15 134h18c-1 -27 -5 -74 -13 -123c35 69 109 130 208 130c115 0 187 -75 163 -220l-56 -354c-16 -104 -48 -135 -132 -140l3 16c70 5 95 29 111 124l56 354c21 138 -41 204 -145 204c-97 0 -202 -69 -221 -197l-50 -317h-18z" />
    <glyph glyph-name="Omacron" unicode="&#x14c;" horiz-adv-x="780" 
d="M752 389c0 -204 -148 -395 -372 -395c-203 0 -324 145 -324 337c0 203 151 390 374 390c192 0 322 -144 322 -332zM733 389c0 169 -112 315 -303 315c-211 0 -352 -173 -355 -373c-3 -174 110 -320 305 -320c211 0 353 179 353 378zM342 814h226l-3 -17h-226z" />
    <glyph glyph-name="omacron" unicode="&#x14d;" horiz-adv-x="567" 
d="M263 -7c-135 0 -226 107 -226 238c0 156 100 298 271 298c140 0 222 -112 222 -237c0 -168 -102 -299 -267 -299zM263 9c154 0 249 124 249 283c0 117 -73 221 -204 221c-163 0 -253 -133 -253 -282c0 -118 80 -222 208 -222zM223 663h219l-3 -17h-219z" />
    <glyph glyph-name="Obreve" unicode="&#x14e;" horiz-adv-x="780" 
d="M752 389c0 -204 -148 -395 -372 -395c-203 0 -324 145 -324 337c0 203 151 390 374 390c192 0 322 -144 322 -332zM733 389c0 169 -112 315 -303 315c-211 0 -352 -173 -355 -373c-3 -174 110 -320 305 -320c211 0 353 179 353 378zM443 775c-68 0 -109 47 -110 112h18
c1 -56 36 -96 92 -96c55 0 101 39 112 96h18c-11 -67 -68 -112 -130 -112z" />
    <glyph glyph-name="obreve" unicode="&#x14f;" horiz-adv-x="567" 
d="M263 -7c-135 0 -226 107 -226 238c0 156 100 298 271 298c140 0 222 -112 222 -237c0 -168 -102 -299 -267 -299zM263 9c154 0 249 124 249 283c0 117 -73 221 -204 221c-163 0 -253 -133 -253 -282c0 -118 80 -222 208 -222zM326 612c-65 0 -101 44 -102 108h18
c0 -56 31 -92 84 -92c52 0 93 36 104 92h18c-12 -68 -62 -108 -122 -108z" />
    <glyph glyph-name="Ohungarumlaut" unicode="&#x150;" horiz-adv-x="780" 
d="M752 389c0 -204 -148 -395 -372 -395c-203 0 -324 145 -324 337c0 203 151 390 374 390c192 0 322 -144 322 -332zM733 389c0 169 -112 315 -303 315c-211 0 -352 -173 -355 -373c-3 -174 110 -320 305 -320c211 0 353 179 353 378zM442 888h20l-67 -117h-17zM548 888h20
l-67 -117h-17z" />
    <glyph glyph-name="ohungarumlaut" unicode="&#x151;" horiz-adv-x="567" 
d="M263 -7c-135 0 -226 107 -226 238c0 156 100 298 271 298c140 0 222 -112 222 -237c0 -168 -102 -299 -267 -299zM263 9c154 0 249 124 249 283c0 117 -73 221 -204 221c-163 0 -253 -133 -253 -282c0 -118 80 -222 208 -222zM346 743h21l-85 -147h-18zM452 743h21
l-85 -147h-18z" />
    <glyph glyph-name="OE" unicode="&#x152;" horiz-adv-x="956" 
d="M368 0c-211 0 -312 132 -312 304c0 261 161 411 406 411h491l-3 -17h-364l-51 -320h300l-3 -17h-299l-55 -344h389l-3 -17h-496zM462 698c-237 0 -387 -146 -387 -394c0 -161 91 -287 293 -287h91l108 681h-105z" />
    <glyph glyph-name="oe" unicode="&#x153;" horiz-adv-x="999" 
d="M527 219c0 -135 67 -210 196 -210c96 0 165 44 200 132h18c-35 -99 -113 -148 -218 -148c-131 0 -199 70 -211 189c-34 -111 -121 -189 -249 -189c-135 0 -226 107 -226 238c0 156 100 298 271 298c126 0 204 -92 217 -202c32 115 117 203 244 203
c152 0 213 -111 192 -247l-2 -13h-429c-2 -17 -3 -34 -3 -51zM263 9c154 0 249 124 249 283c0 117 -73 221 -204 221c-163 0 -253 -133 -253 -282c0 -118 80 -222 208 -222zM769 514c-134 0 -216 -103 -237 -228h412c19 128 -36 228 -175 228z" />
    <glyph glyph-name="Racute" unicode="&#x154;" horiz-adv-x="581" 
d="M166 715h157c134 0 218 -53 218 -169c0 -142 -91 -193 -222 -201l184 -345h-20l-183 343h-175l-54 -343h-18zM284 360c125 0 238 33 238 186c0 108 -80 152 -199 152h-142l-53 -338h156zM404 888h22l-84 -117h-19z" />
    <glyph glyph-name="racute" unicode="&#x155;" horiz-adv-x="316" 
d="M99 389c11 69 12 105 15 134h18c-1 -27 -5 -76 -14 -129c32 71 95 130 204 133l-3 -16c-103 -3 -193 -67 -217 -218l-46 -293h-18zM303 743h21l-101 -147h-18z" />
    <glyph glyph-name="uni0156" unicode="&#x156;" horiz-adv-x="581" 
d="M166 715h157c134 0 218 -53 218 -169c0 -142 -91 -193 -222 -201l184 -345h-20l-183 343h-175l-54 -343h-18zM284 360c125 0 238 33 238 186c0 108 -80 152 -199 152h-142l-53 -338h156zM187 -179l67 133l19 -5l-72 -135z" />
    <glyph glyph-name="uni0157" unicode="&#x157;" horiz-adv-x="316" 
d="M99 389c11 69 12 105 15 134h18c-1 -27 -5 -76 -14 -129c32 71 95 130 204 133l-3 -16c-103 -3 -193 -67 -217 -218l-46 -293h-18zM-36 -179l67 133l19 -5l-72 -135z" />
    <glyph glyph-name="Rcaron" unicode="&#x158;" horiz-adv-x="581" 
d="M166 715h157c134 0 218 -53 218 -169c0 -142 -91 -193 -222 -201l184 -345h-20l-183 343h-175l-54 -343h-18zM284 360c125 0 238 33 238 186c0 108 -80 152 -199 152h-142l-53 -338h156zM349 771h-20l-97 117h19l89 -102l115 102h21z" />
    <glyph glyph-name="rcaron" unicode="&#x159;" horiz-adv-x="316" 
d="M99 389c11 69 12 105 15 134h18c-1 -27 -5 -76 -14 -129c32 71 95 130 204 133l-3 -16c-103 -3 -193 -67 -217 -218l-46 -293h-18zM230 613h-19l-96 124h19l88 -109l114 109h21z" />
    <glyph glyph-name="Sacute" unicode="&#x15a;" horiz-adv-x="568" 
d="M266 -6c-131 0 -238 57 -246 196h18c12 -123 96 -179 227 -179c128 0 223 68 223 193c0 97 -58 129 -192 167c-136 37 -194 80 -194 164c0 123 93 186 218 186c120 0 200 -52 211 -159h-18c-15 96 -80 142 -192 142c-116 0 -200 -53 -200 -169c0 -76 53 -114 183 -148
c140 -38 203 -77 203 -183c0 -135 -104 -210 -241 -210zM402 888h22l-84 -117h-19z" />
    <glyph glyph-name="sacute" unicode="&#x15b;" horiz-adv-x="444" 
d="M200 -9c-111 0 -182 49 -189 160h18c7 -92 59 -144 171 -144c88 0 162 41 162 131c0 67 -41 95 -138 123c-103 31 -154 60 -154 135c0 88 77 133 168 133c90 0 162 -35 170 -131h-18c-8 77 -59 115 -152 115c-84 0 -150 -37 -150 -117c0 -62 40 -90 142 -119
c99 -29 150 -58 150 -139c0 -99 -85 -147 -180 -147zM340 743h21l-101 -147h-18z" />
    <glyph glyph-name="Scircumflex" unicode="&#x15c;" horiz-adv-x="568" 
d="M266 -6c-131 0 -238 57 -246 196h18c12 -123 96 -179 227 -179c128 0 223 68 223 193c0 97 -58 129 -192 167c-136 37 -194 80 -194 164c0 123 93 186 218 186c120 0 200 -52 211 -159h-18c-15 96 -80 142 -192 142c-116 0 -200 -53 -200 -169c0 -76 53 -114 183 -148
c140 -38 203 -77 203 -183c0 -135 -104 -210 -241 -210zM340 888h20l97 -117h-19l-89 102l-115 -102h-21z" />
    <glyph glyph-name="scircumflex" unicode="&#x15d;" horiz-adv-x="444" 
d="M200 -9c-111 0 -182 49 -189 160h18c7 -92 59 -144 171 -144c88 0 162 41 162 131c0 67 -41 95 -138 123c-103 31 -154 60 -154 135c0 88 77 133 168 133c90 0 162 -35 170 -131h-18c-8 77 -59 115 -152 115c-84 0 -150 -37 -150 -117c0 -62 40 -90 142 -119
c99 -29 150 -58 150 -139c0 -99 -85 -147 -180 -147zM257 720h19l96 -124h-19l-88 109l-114 -109h-21z" />
    <glyph glyph-name="uni015E" unicode="&#x15e;" horiz-adv-x="568" 
d="M209 -210c-51 0 -83 27 -86 72h19c3 -35 26 -56 67 -56c32 0 70 15 70 62c0 39 -25 52 -56 52c-23 0 -37 -7 -46 -12l-8 8l55 80c-112 11 -196 70 -204 194h18c12 -123 96 -179 227 -179c128 0 223 68 223 193c0 97 -58 129 -192 167c-136 37 -194 80 -194 164
c0 123 93 186 218 186c120 0 200 -52 211 -159h-18c-15 96 -80 142 -192 142c-116 0 -200 -53 -200 -169c0 -76 53 -114 183 -148c140 -38 203 -77 203 -183c0 -135 -104 -210 -241 -210h-26l-45 -65c49 19 101 -6 101 -61c0 -48 -36 -78 -87 -78z" />
    <glyph glyph-name="uni015F" unicode="&#x15f;" horiz-adv-x="444" 
d="M143 -210c-51 0 -83 27 -86 72h19c3 -35 26 -56 67 -56c32 0 70 15 70 62c0 39 -25 52 -56 52c-23 0 -37 -7 -46 -12l-8 8l52 78c-85 12 -139 62 -144 157h18c7 -92 59 -144 171 -144c88 0 162 41 162 131c0 67 -41 95 -138 123c-103 31 -154 60 -154 135
c0 88 77 133 168 133c90 0 162 -35 170 -131h-18c-8 77 -59 115 -152 115c-84 0 -150 -37 -150 -117c0 -62 40 -90 142 -119c99 -29 150 -58 150 -139c0 -99 -85 -147 -180 -147c-11 0 -14 0 -29 1l-42 -63c49 19 101 -6 101 -61c0 -48 -36 -78 -87 -78z" />
    <glyph glyph-name="Scaron" unicode="&#x160;" horiz-adv-x="568" 
d="M266 -6c-131 0 -238 57 -246 196h18c12 -123 96 -179 227 -179c128 0 223 68 223 193c0 97 -58 129 -192 167c-136 37 -194 80 -194 164c0 123 93 186 218 186c120 0 200 -52 211 -159h-18c-15 96 -80 142 -192 142c-116 0 -200 -53 -200 -169c0 -76 53 -114 183 -148
c140 -38 203 -77 203 -183c0 -135 -104 -210 -241 -210zM347 771h-20l-97 117h19l89 -102l115 102h21z" />
    <glyph glyph-name="scaron" unicode="&#x161;" horiz-adv-x="444" 
d="M200 -9c-111 0 -182 49 -189 160h18c7 -92 59 -144 171 -144c88 0 162 41 162 131c0 67 -41 95 -138 123c-103 31 -154 60 -154 135c0 88 77 133 168 133c90 0 162 -35 170 -131h-18c-8 77 -59 115 -152 115c-84 0 -150 -37 -150 -117c0 -62 40 -90 142 -119
c99 -29 150 -58 150 -139c0 -99 -85 -147 -180 -147zM267 613h-19l-96 124h19l88 -109l114 109h21z" />
    <glyph glyph-name="Tcommaaccent" unicode="&#x162;" horiz-adv-x="557" 
d="M335 698h-238l3 17h495l-3 -17h-238l-110 -698h-19zM156 -179l67 133l19 -5l-72 -135z" />
    <glyph glyph-name="tcommaaccent" unicode="&#x163;" horiz-adv-x="319" 
d="M175 -7c-72 0 -110 45 -95 134l60 380h-80l3 16h79l19 119h18l-19 -119h155l-3 -16h-154l-60 -380c-13 -84 18 -118 77 -118c27 0 48 5 67 12l-3 -16c-16 -7 -37 -12 -64 -12zM61 -179l67 133l19 -5l-72 -135z" />
    <glyph glyph-name="Tcaron" unicode="&#x164;" horiz-adv-x="557" 
d="M335 698h-238l3 17h495l-3 -17h-238l-110 -698h-19zM366 771h-20l-97 117h19l89 -102l115 102h21z" />
    <glyph glyph-name="tcaron" unicode="&#x165;" horiz-adv-x="319" 
d="M175 -7c-72 0 -110 45 -95 134l60 380h-80l3 16h79l19 119h18l-19 -119h155l-3 -16h-154l-60 -380c-13 -84 18 -118 77 -118c27 0 48 5 67 12l-3 -16c-16 -7 -37 -12 -64 -12zM322 773h19l-41 -147h-17z" />
    <glyph glyph-name="Tbar" unicode="&#x166;" horiz-adv-x="557" 
d="M132 412h158l45 286h-238l3 17h495l-3 -17h-238l-45 -286h163l-3 -16h-163l-62 -396h-19l62 396h-158z" />
    <glyph glyph-name="tbar" unicode="&#x167;" horiz-adv-x="319" 
d="M35 343h79l26 164h-80l3 16h79l19 119h18l-19 -119h155l-3 -16h-154l-26 -164h155l-3 -16h-155l-31 -200c-13 -84 18 -118 77 -118c27 0 48 5 67 12l-3 -16c-16 -7 -37 -12 -64 -12c-72 0 -110 45 -95 134l31 200h-79z" />
    <glyph glyph-name="Utilde" unicode="&#x168;" horiz-adv-x="666" 
d="M315 -4c-181 0 -264 101 -237 266l72 453h19l-72 -453c-24 -155 44 -249 219 -249c151 0 224 74 247 223l76 479h19l-76 -479c-25 -160 -104 -240 -267 -240zM477 774c-52 0 -93 64 -136 64c-25 0 -50 -20 -59 -63h-17c11 55 41 79 77 79c48 0 93 -64 136 -64
c24 0 49 20 58 63h17c-11 -53 -41 -79 -76 -79z" />
    <glyph glyph-name="utilde" unicode="&#x169;" horiz-adv-x="555" 
d="M452 134c-9 -60 -12 -109 -13 -134h-18c1 31 4 78 11 121c-34 -68 -109 -128 -207 -128c-117 0 -184 75 -161 220l49 310h18l-49 -310c-21 -138 38 -204 143 -204c99 0 199 69 220 197l50 317h18zM388 613c-52 0 -93 64 -136 64c-25 0 -50 -20 -59 -63h-17
c11 55 41 79 77 79c48 0 93 -64 136 -64c24 0 49 20 58 63h17c-11 -53 -41 -79 -76 -79z" />
    <glyph glyph-name="Umacron" unicode="&#x16a;" horiz-adv-x="666" 
d="M315 -4c-181 0 -264 101 -237 266l72 453h19l-72 -453c-24 -155 44 -249 219 -249c151 0 224 74 247 223l76 479h19l-76 -479c-25 -160 -104 -240 -267 -240zM304 814h226l-3 -17h-226z" />
    <glyph glyph-name="umacron" unicode="&#x16b;" horiz-adv-x="555" 
d="M452 134c-9 -60 -12 -109 -13 -134h-18c1 31 4 78 11 121c-34 -68 -109 -128 -207 -128c-117 0 -184 75 -161 220l49 310h18l-49 -310c-21 -138 38 -204 143 -204c99 0 199 69 220 197l50 317h18zM219 663h219l-3 -17h-219z" />
    <glyph glyph-name="Ubreve" unicode="&#x16c;" horiz-adv-x="666" 
d="M315 -4c-181 0 -264 101 -237 266l72 453h19l-72 -453c-24 -155 44 -249 219 -249c151 0 224 74 247 223l76 479h19l-76 -479c-25 -160 -104 -240 -267 -240zM407 775c-68 0 -109 47 -110 112h18c1 -56 36 -96 92 -96c55 0 101 39 112 96h18c-11 -67 -68 -112 -130 -112z
" />
    <glyph glyph-name="ubreve" unicode="&#x16d;" horiz-adv-x="555" 
d="M452 134c-9 -60 -12 -109 -13 -134h-18c1 31 4 78 11 121c-34 -68 -109 -128 -207 -128c-117 0 -184 75 -161 220l49 310h18l-49 -310c-21 -138 38 -204 143 -204c99 0 199 69 220 197l50 317h18zM319 612c-65 0 -101 44 -102 108h18c0 -56 31 -92 84 -92
c52 0 93 36 104 92h18c-12 -68 -62 -108 -122 -108z" />
    <glyph glyph-name="Uring" unicode="&#x16e;" horiz-adv-x="666" 
d="M315 -4c-181 0 -264 101 -237 266l72 453h19l-72 -453c-24 -155 44 -249 219 -249c151 0 224 74 247 223l76 479h19l-76 -479c-25 -160 -104 -240 -267 -240zM410 734c43 0 72 30 72 73c0 39 -26 68 -69 68c-40 0 -72 -30 -72 -73c0 -37 29 -68 69 -68zM410 719
c-49 0 -86 39 -86 83c0 48 40 88 89 88c51 0 86 -38 86 -83c0 -51 -38 -88 -89 -88z" />
    <glyph glyph-name="uring" unicode="&#x16f;" horiz-adv-x="555" 
d="M452 134c-9 -60 -12 -109 -13 -134h-18c1 31 4 78 11 121c-34 -68 -109 -128 -207 -128c-117 0 -184 75 -161 220l49 310h18l-49 -310c-21 -138 38 -204 143 -204c99 0 199 69 220 197l50 317h18zM333 619c43 0 72 30 72 73c0 39 -26 68 -69 68c-40 0 -72 -30 -72 -73
c0 -37 29 -68 69 -68zM333 604c-49 0 -86 39 -86 83c0 48 40 88 89 88c51 0 86 -38 86 -83c0 -51 -38 -88 -89 -88z" />
    <glyph glyph-name="Uhungarumlaut" unicode="&#x170;" horiz-adv-x="666" 
d="M315 -4c-181 0 -264 101 -237 266l72 453h19l-72 -453c-24 -155 44 -249 219 -249c151 0 224 74 247 223l76 479h19l-76 -479c-25 -160 -104 -240 -267 -240zM401 888h20l-67 -117h-17zM507 888h20l-67 -117h-17z" />
    <glyph glyph-name="uhungarumlaut" unicode="&#x171;" horiz-adv-x="555" 
d="M452 134c-9 -60 -12 -109 -13 -134h-18c1 31 4 78 11 121c-34 -68 -109 -128 -207 -128c-117 0 -184 75 -161 220l49 310h18l-49 -310c-21 -138 38 -204 143 -204c99 0 199 69 220 197l50 317h18zM338 743h21l-85 -147h-18zM444 743h21l-85 -147h-18z" />
    <glyph glyph-name="Uogonek" unicode="&#x172;" horiz-adv-x="666" 
d="M315 -182c-55 0 -76 30 -76 67c0 57 53 95 105 113c-3 -1 -7 -1 -10 -1c-7 -1 -14 -1 -19 -1c-181 0 -264 101 -237 266l72 453h19l-72 -453c-24 -155 44 -249 219 -249c151 0 223 72 247 227l76 475h19l-76 -479c-19 -123 -69 -195 -158 -224
c-64 -21 -167 -50 -167 -127c0 -28 16 -51 59 -51c16 0 28 2 45 7l-3 -16c-12 -4 -27 -7 -43 -7z" />
    <glyph glyph-name="uogonek" unicode="&#x173;" horiz-adv-x="555" 
d="M452 134c-9 -60 -12 -109 -13 -134c-37 -21 -103 -62 -103 -115c0 -28 16 -51 59 -51c16 0 28 2 45 7l-3 -16c-12 -4 -27 -7 -43 -7c-55 0 -76 30 -76 67c0 59 70 98 103 120c1 31 4 75 11 116c-34 -68 -109 -128 -207 -128c-117 0 -184 75 -161 220l49 310h18l-49 -310
c-21 -138 38 -204 143 -204c99 0 199 69 220 197l50 317h18z" />
    <glyph glyph-name="Wcircumflex" unicode="&#x174;" horiz-adv-x="910" 
d="M98 715h18l81 -687l318 687h13l93 -689l306 689h19l-317 -715h-24l-90 675l-310 -675h-24zM533 888h20l97 -117h-19l-89 102l-115 -102h-21z" />
    <glyph glyph-name="wcircumflex" unicode="&#x175;" horiz-adv-x="749" 
d="M70 523h18l82 -502l236 502h14l86 -502l234 502h19l-243 -523h-24l-83 489l-230 -489h-24zM424 720h19l96 -124h-19l-88 109l-114 -109h-21z" />
    <glyph glyph-name="Ycircumflex" unicode="&#x176;" horiz-adv-x="554" 
d="M279 325l-194 390h19l187 -373l282 373h22l-297 -391l-51 -324h-19zM360 888h20l97 -117h-19l-89 102l-115 -102h-21z" />
    <glyph glyph-name="ycircumflex" unicode="&#x177;" horiz-adv-x="480" 
d="M200 36l-134 487h18l129 -466l261 466h20l-396 -705h-20zM290 720h19l96 -124h-19l-88 109l-114 -109h-21z" />
    <glyph glyph-name="Ydieresis" unicode="&#x178;" horiz-adv-x="554" 
d="M279 325l-194 390h19l187 -373l282 373h22l-297 -391l-51 -324h-19zM282 787c-11 0 -17 8 -17 17s6 17 17 17s17 -8 17 -17s-6 -17 -17 -17zM436 787c-11 0 -17 8 -17 17s6 17 17 17s17 -8 17 -17s-6 -17 -17 -17z" />
    <glyph glyph-name="Zacute" unicode="&#x179;" horiz-adv-x="577" 
d="M-15 7l594 691h-449l3 17h479l-1 -7l-594 -691h479l-3 -17h-509zM442 888h22l-84 -117h-19z" />
    <glyph glyph-name="zacute" unicode="&#x17a;" horiz-adv-x="457" 
d="M-15 5l449 502h-339l3 16h370l-1 -5l-449 -502h360l-3 -16h-391zM371 743h21l-101 -147h-18z" />
    <glyph glyph-name="Zdotaccent" unicode="&#x17b;" horiz-adv-x="577" 
d="M-15 7l594 691h-449l3 17h479l-1 -7l-594 -691h479l-3 -17h-509zM378 787c-11 0 -17 8 -17 17s6 17 17 17s17 -8 17 -17s-6 -17 -17 -17z" />
    <glyph glyph-name="zdotaccent" unicode="&#x17c;" horiz-adv-x="457" 
d="M-15 5l449 502h-339l3 16h370l-1 -5l-449 -502h360l-3 -16h-391zM291 639c-11 0 -17 8 -17 17s6 17 17 17s17 -8 17 -17s-6 -17 -17 -17z" />
    <glyph glyph-name="Zcaron" unicode="&#x17d;" horiz-adv-x="577" 
d="M-15 7l594 691h-449l3 17h479l-1 -7l-594 -691h479l-3 -17h-509zM382 771h-20l-97 117h19l89 -102l115 102h21z" />
    <glyph glyph-name="zcaron" unicode="&#x17e;" horiz-adv-x="457" 
d="M-15 5l449 502h-339l3 16h370l-1 -5l-449 -502h360l-3 -16h-391zM302 613h-19l-96 124h19l88 -109l114 109h21z" />
    <glyph glyph-name="uni0192" unicode="&#x192;" horiz-adv-x="369" 
d="M60 391h100l34 177c21 115 80 156 152 156c35 0 55 -6 71 -13l-2 -15c-19 7 -36 12 -68 12c-64 0 -114 -37 -134 -140l-34 -177h150l-3 -16h-150l-106 -557h-19l106 557h-100z" />
    <glyph glyph-name="Aringacute" unicode="&#x1fa;" horiz-adv-x="630" 
d="M486 235h-355l-124 -235h-19l380 715h26l164 -715h-18zM140 252h342l-103 449zM389 764c43 0 72 30 72 73c0 39 -26 68 -69 68c-40 0 -72 -30 -72 -73c0 -37 29 -68 69 -68zM389 749c-49 0 -86 39 -86 83c0 48 40 88 89 88c51 0 86 -38 86 -83c0 -51 -38 -88 -89 -88z
M475 1068h22l-84 -117h-19z" />
    <glyph glyph-name="aringacute" unicode="&#x1fb;" horiz-adv-x="515" 
d="M206 -7c-120 0 -173 63 -173 140c0 126 103 159 218 159h175l7 47c16 109 -25 175 -148 175c-84 0 -152 -35 -181 -131h-18c26 103 111 147 199 147c135 0 185 -79 166 -192l-31 -196c-11 -72 -11 -113 -14 -142h-18c1 23 4 58 7 90c-29 -48 -95 -97 -189 -97zM206 9
c100 0 185 61 198 143l19 124h-172c-101 0 -200 -23 -200 -143c0 -70 46 -124 155 -124zM311 619c43 0 72 30 72 73c0 39 -26 68 -69 68c-40 0 -72 -30 -72 -73c0 -37 29 -68 69 -68zM311 604c-49 0 -86 39 -86 83c0 48 40 88 89 88c51 0 86 -38 86 -83
c0 -51 -38 -88 -89 -88zM410 948h22l-84 -117h-19z" />
    <glyph glyph-name="AEacute" unicode="&#x1fc;" horiz-adv-x="941" 
d="M454 715h484l-3 -17h-378l-51 -320h314l-3 -17h-313l-55 -344h403l-3 -17h-421l37 235h-303l-154 -235h-22zM173 252h294l71 446h-73zM760 888h22l-84 -117h-19z" />
    <glyph glyph-name="aeacute" unicode="&#x1fd;" horiz-adv-x="904" 
d="M439 219c0 -135 62 -210 191 -210c97 0 163 44 198 132h18c-35 -99 -111 -148 -216 -148c-128 0 -193 68 -206 181c-21 -131 -125 -181 -218 -181c-120 0 -173 61 -173 139c0 122 103 154 218 154h175l8 53c16 109 -26 175 -149 175c-84 0 -152 -35 -181 -131h-18
c26 103 111 147 199 147c119 0 169 -61 168 -153c40 89 115 153 223 153c152 0 211 -111 190 -247l-2 -13h-422c-2 -17 -3 -34 -3 -51zM206 9c101 0 185 59 204 176l13 85h-172c-101 0 -200 -21 -200 -138c0 -69 46 -123 155 -123zM676 514c-133 0 -213 -103 -232 -228h405
c19 128 -33 228 -173 228zM594 743h21l-101 -147h-18z" />
    <glyph glyph-name="Oslashacute" unicode="&#x1fe;" horiz-adv-x="780" 
d="M37 -3l97 102c-51 60 -78 140 -78 232c0 203 151 390 374 390c89 0 164 -31 220 -83l93 97l11 -11l-93 -97c59 -60 91 -142 91 -238c0 -204 -148 -395 -372 -395c-100 0 -179 34 -235 93l-97 -101zM733 389c0 88 -28 169 -83 226l-493 -515c53 -56 127 -89 223 -89
c211 0 353 179 353 378zM75 331c-3 -85 24 -162 72 -219l492 514c-51 48 -121 78 -209 78c-211 0 -352 -173 -355 -373zM512 888h22l-84 -117h-19z" />
    <glyph glyph-name="oslashacute" unicode="&#x1ff;" horiz-adv-x="567" 
d="M20 -1l71 73c-36 43 -54 96 -54 159c0 156 100 298 271 298c68 0 120 -26 159 -67l68 71l11 -10l-70 -72c35 -43 54 -99 54 -159c0 -168 -102 -299 -267 -299c-68 0 -122 25 -162 68l-69 -72zM263 9c154 0 249 124 249 283c0 56 -16 107 -47 147l-352 -366
c36 -40 86 -64 150 -64zM55 231c0 -56 17 -107 48 -146l352 365c-35 39 -83 63 -147 63c-163 0 -253 -133 -253 -282zM407 743h21l-101 -147h-18z" />
    <glyph glyph-name="uni0218" unicode="&#x218;" horiz-adv-x="568" 
d="M266 -6c-131 0 -238 57 -246 196h18c12 -123 96 -179 227 -179c128 0 223 68 223 193c0 97 -58 129 -192 167c-136 37 -194 80 -194 164c0 123 93 186 218 186c120 0 200 -52 211 -159h-18c-15 96 -80 142 -192 142c-116 0 -200 -53 -200 -169c0 -76 53 -114 183 -148
c140 -38 203 -77 203 -183c0 -135 -104 -210 -241 -210zM160 -179l67 133l19 -5l-72 -135z" />
    <glyph glyph-name="uni0219" unicode="&#x219;" horiz-adv-x="444" 
d="M200 -9c-111 0 -182 49 -189 160h18c7 -92 59 -144 171 -144c88 0 162 41 162 131c0 67 -41 95 -138 123c-103 31 -154 60 -154 135c0 88 77 133 168 133c90 0 162 -35 170 -131h-18c-8 77 -59 115 -152 115c-84 0 -150 -37 -150 -117c0 -62 40 -90 142 -119
c99 -29 150 -58 150 -139c0 -99 -85 -147 -180 -147zM85 -179l67 133l19 -5l-72 -135z" />
    <glyph glyph-name="uni021A" unicode="&#x21a;" horiz-adv-x="557" 
d="M335 698h-238l3 17h495l-3 -17h-238l-110 -698h-19zM156 -179l67 133l19 -5l-72 -135z" />
    <glyph glyph-name="uni021B" unicode="&#x21b;" horiz-adv-x="319" 
d="M175 -7c-72 0 -110 45 -95 134l60 380h-80l3 16h79l19 119h18l-19 -119h155l-3 -16h-154l-60 -380c-13 -84 18 -118 77 -118c27 0 48 5 67 12l-3 -16c-16 -7 -37 -12 -64 -12zM61 -179l67 133l19 -5l-72 -135z" />
    <glyph glyph-name="uni0237" unicode="&#x237;" horiz-adv-x="182" 
d="M-63 -168c59 3 79 29 90 92l95 599h18l-95 -599c-13 -80 -44 -105 -111 -108z" />
    <glyph glyph-name="circumflex" unicode="&#x2c6;" horiz-adv-x="400" 
d="M258 720h19l96 -124h-19l-88 109l-114 -109h-21z" />
    <glyph glyph-name="caron" unicode="&#x2c7;" horiz-adv-x="400" 
d="M264 613h-19l-96 124h19l88 -109l114 109h21z" />
    <glyph glyph-name="breve" unicode="&#x2d8;" horiz-adv-x="400" 
d="M263 612c-65 0 -101 44 -102 108h18c0 -56 31 -92 84 -92c52 0 93 36 104 92h18c-12 -68 -62 -108 -122 -108z" />
    <glyph glyph-name="dotaccent" unicode="&#x2d9;" horiz-adv-x="400" 
d="M261 639c-11 0 -17 8 -17 17s6 17 17 17s17 -8 17 -17s-6 -17 -17 -17z" />
    <glyph glyph-name="ring" unicode="&#x2da;" horiz-adv-x="400" 
d="M266 619c43 0 72 30 72 73c0 39 -26 68 -69 68c-40 0 -72 -30 -72 -73c0 -37 29 -68 69 -68zM266 604c-49 0 -86 39 -86 83c0 48 40 88 89 88c51 0 86 -38 86 -83c0 -51 -38 -88 -89 -88z" />
    <glyph glyph-name="ogonek" unicode="&#x2db;" horiz-adv-x="400" 
d="M145 -182c-55 0 -76 30 -76 67c0 57 70 99 100 115h25c-41 -22 -107 -61 -107 -115c0 -28 16 -51 59 -51c16 0 28 2 45 7l-3 -16c-12 -4 -27 -7 -43 -7z" />
    <glyph glyph-name="tilde" unicode="&#x2dc;" horiz-adv-x="400" 
d="M333 613c-52 0 -93 64 -136 64c-25 0 -50 -20 -59 -63h-17c11 55 41 79 77 79c48 0 93 -64 136 -64c24 0 49 20 58 63h17c-11 -53 -41 -79 -76 -79z" />
    <glyph glyph-name="hungarumlaut" unicode="&#x2dd;" horiz-adv-x="400" 
d="M264 743h21l-85 -147h-18zM370 743h21l-85 -147h-18z" />
    <glyph glyph-name="uni037E" unicode="&#x37e;" horiz-adv-x="172" 
d="M-28 -102l69 140l18 -8l-73 -139zM102 352c-11 0 -17 8 -17 17s6 17 17 17s17 -8 17 -17s-6 -17 -17 -17z" />
    <glyph glyph-name="tonos" unicode="&#x384;" horiz-adv-x="400" 
d="M340 743h21l-101 -147h-18z" />
    <glyph glyph-name="dieresistonos" unicode="&#x385;" horiz-adv-x="400" 
d="M322 785h20l-72 -147h-16zM357 639c-11 0 -17 8 -17 17s6 17 17 17s17 -8 17 -17s-6 -17 -17 -17zM187 639c-11 0 -17 8 -17 17s6 17 17 17s17 -8 17 -17s-6 -17 -17 -17z" />
    <glyph glyph-name="Alphatonos" unicode="&#x386;" horiz-adv-x="630" 
d="M486 235h-355l-124 -235h-19l380 715h26l164 -715h-18zM140 252h342l-103 449zM190 715h21l-101 -147h-18z" />
    <glyph glyph-name="anoteleia" unicode="&#x387;" horiz-adv-x="166" 
d="M91 303c-11 0 -17 8 -17 17s6 17 17 17s17 -8 17 -17s-6 -17 -17 -17z" />
    <glyph glyph-name="Epsilontonos" unicode="&#x388;" horiz-adv-x="566" 
d="M166 715h397l-3 -17h-378l-51 -320h314l-3 -17h-313l-55 -344h404l-4 -17h-421zM60 715h21l-101 -147h-18z" />
    <glyph glyph-name="Etatonos" unicode="&#x389;" horiz-adv-x="702" 
d="M166 715h19l-55 -344h474l55 344h19l-113 -715h-19l56 354h-474l-56 -354h-19zM60 715h21l-101 -147h-18z" />
    <glyph glyph-name="Iotatonos" unicode="&#x38a;" horiz-adv-x="219" 
d="M171 715h19l-113 -715h-19zM60 715h21l-101 -147h-18z" />
    <glyph glyph-name="Omicrontonos" unicode="&#x38c;" horiz-adv-x="780" 
d="M752 389c0 -204 -148 -395 -372 -395c-203 0 -324 145 -324 337c0 203 151 390 374 390c192 0 322 -144 322 -332zM733 389c0 169 -112 315 -303 315c-211 0 -352 -173 -355 -373c-3 -174 110 -320 305 -320c211 0 353 179 353 378zM90 715h21l-101 -147h-18z" />
    <glyph glyph-name="Upsilontonos" unicode="&#x38e;" horiz-adv-x="554" 
d="M279 325l-194 390h19l187 -373l282 373h22l-297 -391l-51 -324h-19zM30 715h21l-101 -147h-18z" />
    <glyph glyph-name="Omegatonos" unicode="&#x38f;" horiz-adv-x="785" 
d="M431 704c-206 0 -356 -167 -356 -378c0 -154 85 -256 202 -312l-2 -14h-248l3 17h204c-91 48 -178 152 -178 309c0 216 155 395 375 395c194 0 321 -147 321 -334c0 -168 -90 -295 -237 -370h203l-3 -17h-246l2 14c154 66 262 200 262 373c0 168 -111 317 -302 317z
M90 715h21l-101 -147h-18z" />
    <glyph glyph-name="iotadieresistonos" unicode="&#x390;" horiz-adv-x="182" 
d="M122 523h18l-82 -523h-18zM208 785h20l-72 -147h-16zM243 639c-11 0 -17 8 -17 17s6 17 17 17s17 -8 17 -17s-6 -17 -17 -17zM73 639c-11 0 -17 8 -17 17s6 17 17 17s17 -8 17 -17s-6 -17 -17 -17z" />
    <glyph glyph-name="Alpha" unicode="&#x391;" horiz-adv-x="630" 
d="M486 235h-355l-124 -235h-19l380 715h26l164 -715h-18zM140 252h342l-103 449z" />
    <glyph glyph-name="Beta" unicode="&#x392;" horiz-adv-x="582" 
d="M166 715h179c115 0 184 -59 184 -159c0 -108 -67 -164 -166 -183c97 -12 150 -73 150 -158c0 -139 -99 -215 -232 -215h-228zM281 17c120 0 213 65 213 198c0 92 -62 150 -193 150h-172l-55 -348h207zM302 382c100 0 208 42 208 174c0 88 -62 142 -165 142h-163l-50 -316
h170z" />
    <glyph glyph-name="Gamma" unicode="&#x393;" horiz-adv-x="519" 
d="M166 715h393l-3 -17h-374l-110 -698h-19z" />
    <glyph glyph-name="uni0394" unicode="&#x394;" horiz-adv-x="630" 
d="M-8 7l376 708h26l162 -708l-1 -7h-564zM16 17h520l-157 684z" />
    <glyph glyph-name="Epsilon" unicode="&#x395;" horiz-adv-x="566" 
d="M166 715h397l-3 -17h-378l-51 -320h314l-3 -17h-313l-55 -344h404l-4 -17h-421z" />
    <glyph glyph-name="Zeta" unicode="&#x396;" horiz-adv-x="577" 
d="M-15 7l594 691h-449l3 17h479l-1 -7l-594 -691h479l-3 -17h-509z" />
    <glyph glyph-name="Eta" unicode="&#x397;" horiz-adv-x="702" 
d="M166 715h19l-55 -344h474l55 344h19l-113 -715h-19l56 354h-474l-56 -354h-19z" />
    <glyph glyph-name="Theta" unicode="&#x398;" horiz-adv-x="780" 
d="M752 389c0 -204 -148 -395 -372 -395c-203 0 -324 145 -324 337c0 203 151 390 374 390c192 0 322 -144 322 -332zM733 389c0 169 -112 315 -303 315c-211 0 -352 -173 -355 -373c-3 -174 110 -320 305 -320c211 0 353 179 353 378zM249 373h312l-3 -17h-312z" />
    <glyph glyph-name="Iota" unicode="&#x399;" horiz-adv-x="219" 
d="M171 715h19l-113 -715h-19z" />
    <glyph glyph-name="Kappa" unicode="&#x39a;" horiz-adv-x="579" 
d="M479 0l-339 368l430 347h26l-431 -348l338 -367h-24zM166 715h19l-113 -715h-19z" />
    <glyph glyph-name="Lambda" unicode="&#x39b;" horiz-adv-x="619" 
d="M547 0h-18l-153 695l-369 -695h-19l380 715h22z" />
    <glyph glyph-name="Mu" unicode="&#x39c;" horiz-adv-x="846" 
d="M166 715h30l181 -680l406 680h31l-113 -715h-19l110 695l-415 -695h-9l-186 695l-110 -695h-19z" />
    <glyph glyph-name="Nu" unicode="&#x39d;" horiz-adv-x="701" 
d="M166 715h29l353 -693l110 693h19l-113 -715h-25l-357 700l-110 -700h-19z" />
    <glyph glyph-name="Xi" unicode="&#x39e;" horiz-adv-x="569" 
d="M566 715l-3 -17h-450l3 17h450zM465 373l-3 -17h-341l3 17h341zM14 17h465l-3 -17h-465z" />
    <glyph glyph-name="Omicron" unicode="&#x39f;" horiz-adv-x="780" 
d="M752 389c0 -204 -148 -395 -372 -395c-203 0 -324 145 -324 337c0 203 151 390 374 390c192 0 322 -144 322 -332zM733 389c0 169 -112 315 -303 315c-211 0 -352 -173 -355 -373c-3 -174 110 -320 305 -320c211 0 353 179 353 378z" />
    <glyph glyph-name="Pi" unicode="&#x3a0;" horiz-adv-x="694" 
d="M166 715h504l-113 -715h-19l110 698h-466l-110 -698h-19z" />
    <glyph glyph-name="Rho" unicode="&#x3a1;" horiz-adv-x="552" 
d="M166 715h156c132 0 221 -51 221 -173c0 -155 -97 -219 -249 -219h-172l-51 -323h-18zM294 340c139 0 230 53 230 202c0 116 -84 156 -203 156h-140l-57 -358h170z" />
    <glyph glyph-name="Sigma" unicode="&#x3a3;" horiz-adv-x="572" 
d="M49 17h434l-3 -17h-462l2 11l312 353l-203 334l3 17h438l-3 -17h-418l204 -336z" />
    <glyph glyph-name="Tau" unicode="&#x3a4;" horiz-adv-x="557" 
d="M335 698h-238l3 17h495l-3 -17h-238l-110 -698h-19z" />
    <glyph glyph-name="Upsilon" unicode="&#x3a5;" horiz-adv-x="554" 
d="M279 325l-194 390h19l187 -373l282 373h22l-297 -391l-51 -324h-19z" />
    <glyph glyph-name="Phi" unicode="&#x3a6;" horiz-adv-x="821" 
d="M357 -12l10 64c-186 13 -304 123 -304 288c0 207 181 326 401 326l10 61h19l-10 -63c183 -13 304 -125 304 -285c0 -205 -178 -328 -401 -328l-10 -63h-19zM82 340c0 -156 111 -259 287 -272l93 582c-197 0 -380 -105 -380 -310zM768 379c0 150 -113 256 -288 269
l-92 -581c201 0 380 110 380 312z" />
    <glyph glyph-name="Chi" unicode="&#x3a7;" horiz-adv-x="622" 
d="M318 374l-179 341h19l174 -328l275 328h23l-289 -343l197 -372h-19l-191 359l-305 -359h-23z" />
    <glyph glyph-name="Psi" unicode="&#x3a8;" horiz-adv-x="738" 
d="M693 459c-26 -167 -115 -259 -331 -259l-31 -200h-19l32 201c-148 8 -248 87 -248 229c0 17 2 37 5 56l35 229h19l-36 -232c-3 -19 -5 -36 -5 -52c0 -133 95 -206 232 -214l79 498h19l-79 -499c200 0 286 90 310 246l40 253h19z" />
    <glyph glyph-name="uni03A9" unicode="&#x3a9;" horiz-adv-x="785" 
d="M431 704c-206 0 -356 -167 -356 -378c0 -154 85 -256 202 -312l-2 -14h-248l3 17h204c-91 48 -178 152 -178 309c0 216 155 395 375 395c194 0 321 -147 321 -334c0 -168 -90 -295 -237 -370h203l-3 -17h-246l2 14c154 66 262 200 262 373c0 168 -111 317 -302 317z" />
    <glyph glyph-name="Iotadieresis" unicode="&#x3aa;" horiz-adv-x="219" 
d="M171 715h19l-113 -715h-19zM117 787c-11 0 -17 8 -17 17s6 17 17 17s17 -8 17 -17s-6 -17 -17 -17zM271 787c-11 0 -17 8 -17 17s6 17 17 17s17 -8 17 -17s-6 -17 -17 -17z" />
    <glyph glyph-name="Upsilondieresis" unicode="&#x3ab;" horiz-adv-x="554" 
d="M279 325l-194 390h19l187 -373l282 373h22l-297 -391l-51 -324h-19zM292 787c-11 0 -17 8 -17 17s6 17 17 17s17 -8 17 -17s-6 -17 -17 -17zM446 787c-11 0 -17 8 -17 17s6 17 17 17s17 -8 17 -17s-6 -17 -17 -17z" />
    <glyph glyph-name="alphatonos" unicode="&#x3ac;" horiz-adv-x="580" 
d="M300 514c-148 0 -245 -132 -245 -289c0 -138 88 -216 192 -216c150 0 236 155 239 286c3 133 -75 219 -186 219zM247 -7c-120 0 -210 88 -210 232c0 165 103 305 263 305c131 0 187 -101 198 -176l27 169h18l-56 -350c-15 -92 -16 -144 -19 -173h-18c0 35 7 102 15 147
c-37 -83 -110 -154 -218 -154zM438 743h21l-101 -147h-18z" />
    <glyph glyph-name="epsilontonos" unicode="&#x3ad;" horiz-adv-x="529" 
d="M477 397c-8 63 -54 117 -186 117c-129 0 -195 -52 -195 -137c0 -67 61 -99 117 -99h127l-3 -16h-133c-87 0 -148 -52 -148 -135c0 -76 68 -118 191 -118c101 0 185 35 218 131h18c-40 -112 -128 -147 -236 -147c-133 0 -209 47 -209 134c0 77 53 133 129 144
c-53 12 -89 55 -89 106c0 91 75 153 214 153c138 0 192 -59 203 -133h-18zM415 743h21l-101 -147h-18z" />
    <glyph glyph-name="etatonos" unicode="&#x3ae;" horiz-adv-x="559" 
d="M99 389c11 69 12 105 15 134h18c-1 -27 -5 -74 -13 -123c35 69 109 130 208 130c115 0 187 -75 163 -220l-78 -492h-18l78 492c21 138 -41 204 -145 204c-97 0 -202 -69 -221 -197l-50 -317h-18zM405 743h21l-101 -147h-18z" />
    <glyph glyph-name="iotatonos" unicode="&#x3af;" horiz-adv-x="182" 
d="M122 523h18l-82 -523h-18zM233 743h21l-101 -147h-18z" />
    <glyph glyph-name="upsilondieresistonos" unicode="&#x3b0;" horiz-adv-x="546" 
d="M83 216c-3 -17 -4 -32 -3 -47c3 -108 80 -160 166 -160c98 0 176 50 198 190l51 324h18l-51 -326c-24 -148 -109 -204 -216 -204c-96 0 -182 58 -185 175c0 16 1 32 4 51l48 304h18zM390 785h20l-72 -147h-16zM425 639c-11 0 -17 8 -17 17s6 17 17 17s17 -8 17 -17
s-6 -17 -17 -17zM255 639c-11 0 -17 8 -17 17s6 17 17 17s17 -8 17 -17s-6 -17 -17 -17z" />
    <glyph glyph-name="alpha" unicode="&#x3b1;" horiz-adv-x="580" 
d="M300 514c-148 0 -245 -132 -245 -289c0 -138 88 -216 192 -216c150 0 236 155 239 286c3 133 -75 219 -186 219zM247 -7c-120 0 -210 88 -210 232c0 165 103 305 263 305c131 0 187 -101 198 -176l27 169h18l-56 -350c-15 -92 -16 -144 -19 -173h-18c0 35 7 102 15 147
c-37 -83 -110 -154 -218 -154z" />
    <glyph glyph-name="beta" unicode="&#x3b2;" horiz-adv-x="564" 
d="M91 222c-19 -112 77 -213 184 -213c131 0 220 98 220 225c0 98 -77 174 -217 171l3 16c112 0 230 61 230 187c0 80 -50 152 -150 152c-135 0 -199 -84 -218 -208zM27 -182h-18l116 737c21 131 96 221 236 221c109 0 168 -79 168 -168c0 -107 -83 -178 -182 -194
c88 -13 166 -81 166 -179c0 -133 -91 -242 -238 -242c-93 0 -172 65 -196 149z" />
    <glyph glyph-name="gamma" unicode="&#x3b3;" horiz-adv-x="510" 
d="M509 523h19l-303 -515l-30 -190h-18l30 190l-151 515h18l144 -494z" />
    <glyph glyph-name="delta" unicode="&#x3b4;" horiz-adv-x="567" 
d="M554 757h-347l261 -320c24 -30 66 -88 66 -167c0 -160 -110 -277 -268 -277c-128 0 -229 105 -229 236c0 157 112 272 267 272c35 0 89 -11 113 -27l-240 294l1 5h378zM55 230c0 -122 93 -221 212 -221c143 0 249 107 249 260c0 108 -76 216 -212 216
c-145 0 -249 -106 -249 -255z" />
    <glyph glyph-name="epsilon" unicode="&#x3b5;" horiz-adv-x="529" 
d="M477 397c-8 63 -54 117 -186 117c-129 0 -195 -52 -195 -137c0 -67 61 -99 117 -99h127l-3 -16h-133c-87 0 -148 -52 -148 -135c0 -76 68 -118 191 -118c101 0 185 35 218 131h18c-40 -112 -128 -147 -236 -147c-133 0 -209 47 -209 134c0 77 53 133 129 144
c-53 12 -89 55 -89 106c0 91 75 153 214 153c138 0 192 -59 203 -133h-18z" />
    <glyph glyph-name="zeta" unicode="&#x3b6;" horiz-adv-x="454" 
d="M399 -40c0 -36 -14 -77 -33 -114h-18c16 31 33 82 33 113s-13 41 -69 41h-82c-123 0 -196 70 -196 179c0 230 271 435 454 578h-340l3 16h377l-1 -6c-237 -181 -475 -374 -475 -588c0 -101 67 -163 178 -163h82c65 0 87 -17 87 -56z" />
    <glyph glyph-name="eta" unicode="&#x3b7;" horiz-adv-x="559" 
d="M99 389c11 69 12 105 15 134h18c-1 -27 -5 -74 -13 -123c35 69 109 130 208 130c115 0 187 -75 163 -220l-78 -492h-18l78 492c21 138 -41 204 -145 204c-97 0 -202 -69 -221 -197l-50 -317h-18z" />
    <glyph glyph-name="theta" unicode="&#x3b8;" horiz-adv-x="587" 
d="M557 537c0 -124 -39 -317 -87 -402c-47 -85 -114 -142 -219 -142c-121 0 -189 78 -189 238c0 143 46 335 99 422c56 88 124 123 204 123c119 0 192 -75 192 -239zM365 760c-79 0 -141 -35 -190 -116c-37 -60 -63 -140 -79 -241h432c9 52 11 99 11 134
c0 153 -63 223 -174 223zM251 9c91 0 156 42 204 134c31 59 55 141 71 244h-432c-11 -72 -14 -118 -14 -155c0 -149 58 -223 171 -223z" />
    <glyph glyph-name="iota" unicode="&#x3b9;" horiz-adv-x="182" 
d="M122 523h18l-82 -523h-18z" />
    <glyph glyph-name="kappa" unicode="&#x3ba;" horiz-adv-x="459" 
d="M442 523h26l-340 -256l269 -267h-24l-270 268zM56 0h-18l83 523h18z" />
    <glyph glyph-name="lambda" unicode="&#x3bb;" horiz-adv-x="508" 
d="M7 0h-20l287 521l-40 186c-8 37 -19 53 -55 53c-16 0 -38 -4 -54 -11l2 16c15 7 34 11 53 11c43 0 61 -22 70 -65l139 -643c9 -39 23 -56 54 -56c9 0 27 3 34 6l-2 -16c-5 -3 -20 -6 -33 -6c-39 0 -58 23 -69 68l-93 431z" />
    <glyph glyph-name="uni03BC" unicode="&#x3bc;" horiz-adv-x="562" 
d="M459 134c-9 -60 -12 -109 -13 -134h-18c1 31 4 78 11 121c-34 -69 -107 -128 -207 -128c-85 0 -143 42 -159 118l-46 -293h-18l111 705h18l-50 -318c-21 -128 48 -196 144 -196c99 0 199 71 220 196l50 318h18z" />
    <glyph glyph-name="nu" unicode="&#x3bd;" horiz-adv-x="493" 
d="M66 523h18l127 -505l277 505h19l-285 -523h-26z" />
    <glyph glyph-name="xi" unicode="&#x3be;" horiz-adv-x="476" 
d="M128 757l3 16h393l-3 -16h-127c-108 0 -244 -57 -244 -188c0 -69 61 -137 158 -137h124l-3 -16h-130c-131 0 -249 -87 -249 -224c0 -114 87 -176 203 -176h67c65 0 87 -17 87 -56c0 -36 -14 -77 -33 -114h-18c16 31 33 82 33 113s-13 41 -69 41h-68
c-117 0 -220 60 -220 192c0 125 106 223 223 234c-69 17 -123 70 -123 143c0 98 81 172 172 188h-176z" />
    <glyph glyph-name="omicron" unicode="&#x3bf;" horiz-adv-x="567" 
d="M263 -7c-135 0 -226 107 -226 238c0 156 100 298 271 298c140 0 222 -112 222 -237c0 -168 -102 -299 -267 -299zM263 9c154 0 249 124 249 283c0 117 -73 221 -204 221c-163 0 -253 -133 -253 -282c0 -118 80 -222 208 -222z" />
    <glyph glyph-name="pi" unicode="&#x3c0;" horiz-adv-x="562" 
d="M439 134c-9 -60 -12 -109 -13 -134h-18c1 31 6 88 13 131l59 376h-322l-80 -507h-18l80 507h-80l3 16h518l-3 -16h-80z" />
    <glyph glyph-name="rho" unicode="&#x3c1;" horiz-adv-x="566" 
d="M284 9c144 0 227 124 227 283c0 117 -61 222 -192 222c-163 0 -242 -133 -242 -283c0 -118 79 -222 207 -222zM7 -182h-18l74 469c21 132 104 243 256 243c140 0 210 -113 210 -238c0 -168 -90 -299 -245 -299c-120 0 -200 80 -219 189z" />
    <glyph glyph-name="uni03C2" unicode="&#x3c2;" horiz-adv-x="536" 
d="M325 16c65 0 87 -17 87 -56c0 -36 -14 -77 -33 -114h-18c16 31 33 82 33 113s-13 41 -69 41h-55c-136 0 -228 88 -228 231c0 164 105 299 266 299c107 0 188 -67 193 -167h-18c-5 85 -72 151 -176 151c-153 0 -247 -130 -247 -283c0 -128 72 -215 211 -215h54z" />
    <glyph glyph-name="sigma" unicode="&#x3c3;" horiz-adv-x="595" 
d="M263 -7c-135 0 -226 104 -226 235c0 156 100 295 271 295h280l-3 -16h-193c92 -30 138 -121 138 -217c0 -167 -102 -297 -267 -297zM263 9c154 0 249 122 249 281c0 117 -69 217 -204 217c-163 0 -253 -130 -253 -279c0 -118 80 -219 208 -219z" />
    <glyph glyph-name="tau" unicode="&#x3c4;" horiz-adv-x="425" 
d="M248 -7c-56 0 -83 38 -80 105c0 11 1 23 3 35l59 374h-180l2 16h387l-2 -16h-189l-59 -374c-3 -15 -4 -28 -4 -40c-1 -55 21 -84 64 -84s65 6 93 13l-3 -16c-21 -7 -48 -13 -91 -13z" />
    <glyph glyph-name="upsilon" unicode="&#x3c5;" horiz-adv-x="546" 
d="M83 216c-3 -17 -4 -32 -3 -47c3 -108 80 -160 166 -160c98 0 176 50 198 190l51 324h18l-51 -326c-24 -148 -109 -204 -216 -204c-96 0 -182 58 -185 175c0 16 1 32 4 51l48 304h18z" />
    <glyph glyph-name="phi" unicode="&#x3c6;" horiz-adv-x="705" 
d="M398 529c180 -8 270 -101 270 -234c0 -196 -154 -297 -346 -297l-28 -180h-18l28 181c-165 8 -267 116 -267 244c0 149 85 256 213 283l-1 -16c-133 -32 -194 -144 -194 -267s97 -221 252 -229l81 515h10zM324 14c186 0 326 100 326 281c0 125 -80 209 -247 218z" />
    <glyph glyph-name="chi" unicode="&#x3c7;" horiz-adv-x="510" 
d="M249 162l-245 -344h-20l258 362l-117 302c-12 31 -21 31 -34 31c-9 0 -20 -2 -31 -5l2 15c7 3 20 6 29 6c21 0 34 -3 49 -39l114 -295l233 328h21l-247 -345l115 -294c13 -35 23 -53 48 -53c9 0 27 3 34 6l-2 -16c-7 -3 -19 -6 -32 -6c-33 0 -47 20 -64 63z" />
    <glyph glyph-name="psi" unicode="&#x3c8;" horiz-adv-x="709" 
d="M84 258c-21 -135 63 -234 222 -242l80 507h18l-80 -507c189 0 272 77 293 209l47 298h18l-47 -300c-23 -144 -117 -223 -314 -223l-28 -182h-18l29 183c-170 11 -262 116 -238 258l42 264h18z" />
    <glyph glyph-name="omega" unicode="&#x3c9;" horiz-adv-x="719" 
d="M353 153c-13 -92 43 -144 117 -144c142 0 190 174 190 294c0 107 -33 194 -153 210l3 16c124 -16 168 -109 168 -226c0 -128 -51 -310 -208 -310c-81 0 -128 49 -132 114c-21 -60 -69 -114 -148 -114c-100 0 -155 84 -155 201c0 157 76 316 247 335l-3 -16
c-159 -21 -226 -170 -226 -319c0 -112 49 -185 137 -185c73 0 133 58 146 146l30 196h18z" />
    <glyph glyph-name="iotadieresis" unicode="&#x3ca;" horiz-adv-x="182" 
d="M122 523h18l-82 -523h-18zM78 639c-11 0 -17 8 -17 17s6 17 17 17s17 -8 17 -17s-6 -17 -17 -17zM220 639c-11 0 -17 8 -17 17s6 17 17 17s17 -8 17 -17s-6 -17 -17 -17z" />
    <glyph glyph-name="upsilondieresis" unicode="&#x3cb;" horiz-adv-x="546" 
d="M83 216c-3 -17 -4 -32 -3 -47c3 -108 80 -160 166 -160c98 0 176 50 198 190l51 324h18l-51 -326c-24 -148 -109 -204 -216 -204c-96 0 -182 58 -185 175c0 16 1 32 4 51l48 304h18zM263 639c-11 0 -17 8 -17 17s6 17 17 17s17 -8 17 -17s-6 -17 -17 -17zM405 639
c-11 0 -17 8 -17 17s6 17 17 17s17 -8 17 -17s-6 -17 -17 -17z" />
    <glyph glyph-name="omicrontonos" unicode="&#x3cc;" horiz-adv-x="567" 
d="M263 -7c-135 0 -226 107 -226 238c0 156 100 298 271 298c140 0 222 -112 222 -237c0 -168 -102 -299 -267 -299zM263 9c154 0 249 124 249 283c0 117 -73 221 -204 221c-163 0 -253 -133 -253 -282c0 -118 80 -222 208 -222zM430 743h21l-101 -147h-18z" />
    <glyph glyph-name="upsilontonos" unicode="&#x3cd;" horiz-adv-x="546" 
d="M83 216c-3 -17 -4 -32 -3 -47c3 -108 80 -160 166 -160c98 0 176 50 198 190l51 324h18l-51 -326c-24 -148 -109 -204 -216 -204c-96 0 -182 58 -185 175c0 16 1 32 4 51l48 304h18zM410 743h21l-101 -147h-18z" />
    <glyph glyph-name="omegatonos" unicode="&#x3ce;" horiz-adv-x="719" 
d="M353 153c-13 -92 43 -144 117 -144c142 0 190 174 190 294c0 107 -33 194 -153 210l3 16c124 -16 168 -109 168 -226c0 -128 -51 -310 -208 -310c-81 0 -128 49 -132 114c-21 -60 -69 -114 -148 -114c-100 0 -155 84 -155 201c0 157 76 316 247 335l-3 -16
c-159 -21 -226 -170 -226 -319c0 -112 49 -185 137 -185c73 0 133 58 146 146l30 196h18zM502 743h21l-101 -147h-18z" />
    <glyph glyph-name="uni0401" unicode="&#x401;" horiz-adv-x="566" 
d="M166 715h397l-3 -17h-378l-51 -320h314l-3 -17h-313l-55 -344h404l-4 -17h-421zM291 787c-11 0 -17 8 -17 17s6 17 17 17s17 -8 17 -17s-6 -17 -17 -17zM445 787c-11 0 -17 8 -17 17s6 17 17 17s17 -8 17 -17s-6 -17 -17 -17z" />
    <glyph glyph-name="uni0402" unicode="&#x402;" horiz-adv-x="754" 
d="M483 -4c-47 0 -80 12 -97 21l3 18c23 -11 54 -22 97 -22c120 0 191 106 191 228c0 111 -52 172 -180 172c-132 0 -195 -92 -205 -107l-48 -306h-19l110 698h-238l3 17h505l-3 -17h-248l-57 -363c25 33 90 95 201 95c139 0 196 -68 196 -189c0 -131 -77 -245 -211 -245z
" />
    <glyph glyph-name="uni0403" unicode="&#x403;" horiz-adv-x="514" 
d="M166 715h373l-3 -17h-354l-110 -698h-19zM432 888h22l-84 -117h-19z" />
    <glyph glyph-name="uni0404" unicode="&#x404;" horiz-adv-x="722" 
d="M676 221c-45 -148 -168 -227 -310 -227c-188 0 -310 121 -310 321c0 217 143 406 375 406c129 0 243 -76 264 -211h-17c-24 123 -124 194 -247 194c-203 0 -331 -148 -352 -333h423l-3 -17h-421c-1 -13 -2 -26 -2 -39c0 -189 110 -304 290 -304c137 0 245 73 292 210h18z
" />
    <glyph glyph-name="uni0405" unicode="&#x405;" horiz-adv-x="568" 
d="M266 -6c-131 0 -238 57 -246 196h18c12 -123 96 -179 227 -179c128 0 223 68 223 193c0 97 -58 129 -192 167c-136 37 -194 80 -194 164c0 123 93 186 218 186c120 0 200 -52 211 -159h-18c-15 96 -80 142 -192 142c-116 0 -200 -53 -200 -169c0 -76 53 -114 183 -148
c140 -38 203 -77 203 -183c0 -135 -104 -210 -241 -210z" />
    <glyph glyph-name="uni0406" unicode="&#x406;" horiz-adv-x="219" 
d="M171 715h19l-113 -715h-19z" />
    <glyph glyph-name="uni0407" unicode="&#x407;" horiz-adv-x="219" 
d="M171 715h19l-113 -715h-19zM116 787c-11 0 -17 8 -17 17s6 17 17 17s17 -8 17 -17s-6 -17 -17 -17zM270 787c-11 0 -17 8 -17 17s6 17 17 17s17 -8 17 -17s-6 -17 -17 -17z" />
    <glyph glyph-name="uni0408" unicode="&#x408;" horiz-adv-x="378" 
d="M114 -4c-57 0 -94 14 -117 29l3 18c31 -19 65 -30 114 -30c80 0 132 40 148 140l89 562h19l-89 -563c-19 -115 -79 -156 -167 -156z" />
    <glyph glyph-name="uni0409" unicode="&#x409;" horiz-adv-x="993" 
d="M288 698c-13 -53 -52 -225 -100 -409c-48 -182 -87 -295 -175 -295c-13 0 -23 2 -31 5c-5 1 -9 3 -12 5l3 19l12 -6c9 -3 19 -5 30 -5c71 0 110 109 156 283c28 105 53 209 72 289c11 47 22 90 31 131h364l-51 -323h127c132 0 221 -51 221 -173
c0 -155 -97 -219 -249 -219h-180l110 698h-328zM686 17c139 0 230 53 230 202c0 116 -83 156 -203 156h-129l-56 -358h158z" />
    <glyph glyph-name="uni040A" unicode="&#x40a;" horiz-adv-x="993" 
d="M53 0l113 715h19l-55 -344h435l54 344h19l-54 -344h130c132 0 221 -39 221 -162c0 -155 -97 -209 -249 -209h-180l56 354h-434l-56 -354h-19zM686 17c139 0 230 44 230 192c0 115 -83 145 -203 145h-132l-53 -337h158z" />
    <glyph glyph-name="uni040B" unicode="&#x40b;" horiz-adv-x="778" 
d="M501 413c-76 0 -128 -28 -161 -55c-19 -16 -35 -34 -48 -54l-48 -304h-19l110 698h-238l3 17h505l-3 -17h-248l-57 -363c24 32 87 95 205 95c148 0 200 -84 175 -245l-29 -185h-19l29 184c25 157 -24 229 -157 229z" />
    <glyph glyph-name="uni040C" unicode="&#x40c;" horiz-adv-x="579" 
d="M428 888h22l-84 -117h-19zM479 0l-339 368l430 347h26l-431 -348l338 -367h-24zM166 715h19l-113 -715h-19z" />
    <glyph glyph-name="uni040D" unicode="&#x40d;" horiz-adv-x="712" 
d="M53 0l113 715h19l-108 -686l592 686h19l-113 -715h-19l108 685l-592 -685h-19zM359 888h21l61 -117h-18z" />
    <glyph glyph-name="uni040E" unicode="&#x40e;" horiz-adv-x="562" 
d="M101 -6c-31 0 -45 7 -52 10l3 18c7 -3 25 -10 50 -10c64 0 104 47 153 127l-154 576h19l149 -555l316 555h19l-315 -554c-56 -100 -106 -167 -188 -167zM360 775c-68 0 -109 47 -110 112h18c1 -56 36 -96 92 -96c55 0 101 39 112 96h18c-11 -67 -68 -112 -130 -112z" />
    <glyph glyph-name="uni040F" unicode="&#x40f;" horiz-adv-x="692" 
d="M53 0l113 715h19l-110 -698h464l110 698h19l-113 -715h-242l-22 -130h-15l18 130h-241z" />
    <glyph glyph-name="uni0410" unicode="&#x410;" horiz-adv-x="630" 
d="M486 235h-355l-124 -235h-19l380 715h26l164 -715h-18zM140 252h342l-103 449z" />
    <glyph glyph-name="uni0411" unicode="&#x411;" horiz-adv-x="567" 
d="M502 223c0 -155 -97 -223 -249 -223h-200l113 715h361l-3 -17h-342l-47 -299h146c133 0 221 -55 221 -176zM253 17c139 0 230 58 230 206c0 116 -83 159 -203 159h-148l-57 -365h178z" />
    <glyph glyph-name="uni0412" unicode="&#x412;" horiz-adv-x="582" 
d="M166 715h179c115 0 184 -59 184 -159c0 -108 -67 -164 -166 -183c97 -12 150 -73 150 -158c0 -139 -99 -215 -232 -215h-228zM281 17c120 0 213 65 213 198c0 92 -62 150 -193 150h-172l-55 -348h207zM302 382c100 0 208 42 208 174c0 88 -62 142 -165 142h-163l-50 -316
h170z" />
    <glyph glyph-name="uni0413" unicode="&#x413;" horiz-adv-x="514" 
d="M166 715h373l-3 -17h-354l-110 -698h-19z" />
    <glyph glyph-name="uni0414" unicode="&#x414;" horiz-adv-x="687" 
d="M177 289c-40 -159 -71 -248 -118 -272h458l107 681h-349c-13 -53 -53 -231 -98 -409zM-30 -130h-16l23 147h52c56 23 92 129 131 278c27 105 51 209 70 289c11 47 22 90 31 131h385l-110 -698h100l-23 -147h-17l18 130h-621z" />
    <glyph glyph-name="uni0415" unicode="&#x415;" horiz-adv-x="566" 
d="M166 715h397l-3 -17h-378l-51 -320h314l-3 -17h-313l-55 -344h404l-4 -17h-421z" />
    <glyph glyph-name="uni0416" unicode="&#x416;" horiz-adv-x="847" 
d="M390 0h-19l113 715h19zM838 715h26l-382 -348l289 -367h-24l-288 368zM14 0h-26l409 370l-270 345h22l270 -347z" />
    <glyph glyph-name="uni0417" unicode="&#x417;" horiz-adv-x="556" 
d="M256 -6c-148 0 -218 85 -229 196h19c13 -99 71 -179 210 -179c137 0 213 82 213 199c0 89 -68 155 -188 155h-102l3 17h99c136 0 206 76 206 175c0 85 -53 147 -164 147c-104 0 -169 -54 -200 -142h-19c35 100 111 159 219 159c120 0 183 -65 183 -164
s-66 -165 -163 -184c89 -19 145 -71 145 -163c0 -130 -85 -216 -232 -216z" />
    <glyph glyph-name="uni0418" unicode="&#x418;" horiz-adv-x="712" 
d="M53 0l113 715h19l-108 -686l592 686h19l-113 -715h-19l108 685l-592 -685h-19z" />
    <glyph glyph-name="uni0419" unicode="&#x419;" horiz-adv-x="712" 
d="M53 0l113 715h19l-108 -686l592 686h19l-113 -715h-19l108 685l-592 -685h-19zM423 775c-68 0 -109 47 -110 112h18c1 -56 36 -96 92 -96c55 0 101 39 112 96h18c-11 -67 -68 -112 -130 -112z" />
    <glyph glyph-name="uni041A" unicode="&#x41a;" horiz-adv-x="579" 
d="M479 0l-339 368l430 347h26l-431 -348l338 -367h-24zM166 715h19l-113 -715h-19z" />
    <glyph glyph-name="uni041B" unicode="&#x41b;" horiz-adv-x="672" 
d="M188 289c-48 -182 -87 -295 -175 -295c-13 0 -23 2 -31 5c-5 1 -9 3 -12 5l3 19l12 -6c9 -3 19 -5 30 -5c71 0 110 109 156 283c28 105 53 209 72 289c11 47 22 90 31 131h374l-113 -715h-19l110 698h-338c-13 -53 -52 -225 -100 -409z" />
    <glyph glyph-name="uni041C" unicode="&#x41c;" horiz-adv-x="846" 
d="M166 715h30l181 -680l406 680h31l-113 -715h-19l110 695l-415 -695h-9l-186 695l-110 -695h-19z" />
    <glyph glyph-name="uni041D" unicode="&#x41d;" horiz-adv-x="702" 
d="M166 715h19l-55 -344h474l55 344h19l-113 -715h-19l56 354h-474l-56 -354h-19z" />
    <glyph glyph-name="uni041E" unicode="&#x41e;" horiz-adv-x="780" 
d="M752 389c0 -204 -148 -395 -372 -395c-203 0 -324 145 -324 337c0 203 151 390 374 390c192 0 322 -144 322 -332zM733 389c0 169 -112 315 -303 315c-211 0 -352 -173 -355 -373c-3 -174 110 -320 305 -320c211 0 353 179 353 378z" />
    <glyph glyph-name="uni041F" unicode="&#x41f;" horiz-adv-x="692" 
d="M646 698h-464l-110 -698h-19l113 715h502l-113 -715h-19z" />
    <glyph glyph-name="uni0420" unicode="&#x420;" horiz-adv-x="552" 
d="M166 715h156c132 0 221 -51 221 -173c0 -155 -97 -219 -249 -219h-172l-51 -323h-18zM294 340c139 0 230 53 230 202c0 116 -84 156 -203 156h-140l-57 -358h170z" />
    <glyph glyph-name="uni0421" unicode="&#x421;" horiz-adv-x="722" 
d="M366 -6c-188 0 -310 121 -310 321c0 217 143 406 375 406c129 0 243 -76 264 -211h-17c-24 123 -124 194 -247 194c-222 0 -355 -179 -355 -389c0 -189 110 -304 290 -304c137 0 245 73 292 210h18c-45 -148 -168 -227 -310 -227z" />
    <glyph glyph-name="uni0422" unicode="&#x422;" horiz-adv-x="557" 
d="M335 698h-238l3 17h495l-3 -17h-238l-110 -698h-19z" />
    <glyph glyph-name="uni0423" unicode="&#x423;" horiz-adv-x="562" 
d="M101 -6c-31 0 -45 7 -52 10l3 18c7 -3 25 -10 50 -10c64 0 104 47 153 127l-154 576h19l149 -555l316 555h19l-315 -554c-56 -100 -106 -167 -188 -167z" />
    <glyph glyph-name="uni0424" unicode="&#x424;" horiz-adv-x="755" 
d="M323 -10l15 97c-184 12 -286 96 -286 244v10c0 180 140 293 372 293l14 91h19l-14 -91c183 -12 288 -101 288 -257v-7c0 -180 -141 -283 -374 -283l-15 -97h-19zM712 377c0 147 -99 228 -272 240l-80 -513c221 0 352 98 352 266v7zM71 331c0 -139 97 -215 270 -227
l80 513c-221 0 -350 -108 -350 -276v-10z" />
    <glyph glyph-name="uni0425" unicode="&#x425;" horiz-adv-x="622" 
d="M318 374l-179 341h19l174 -328l275 328h23l-289 -343l197 -372h-19l-191 359l-305 -359h-23z" />
    <glyph glyph-name="uni0426" unicode="&#x426;" horiz-adv-x="709" 
d="M617 -130l19 130h-583l113 715h19l-110 -698h464l110 698h19l-110 -698h99l-24 -147h-16z" />
    <glyph glyph-name="uni0427" unicode="&#x427;" horiz-adv-x="614" 
d="M458 0l60 380c-27 -32 -95 -95 -232 -95c-149 0 -204 77 -177 245l29 185h19l-29 -184c-25 -157 21 -229 158 -229c157 0 227 92 237 107l48 306h19l-113 -715h-19z" />
    <glyph glyph-name="uni0428" unicode="&#x428;" horiz-adv-x="915" 
d="M166 715h19l-110 -698h334l110 698h19l-110 -698h334l110 698h19l-113 -715h-725z" />
    <glyph glyph-name="uni0429" unicode="&#x429;" horiz-adv-x="932" 
d="M841 -130l19 130h-807l113 715h19l-110 -698h334l110 698h19l-110 -698h334l110 698h19l-110 -698h100l-24 -147h-16z" />
    <glyph glyph-name="uni042A" unicode="&#x42a;" horiz-adv-x="665" 
d="M168 0l109 698h-183l2 17h204l-51 -323h137c132 0 221 -51 221 -173c0 -155 -97 -219 -249 -219h-190zM358 17c139 0 230 53 230 202c0 116 -83 156 -203 156h-139l-56 -358h168z" />
    <glyph glyph-name="uni042B" unicode="&#x42b;" horiz-adv-x="729" 
d="M53 0l113 715h19l-51 -323h137c132 0 221 -51 221 -173c0 -155 -97 -219 -249 -219h-190zM686 715h19l-113 -715h-19zM243 17c139 0 230 53 230 202c0 116 -83 156 -203 156h-139l-56 -358h168z" />
    <glyph glyph-name="uni042C" unicode="&#x42c;" horiz-adv-x="550" 
d="M53 0l113 715h19l-51 -323h137c132 0 221 -51 221 -173c0 -155 -97 -219 -249 -219h-190zM243 17c139 0 230 53 230 202c0 116 -83 156 -203 156h-139l-56 -358h168z" />
    <glyph glyph-name="uni042D" unicode="&#x42d;" horiz-adv-x="712" 
d="M313 -6c-144 0 -259 77 -283 231h17c27 -141 129 -214 266 -214c204 0 333 151 349 343h-423l3 17h421c1 8 1 15 1 23c0 185 -113 310 -292 310c-124 0 -215 -54 -271 -166h-19c56 124 159 183 290 183c188 0 312 -131 312 -327c0 -217 -143 -400 -371 -400z" />
    <glyph glyph-name="uni042E" unicode="&#x42e;" horiz-adv-x="970" 
d="M585 -6c-202 0 -309 145 -309 337c0 8 0 15 1 23h-149l-56 -354h-19l113 715h19l-55 -344h148c16 187 149 350 357 350c192 0 307 -144 307 -332c0 -204 -133 -395 -357 -395zM923 389c0 169 -96 315 -288 315c-211 0 -337 -173 -340 -373c-3 -174 96 -320 290 -320
c212 0 338 179 338 378z" />
    <glyph glyph-name="uni042F" unicode="&#x42f;" horiz-adv-x="585" 
d="M482 336l57 362h-181c-141 0 -230 -55 -230 -202c0 -115 83 -160 203 -160h151zM6 0h-25l275 326c-92 19 -147 73 -147 170c0 155 97 219 249 219h203l-113 -715h-19l50 319h-149c-20 0 -38 1 -54 3z" />
    <glyph glyph-name="uni0430" unicode="&#x430;" horiz-adv-x="515" 
d="M206 -7c-120 0 -173 63 -173 140c0 126 103 159 218 159h175l7 47c16 109 -25 175 -148 175c-84 0 -152 -35 -181 -131h-18c26 103 111 147 199 147c135 0 185 -79 166 -192l-31 -196c-11 -72 -11 -113 -14 -142h-18c1 23 4 58 7 90c-29 -48 -95 -97 -189 -97zM206 9
c100 0 185 61 198 143l19 124h-172c-101 0 -200 -23 -200 -143c0 -70 46 -124 155 -124z" />
    <glyph glyph-name="uni0431" unicode="&#x431;" horiz-adv-x="572" 
d="M268 -7c-139 0 -223 100 -223 248c0 33 3 64 10 96c53 304 128 424 364 429c88 1 128 7 155 14l-3 -16c-25 -8 -58 -11 -152 -14c-217 -5 -288 -110 -342 -372h1c37 85 120 151 235 151c157 0 222 -112 222 -237c0 -168 -102 -299 -267 -299zM268 9
c154 0 249 124 249 283c0 117 -60 221 -204 221c-162 0 -250 -132 -250 -272c0 -125 66 -232 205 -232z" />
    <glyph glyph-name="uni0432" unicode="&#x432;" horiz-adv-x="509" 
d="M121 523h202c84 0 132 -36 132 -116c0 -71 -48 -119 -120 -132c54 -8 108 -35 108 -122c0 -79 -61 -153 -192 -153h-213zM136 507l-35 -225h185c104 0 150 64 150 125c0 72 -43 100 -116 100h-184zM98 266l-39 -250h195c115 0 170 65 170 137c0 81 -50 113 -141 113h-185
z" />
    <glyph glyph-name="uni0433" unicode="&#x433;" horiz-adv-x="428" 
d="M135 507l-80 -507h-18l83 523h311l-3 -16h-293z" />
    <glyph glyph-name="uni0434" unicode="&#x434;" horiz-adv-x="561" 
d="M475 507h-275c-8 -43 -35 -165 -54 -237c-34 -132 -55 -222 -103 -254h355zM-41 -127l24 143h30c54 16 79 113 117 259c11 42 25 105 36 156l20 92h310l-80 -507h79l-24 -143h-14l18 127h-478l-24 -127h-14z" />
    <glyph glyph-name="uni0435" unicode="&#x435;" horiz-adv-x="529" 
d="M57 219c0 -135 67 -210 196 -210c96 0 165 44 200 132h18c-35 -99 -113 -148 -218 -148c-144 0 -215 85 -215 226c0 161 96 311 261 311c152 0 213 -111 192 -247l-2 -13h-429c-2 -17 -3 -34 -3 -51zM299 514c-135 0 -216 -103 -237 -228h412c19 128 -34 228 -175 228z
" />
    <glyph glyph-name="uni0436" unicode="&#x436;" horiz-adv-x="663" 
d="M13 0h-26l315 276l-214 247h22l212 -249zM642 523h24l-293 -250l225 -273h-23l-223 274zM303 0h-18l83 523h18z" />
    <glyph glyph-name="uni0437" unicode="&#x437;" horiz-adv-x="452" 
d="M201 -9c-113 0 -169 61 -180 145h18c11 -75 56 -129 163 -129c115 0 173 73 173 145c0 63 -35 114 -135 114h-75l3 16h71c88 0 151 51 151 131c0 52 -40 101 -128 101c-80 0 -146 -46 -166 -130h-17c19 99 100 146 184 146c96 0 145 -52 145 -117
c0 -71 -47 -125 -120 -138c72 -15 105 -58 105 -123c0 -76 -64 -161 -192 -161z" />
    <glyph glyph-name="uni0438" unicode="&#x438;" horiz-adv-x="564" 
d="M37 0l83 523h18l-79 -496l445 496h18l-83 -523h-18l79 496l-445 -496h-18z" />
    <glyph glyph-name="uni0439" unicode="&#x439;" horiz-adv-x="564" 
d="M331 612c-65 0 -101 44 -102 108h18c0 -56 31 -92 84 -92c52 0 93 36 104 92h18c-12 -68 -62 -108 -122 -108zM37 0l83 523h18l-79 -496l445 496h18l-83 -523h-18l79 496l-445 -496h-18z" />
    <glyph glyph-name="uni043A" unicode="&#x43a;" horiz-adv-x="452" 
d="M429 523h26l-324 -243l260 -280h-23l-262 281zM56 0h-18l83 523h18z" />
    <glyph glyph-name="uni043B" unicode="&#x43b;" horiz-adv-x="544" 
d="M158 270c-45 -170 -69 -273 -149 -273c-11 0 -19 1 -26 4c-3 1 -5 3 -7 5l3 18c3 -2 6 -4 9 -5c5 -3 13 -5 22 -5c64 0 92 103 132 261c11 42 25 105 36 156l20 92h305l-83 -523h-18l80 507h-270c-8 -43 -35 -165 -54 -237z" />
    <glyph glyph-name="uni043C" unicode="&#x43c;" horiz-adv-x="664" 
d="M522 0l79 499l-310 -499h-10l-145 502l-80 -502h-18l83 523h27l143 -493l307 493h25l-83 -523h-18z" />
    <glyph glyph-name="uni043D" unicode="&#x43d;" horiz-adv-x="554" 
d="M453 266h-356l-42 -266h-18l83 523h18l-38 -241h356l38 241h18l-83 -523h-18z" />
    <glyph glyph-name="uni043E" unicode="&#x43e;" horiz-adv-x="567" 
d="M263 -7c-135 0 -226 107 -226 238c0 156 100 298 271 298c140 0 222 -112 222 -237c0 -168 -102 -299 -267 -299zM263 9c154 0 249 124 249 283c0 117 -73 221 -204 221c-163 0 -253 -133 -253 -282c0 -118 80 -222 208 -222z" />
    <glyph glyph-name="uni043F" unicode="&#x43f;" horiz-adv-x="544" 
d="M481 507h-346l-80 -507h-18l83 523h382l-83 -523h-18z" />
    <glyph glyph-name="uni0440" unicode="&#x440;" horiz-adv-x="586" 
d="M340 530c115 0 209 -93 209 -237c0 -165 -85 -300 -254 -300c-136 0 -198 103 -211 182l-57 -357h-18l84 532c15 89 18 144 21 173h18c0 -26 -9 -99 -17 -148c40 88 116 155 225 155zM295 9c156 0 236 128 236 284c0 139 -90 221 -191 221c-155 0 -242 -146 -245 -277
c-3 -143 85 -228 200 -228z" />
    <glyph glyph-name="uni0441" unicode="&#x441;" horiz-adv-x="539" 
d="M268 -7c-140 0 -226 98 -226 238c0 164 108 299 269 299c107 0 188 -67 193 -167h-18c-5 85 -72 151 -176 151c-153 0 -250 -130 -250 -283c0 -136 84 -222 208 -222c104 0 182 56 210 161h18c-30 -118 -117 -177 -228 -177z" />
    <glyph glyph-name="uni0442" unicode="&#x442;" horiz-adv-x="469" 
d="M266 507l-80 -507h-18l80 507h-202l3 16h423l-3 -16h-203z" />
    <glyph glyph-name="uni0443" unicode="&#x443;" horiz-adv-x="480" 
d="M200 36l-134 487h18l129 -466l261 466h20l-396 -705h-20z" />
    <glyph glyph-name="uni0444" unicode="&#x444;" horiz-adv-x="658" 
d="M250 -182l28 175c-149 3 -241 90 -241 225v7c0 194 138 301 325 304l39 244h18l-39 -244c149 -3 241 -90 241 -225v-7c0 -194 -138 -301 -325 -304l-28 -175h-18zM55 218c0 -131 86 -207 225 -210l80 506c-175 -3 -305 -106 -305 -289v-7zM603 304
c0 131 -86 207 -225 210l-80 -506c176 3 305 106 305 289v7z" />
    <glyph glyph-name="uni0445" unicode="&#x445;" horiz-adv-x="485" 
d="M230 273l-147 250h21l139 -238l209 238h22l-221 -252l159 -271h-21l-152 259l-228 -259h-22z" />
    <glyph glyph-name="uni0446" unicode="&#x446;" horiz-adv-x="567" 
d="M463 -127l18 127h-444l83 523h18l-80 -507h346l80 507h18l-80 -507h79l-24 -143h-14z" />
    <glyph glyph-name="uni0447" unicode="&#x447;" horiz-adv-x="513" 
d="M371 0l44 275c-29 -31 -87 -82 -189 -82c-103 0 -170 56 -146 200l21 130h18l-21 -130c-21 -133 32 -184 130 -184c123 0 186 85 191 96l35 218h18l-83 -523h-18z" />
    <glyph glyph-name="uni0448" unicode="&#x448;" horiz-adv-x="828" 
d="M120 523h18l-80 -507h306l80 507h18l-80 -507h306l80 507h18l-83 -523h-666z" />
    <glyph glyph-name="uni0449" unicode="&#x449;" horiz-adv-x="851" 
d="M748 -127l17 127h-728l83 523h18l-80 -507h306l80 507h18l-80 -507h306l80 507h18l-80 -507h79l-23 -143h-14z" />
    <glyph glyph-name="uni044A" unicode="&#x44a;" horiz-adv-x="537" 
d="M196 507h-150l3 16h168l-33 -211h119c124 0 174 -57 174 -144c0 -91 -55 -168 -193 -168h-168zM181 296l-44 -280h149c123 0 172 69 172 152s-46 128 -158 128h-119z" />
    <glyph glyph-name="uni044B" unicode="&#x44b;" horiz-adv-x="614" 
d="M554 523h18l-83 -523h-18zM120 523h18l-33 -211h119c124 0 174 -57 174 -144c0 -91 -55 -168 -193 -168h-168zM102 296l-44 -280h149c123 0 172 69 172 152s-46 128 -158 128h-119z" />
    <glyph glyph-name="uni044C" unicode="&#x44c;" horiz-adv-x="458" 
d="M120 523h18l-33 -211h119c124 0 174 -57 174 -144c0 -91 -55 -168 -193 -168h-168zM102 296l-44 -280h149c123 0 172 69 172 152s-46 128 -158 128h-119z" />
    <glyph glyph-name="uni044D" unicode="&#x44d;" horiz-adv-x="539" 
d="M239 -8c-117 0 -198 74 -206 173h18c5 -85 77 -157 189 -157c149 0 232 113 243 252h-316l3 16h314v15c0 136 -87 222 -204 222c-95 0 -169 -51 -201 -148h-18c32 109 118 164 219 164c136 0 222 -98 222 -238c0 -164 -95 -299 -263 -299z" />
    <glyph glyph-name="uni044E" unicode="&#x44e;" horiz-adv-x="735" 
d="M441 -7c-125 0 -216 107 -216 238c0 12 1 23 2 35h-130l-42 -266h-18l83 523h18l-38 -241h129c19 135 112 247 257 247c130 0 212 -112 212 -237c0 -168 -101 -299 -257 -299zM441 9c144 0 239 124 239 283c0 117 -74 221 -194 221c-154 0 -243 -133 -243 -282
c0 -118 78 -222 198 -222z" />
    <glyph glyph-name="uni044F" unicode="&#x44f;" horiz-adv-x="486" 
d="M382 237l43 271h-160c-112 0 -171 -49 -171 -145c0 -81 55 -126 150 -126h138zM19 0h-24l198 226c-75 15 -117 60 -117 137c0 103 66 160 187 160h182l-83 -523h-18l35 222h-138c-11 0 -19 0 -28 1z" />
    <glyph glyph-name="uni0451" unicode="&#x451;" horiz-adv-x="529" 
d="M57 219c0 -135 67 -210 196 -210c96 0 165 44 200 132h18c-35 -99 -113 -148 -218 -148c-144 0 -215 85 -215 226c0 161 96 311 261 311c152 0 213 -111 192 -247l-2 -13h-429c-2 -17 -3 -34 -3 -51zM299 514c-135 0 -216 -103 -237 -228h412c19 128 -34 228 -175 228z
M241 639c-11 0 -17 8 -17 17s6 17 17 17s17 -8 17 -17s-6 -17 -17 -17zM383 639c-11 0 -17 8 -17 17s6 17 17 17s17 -8 17 -17s-6 -17 -17 -17z" />
    <glyph glyph-name="uni0452" unicode="&#x452;" horiz-adv-x="559" 
d="M429 -76c-13 -80 -44 -105 -111 -108l3 16c59 3 79 29 90 92l61 386c21 138 -41 204 -145 204c-97 0 -202 -69 -221 -197l-50 -317h-18l100 633h-82l3 16h81l20 124h18l-20 -124h196l-3 -16h-195l-37 -233c35 69 109 130 208 130c115 0 187 -75 163 -220z" />
    <glyph glyph-name="uni0453" unicode="&#x453;" horiz-adv-x="428" 
d="M135 507l-80 -507h-18l83 523h311l-3 -16h-293zM360 743h21l-101 -147h-18z" />
    <glyph glyph-name="uni0454" unicode="&#x454;" horiz-adv-x="539" 
d="M496 169c-30 -118 -117 -177 -228 -177c-140 0 -226 98 -226 238c0 164 108 299 269 299c107 0 188 -67 193 -167h-18c-5 85 -72 151 -176 151c-135 0 -227 -102 -246 -231h310l-3 -16h-309c-1 -12 -2 -24 -2 -36c0 -136 84 -222 208 -222c104 0 182 56 210 161h18z" />
    <glyph glyph-name="uni0455" unicode="&#x455;" horiz-adv-x="444" 
d="M200 -9c-111 0 -182 49 -189 160h18c7 -92 59 -144 171 -144c88 0 162 41 162 131c0 67 -41 95 -138 123c-103 31 -154 60 -154 135c0 88 77 133 168 133c90 0 162 -35 170 -131h-18c-8 77 -59 115 -152 115c-84 0 -150 -37 -150 -117c0 -62 40 -90 142 -119
c99 -29 150 -58 150 -139c0 -99 -85 -147 -180 -147z" />
    <glyph glyph-name="uni0456" unicode="&#x456;" horiz-adv-x="182" 
d="M151 639c-11 0 -17 8 -17 17s6 17 17 17s17 -8 17 -17s-6 -17 -17 -17zM122 523h18l-82 -523h-18z" />
    <glyph glyph-name="uni0457" unicode="&#x457;" horiz-adv-x="182" 
d="M96 639c-11 0 -17 8 -17 17s6 17 17 17s17 -8 17 -17s-6 -17 -17 -17zM208 639c-11 0 -17 8 -17 17s6 17 17 17s17 -8 17 -17s-6 -17 -17 -17zM122 523h18l-82 -523h-18z" />
    <glyph glyph-name="uni0458" unicode="&#x458;" horiz-adv-x="182" 
d="M-63 -168c59 3 79 29 90 92l95 599h18l-95 -599c-13 -80 -44 -105 -111 -108zM151 639c-11 0 -17 8 -17 17s6 17 17 17s17 -8 17 -17s-6 -17 -17 -17z" />
    <glyph glyph-name="uni0459" unicode="&#x459;" horiz-adv-x="798" 
d="M158 270c-45 -170 -69 -273 -149 -273c-11 0 -19 1 -26 4c-3 1 -5 3 -7 5l3 18c3 -2 6 -4 9 -5c5 -3 13 -5 22 -5c64 0 92 103 132 261c11 42 25 105 36 156l20 92h280l-33 -211h119c124 0 174 -57 174 -144c0 -91 -55 -168 -193 -168h-168l80 507h-245
c-8 -43 -35 -165 -54 -237zM442 296l-44 -280h149c123 0 172 69 172 152s-46 128 -158 128h-119z" />
    <glyph glyph-name="uni045A" unicode="&#x45a;" horiz-adv-x="792" 
d="M423 266h-326l-42 -266h-18l83 523h18l-38 -241h326l38 241h18l-38 -241h124c115 0 164 -48 164 -136c0 -91 -55 -146 -183 -146h-168zM441 266l-39 -250h149c113 0 162 46 162 130c0 83 -47 120 -148 120h-124z" />
    <glyph glyph-name="uni045B" unicode="&#x45b;" horiz-adv-x="559" 
d="M59 649h81l20 124h18l-20 -124h196l-3 -16h-195l-37 -233c35 69 109 130 208 130c115 0 187 -75 163 -220l-49 -310h-18l49 310c21 138 -41 204 -145 204c-97 0 -202 -69 -221 -197l-50 -317h-18l100 633h-82z" />
    <glyph glyph-name="uni045C" unicode="&#x45c;" horiz-adv-x="452" 
d="M429 523h26l-324 -243l260 -280h-23l-262 281zM56 0h-18l83 523h18zM361 743h21l-101 -147h-18z" />
    <glyph glyph-name="uni045D" unicode="&#x45d;" horiz-adv-x="564" 
d="M37 0l83 523h18l-79 -496l445 496h18l-83 -523h-18l79 496l-445 -496h-18zM269 743h19l53 -147h-17z" />
    <glyph glyph-name="uni045E" unicode="&#x45e;" horiz-adv-x="480" 
d="M284 612c-65 0 -101 44 -102 108h18c0 -56 31 -92 84 -92c52 0 93 36 104 92h18c-12 -68 -62 -108 -122 -108zM200 36l-134 487h18l129 -466l261 466h20l-396 -705h-20z" />
    <glyph glyph-name="uni045F" unicode="&#x45f;" horiz-adv-x="544" 
d="M37 0l83 523h18l-80 -507h346l80 507h18l-83 -523h-183l-21 -127h-14l19 127h-183z" />
    <glyph glyph-name="uni0490" unicode="&#x490;" horiz-adv-x="504" 
d="M72 0h-19l113 715h354l21 130h16l-21 -147h-354z" />
    <glyph glyph-name="uni0491" unicode="&#x491;" horiz-adv-x="400" 
d="M136 507l-80 -507h-18l83 523h275l24 127h14l-24 -143h-274z" />
    <glyph glyph-name="Wgrave" unicode="&#x1e80;" horiz-adv-x="910" 
d="M98 715h18l81 -687l318 687h13l93 -689l306 689h19l-317 -715h-24l-90 675l-310 -675h-24zM459 888h21l61 -117h-18z" />
    <glyph glyph-name="wgrave" unicode="&#x1e81;" horiz-adv-x="749" 
d="M70 523h18l82 -502l236 502h14l86 -502l234 502h19l-243 -523h-24l-83 489l-230 -489h-24zM357 743h19l53 -147h-17z" />
    <glyph glyph-name="Wacute" unicode="&#x1e82;" horiz-adv-x="910" 
d="M98 715h18l81 -687l318 687h13l93 -689l306 689h19l-317 -715h-24l-90 675l-310 -675h-24zM595 888h22l-84 -117h-19z" />
    <glyph glyph-name="wacute" unicode="&#x1e83;" horiz-adv-x="749" 
d="M70 523h18l82 -502l236 502h14l86 -502l234 502h19l-243 -523h-24l-83 489l-230 -489h-24zM509 743h21l-101 -147h-18z" />
    <glyph glyph-name="Wdieresis" unicode="&#x1e84;" horiz-adv-x="910" 
d="M98 715h18l81 -687l318 687h13l93 -689l306 689h19l-317 -715h-24l-90 675l-310 -675h-24zM455 787c-11 0 -17 8 -17 17s6 17 17 17s17 -8 17 -17s-6 -17 -17 -17zM609 787c-11 0 -17 8 -17 17s6 17 17 17s17 -8 17 -17s-6 -17 -17 -17z" />
    <glyph glyph-name="wdieresis" unicode="&#x1e85;" horiz-adv-x="749" 
d="M70 523h18l82 -502l236 502h14l86 -502l234 502h19l-243 -523h-24l-83 489l-230 -489h-24zM361 639c-11 0 -17 8 -17 17s6 17 17 17s17 -8 17 -17s-6 -17 -17 -17zM503 639c-11 0 -17 8 -17 17s6 17 17 17s17 -8 17 -17s-6 -17 -17 -17z" />
    <glyph glyph-name="Ygrave" unicode="&#x1ef2;" horiz-adv-x="554" 
d="M279 325l-194 390h19l187 -373l282 373h22l-297 -391l-51 -324h-19zM286 888h21l61 -117h-18z" />
    <glyph glyph-name="ygrave" unicode="&#x1ef3;" horiz-adv-x="480" 
d="M200 36l-134 487h18l129 -466l261 466h20l-396 -705h-20zM225 743h19l53 -147h-17z" />
    <glyph glyph-name="uni2009" unicode="&#x2009;" horiz-adv-x="110" 
 />
    <glyph glyph-name="endash" unicode="&#x2013;" horiz-adv-x="476" 
d="M49 287h380l-3 -16h-380z" />
    <glyph glyph-name="emdash" unicode="&#x2014;" horiz-adv-x="850" 
d="M49 287h754l-3 -16h-754z" />
    <glyph glyph-name="quoteleft" unicode="&#x2018;" horiz-adv-x="166" 
d="M100 582l71 136l14 -7l-68 -137z" />
    <glyph glyph-name="quoteright" unicode="&#x2019;" horiz-adv-x="166" 
d="M99 581l68 137l17 -8l-71 -136z" />
    <glyph glyph-name="quotesinglbase" unicode="&#x201a;" horiz-adv-x="166" 
d="M0 -49l67 137l17 -8l-71 -136z" />
    <glyph glyph-name="quotedblleft" unicode="&#x201c;" horiz-adv-x="262" 
d="M100 582l71 136l14 -7l-68 -137zM196 582l71 136l14 -7l-68 -137z" />
    <glyph glyph-name="quotedblright" unicode="&#x201d;" horiz-adv-x="262" 
d="M99 581l68 137l17 -8l-71 -136zM195 581l68 137l17 -8l-71 -136z" />
    <glyph glyph-name="quotedblbase" unicode="&#x201e;" horiz-adv-x="262" 
d="M0 -49l67 137l17 -8l-71 -136zM95 -49l68 137l17 -8l-71 -136z" />
    <glyph glyph-name="dagger" unicode="&#x2020;" horiz-adv-x="320" 
d="M197 556h-122l3 16h121l23 143h18l-23 -143h123l-3 -16h-122l-52 -326h-18z" />
    <glyph glyph-name="daggerdbl" unicode="&#x2021;" horiz-adv-x="320" 
d="M197 556h-122l3 16h121l23 143h18l-23 -143h123l-3 -16h-122l-27 -167h122l-3 -16h-121l-23 -143h-18l23 143h-123l3 16h122z" />
    <glyph glyph-name="bullet" unicode="&#x2022;" horiz-adv-x="298" 
d="M151 210c-53 0 -91 41 -91 90c0 55 41 98 98 98c53 0 92 -41 92 -90c0 -55 -39 -98 -99 -98z" />
    <glyph glyph-name="ellipsis" unicode="&#x2026;" horiz-adv-x="568" 
d="M42 -5c-11 0 -17 8 -17 17s6 17 17 17s17 -8 17 -17s-6 -17 -17 -17zM243 -5c-11 0 -17 8 -17 17s6 17 17 17s17 -8 17 -17s-6 -17 -17 -17zM444 -5c-11 0 -17 8 -17 17s6 17 17 17s17 -8 17 -17s-6 -17 -17 -17z" />
    <glyph glyph-name="perthousand" unicode="&#x2030;" horiz-adv-x="1092" 
d="M113 552c1 -71 48 -121 119 -121c82 0 140 61 140 149c-1 68 -47 123 -120 123c-83 0 -139 -68 -139 -151zM232 415c-77 0 -137 57 -137 137c0 90 65 167 157 167c77 0 138 -59 138 -139c0 -100 -70 -165 -158 -165zM670 715h21l-590 -715h-21zM398 132
c1 -71 48 -121 119 -121c82 0 140 61 140 149c-1 68 -47 123 -120 123c-83 0 -139 -68 -139 -151zM517 -5c-77 0 -137 57 -137 137c0 90 65 167 157 167c77 0 138 -59 138 -139c0 -100 -70 -165 -158 -165zM745 132c1 -71 48 -121 119 -121c82 0 140 61 140 149
c-1 68 -47 123 -120 123c-83 0 -139 -68 -139 -151zM864 -5c-77 0 -137 57 -137 137c0 90 65 167 157 167c77 0 138 -59 138 -139c0 -100 -70 -165 -158 -165z" />
    <glyph glyph-name="uni2032" unicode="&#x2032;" horiz-adv-x="130" 
d="M141 715h20l-59 -167h-17z" />
    <glyph glyph-name="uni2033" unicode="&#x2033;" horiz-adv-x="223" 
d="M141 715h20l-59 -167h-17zM234 715h20l-59 -167h-17z" />
    <glyph glyph-name="guilsinglleft" unicode="&#x2039;" horiz-adv-x="253" 
d="M48 261l168 178h22l-169 -179l110 -177h-19z" />
    <glyph glyph-name="guilsinglright" unicode="&#x203a;" horiz-adv-x="253" 
d="M203 260l-168 -177h-22l169 179l-110 177h19z" />
    <glyph glyph-name="fraction" unicode="&#x2044;" horiz-adv-x="113" 
d="M354 715h21l-588 -715h-21z" />
    <glyph glyph-name="Euro" unicode="&#x20ac;" horiz-adv-x="636" 
d="M57 435h66c33 185 130 286 283 286c125 0 204 -64 211 -192h-18c-8 117 -76 175 -193 175c-143 0 -233 -94 -265 -269h268l-5 -16h-266l-20 -120h244l-5 -16h-241c-21 -149 38 -272 211 -272c123 0 204 71 233 192h18c-29 -136 -124 -209 -251 -209
c-182 0 -250 125 -229 289h-65l3 16h64l20 120h-66z" />
    <glyph glyph-name="uni20B4" unicode="&#x20b4;" 
d="M516 187c-24 -108 -94 -193 -235 -193c-133 0 -203 64 -203 156c0 60 25 101 73 137h-95l2 16h116c41 27 94 50 159 79c32 15 60 27 84 40h-338l2 16h363c51 35 77 73 77 138c0 80 -51 127 -159 127c-105 0 -167 -58 -195 -142h-19c31 97 103 159 214 159
c117 0 179 -56 179 -143c0 -60 -20 -102 -69 -139h104l-2 -16h-125c-29 -19 -66 -37 -113 -57c-51 -23 -94 -42 -129 -62h347l-2 -16h-371c-55 -37 -83 -77 -83 -137c0 -77 55 -140 183 -140c136 0 195 84 216 177h19z" />
    <glyph glyph-name="uni20B8" unicode="&#x20b8;" horiz-adv-x="557" 
d="M97 699l3 16h496l-3 -16h-496zM312 568h-238l3 17h495l-3 -17h-238l-87 -568h-19z" />
    <glyph glyph-name="uni20BD" unicode="&#x20bd;" horiz-adv-x="586" 
d="M328 340c139 0 230 53 230 202c0 116 -84 156 -203 156h-140l-57 -358h170zM135 188l-30 -188h-18l30 188h-101l3 16h100l19 120h-101l3 16h101l59 375h156c132 0 221 -51 221 -173c0 -155 -97 -219 -249 -219h-172l-19 -119h243l-3 -16h-242z" />
    <glyph glyph-name="uni2116" unicode="&#x2116;" horiz-adv-x="1013" 
d="M845 356c-93 0 -154 72 -154 161c0 108 68 203 185 203c96 0 151 -76 151 -160c0 -114 -69 -204 -182 -204zM845 372c101 0 164 83 164 188c0 75 -46 144 -134 144c-107 0 -166 -89 -166 -187c0 -76 50 -145 136 -145zM166 715h29l312 -691l109 691h19l-113 -715h-25
l-315 698l-110 -698h-19zM680 257h292l-3 -17h-292z" />
    <glyph glyph-name="trademark" unicode="&#x2122;" horiz-adv-x="627" 
d="M373 715h26l71 -273l157 273h28l-49 -307h-18l45 285l-165 -285h-7l-75 285l-45 -285h-17zM192 699h-98l3 16h214l-3 -16h-98l-46 -291h-18z" />
    <glyph glyph-name="Omega" unicode="&#x2126;" horiz-adv-x="785" 
d="M431 704c-206 0 -356 -167 -356 -378c0 -154 85 -256 202 -312l-2 -14h-248l3 17h204c-91 48 -178 152 -178 309c0 216 155 395 375 395c194 0 321 -147 321 -334c0 -168 -90 -295 -237 -370h203l-3 -17h-246l2 14c154 66 262 200 262 373c0 168 -111 317 -302 317z" />
    <glyph glyph-name="onethird" unicode="&#x2153;" horiz-adv-x="689" 
d="M183 689l-106 -68l3 20l115 74h10l-55 -345h-18zM591 715h21l-588 -715h-21zM507 -3c-67 0 -118 34 -122 98h18c4 -51 44 -82 104 -82c55 0 99 27 99 87c0 39 -27 73 -80 73h-24l3 16h29c43 0 80 23 80 74c0 47 -36 70 -80 70c-56 0 -89 -34 -101 -79h-17
c12 55 54 94 118 94c50 0 98 -29 98 -85c0 -43 -25 -72 -68 -83c35 -11 60 -39 60 -80c0 -67 -53 -103 -117 -103z" />
    <glyph glyph-name="twothirds" unicode="&#x2154;" horiz-adv-x="740" 
d="M40 377l151 122c49 40 92 73 92 131c0 41 -29 73 -77 73c-53 0 -91 -32 -106 -92h-17c13 71 63 107 123 107s95 -37 95 -88c0 -64 -46 -100 -99 -143l-125 -101h195l-3 -16h-230zM661 715h21l-588 -715h-21zM558 -3c-67 0 -118 34 -122 98h18c4 -51 44 -82 104 -82
c55 0 99 27 99 87c0 39 -27 73 -80 73h-24l3 16h29c43 0 80 23 80 74c0 47 -36 70 -80 70c-56 0 -89 -34 -101 -79h-17c12 55 54 94 118 94c50 0 98 -29 98 -85c0 -43 -25 -72 -68 -83c35 -11 60 -39 60 -80c0 -67 -53 -103 -117 -103z" />
    <glyph glyph-name="oneeighth" unicode="&#x215b;" horiz-adv-x="689" 
d="M183 689l-106 -68l3 20l115 74h10l-55 -345h-18zM593 715h21l-588 -715h-21zM500 -3c-65 0 -120 33 -120 93c0 56 41 87 98 96c-32 11 -60 36 -60 73c0 56 52 89 109 89c52 0 104 -29 104 -84c0 -43 -32 -74 -79 -82c41 -12 71 -38 71 -85c0 -68 -51 -100 -123 -100z
M398 90c1 -47 39 -77 102 -77c56 0 105 21 105 84c0 51 -44 79 -100 79c-52 0 -107 -24 -107 -86zM436 259c0 -43 42 -67 89 -67c42 0 88 24 88 72c0 44 -39 68 -86 68c-46 0 -91 -21 -91 -73z" />
    <glyph glyph-name="threeeighths" unicode="&#x215c;" horiz-adv-x="741" 
d="M187 367c-67 0 -118 34 -122 98h18c4 -51 44 -82 104 -82c55 0 99 27 99 87c0 39 -27 73 -80 73h-24l3 16h29c43 0 80 23 80 74c0 47 -36 70 -80 70c-56 0 -89 -34 -101 -79h-17c12 55 54 94 118 94c50 0 98 -29 98 -85c0 -43 -25 -72 -68 -83c35 -11 60 -39 60 -80
c0 -67 -53 -103 -117 -103zM664 715h21l-588 -715h-21zM552 -3c-65 0 -120 33 -120 93c0 56 41 87 98 96c-32 11 -60 36 -60 73c0 56 52 89 109 89c52 0 104 -29 104 -84c0 -43 -32 -74 -79 -82c41 -12 71 -38 71 -85c0 -68 -51 -100 -123 -100zM450 90
c1 -47 39 -77 102 -77c56 0 105 21 105 84c0 51 -44 79 -100 79c-52 0 -107 -24 -107 -86zM488 259c0 -43 42 -67 89 -67c42 0 88 24 88 72c0 44 -39 68 -86 68c-46 0 -91 -21 -91 -73z" />
    <glyph glyph-name="fiveeighths" unicode="&#x215d;" horiz-adv-x="731" 
d="M169 367c-53 0 -103 29 -108 89h18c5 -47 41 -73 90 -73c64 0 105 42 105 110c0 49 -35 85 -86 85c-43 0 -71 -19 -90 -40h-8l28 177h187l-3 -16h-170l-21 -134c19 16 46 29 78 29c59 0 103 -40 103 -101c0 -76 -50 -126 -123 -126zM651 715h21l-588 -715h-21zM542 -3
c-65 0 -120 33 -120 93c0 56 41 87 98 96c-32 11 -60 36 -60 73c0 56 52 89 109 89c52 0 104 -29 104 -84c0 -43 -32 -74 -79 -82c41 -12 71 -38 71 -85c0 -68 -51 -100 -123 -100zM440 90c1 -47 39 -77 102 -77c56 0 105 21 105 84c0 51 -44 79 -100 79
c-52 0 -107 -24 -107 -86zM478 259c0 -43 42 -67 89 -67c42 0 88 24 88 72c0 44 -39 68 -86 68c-46 0 -91 -21 -91 -73z" />
    <glyph glyph-name="seveneighths" unicode="&#x215e;" horiz-adv-x="686" 
d="M294 699h-207l3 16h233l-1 -4l-202 -341h-21zM590 715h21l-588 -715h-21zM497 -3c-65 0 -120 33 -120 93c0 56 41 87 98 96c-32 11 -60 36 -60 73c0 56 52 89 109 89c52 0 104 -29 104 -84c0 -43 -32 -74 -79 -82c41 -12 71 -38 71 -85c0 -68 -51 -100 -123 -100zM395 90
c1 -47 39 -77 102 -77c56 0 105 21 105 84c0 51 -44 79 -100 79c-52 0 -107 -24 -107 -86zM433 259c0 -43 42 -67 89 -67c42 0 88 24 88 72c0 44 -39 68 -86 68c-46 0 -91 -21 -91 -73z" />
    <glyph glyph-name="Delta" unicode="&#x2206;" horiz-adv-x="630" 
d="M-8 7l376 708h26l162 -708l-1 -7h-564zM16 17h520l-157 684z" />
    <glyph glyph-name="minus" unicode="&#x2212;" horiz-adv-x="500" 
d="M50 350h426l-3 -16h-426z" />
    <glyph glyph-name="approxequal" unicode="&#x2248;" horiz-adv-x="491" 
d="M52 351c11 45 42 83 98 83c80 0 155 -65 230 -65c48 0 74 34 81 67h18c-11 -45 -42 -83 -99 -83c-80 0 -155 65 -230 65c-48 0 -73 -34 -80 -67h-18zM27 196c11 45 42 83 98 83c80 0 155 -65 230 -65c48 0 74 34 81 67h18c-11 -45 -42 -83 -99 -83c-80 0 -155 65 -230 65
c-48 0 -73 -34 -80 -67h-18z" />
    <glyph glyph-name="notequal" unicode="&#x2260;" horiz-adv-x="484" 
d="M61 401h228l80 133h20l-80 -133h156l-3 -16h-162l-81 -136h222l-3 -16h-229l-79 -133h-20l79 133h-155l3 16h162l81 136h-222z" />
    <glyph glyph-name="lessequal" unicode="&#x2264;" horiz-adv-x="487" 
d="M56 326l1 6l416 192l-3 -19l-386 -178l327 -194l-3 -18zM9 16h383l-3 -16h-383z" />
    <glyph glyph-name="greaterequal" unicode="&#x2265;" horiz-adv-x="487" 
d="M17 16h383l-3 -16h-383zM448 313l-1 -6l-416 -192l3 19l386 178l-327 194l3 18z" />
    <glyph glyph-name="uni24C5" unicode="&#x24c5;" horiz-adv-x="844" 
d="M331 571h107c85 0 142 -33 142 -117v-2c0 -85 -57 -118 -142 -118h-89v-188h-18v425zM438 350c76 0 124 27 124 102v2c0 73 -49 101 -124 101h-89v-205h89zM433 6c197 0 351 153 351 353c0 195 -150 350 -349 350c-197 0 -351 -156 -351 -352c0 -199 154 -351 349 -351z
M433 -9c-204 0 -366 159 -366 366c0 204 162 367 368 367c208 0 366 -162 366 -365c0 -209 -162 -368 -368 -368z" />
    <glyph glyph-name="zero.tab" unicode="&#xe44f;" 
d="M82 291c-4 -26 -6 -51 -6 -75c3 -119 62 -205 201 -205c136 0 218 84 245 251l26 163c4 23 5 42 5 63c0 120 -60 216 -202 216c-131 0 -218 -90 -243 -250zM278 -6c-152 0 -217 95 -220 222c0 25 2 50 6 76l26 163c27 172 122 266 262 266c153 0 219 -105 219 -233
c0 -23 -2 -43 -5 -64l-26 -163c-28 -177 -117 -267 -262 -267z" />
    <glyph glyph-name="one.tab" unicode="&#xe450;" 
d="M416 686l-276 -193l3 21l288 201h8l-113 -715h-18z" />
    <glyph glyph-name="two.tab" unicode="&#xe451;" 
d="M19 5l342 286c95 79 162 151 162 258c0 96 -62 155 -166 155c-99 0 -184 -53 -213 -183h-18c27 136 125 200 231 200c115 0 184 -68 184 -172c0 -115 -71 -187 -163 -265l-319 -267h420l-3 -17h-458z" />
    <glyph glyph-name="three.tab" unicode="&#xe452;" 
d="M276 -6c-124 0 -218 70 -218 197h19c3 -117 80 -180 199 -180c113 0 213 66 213 202c0 80 -48 153 -163 153h-43l3 17h48c100 0 180 56 180 174c0 88 -59 147 -159 147s-177 -62 -200 -166h-18c22 113 114 183 218 183c101 0 177 -60 177 -164c0 -97 -54 -164 -147 -183
c75 -16 122 -78 122 -162c0 -144 -107 -218 -231 -218z" />
    <glyph glyph-name="four.tab" unicode="&#xe453;" 
d="M403 173h-371l1 5l442 537h33l-83 -525h99l-3 -17h-99l-27 -173h-19zM406 190l81 513l-421 -513h340z" />
    <glyph glyph-name="five.tab" unicode="&#xe454;" 
d="M265 -6c-120 0 -206 70 -214 179h18c9 -96 83 -162 196 -162c147 0 228 105 228 246c0 104 -70 183 -177 183c-88 0 -146 -37 -190 -88h-8l58 363h376l-3 -17h-358l-49 -311c32 34 96 70 174 70c116 0 195 -84 195 -200c0 -150 -90 -263 -246 -263z" />
    <glyph glyph-name="six.tab" unicode="&#xe455;" 
d="M288 -6c-135 0 -218 76 -217 221c0 32 5 65 9 92l12 75c43 260 149 339 289 339c108 0 178 -50 186 -150h-18c-9 89 -68 133 -168 133c-133 0 -231 -74 -271 -323l-12 -75c43 93 134 138 224 138c117 0 215 -63 215 -191c0 -149 -97 -259 -249 -259zM90 204
c0 -120 74 -193 198 -193c144 0 231 105 231 242c0 115 -84 174 -197 174c-125 0 -232 -87 -232 -223z" />
    <glyph glyph-name="seven.tab" unicode="&#xe456;" 
d="M548 698h-414l3 17h440l-1 -5l-403 -710h-21z" />
    <glyph glyph-name="eight.tab" unicode="&#xe457;" 
d="M286 -6c-113 0 -226 59 -226 187s91 195 211 208c-69 16 -127 71 -127 157c0 112 103 175 208 175c102 0 188 -66 188 -166c0 -107 -66 -161 -167 -174c87 -21 151 -81 151 -177c0 -145 -115 -210 -238 -210zM78 181c0 -117 101 -170 209 -170c116 0 219 61 219 194
c0 101 -81 171 -202 171c-116 0 -226 -61 -226 -195zM162 546c0 -85 67 -153 177 -153c96 0 183 46 183 162c0 88 -73 149 -170 149c-93 0 -190 -53 -190 -158z" />
    <glyph glyph-name="nine.tab" unicode="&#xe458;" 
d="M255 -6c-108 0 -184 52 -196 155h18c12 -92 78 -138 178 -138c140 0 225 70 265 323l12 75c-45 -93 -133 -139 -223 -139c-118 0 -216 66 -216 196c0 149 97 255 249 255c130 0 217 -76 217 -221c0 -32 -5 -65 -9 -92l-12 -75c-43 -270 -139 -339 -283 -339zM111 466
c0 -116 85 -179 198 -179c125 0 231 93 231 224c0 120 -74 193 -198 193c-144 0 -231 -101 -231 -238z" />
    <glyph glyph-name="cent.tab" unicode="&#xe459;" 
d="M298 -7c-7 0 -14 0 -21 1l-20 -129h-17l20 131c-117 16 -188 107 -188 235c0 164 108 299 269 299h4l16 99h17l-16 -100c97 -8 167 -74 172 -166h-18c-4 80 -65 142 -157 150l-79 -504h18c104 0 182 56 210 161h18c-30 -118 -117 -177 -228 -177zM90 231
c0 -124 69 -204 173 -220l79 503h-2c-153 0 -250 -130 -250 -283z" />
    <glyph glyph-name="dollar.tab" unicode="&#xe45a;" 
d="M287 -6c-7 0 -15 0 -22 1l-20 -130h-17l20 131c-112 11 -199 69 -207 194h18c11 -112 81 -167 192 -178l56 354c-132 37 -188 86 -188 169c0 123 99 186 224 186c7 0 13 0 20 -1l15 93h17l-15 -94c100 -11 168 -61 179 -157h-18c-13 85 -72 131 -164 140l-51 -324
c135 -37 200 -71 200 -176c0 -135 -102 -208 -239 -208zM507 202c0 91 -57 126 -184 160l-55 -351h18c128 0 221 65 221 191zM138 535c0 -75 50 -117 171 -152l51 320c-5 0 -11 1 -16 1c-117 0 -206 -53 -206 -169z" />
    <glyph glyph-name="Euro.tab" unicode="&#xe45b;" 
d="M66 435h61c31 191 118 285 257 286c117 1 187 -61 191 -186h-18c-4 113 -61 170 -172 169c-131 -1 -210 -91 -239 -269h239l-6 -16h-236l-19 -120h213l-6 -16h-209c-21 -142 7 -272 187 -272c117 0 185 61 220 186h17c-35 -139 -116 -203 -237 -203
c-190 0 -230 134 -206 289h-61l3 16h60l19 120h-61z" />
    <glyph glyph-name="a.alt" unicode="&#xe4c0;" horiz-adv-x="580" 
d="M300 514c-148 0 -245 -132 -245 -289c0 -138 88 -216 192 -216c150 0 236 155 239 286c3 133 -75 219 -186 219zM247 -7c-120 0 -210 88 -210 232c0 165 103 305 263 305c131 0 187 -101 198 -176l27 169h18l-56 -350c-15 -92 -16 -144 -19 -173h-18c0 35 7 102 15 147
c-37 -83 -110 -154 -218 -154z" />
    <glyph glyph-name="t.alt" unicode="&#xe4d3;" horiz-adv-x="296" 
d="M154 507h-95l3 16h94l19 119h18l-19 -119h140l-3 -16h-139l-80 -507h-18z" />
    <glyph glyph-name="f_i" unicode="&#xfb01;" horiz-adv-x="490" 
d="M64 523h85l16 98c19 123 87 155 156 155c19 0 38 -3 51 -7l-2 -16c-14 5 -30 7 -49 7c-63 0 -119 -24 -138 -140l-16 -97h166l-3 -16h-165l-80 -507h-18l80 507h-86zM459 639c-11 0 -17 8 -17 17s6 17 17 17s17 -8 17 -17s-6 -17 -17 -17zM430 523h18l-82 -523h-18z" />
    <glyph glyph-name="f_l" unicode="&#xfb02;" horiz-adv-x="490" 
d="M64 523h85l16 98c19 123 87 155 156 155c19 0 38 -3 51 -7l-2 -16c-14 5 -30 7 -49 7c-63 0 -119 -24 -138 -140l-16 -97h166l-3 -16h-165l-80 -507h-18l80 507h-86zM470 773h18l-122 -773h-18z" />
    <glyph glyph-name="six.den" horiz-adv-x="314" 
d="M129 -3c-68 0 -109 47 -109 107c0 15 1 37 4 56l5 31c19 115 73 157 144 157c45 0 88 -23 91 -76h-16c-4 39 -33 59 -76 60c-63 0 -108 -33 -127 -150l-3 -19c21 36 65 54 104 54c59 0 107 -32 107 -97c0 -71 -48 -123 -124 -123zM38 102c0 -51 35 -89 91 -89
c67 0 106 43 106 107c0 51 -36 82 -89 82c-59 0 -108 -35 -108 -100z" />
    <glyph glyph-name="four.num" horiz-adv-x="301" 
d="M234 450h-187l1 6l217 259h29l-40 -249h49l-3 -16h-48l-13 -80h-18zM236 466l38 235l-197 -235h159z" />
    <glyph glyph-name="uni20B4.oldtab" 
d="M521 181c-29 -104 -104 -186 -247 -186c-121 0 -192 51 -192 147c0 59 26 99 74 136h-93l3 16h112c39 25 87 47 146 74c33 15 61 28 84 41h-324l3 16h348c60 39 80 77 80 134c0 91 -62 120 -153 120c-104 0 -164 -55 -192 -135h-19c31 92 101 151 212 151
c101 0 171 -41 171 -136c0 -56 -20 -95 -71 -134h104l-3 -16h-124c-28 -18 -64 -36 -107 -55c-48 -21 -89 -40 -122 -60h335l-3 -16h-357c-56 -37 -84 -77 -84 -136c0 -77 53 -131 173 -131c134 0 203 79 227 170h19z" />
    <glyph glyph-name="bar.uc" horiz-adv-x="226" 
d="M114 778h18v-862h-18v862z" />
    <glyph glyph-name="backslash.uc" horiz-adv-x="376" 
d="M125 778h19l135 -862h-19z" />
    <glyph glyph-name="slash.uc" horiz-adv-x="376" 
d="M392 778h20l-407 -862h-20z" />
    <glyph glyph-name="braceright.uc" horiz-adv-x="343" 
d="M120 780c125 -8 171 -74 128 -193l-35 -99c-29 -80 -9 -141 98 -146l-3 -16c-107 0 -150 -42 -143 -129l8 -107c11 -136 -63 -173 -190 -178l3 16c108 5 181 34 170 162l-8 106c-8 94 45 130 112 140c-65 16 -95 69 -63 157l35 97c40 112 0 166 -115 174z" />
    <glyph glyph-name="braceleft.uc" horiz-adv-x="341" 
d="M246 -89c-125 8 -171 74 -128 193l35 99c29 81 9 139 -98 146l3 16c107 0 150 42 143 129l-8 107c-11 136 63 173 190 178l-3 -16c-110 -5 -181 -34 -170 -162l8 -106c8 -94 -45 -129 -112 -140c65 -16 95 -69 63 -157l-35 -97c-40 -112 0 -166 115 -174z" />
    <glyph glyph-name="uni043D.bgr" horiz-adv-x="554" 
d="M453 266h-356l-42 -266h-18l83 523h18l-38 -241h356l38 241h18l-83 -523h-18z" />
    <glyph glyph-name="bracketright.uc" horiz-adv-x="322" 
d="M-14 -68h166l131 830h-166l3 16h184l-137 -862h-184z" />
    <glyph glyph-name="bracketleft.uc" horiz-adv-x="322" 
d="M180 778h184l-3 -16h-166l-131 -830h166l-3 -16h-184z" />
    <glyph glyph-name="uni043F.locl" horiz-adv-x="555" 
d="M173 663h319l-3 -17h-319zM452 134c-9 -60 -12 -109 -13 -134h-18c1 31 4 78 11 121c-34 -68 -109 -128 -207 -128c-117 0 -184 75 -161 220l49 310h18l-49 -310c-21 -138 38 -204 143 -204c99 0 199 69 220 197l50 317h18z" />
    <glyph glyph-name="parenright.uc" horiz-adv-x="267" 
d="M133 783c51 -80 97 -199 97 -341c0 -219 -97 -403 -236 -540h-20c153 152 238 332 238 540c0 139 -45 254 -98 341h19z" />
    <glyph glyph-name="uni20BD.old" horiz-adv-x="566" 
d="M310 320c131 0 216 50 216 190c0 108 -79 147 -191 147h-132l-53 -337h160zM128 177l-29 -177h-16l28 177h-95l3 15h94l18 113h-96l3 15h95l56 353h147c125 0 208 -48 208 -163c0 -144 -92 -206 -234 -206h-162l-18 -112h228l-2 -15h-228z" />
    <glyph glyph-name="parenleft.uc" horiz-adv-x="267" 
d="M158 -98c-51 80 -97 199 -97 341c0 218 96 405 236 540h20c-153 -152 -238 -332 -238 -540c0 -139 45 -254 98 -341h-19z" />
    <glyph glyph-name="uni0446.bgr" horiz-adv-x="565" 
d="M484 -127l17 127h-80c1 31 4 78 11 121c-34 -68 -109 -128 -207 -128c-117 0 -184 75 -161 220l49 310h18l-49 -310c-21 -138 38 -204 143 -204c99 0 199 69 220 197l50 317h18l-61 -389c-7 -48 -11 -91 -12 -118h81l-23 -143h-14z" />
    <glyph glyph-name="uni044C.bgr" horiz-adv-x="462" 
d="M204 -6c-120 0 -174 66 -154 189l57 340h18l-35 -210c19 4 72 15 136 15c115 0 176 -56 176 -148c0 -107 -78 -186 -198 -186zM204 10c110 0 180 72 180 170c0 83 -55 132 -158 132c-64 0 -119 -11 -138 -15l-19 -113c-19 -113 30 -174 135 -174z" />
    <glyph glyph-name="guillemotright.uc" horiz-adv-x="387" 
d="M343 300l-168 -177h-22l169 179l-110 177h19zM209 300l-168 -177h-22l169 179l-110 177h19z" />
    <glyph glyph-name="uni0439.bgr" horiz-adv-x="555" 
d="M329 612c-65 0 -101 44 -102 108h18c0 -56 31 -92 84 -92c52 0 93 36 104 92h18c-12 -68 -62 -108 -122 -108zM452 134c-9 -60 -12 -109 -13 -134h-18c1 31 4 78 11 121c-34 -68 -109 -128 -207 -128c-117 0 -184 75 -161 220l49 310h18l-49 -310
c-21 -138 38 -204 143 -204c99 0 199 69 220 197l50 317h18z" />
    <glyph glyph-name="guillemotleft.uc" horiz-adv-x="387" 
d="M54 301l168 178h22l-169 -179l110 -177h-19zM188 301l168 178h22l-169 -179l110 -177h-19z" />
    <glyph glyph-name="guilsinglright.uc" horiz-adv-x="253" 
d="M209 300l-168 -177h-22l169 179l-110 177h19z" />
    <glyph glyph-name="uni0414.bgr" horiz-adv-x="700" 
d="M419 701l-363 -684h520zM-19 -130h-16l24 147h48l371 698h26l160 -698h48l-24 -147h-17l19 130h-615z" />
    <glyph glyph-name="uni043B.bgr" horiz-adv-x="513" 
d="M437 0h-18l-127 505l-277 -505h-19l285 523h26z" />
    <glyph glyph-name="guilsinglleft.uc" horiz-adv-x="253" 
d="M54 301l168 178h22l-169 -179l110 -177h-19z" />
    <glyph glyph-name="uni041A.bgr" horiz-adv-x="579" 
d="M570 715h26l-431 -348l338 -367h-24l-339 368zM72 0h-19l113 715h19z" />
    <glyph glyph-name="uni0436.bgr" horiz-adv-x="663" 
d="M407 773h18l-122 -773h-18zM13 0h-26l315 276l-214 247h22l212 -249zM642 523h24l-293 -250l225 -273h-23l-223 274z" />
    <glyph glyph-name="emdash.uc" horiz-adv-x="850" 
d="M61 348h754l-3 -17h-754z" />
    <glyph glyph-name="endash.uc" horiz-adv-x="476" 
d="M61 348h380l-3 -17h-380z" />
    <glyph glyph-name="uni20B8.old" horiz-adv-x="537" 
d="M96 678l3 16h481l-3 -16h-481zM305 551h-231l3 16h480l-3 -16h-231l-84 -551h-19z" />
    <glyph glyph-name="uni0432.bgr" horiz-adv-x="489" 
d="M220 -6c-136 0 -186 89 -162 237l48 306c27 172 109 241 213 241s154 -61 154 -161c0 -98 -62 -188 -143 -204c69 -12 117 -68 117 -164c0 -148 -99 -255 -227 -255zM316 762c-97 0 -167 -65 -192 -224l-18 -117h180c116 0 168 113 168 196c0 91 -42 145 -138 145z
M221 10c120 0 207 107 207 239c0 91 -47 156 -144 156h-181l-27 -174c-23 -137 18 -221 145 -221z" />
    <glyph glyph-name="hyphen.uc" horiz-adv-x="352" 
d="M77 348h224l-3 -17h-224z" />
    <glyph glyph-name="exclamdown.uc" horiz-adv-x="254" 
d="M94 0h-20l91 563h16zM197 720c11 0 17 -8 17 -17s-6 -17 -17 -17s-17 8 -17 17s6 17 17 17z" />
    <glyph glyph-name="questiondown.uc" horiz-adv-x="462" 
d="M300 491c-13 -80 -51 -116 -124 -173c-69 -53 -129 -92 -129 -185c0 -88 75 -122 149 -122c101 0 172 57 195 172h18c-19 -121 -103 -189 -213 -189c-83 0 -168 39 -168 139c0 104 69 143 138 198c68 57 103 84 116 162l11 70h18zM325 720c11 0 17 -8 17 -17
s-6 -17 -17 -17s-17 8 -17 17s6 17 17 17z" />
    <glyph glyph-name="caron.alt" horiz-adv-x="256" 
d="M192 773h19l-41 -147h-17z" />
    <glyph glyph-name="uni0424.bgr" horiz-adv-x="757" 
d="M324 -10l12 77c-174 11 -285 100 -285 257v11c0 195 150 320 379 320l11 70h19l-11 -70c173 -11 284 -104 284 -271v-8c0 -193 -147 -309 -378 -309l-12 -77h-19zM714 384c0 157 -104 243 -268 254l-88 -554c219 0 356 110 356 292v8zM70 324c0 -149 106 -229 269 -240
l88 554c-219 0 -357 -120 -357 -303v-11z" />
    <glyph glyph-name="registered.alt" horiz-adv-x="844" 
d="M321 577h106c85 0 142 -31 142 -111v-2c0 -72 -45 -103 -114 -110l139 -203h-20l-138 201h-97v-201h-18v426zM427 368c76 0 124 24 124 96v2c0 72 -49 95 -124 95h-88v-193h88zM433 6c197 0 351 153 351 353c0 195 -150 350 -349 350c-197 0 -351 -156 -351 -352
c0 -199 154 -351 349 -351zM433 -9c-204 0 -366 159 -366 366c0 204 162 367 368 367c208 0 366 -162 366 -365c0 -209 -162 -368 -368 -368z" />
    <glyph glyph-name="space_uni0326.alt" horiz-adv-x="400" 
d="M326 746l-67 -133l-19 5l72 135z" />
    <glyph glyph-name="tcommaaccent.alt" horiz-adv-x="296" 
d="M-2 -179l67 133l19 -5l-72 -135zM154 507h-95l3 16h94l19 119h18l-19 -119h140l-3 -16h-139l-80 -507h-18z" />
    <glyph glyph-name="uni0442.bgr" horiz-adv-x="884" 
d="M99 389c11 69 12 105 15 134h18c-1 -27 -5 -72 -13 -121c35 67 95 128 191 128c92 0 149 -51 154 -147c32 82 107 147 200 147c113 0 174 -71 151 -220l-49 -310h-18l49 310c21 141 -32 204 -133 204c-95 0 -184 -74 -203 -197l-50 -317h-18l49 310
c23 139 -31 204 -132 204c-95 0 -185 -74 -204 -197l-50 -317h-18z" />
    <glyph glyph-name="tcaron.alt" horiz-adv-x="296" 
d="M154 507h-95l3 16h94l19 119h18l-19 -119h140l-3 -16h-139l-80 -507h-18zM322 773h19l-41 -147h-17z" />
    <glyph glyph-name="tbar.alt" horiz-adv-x="296" 
d="M33 343h95l26 164h-95l3 16h94l19 119h18l-19 -119h140l-3 -16h-139l-26 -164h139l-3 -16h-139l-51 -327h-18l51 327h-95z" />
    <glyph glyph-name="germandbls.alt" horiz-adv-x="572" 
d="M348 -4c-88 0 -162 46 -167 137h18c7 -80 66 -121 149 -121c85 0 150 50 150 127c0 70 -47 105 -115 148c-69 43 -110 66 -110 115c0 95 226 120 226 248c0 73 -64 110 -140 110c-117 0 -195 -72 -214 -195l-89 -565h-18l89 565c21 133 107 211 232 211
c83 0 158 -40 158 -126c0 -137 -226 -164 -226 -248c0 -40 38 -61 102 -100c70 -46 124 -82 124 -163c0 -84 -70 -143 -169 -143z" />
    <glyph glyph-name="atilde.alt" horiz-adv-x="580" 
d="M300 514c-148 0 -245 -132 -245 -289c0 -138 88 -216 192 -216c150 0 236 155 239 286c3 133 -75 219 -186 219zM247 -7c-120 0 -210 88 -210 232c0 165 103 305 263 305c131 0 187 -101 198 -176l27 169h18l-56 -350c-15 -92 -16 -144 -19 -173h-18c0 35 7 102 15 147
c-37 -83 -110 -154 -218 -154zM398 613c-52 0 -93 64 -136 64c-25 0 -50 -20 -59 -63h-17c11 55 41 79 77 79c48 0 93 -64 136 -64c24 0 49 20 58 63h17c-11 -53 -41 -79 -76 -79z" />
    <glyph glyph-name="aringacute.alt" horiz-adv-x="580" 
d="M300 514c-148 0 -245 -132 -245 -289c0 -138 88 -216 192 -216c150 0 236 155 239 286c3 133 -75 219 -186 219zM247 -7c-120 0 -210 88 -210 232c0 165 103 305 263 305c131 0 187 -101 198 -176l27 169h18l-56 -350c-15 -92 -16 -144 -19 -173h-18c0 35 7 102 15 147
c-37 -83 -110 -154 -218 -154zM333 619c43 0 72 30 72 73c0 39 -26 68 -69 68c-40 0 -72 -30 -72 -73c0 -37 29 -68 69 -68zM333 604c-49 0 -86 39 -86 83c0 48 40 88 89 88c51 0 86 -38 86 -83c0 -51 -38 -88 -89 -88zM433 948h22l-84 -117h-19z" />
    <glyph glyph-name="aring.alt" horiz-adv-x="580" 
d="M300 514c-148 0 -245 -132 -245 -289c0 -138 88 -216 192 -216c150 0 236 155 239 286c3 133 -75 219 -186 219zM247 -7c-120 0 -210 88 -210 232c0 165 103 305 263 305c131 0 187 -101 198 -176l27 169h18l-56 -350c-15 -92 -16 -144 -19 -173h-18c0 35 7 102 15 147
c-37 -83 -110 -154 -218 -154zM344 619c43 0 72 30 72 73c0 39 -26 68 -69 68c-40 0 -72 -30 -72 -73c0 -37 29 -68 69 -68zM344 604c-49 0 -86 39 -86 83c0 48 40 88 89 88c51 0 86 -38 86 -83c0 -51 -38 -88 -89 -88z" />
    <glyph glyph-name="aogonek.alt" horiz-adv-x="580" 
d="M468 0c-37 -21 -103 -62 -103 -115c0 -28 16 -51 59 -51c16 0 28 2 45 7l-3 -16c-12 -4 -27 -7 -43 -7c-55 0 -76 30 -76 67c0 59 70 98 103 120c0 31 7 97 15 142c-37 -83 -110 -154 -218 -154c-120 0 -210 88 -210 232c0 165 103 305 263 305c131 0 187 -101 198 -176
l27 169h18l-56 -350c-15 -92 -16 -144 -19 -173zM300 514c-148 0 -245 -132 -245 -289c0 -138 88 -216 192 -216c150 0 236 155 239 286c3 133 -75 219 -186 219z" />
    <glyph glyph-name="amacron.alt" horiz-adv-x="580" 
d="M300 514c-148 0 -245 -132 -245 -289c0 -138 88 -216 192 -216c150 0 236 155 239 286c3 133 -75 219 -186 219zM247 -7c-120 0 -210 88 -210 232c0 165 103 305 263 305c131 0 187 -101 198 -176l27 169h18l-56 -350c-15 -92 -16 -144 -19 -173h-18c0 35 7 102 15 147
c-37 -83 -110 -154 -218 -154zM229 663h219l-3 -17h-219z" />
    <glyph glyph-name="agrave.alt" horiz-adv-x="580" 
d="M300 514c-148 0 -245 -132 -245 -289c0 -138 88 -216 192 -216c150 0 236 155 239 286c3 133 -75 219 -186 219zM247 -7c-120 0 -210 88 -210 232c0 165 103 305 263 305c131 0 187 -101 198 -176l27 169h18l-56 -350c-15 -92 -16 -144 -19 -173h-18c0 35 7 102 15 147
c-37 -83 -110 -154 -218 -154zM262 743h19l53 -147h-17z" />
    <glyph glyph-name="adieresis.alt" horiz-adv-x="580" 
d="M300 514c-148 0 -245 -132 -245 -289c0 -138 88 -216 192 -216c150 0 236 155 239 286c3 133 -75 219 -186 219zM247 -7c-120 0 -210 88 -210 232c0 165 103 305 263 305c131 0 187 -101 198 -176l27 169h18l-56 -350c-15 -92 -16 -144 -19 -173h-18c0 35 7 102 15 147
c-37 -83 -110 -154 -218 -154zM266 639c-11 0 -17 8 -17 17s6 17 17 17s17 -8 17 -17s-6 -17 -17 -17zM408 639c-11 0 -17 8 -17 17s6 17 17 17s17 -8 17 -17s-6 -17 -17 -17z" />
    <glyph glyph-name="acircumflex.alt" horiz-adv-x="580" 
d="M300 514c-148 0 -245 -132 -245 -289c0 -138 88 -216 192 -216c150 0 236 155 239 286c3 133 -75 219 -186 219zM247 -7c-120 0 -210 88 -210 232c0 165 103 305 263 305c131 0 187 -101 198 -176l27 169h18l-56 -350c-15 -92 -16 -144 -19 -173h-18c0 35 7 102 15 147
c-37 -83 -110 -154 -218 -154zM331 720h19l96 -124h-19l-88 109l-114 -109h-21z" />
    <glyph glyph-name="abreve.alt" horiz-adv-x="580" 
d="M300 514c-148 0 -245 -132 -245 -289c0 -138 88 -216 192 -216c150 0 236 155 239 286c3 133 -75 219 -186 219zM247 -7c-120 0 -210 88 -210 232c0 165 103 305 263 305c131 0 187 -101 198 -176l27 169h18l-56 -350c-15 -92 -16 -144 -19 -173h-18c0 35 7 102 15 147
c-37 -83 -110 -154 -218 -154zM329 612c-65 0 -101 44 -102 108h18c0 -56 31 -92 84 -92c52 0 93 36 104 92h18c-12 -68 -62 -108 -122 -108z" />
    <glyph glyph-name="aacute.alt" horiz-adv-x="580" 
d="M300 514c-148 0 -245 -132 -245 -289c0 -138 88 -216 192 -216c150 0 236 155 239 286c3 133 -75 219 -186 219zM247 -7c-120 0 -210 88 -210 232c0 165 103 305 263 305c131 0 187 -101 198 -176l27 169h18l-56 -350c-15 -92 -16 -144 -19 -173h-18c0 35 7 102 15 147
c-37 -83 -110 -154 -218 -154zM408 743h21l-101 -147h-18z" />
    <glyph glyph-name="uni20BD.tab" 
d="M348 340c139 0 230 53 230 202c0 116 -84 156 -203 156h-140l-57 -358h170zM155 188l-30 -188h-18l30 188h-101l3 16h100l19 120h-101l3 16h101l59 375h156c132 0 221 -51 221 -173c0 -155 -97 -219 -249 -219h-172l-19 -119h243l-3 -16h-242z" />
    <glyph glyph-name="at.uc" horiz-adv-x="877" 
d="M461 -59c-262 0 -400 185 -400 393c0 236 200 416 414 416c232 0 374 -154 374 -354c0 -172 -91 -240 -168 -240c-64 0 -105 35 -102 110c-18 -50 -77 -118 -159 -118c-84 0 -146 58 -146 157c0 116 78 236 193 236c72 0 125 -51 133 -119l17 110h17l-34 -220
c-16 -82 5 -140 82 -140c79 0 147 68 147 223c0 195 -127 338 -354 338c-208 0 -395 -172 -395 -399c0 -199 128 -376 381 -376c152 0 255 57 303 124h20c-48 -72 -160 -141 -323 -141zM420 165c91 0 170 98 170 210c1 89 -47 149 -123 149c-104 0 -174 -110 -174 -219
c0 -88 48 -140 127 -140z" />
    <glyph glyph-name="minus.sup" horiz-adv-x="305" 
d="M88 608h237l-3 -16h-237z" />
    <glyph glyph-name="plus.sup" horiz-adv-x="305" 
d="M194 592h-109l3 16h109l18 114h18l-18 -114h110l-3 -16h-110l-18 -113h-18z" />
    <glyph glyph-name="nine.sup" horiz-adv-x="313" 
d="M225 776c68 0 109 -47 109 -107c0 -15 -1 -37 -4 -56l-5 -31c-19 -115 -68 -157 -140 -157c-61 0 -97 32 -100 81h16c5 -43 31 -65 84 -65c64 0 106 34 124 150l3 19c-21 -36 -65 -54 -104 -54c-59 0 -107 32 -107 97c0 71 49 123 124 123zM316 671c0 51 -35 89 -91 89
c-67 0 -106 -43 -106 -107c0 -51 36 -82 89 -82c59 0 108 35 108 100z" />
    <glyph glyph-name="eight.sup" horiz-adv-x="315" 
d="M196 425c-65 0 -120 33 -120 93c0 56 41 87 98 96c-32 11 -60 36 -60 73c0 56 52 89 109 89c52 0 104 -29 104 -84c0 -43 -32 -74 -79 -82c41 -12 71 -38 71 -85c0 -68 -51 -100 -123 -100zM94 518c1 -47 39 -77 102 -77c56 0 105 21 105 84c0 51 -44 79 -100 79
c-52 0 -107 -24 -107 -86zM132 687c0 -43 42 -67 89 -67c42 0 88 24 88 72c0 44 -39 68 -86 68c-46 0 -91 -21 -91 -73z" />
    <glyph glyph-name="seven.sup" horiz-adv-x="271" 
d="M300 757h-207l3 16h233l-1 -4l-202 -341h-21z" />
    <glyph glyph-name="six.sup" horiz-adv-x="314" 
d="M196 425c-68 0 -109 47 -109 107c0 15 1 37 4 56l5 31c19 115 73 157 144 157c45 0 88 -23 91 -76h-16c-4 39 -33 59 -76 60c-63 0 -108 -33 -127 -150l-3 -19c21 36 65 54 104 54c59 0 107 -32 107 -97c0 -71 -48 -123 -124 -123zM105 530c0 -51 35 -89 91 -89
c67 0 106 43 106 107c0 51 -36 82 -89 82c-59 0 -108 -35 -108 -100z" />
    <glyph glyph-name="five.sup" horiz-adv-x="287" 
d="M175 425c-53 0 -103 29 -108 89h18c5 -47 41 -73 90 -73c64 0 105 42 105 110c0 49 -35 85 -86 85c-43 0 -71 -19 -90 -40h-8l28 177h187l-3 -16h-170l-21 -134c19 16 46 29 78 29c59 0 103 -40 103 -101c0 -76 -50 -126 -123 -126z" />
    <glyph glyph-name="uni20B4.old" horiz-adv-x="580" 
d="M514 181c-29 -104 -104 -186 -247 -186c-121 0 -192 51 -192 147c0 59 26 99 74 136h-93l3 16h112c39 25 87 47 146 74c33 15 61 28 84 41h-324l3 16h348c60 39 80 77 80 134c0 91 -62 120 -153 120c-104 0 -164 -55 -192 -135h-19c31 92 101 151 212 151
c101 0 171 -41 171 -136c0 -56 -20 -95 -71 -134h104l-3 -16h-124c-28 -18 -64 -36 -107 -55c-48 -21 -89 -40 -122 -60h335l-3 -16h-357c-56 -37 -84 -77 -84 -136c0 -77 53 -131 173 -131c134 0 203 79 227 170h19z" />
    <glyph glyph-name="four.sup" horiz-adv-x="301" 
d="M243 508h-187l1 6l217 259h29l-40 -249h49l-3 -16h-48l-13 -80h-18zM245 524l38 235l-197 -235h159z" />
    <glyph glyph-name="three.sup" horiz-adv-x="305" 
d="M193 425c-67 0 -118 34 -122 98h18c4 -51 44 -82 104 -82c55 0 99 27 99 87c0 39 -27 73 -80 73h-24l3 16h29c43 0 80 23 80 74c0 47 -36 70 -80 70c-56 0 -89 -34 -101 -79h-17c12 55 54 94 118 94c50 0 98 -29 98 -85c0 -43 -25 -72 -68 -83c35 -11 60 -39 60 -80
c0 -67 -53 -103 -117 -103z" />
    <glyph glyph-name="two.sup" horiz-adv-x="284" 
d="M46 435l151 122c49 40 92 73 92 131c0 41 -29 73 -77 73c-53 0 -91 -32 -106 -92h-17c13 71 63 107 123 107s95 -37 95 -88c0 -64 -46 -100 -99 -143l-125 -101h195l-3 -16h-230z" />
    <glyph glyph-name="one.sup" horiz-adv-x="205" 
d="M189 747l-106 -68l3 20l115 74h10l-55 -345h-18z" />
    <glyph glyph-name="zero.sup" horiz-adv-x="349" 
d="M104 556c0 -68 34 -115 106 -115c101 0 139 95 139 204c0 68 -31 115 -106 115c-101 0 -139 -95 -139 -204zM211 425c-81 0 -125 54 -125 131c0 117 46 220 157 220c80 0 124 -52 124 -131c0 -117 -47 -220 -156 -220z" />
    <glyph glyph-name="minus.sub" horiz-adv-x="305" 
d="M11 90h237l-3 -16h-237z" />
    <glyph glyph-name="plus.sub" horiz-adv-x="305" 
d="M117 74h-109l3 16h109l18 114h18l-18 -114h110l-3 -16h-110l-18 -113h-18z" />
    <glyph glyph-name="uni20BD.oldtab" 
d="M330 320c131 0 216 50 216 190c0 108 -79 147 -191 147h-132l-53 -337h160zM148 177l-29 -177h-16l28 177h-95l3 15h94l18 113h-96l3 15h95l56 353h147c125 0 208 -48 208 -163c0 -144 -92 -206 -234 -206h-162l-18 -112h228l-2 -15h-228z" />
    <glyph glyph-name="nine.sub" horiz-adv-x="313" 
d="M149 262c68 0 109 -47 109 -107c0 -15 -1 -37 -4 -56l-5 -31c-19 -115 -68 -157 -140 -157c-61 0 -97 32 -100 81h16c5 -43 31 -65 84 -65c64 0 106 34 124 150l3 19c-21 -36 -65 -54 -104 -54c-59 0 -107 32 -107 97c0 71 49 123 124 123zM240 157c0 51 -35 89 -91 89
c-67 0 -106 -43 -106 -107c0 -51 36 -82 89 -82c59 0 108 35 108 100z" />
    <glyph glyph-name="eight.sub" horiz-adv-x="315" 
d="M120 -89c-65 0 -120 33 -120 93c0 56 41 87 98 96c-32 11 -60 36 -60 73c0 56 52 89 109 89c52 0 104 -29 104 -84c0 -43 -32 -74 -79 -82c41 -12 71 -38 71 -85c0 -68 -51 -100 -123 -100zM18 4c1 -47 39 -77 102 -77c56 0 105 21 105 84c0 51 -44 79 -100 79
c-52 0 -107 -24 -107 -86zM56 173c0 -43 42 -67 89 -67c42 0 88 24 88 72c0 44 -39 68 -86 68c-46 0 -91 -21 -91 -73z" />
    <glyph glyph-name="uni041B.bgr" horiz-adv-x="630" 
d="M379 701l-372 -701h-19l380 715h26l164 -715h-18z" />
    <glyph glyph-name="seven.sub" horiz-adv-x="271" 
d="M224 243h-207l3 16h233l-1 -4l-202 -341h-21z" />
    <glyph glyph-name="six.sub" horiz-adv-x="314" 
d="M120 -89c-68 0 -109 47 -109 107c0 15 1 37 4 56l5 31c19 115 73 157 144 157c45 0 88 -23 91 -76h-16c-4 39 -33 59 -76 60c-63 0 -108 -33 -127 -150l-3 -19c21 36 65 54 104 54c59 0 107 -32 107 -97c0 -71 -48 -123 -124 -123zM29 16c0 -51 35 -89 91 -89
c67 0 106 43 106 107c0 51 -36 82 -89 82c-59 0 -108 -35 -108 -100z" />
    <glyph glyph-name="five.sub" horiz-adv-x="287" 
d="M99 -89c-53 0 -103 29 -108 89h18c5 -47 41 -73 90 -73c64 0 105 42 105 110c0 49 -35 85 -86 85c-43 0 -71 -19 -90 -40h-8l28 177h187l-3 -16h-170l-21 -134c19 16 46 29 78 29c59 0 103 -40 103 -101c0 -76 -50 -126 -123 -126z" />
    <glyph glyph-name="four.sub" horiz-adv-x="301" 
d="M167 -6h-187l1 6l217 259h29l-40 -249h49l-3 -16h-48l-13 -80h-18zM169 10l38 235l-197 -235h159z" />
    <glyph glyph-name="three.sub" horiz-adv-x="305" 
d="M117 -89c-67 0 -118 34 -122 98h18c4 -51 44 -82 104 -82c55 0 99 27 99 87c0 39 -27 73 -80 73h-24l3 16h29c43 0 80 23 80 74c0 47 -36 70 -80 70c-56 0 -89 -34 -101 -79h-17c12 55 54 94 118 94c50 0 98 -29 98 -85c0 -43 -25 -72 -68 -83c35 -11 60 -39 60 -80
c0 -67 -53 -103 -117 -103z" />
    <glyph glyph-name="two.sub" horiz-adv-x="284" 
d="M-30 -79l151 122c49 40 92 73 92 131c0 41 -29 73 -77 73c-53 0 -91 -32 -106 -92h-17c13 71 63 107 123 107s95 -37 95 -88c0 -64 -46 -100 -99 -143l-125 -101h195l-3 -16h-230z" />
    <glyph glyph-name="one.sub" horiz-adv-x="205" 
d="M113 233l-106 -68l3 20l115 74h10l-55 -345h-18z" />
    <glyph glyph-name="zero.sub" horiz-adv-x="349" 
d="M28 42c0 -68 34 -115 106 -115c101 0 139 95 139 204c0 68 -31 115 -106 115c-101 0 -139 -95 -139 -204zM135 -89c-81 0 -125 54 -125 131c0 117 46 220 157 220c80 0 124 -52 124 -131c0 -117 -47 -220 -156 -220z" />
    <glyph glyph-name="nine.den" horiz-adv-x="313" 
d="M158 348c68 0 109 -47 109 -107c0 -15 -1 -37 -4 -56l-5 -31c-19 -115 -68 -157 -140 -157c-61 0 -97 32 -100 81h16c5 -43 31 -65 84 -65c64 0 106 34 124 150l3 19c-21 -36 -65 -54 -104 -54c-59 0 -107 32 -107 97c0 71 49 123 124 123zM249 243c0 51 -35 89 -91 89
c-67 0 -106 -43 -106 -107c0 -51 36 -82 89 -82c59 0 108 35 108 100z" />
    <glyph glyph-name="eight.den" horiz-adv-x="315" 
d="M129 -3c-65 0 -120 33 -120 93c0 56 41 87 98 96c-32 11 -60 36 -60 73c0 56 52 89 109 89c52 0 104 -29 104 -84c0 -43 -32 -74 -79 -82c41 -12 71 -38 71 -85c0 -68 -51 -100 -123 -100zM27 90c1 -47 39 -77 102 -77c56 0 105 21 105 84c0 51 -44 79 -100 79
c-52 0 -107 -24 -107 -86zM65 259c0 -43 42 -67 89 -67c42 0 88 24 88 72c0 44 -39 68 -86 68c-46 0 -91 -21 -91 -73z" />
    <glyph glyph-name="seven.den" horiz-adv-x="271" 
d="M233 329h-207l3 16h233l-1 -4l-202 -341h-21z" />
    <glyph glyph-name="uni0431.locl" horiz-adv-x="567" 
d="M263 -7c-135 0 -226 107 -226 238c0 156 100 298 271 298c43 0 79 -15 87 -18c-116 66 -275 69 -275 174c0 56 44 88 117 88h187c92 0 123 6 135 11l-3 -16c-8 -3 -35 -11 -134 -11h-187c-68 0 -96 -31 -96 -72c0 -53 48 -79 111 -100c115 -40 280 -89 280 -293
c0 -168 -102 -299 -267 -299zM263 9c154 0 249 124 249 283c0 124 -73 221 -204 221c-163 0 -253 -133 -253 -282c0 -118 80 -222 208 -222z" />
    <glyph glyph-name="five.den" horiz-adv-x="287" 
d="M108 -3c-53 0 -103 29 -108 89h18c5 -47 41 -73 90 -73c64 0 105 42 105 110c0 49 -35 85 -86 85c-43 0 -71 -19 -90 -40h-8l28 177h187l-3 -16h-170l-21 -134c19 16 46 29 78 29c59 0 103 -40 103 -101c0 -76 -50 -126 -123 -126z" />
    <glyph glyph-name="four.den" horiz-adv-x="301" 
d="M176 80h-187l1 6l217 259h29l-40 -249h49l-3 -16h-48l-13 -80h-18zM178 96l38 235l-197 -235h159z" />
    <glyph glyph-name="three.den" horiz-adv-x="305" 
d="M126 -3c-67 0 -118 34 -122 98h18c4 -51 44 -82 104 -82c55 0 99 27 99 87c0 39 -27 73 -80 73h-24l3 16h29c43 0 80 23 80 74c0 47 -36 70 -80 70c-56 0 -89 -34 -101 -79h-17c12 55 54 94 118 94c50 0 98 -29 98 -85c0 -43 -25 -72 -68 -83c35 -11 60 -39 60 -80
c0 -67 -53 -103 -117 -103z" />
    <glyph glyph-name="two.den" horiz-adv-x="284" 
d="M-21 7l151 122c49 40 92 73 92 131c0 41 -29 73 -77 73c-53 0 -91 -32 -106 -92h-17c13 71 63 107 123 107s95 -37 95 -88c0 -64 -46 -100 -99 -143l-125 -101h195l-3 -16h-230z" />
    <glyph glyph-name="one.den" horiz-adv-x="205" 
d="M122 319l-106 -68l3 20l115 74h10l-55 -345h-18z" />
    <glyph glyph-name="zero.den" horiz-adv-x="349" 
d="M37 128c0 -68 34 -115 106 -115c101 0 139 95 139 204c0 68 -31 115 -106 115c-101 0 -139 -95 -139 -204zM144 -3c-81 0 -125 54 -125 131c0 117 46 220 157 220c80 0 124 -52 124 -131c0 -117 -47 -220 -156 -220z" />
    <glyph glyph-name="nine.num" horiz-adv-x="313" 
d="M216 718c68 0 109 -47 109 -107c0 -15 -1 -37 -4 -56l-5 -31c-19 -115 -68 -157 -140 -157c-61 0 -97 32 -100 81h16c5 -43 31 -65 84 -65c64 0 106 34 124 150l3 19c-21 -36 -65 -54 -104 -54c-59 0 -107 32 -107 97c0 71 49 123 124 123zM307 613c0 51 -35 89 -91 89
c-67 0 -106 -43 -106 -107c0 -51 36 -82 89 -82c59 0 108 35 108 100z" />
    <glyph glyph-name="eight.num" horiz-adv-x="315" 
d="M187 367c-65 0 -120 33 -120 93c0 56 41 87 98 96c-32 11 -60 36 -60 73c0 56 52 89 109 89c52 0 104 -29 104 -84c0 -43 -32 -74 -79 -82c41 -12 71 -38 71 -85c0 -68 -51 -100 -123 -100zM85 460c1 -47 39 -77 102 -77c56 0 105 21 105 84c0 51 -44 79 -100 79
c-52 0 -107 -24 -107 -86zM123 629c0 -43 42 -67 89 -67c42 0 88 24 88 72c0 44 -39 68 -86 68c-46 0 -91 -21 -91 -73z" />
    <glyph glyph-name="seven.num" horiz-adv-x="271" 
d="M291 699h-207l3 16h233l-1 -4l-202 -341h-21z" />
    <glyph glyph-name="six.num" horiz-adv-x="314" 
d="M187 367c-68 0 -109 47 -109 107c0 15 1 37 4 56l5 31c19 115 73 157 144 157c45 0 88 -23 91 -76h-16c-4 39 -33 59 -76 60c-63 0 -108 -33 -127 -150l-3 -19c21 36 65 54 104 54c59 0 107 -32 107 -97c0 -71 -48 -123 -124 -123zM96 472c0 -51 35 -89 91 -89
c67 0 106 43 106 107c0 51 -36 82 -89 82c-59 0 -108 -35 -108 -100z" />
    <glyph glyph-name="five.num" horiz-adv-x="287" 
d="M166 367c-53 0 -103 29 -108 89h18c5 -47 41 -73 90 -73c64 0 105 42 105 110c0 49 -35 85 -86 85c-43 0 -71 -19 -90 -40h-8l28 177h187l-3 -16h-170l-21 -134c19 16 46 29 78 29c59 0 103 -40 103 -101c0 -76 -50 -126 -123 -126z" />
    <glyph glyph-name="uni0434.bgr" horiz-adv-x="594" 
d="M255 33c148 0 244 137 244 283c0 109 -64 198 -192 198c-149 0 -246 -120 -246 -276c0 -115 68 -205 194 -205zM474 15c-23 -137 -113 -200 -242 -200c-109 0 -204 47 -220 155h18c15 -89 90 -139 202 -139c121 0 205 60 224 184l24 153c-34 -71 -108 -151 -226 -151
c-131 0 -211 89 -211 221c0 161 105 292 264 292c113 0 185 -66 204 -166l25 159h18z" />
    <glyph glyph-name="three.num" horiz-adv-x="305" 
d="M184 367c-67 0 -118 34 -122 98h18c4 -51 44 -82 104 -82c55 0 99 27 99 87c0 39 -27 73 -80 73h-24l3 16h29c43 0 80 23 80 74c0 47 -36 70 -80 70c-56 0 -89 -34 -101 -79h-17c12 55 54 94 118 94c50 0 98 -29 98 -85c0 -43 -25 -72 -68 -83c35 -11 60 -39 60 -80
c0 -67 -53 -103 -117 -103z" />
    <glyph glyph-name="two.num" horiz-adv-x="284" 
d="M37 377l151 122c49 40 92 73 92 131c0 41 -29 73 -77 73c-53 0 -91 -32 -106 -92h-17c13 71 63 107 123 107s95 -37 95 -88c0 -64 -46 -100 -99 -143l-125 -101h195l-3 -16h-230z" />
    <glyph glyph-name="one.num" horiz-adv-x="205" 
d="M180 689l-106 -68l3 20l115 74h10l-55 -345h-18z" />
    <glyph glyph-name="zero.num" horiz-adv-x="349" 
d="M95 498c0 -68 34 -115 106 -115c101 0 139 95 139 204c0 68 -31 115 -106 115c-101 0 -139 -95 -139 -204zM202 367c-81 0 -125 54 -125 131c0 117 46 220 157 220c80 0 124 -52 124 -131c0 -117 -47 -220 -156 -220z" />
    <glyph glyph-name="nine.oldtab" 
d="M326 625c137 0 215 -82 215 -211c0 -23 -2 -46 -6 -70l-21 -134c-37 -244 -146 -313 -273 -313c-109 0 -175 54 -186 157h18c11 -91 65 -141 168 -141c119 0 218 66 255 297l17 107c-42 -92 -139 -129 -221 -129c-120 0 -204 70 -204 190c0 142 95 247 238 247zM522 421
c0 116 -73 188 -196 188c-135 0 -220 -96 -220 -231c0 -108 69 -174 186 -174c124 0 230 83 230 217z" />
    <glyph glyph-name="eight.oldtab" 
d="M283 -6c-131 0 -224 69 -224 185c0 120 95 195 207 206c-67 19 -121 74 -121 151c0 116 95 185 208 185c103 0 186 -67 186 -166c0 -100 -71 -165 -164 -176c84 -19 146 -84 146 -171c0 -136 -106 -214 -238 -214zM77 179c0 -104 83 -169 206 -169s220 67 220 198
c0 96 -81 166 -200 166c-120 0 -226 -71 -226 -195zM163 536c0 -83 67 -147 172 -147c100 0 186 57 186 166c0 88 -71 150 -168 150c-104 0 -190 -63 -190 -169z" />
    <glyph glyph-name="uni043F.bgr" horiz-adv-x="559" 
d="M99 389c11 69 12 105 15 134h18c-1 -27 -5 -74 -13 -123c35 69 109 130 208 130c115 0 187 -75 163 -220l-49 -310h-18l49 310c21 138 -41 204 -145 204c-97 0 -202 -69 -221 -197l-50 -317h-18z" />
    <glyph glyph-name="seven.oldtab" 
d="M530 602h-406l3 16h429v-5l-404 -710h-20z" />
    <glyph glyph-name="six.oldtab" 
d="M294 -7c-139 0 -215 82 -215 211c0 23 2 46 6 70l19 119c40 247 146 328 281 328c103 0 163 -49 174 -145h-18c-9 83 -60 129 -156 129c-126 0 -226 -76 -263 -312l-15 -92c43 91 139 129 219 129c124 0 206 -70 206 -190c0 -142 -95 -247 -238 -247zM98 197
c0 -116 73 -188 196 -188c135 0 220 96 220 231c0 108 -67 174 -188 174c-122 0 -228 -83 -228 -217z" />
    <glyph glyph-name="five.oldtab" 
d="M57 74c8 -103 85 -160 196 -160c140 0 231 107 231 246c0 104 -66 180 -173 180c-88 0 -149 -42 -192 -88h-8l58 366h372l-3 -16h-354l-51 -318c36 37 99 72 178 72c116 0 191 -81 191 -196c0 -144 -97 -262 -249 -262c-115 0 -205 62 -213 176h17z" />
    <glyph glyph-name="four.oldtab" 
d="M396 76h-381v5l453 537h32l-83 -525h99l-3 -17h-98l-28 -173h-19zM398 93l82 513l-433 -513h351z" />
    <glyph glyph-name="three.oldtab" 
d="M267 -102c-130 0 -230 74 -230 197h18c3 -108 85 -181 212 -181c123 0 210 65 210 198c0 83 -52 160 -167 160h-50l2 16h53c113 0 182 64 182 172c0 82 -57 149 -165 149c-107 0 -177 -63 -200 -167h-17c19 108 105 183 217 183c117 0 183 -74 183 -165
c0 -101 -57 -165 -145 -181c75 -17 125 -80 125 -167c0 -141 -95 -214 -228 -214z" />
    <glyph glyph-name="two.oldtab" 
d="M31 5l291 220c77 59 184 131 184 246c0 93 -72 138 -161 138c-97 0 -181 -58 -206 -174h-18c24 125 118 190 224 190c97 0 180 -47 180 -154c0 -121 -108 -195 -191 -257l-262 -198h403l-2 -16h-443z" />
    <glyph glyph-name="one.oldtab" 
d="M395 591l-265 -183l3 19l275 191h8l-97 -618h-17z" />
    <glyph glyph-name="zero.oldtab" 
d="M82 291c-4 -27 -6 -51 -5 -75c3 -118 63 -207 204 -207c134 0 214 83 240 249l11 69c3 21 5 44 5 65c0 123 -65 217 -201 217c-131 0 -218 -88 -243 -249zM281 -7c-155 0 -219 97 -222 223c0 24 1 48 5 75l11 69c27 171 121 265 262 265c147 0 218 -100 218 -233
c0 -21 -2 -43 -5 -66l-11 -69c-27 -172 -110 -264 -258 -264z" />
    <glyph glyph-name="yen.oldtab" 
d="M111 339h184l-159 355h20l155 -348l251 348h20l-256 -355h182l-3 -16h-188l-18 -116h188l-3 -16h-188l-29 -191h-19l30 191h-191l3 16h190l19 116h-191z" />
    <glyph glyph-name="sterling.oldtab" 
d="M72 348h77c-5 39 -11 77 -11 117c0 136 78 234 225 234c126 0 184 -72 187 -170h-18c-4 91 -58 153 -169 153c-132 0 -206 -85 -206 -217c0 -40 6 -78 11 -117h239l-3 -16h-234c3 -23 5 -47 5 -71c0 -77 -15 -124 -46 -169c83 0 160 -81 254 -81c61 0 110 42 121 122h19
c-11 -91 -73 -139 -140 -139c-97 0 -179 81 -256 81c-47 0 -83 -28 -94 -75h-20c11 44 45 82 93 90c36 48 50 99 50 171c0 24 -2 48 -5 71h-82z" />
    <glyph glyph-name="Euro.oldtab" 
d="M55 422h62c29 184 123 276 256 277c115 1 186 -61 190 -182h-18c-5 109 -63 166 -171 165c-127 -1 -211 -85 -239 -260h241l-5 -16h-239l-18 -116h216l-5 -16h-213c-21 -136 13 -263 188 -263c112 0 185 61 218 182h17c-33 -135 -118 -199 -235 -199
c-185 0 -227 132 -206 280h-62l3 16h61l18 116h-62z" />
    <glyph glyph-name="dollar.oldtab" 
d="M290 -6c-7 0 -13 0 -20 1l-20 -126h-18l20 127c-109 11 -194 65 -202 188h19c11 -108 78 -161 185 -172l54 343c-128 36 -181 83 -181 164c0 119 96 180 217 180c7 0 11 0 18 -1l15 91h18l-15 -92c97 -11 163 -59 174 -152h-18c-12 83 -69 127 -158 135l-49 -312
c132 -35 193 -71 193 -172c0 -132 -99 -202 -232 -202zM503 196c0 90 -56 121 -177 155l-54 -340h17c124 0 214 62 214 185zM146 519c0 -72 48 -113 165 -146l49 308c-5 0 -10 1 -15 1c-113 0 -199 -51 -199 -163z" />
    <glyph glyph-name="braceright.tab" horiz-adv-x="300" 
d="M122 776c115 -11 158 -76 115 -193l-45 -126c-29 -81 -2 -139 86 -146l-3 -16c-87 0 -132 -45 -128 -129l6 -132c5 -136 -60 -173 -177 -178l3 16c101 5 162 34 157 162l-6 131c-5 94 42 127 108 140c-64 17 -93 70 -62 157l45 126c39 109 -1 163 -102 172z" />
    <glyph glyph-name="uni045D.bgr" horiz-adv-x="555" 
d="M452 134c-9 -60 -12 -109 -13 -134h-18c1 31 4 78 11 121c-34 -68 -109 -128 -207 -128c-117 0 -184 75 -161 220l49 310h18l-49 -310c-21 -138 38 -204 143 -204c99 0 199 69 220 197l50 317h18zM256 743h19l53 -147h-17z" />
    <glyph glyph-name="braceleft.tab" horiz-adv-x="300" 
d="M192 -144c-115 11 -158 76 -115 193l45 126c29 81 2 139 -86 146l3 16c87 0 132 45 128 129l-6 132c-5 136 60 173 177 178l-3 -16c-101 -5 -162 -34 -157 -162l6 -131c3 -92 -40 -129 -108 -140c64 -17 93 -70 62 -157l-45 -126c-39 -109 1 -163 102 -172z" />
    <glyph glyph-name="bracketright.tab" horiz-adv-x="300" 
d="M-20 -132h156l141 892h-156l3 16h173l-146 -924h-174z" />
    <glyph glyph-name="bracketleft.tab" horiz-adv-x="300" 
d="M163 776h174l-3 -16h-155l-141 -892h156l-3 -16h-174z" />
    <glyph glyph-name="parenright.tab" horiz-adv-x="300" 
d="M136 773c60 -91 106 -212 106 -361c0 -224 -101 -424 -245 -560h-20c157 155 247 345 247 560c0 148 -48 268 -107 361h19z" />
    <glyph glyph-name="parenleft.tab" horiz-adv-x="300" 
d="M181 -148c-60 91 -106 212 -106 361c0 224 101 424 245 560h20c-157 -155 -247 -345 -247 -560c0 -148 48 -268 107 -361h-19z" />
    <glyph glyph-name="semicolon.tab" horiz-adv-x="300" 
d="M36 -102l69 140l18 -8l-73 -139zM166 352c-11 0 -17 8 -17 17s6 17 17 17s17 -8 17 -17s-6 -17 -17 -17z" />
    <glyph glyph-name="colon.tab" horiz-adv-x="300" 
d="M109 -5c-11 0 -17 8 -17 17s6 17 17 17s17 -8 17 -17s-6 -17 -17 -17zM166 352c-11 0 -17 8 -17 17s6 17 17 17s17 -8 17 -17s-6 -17 -17 -17z" />
    <glyph glyph-name="uni20B8.tab" 
d="M127 699l3 16h496l-3 -16h-496zM342 568h-238l3 17h495l-3 -17h-238l-87 -568h-19z" />
    <glyph glyph-name="comma.tab" horiz-adv-x="300" 
d="M42 -102l69 140l18 -8l-73 -139z" />
    <glyph glyph-name="period.tab" horiz-adv-x="300" 
d="M109 -5c-11 0 -17 8 -17 17s6 17 17 17s17 -8 17 -17s-6 -17 -17 -17z" />
    <glyph glyph-name="greaterequal.tab" 
d="M74 16h383l-3 -16h-383zM505 313l-1 -6l-416 -192l3 19l386 178l-327 194l3 18z" />
    <glyph glyph-name="lessequal.tab" 
d="M113 326l1 6l416 192l-3 -19l-386 -178l327 -194l-3 -18zM66 16h383l-3 -16h-383z" />
    <glyph glyph-name="greater.tab" 
d="M505 313l-1 -6l-416 -192l3 19l386 178l-327 194l3 18z" />
    <glyph glyph-name="less.tab" 
d="M113 326l1 6l416 192l-3 -19l-386 -178l327 -194l-3 -18z" />
    <glyph glyph-name="approxequal.tab" 
d="M108 351c11 45 42 83 98 83c80 0 155 -65 230 -65c48 0 74 34 81 67h18c-11 -45 -42 -83 -99 -83c-80 0 -155 65 -230 65c-48 0 -73 -34 -80 -67h-18zM83 196c11 45 42 83 98 83c80 0 155 -65 230 -65c48 0 74 34 81 67h18c-11 -45 -42 -83 -99 -83
c-80 0 -155 65 -230 65c-48 0 -73 -34 -80 -67h-18z" />
    <glyph glyph-name="notequal.tab" 
d="M119 401h228l80 133h20l-80 -133h156l-3 -16h-162l-81 -136h222l-3 -16h-229l-79 -133h-20l79 133h-155l3 16h162l81 136h-222z" />
    <glyph glyph-name="uni043A.bgr" horiz-adv-x="452" 
d="M160 773h18l-122 -773h-18zM429 523h26l-324 -243l260 -280h-23l-262 281z" />
    <glyph glyph-name="equal.tab" 
d="M95 249h404l-3 -16h-404zM119 401h404l-3 -16h-404z" />
    <glyph glyph-name="uni0438.bgr" horiz-adv-x="555" 
d="M452 134c-9 -60 -12 -109 -13 -134h-18c1 31 4 78 11 121c-34 -68 -109 -128 -207 -128c-117 0 -184 75 -161 220l49 310h18l-49 -310c-21 -138 38 -204 143 -204c99 0 199 69 220 197l50 317h18z" />
    <glyph glyph-name="divide.tab" 
d="M100 350h426l-3 -16h-426zM289 161c-11 0 -17 8 -17 17s6 17 17 17s17 -8 17 -17s-6 -17 -17 -17zM335 489c-11 0 -17 8 -17 17s6 17 17 17s17 -8 17 -17s-6 -17 -17 -17z" />
    <glyph glyph-name="multiply.tab" 
d="M99 169l189 168l-146 168l13 12l146 -168l190 168l11 -13l-189 -168l147 -168l-13 -12l-147 168l-190 -168z" />
    <glyph glyph-name="plusminus.tab" 
d="M301 334h-204l3 16h204l35 219h18l-35 -219h204l-3 -16h-204l-34 -219h-18zM47 16h426l-3 -16h-426z" />
    <glyph glyph-name="minus.tab" 
d="M100 350h426l-3 -16h-426z" />
    <glyph glyph-name="plus.tab" 
d="M301 334h-204l3 16h204l35 219h18l-35 -219h204l-3 -16h-204l-34 -219h-18z" />
    <glyph glyph-name="perthousand.tab" horiz-adv-x="1000" 
d="M114 563c1 -67 46 -113 114 -113c78 0 132 56 132 140c-1 65 -42 116 -113 116c-77 0 -133 -63 -133 -143zM228 434c-75 0 -132 53 -132 129c0 85 63 159 151 159c75 0 131 -56 131 -132c0 -95 -66 -156 -150 -156zM628 715h21l-590 -715h-21zM328 124
c1 -67 46 -113 114 -113c78 0 132 56 132 140c-1 65 -42 116 -113 116c-77 0 -133 -63 -133 -143zM442 -5c-75 0 -132 53 -132 129c0 85 63 159 151 159c75 0 131 -56 131 -132c0 -95 -66 -156 -150 -156zM667 124c1 -67 46 -113 114 -113c78 0 132 56 132 140
c-1 65 -42 116 -113 116c-77 0 -133 -63 -133 -143zM781 -5c-75 0 -132 53 -132 129c0 85 63 159 151 159c75 0 131 -56 131 -132c0 -95 -66 -156 -150 -156z" />
    <glyph glyph-name="uni0433.locl" horiz-adv-x="182" 
d="M79 663h150l-3 -17h-150zM122 523h18l-82 -523h-18z" />
    <glyph glyph-name="percent.tab" horiz-adv-x="800" 
d="M120 552c1 -71 48 -121 119 -121c82 0 140 61 140 149c-1 68 -47 123 -120 123c-83 0 -139 -68 -139 -151zM239 415c-77 0 -137 57 -137 137c0 90 65 167 157 167c77 0 138 -59 138 -139c0 -100 -70 -165 -158 -165zM699 715h21l-590 -715h-21zM449 132
c1 -71 48 -121 119 -121c82 0 140 61 140 149c-1 68 -47 123 -120 123c-83 0 -139 -68 -139 -151zM568 -5c-77 0 -137 57 -137 137c0 90 65 167 157 167c77 0 138 -59 138 -139c0 -100 -70 -165 -158 -165z" />
    <glyph glyph-name="grave.uc" horiz-adv-x="400" 
d="M208 888h21l61 -117h-18z" />
    <glyph glyph-name="dieresis.uc" horiz-adv-x="400" 
d="M208 787c-11 0 -17 8 -17 17s6 17 17 17s17 -8 17 -17s-6 -17 -17 -17zM362 787c-11 0 -17 8 -17 17s6 17 17 17s17 -8 17 -17s-6 -17 -17 -17z" />
    <glyph glyph-name="uni0447.bgr" horiz-adv-x="514" 
d="M372 0l44 275c-29 -31 -87 -82 -189 -82c-103 0 -170 56 -146 200l21 130h18l-21 -130c-21 -133 32 -184 130 -184c123 0 186 85 191 96l35 218h18l-83 -523h-18z" />
    <glyph glyph-name="macron.uc" horiz-adv-x="400" 
d="M174 814h226l-3 -17h-226z" />
    <glyph glyph-name="acute.uc" horiz-adv-x="400" 
d="M350 888h22l-84 -117h-19z" />
    <glyph glyph-name="circumflex.uc" horiz-adv-x="400" 
d="M285 888h20l97 -117h-19l-89 102l-115 -102h-21z" />
    <glyph glyph-name="caron.uc" horiz-adv-x="400" 
d="M289 771h-20l-97 117h19l89 -102l115 102h21z" />
    <glyph glyph-name="breve.uc" horiz-adv-x="400" 
d="M289 775c-68 0 -109 47 -110 112h18c1 -56 36 -96 92 -96c55 0 101 39 112 96h18c-11 -67 -68 -112 -130 -112z" />
    <glyph glyph-name="uni0416.bgr" horiz-adv-x="847" 
d="M390 0h-19l113 715h19zM838 715h26l-382 -348l289 -367h-24l-288 368zM14 0h-26l409 370l-270 345h22l270 -347z" />
    <glyph glyph-name="uni044E.bgr" horiz-adv-x="735" 
d="M441 -7c-125 0 -216 107 -216 238c0 12 1 23 2 35h-130l-42 -266h-18l123 773h18l-78 -491h129c19 135 112 247 257 247c130 0 212 -112 212 -237c0 -168 -101 -299 -257 -299zM441 9c144 0 239 124 239 283c0 117 -74 221 -194 221c-154 0 -243 -133 -243 -282
c0 -118 78 -222 198 -222z" />
    <glyph glyph-name="uni0448.bgr" horiz-adv-x="884" 
d="M781 134c-11 -69 -12 -105 -15 -134h-18c1 27 5 72 13 121c-35 -67 -95 -128 -191 -128c-92 0 -149 51 -154 147c-32 -82 -107 -147 -200 -147c-113 0 -174 71 -151 220l49 310h18l-49 -310c-21 -141 32 -204 133 -204c95 0 184 74 203 197l50 317h18l-49 -310
c-23 -139 31 -204 132 -204c95 0 185 74 204 197l50 317h18z" />
    <glyph glyph-name="uni0442.locl" horiz-adv-x="884" 
d="M183 663h609l-3 -17h-609zM781 134c-11 -69 -12 -105 -15 -134h-18c1 27 5 72 13 121c-35 -67 -95 -128 -191 -128c-92 0 -149 51 -154 147c-32 -82 -107 -147 -200 -147c-113 0 -174 71 -151 220l49 310h18l-49 -310c-21 -141 32 -204 133 -204c95 0 184 74 203 197
l50 317h18l-49 -310c-23 -139 31 -204 132 -204c95 0 185 74 204 197l50 317h18z" />
    <glyph glyph-name="florin.tab" 
d="M130 391h124l31 158c27 132 102 175 177 175c51 0 79 -11 95 -19l-2 -16c-19 9 -45 19 -93 19c-64 0 -135 -39 -159 -159l-31 -158h202l-2 -16h-203l-109 -557h-18l109 557h-123z" />
    <glyph glyph-name="yen.tab" 
d="M114 349h190l-163 366h20l160 -359l259 359h21l-265 -366h187l-3 -16h-193l-19 -120h193l-3 -16h-192l-31 -197h-19l31 197h-198l3 16h197l19 120h-197z" />
    <glyph glyph-name="sterling.tab" 
d="M72 358h80c-5 40 -11 78 -11 121c0 141 74 242 226 242c130 0 188 -76 191 -176h-18c-4 95 -58 159 -173 159c-136 0 -207 -89 -207 -225c0 -41 6 -81 11 -121h246l-3 -16h-241c3 -24 5 -48 5 -73c0 -80 -16 -127 -48 -174c86 0 159 -84 256 -84c63 0 113 45 124 126h19
c-11 -94 -76 -143 -143 -143c-101 0 -176 84 -257 84c-49 0 -86 -31 -97 -78h-20c11 45 45 84 94 93c39 49 53 100 53 176c0 25 -2 49 -5 73h-85z" />
    <glyph glyph-name="uni0433.bgr" horiz-adv-x="427" 
d="M181 -9c-116 0 -165 51 -165 127c0 80 43 126 186 158c124 27 179 61 179 141c0 64 -52 96 -124 96c-83 0 -145 -35 -173 -115h-17c30 92 105 131 193 131c84 0 137 -35 137 -111c0 -89 -60 -130 -193 -157c-128 -27 -169 -71 -169 -144c0 -67 41 -110 146 -110
c96 0 164 62 188 144h17c-24 -92 -101 -160 -205 -160z" />
    <glyph glyph-name="dotaccent.uc" horiz-adv-x="400" 
d="M285 787c-11 0 -17 8 -17 17s6 17 17 17s17 -8 17 -17s-6 -17 -17 -17z" />
    <glyph glyph-name="ring.uc" horiz-adv-x="400" 
d="M289 764c43 0 72 30 72 73c0 39 -26 68 -69 68c-40 0 -72 -30 -72 -73c0 -37 29 -68 69 -68zM289 749c-49 0 -86 39 -86 83c0 48 40 88 89 88c51 0 86 -38 86 -83c0 -51 -38 -88 -89 -88z" />
    <glyph glyph-name="space.tab" horiz-adv-x="300" 
 />
    <glyph glyph-name="nine.old" horiz-adv-x="552" 
d="M301 625c137 0 215 -82 215 -211c0 -23 -2 -46 -6 -70l-21 -134c-37 -244 -146 -313 -273 -313c-109 0 -175 54 -186 157h18c11 -91 65 -141 168 -141c119 0 218 66 255 297l17 107c-42 -92 -139 -129 -221 -129c-120 0 -204 70 -204 190c0 142 95 247 238 247zM497 421
c0 116 -73 188 -196 188c-135 0 -220 -96 -220 -231c0 -108 69 -174 186 -174c124 0 230 83 230 217z" />
    <glyph glyph-name="eight.old" horiz-adv-x="546" 
d="M254 -6c-131 0 -224 69 -224 185c0 120 95 195 207 206c-67 19 -121 74 -121 151c0 116 95 185 208 185c103 0 186 -67 186 -166c0 -100 -71 -165 -164 -176c84 -19 146 -84 146 -171c0 -136 -106 -214 -238 -214zM48 179c0 -104 83 -169 206 -169s220 67 220 198
c0 96 -81 166 -200 166c-120 0 -226 -71 -226 -195zM134 536c0 -83 67 -147 172 -147c100 0 186 57 186 166c0 88 -71 150 -168 150c-104 0 -190 -63 -190 -169z" />
    <glyph glyph-name="seven.old" horiz-adv-x="470" 
d="M483 602h-406l3 16h429v-5l-404 -710h-20z" />
    <glyph glyph-name="six.old" horiz-adv-x="552" 
d="M264 -7c-139 0 -215 82 -215 211c0 23 2 46 6 70l19 119c40 247 146 328 281 328c103 0 163 -49 174 -145h-18c-9 83 -60 129 -156 129c-126 0 -226 -76 -263 -312l-15 -92c43 91 139 129 219 129c124 0 206 -70 206 -190c0 -142 -95 -247 -238 -247zM68 197
c0 -116 73 -188 196 -188c135 0 220 96 220 231c0 108 -67 174 -188 174c-122 0 -228 -83 -228 -217z" />
    <glyph glyph-name="five.old" horiz-adv-x="527" 
d="M15 74c8 -103 85 -160 196 -160c140 0 231 107 231 246c0 104 -66 180 -173 180c-88 0 -149 -42 -192 -88h-8l58 366h372l-3 -16h-354l-51 -318c36 37 99 72 178 72c116 0 191 -81 191 -196c0 -144 -97 -262 -249 -262c-115 0 -205 62 -213 176h17z" />
    <glyph glyph-name="four.old" horiz-adv-x="569" 
d="M378 76h-381v5l453 537h32l-83 -525h99l-3 -17h-98l-28 -173h-19zM380 93l82 513l-433 -513h351z" />
    <glyph glyph-name="uni20B4.tab" 
d="M524 187c-24 -109 -94 -195 -235 -195c-133 0 -204 63 -204 155c0 60 25 103 74 140h-95l2 16h115c41 27 95 51 160 79c34 15 62 28 85 40h-339l2 16h363c55 36 78 75 78 138c0 80 -52 127 -160 127c-105 0 -167 -58 -195 -142h-19c31 97 103 159 214 159
c117 0 180 -56 180 -143c0 -60 -20 -102 -69 -139h103l-2 -16h-125c-29 -19 -66 -37 -113 -57c-51 -23 -94 -42 -129 -62h347l-2 -16h-371c-56 -37 -84 -77 -84 -140c0 -77 55 -139 184 -139c136 0 194 85 216 179h19z" />
    <glyph glyph-name="three.old" horiz-adv-x="533" 
d="M234 -102c-130 0 -230 74 -230 197h18c3 -108 85 -181 212 -181c123 0 210 65 210 198c0 83 -52 160 -167 160h-50l2 16h53c113 0 182 64 182 172c0 82 -57 149 -165 149c-107 0 -177 -63 -200 -167h-17c19 108 105 183 217 183c117 0 183 -74 183 -165
c0 -101 -57 -165 -145 -181c75 -17 125 -80 125 -167c0 -141 -95 -214 -228 -214z" />
    <glyph glyph-name="two.old" horiz-adv-x="510" 
d="M-17 5l291 220c77 59 184 131 184 246c0 93 -72 138 -161 138c-97 0 -181 -58 -206 -174h-18c24 125 118 190 224 190c97 0 180 -47 180 -154c0 -121 -108 -195 -191 -257l-262 -198h403l-2 -16h-443z" />
    <glyph glyph-name="one.old" horiz-adv-x="331" 
d="M239 591l-184 -112l2 19l196 120h8l-97 -618h-18z" />
    <glyph glyph-name="zero.old" horiz-adv-x="605" 
d="M68 301c-3 -21 -5 -42 -5 -62c0 -124 65 -230 220 -230c139 0 233 94 260 265l7 45c3 19 5 37 5 56c3 130 -66 234 -217 234c-131 0 -236 -91 -263 -263zM283 -7c-163 0 -238 110 -238 246c0 20 2 41 5 62l7 45c29 185 141 279 281 279c162 0 238 -114 235 -250
c0 -19 -2 -37 -5 -56l-7 -45c-28 -179 -125 -281 -278 -281z" />
    <glyph glyph-name="yen.old" horiz-adv-x="508" 
d="M65 339h184l-159 355h20l155 -348l251 348h20l-256 -355h182l-3 -16h-188l-18 -116h188l-3 -16h-188l-29 -191h-19l30 191h-191l3 16h190l19 116h-191z" />
    <glyph glyph-name="uni0430.alt" horiz-adv-x="580" 
d="M300 514c-148 0 -245 -132 -245 -289c0 -138 88 -216 192 -216c150 0 236 155 239 286c3 133 -75 219 -186 219zM247 -7c-120 0 -210 88 -210 232c0 165 103 305 263 305c131 0 187 -101 198 -176l27 169h18l-56 -350c-15 -92 -16 -144 -19 -173h-18c0 35 7 102 15 147
c-37 -83 -110 -154 -218 -154z" />
    <glyph glyph-name="sterling.old" horiz-adv-x="581" 
d="M63 348h77c-5 39 -11 77 -11 117c0 136 78 234 225 234c126 0 184 -72 187 -170h-18c-4 91 -58 153 -169 153c-132 0 -206 -85 -206 -217c0 -40 6 -78 11 -117h239l-3 -16h-234c3 -23 5 -47 5 -71c0 -77 -15 -124 -46 -169c83 0 160 -81 254 -81c61 0 110 42 121 122h19
c-11 -91 -73 -139 -140 -139c-97 0 -179 81 -256 81c-47 0 -83 -28 -94 -75h-20c11 44 45 82 93 90c36 48 50 99 50 171c0 24 -2 48 -5 71h-82z" />
    <glyph glyph-name="uni20B8.oldtab" 
d="M123 678l3 16h481l-3 -16h-481zM332 551h-231l3 16h480l-3 -16h-231l-84 -551h-19z" />
    <glyph glyph-name="Euro.old" horiz-adv-x="636" 
d="M55 422h63c32 180 127 277 276 277c121 0 197 -62 204 -186h-18c-8 113 -73 169 -186 169c-141 0 -226 -89 -257 -260h260l-5 -16h-258l-19 -116h236l-5 -16h-233c-19 -144 36 -263 204 -263c120 0 198 69 226 186h18c-28 -132 -121 -203 -244 -203
c-176 0 -244 122 -223 280h-62l3 16h61l19 116h-63z" />
    <glyph glyph-name="dollar.old" horiz-adv-x="564" 
d="M267 -6c-7 0 -13 0 -20 1l-20 -126h-18l20 127c-109 11 -194 65 -202 188h19c11 -108 78 -161 185 -172l54 343c-128 36 -181 83 -181 164c0 119 96 180 217 180c7 0 11 0 18 -1l15 91h18l-15 -92c97 -11 163 -59 174 -152h-18c-12 83 -69 127 -158 135l-49 -312
c132 -35 193 -71 193 -172c0 -132 -99 -202 -232 -202zM480 196c0 90 -56 121 -177 155l-54 -340h17c124 0 214 62 214 185zM123 519c0 -72 48 -113 165 -146l49 308c-5 0 -10 1 -15 1c-113 0 -199 -51 -199 -163z" />
    <glyph glyph-name="space_uni0326" horiz-adv-x="400" 
d="M91 -179l67 133l19 -5l-72 -135z" />
    <glyph glyph-name="uni0434.locl" horiz-adv-x="594" 
d="M255 33c148 0 244 137 244 283c0 109 -64 198 -192 198c-149 0 -246 -120 -246 -276c0 -115 68 -205 194 -205zM474 15c-23 -137 -113 -200 -242 -200c-109 0 -204 47 -220 155h18c15 -89 90 -139 202 -139c121 0 205 60 224 184l24 153c-34 -71 -108 -151 -226 -151
c-131 0 -211 89 -211 221c0 161 105 292 264 292c113 0 185 -66 204 -166l25 159h18z" />
    <glyph glyph-name="tilde.uc" horiz-adv-x="400" 
d="M361 774c-52 0 -93 64 -136 64c-25 0 -50 -20 -59 -63h-17c11 55 41 79 77 79c48 0 93 -64 136 -64c24 0 49 20 58 63h17c-11 -53 -41 -79 -76 -79z" />
    <glyph glyph-name="hungarumlaut.uc" horiz-adv-x="400" 
d="M275 888h20l-67 -117h-17zM381 888h20l-67 -117h-17z" />
    <glyph glyph-name="f.short" horiz-adv-x="308" 
d="M64 523h85l16 98c19 123 87 155 156 155c19 0 38 -3 51 -7l-2 -16c-14 5 -30 7 -49 7c-63 0 -119 -24 -138 -140l-16 -97h166l-3 -16h-165l-80 -507h-18l80 507h-86z" />
    <glyph glyph-name="idotaccent" horiz-adv-x="182" 
d="M151 639c-11 0 -17 8 -17 17s6 17 17 17s17 -8 17 -17s-6 -17 -17 -17zM122 523h18l-82 -523h-18z" />
    <glyph glyph-name="f_f.short" horiz-adv-x="575" 
d="M64 523h85l15 95c18 119 87 149 156 149c19 0 38 -3 55 -8l-2 -16c-19 7 -33 8 -53 8c-64 0 -119 -23 -138 -134l-15 -94h249l16 98c19 123 87 155 156 155c19 0 38 -3 51 -7l-2 -16c-14 5 -30 7 -49 7c-63 0 -119 -24 -138 -140l-16 -97h166l-3 -16h-165l-80 -507h-18
l80 507h-250l-79 -507h-18l79 507h-85z" />
    <glyph glyph-name="uni021B.alt" horiz-adv-x="296" 
d="M-2 -179l67 133l19 -5l-72 -135zM154 507h-95l3 16h94l19 119h18l-19 -119h140l-3 -16h-139l-80 -507h-18z" />
    <glyph glyph-name="uni0437.bgr" horiz-adv-x="436" 
d="M148 -185c-141 0 -173 94 -168 175h18c-5 -76 24 -159 148 -159s195 107 195 224c0 96 -44 151 -145 151h-80l2 16h79c116 0 171 81 171 164c0 85 -48 128 -129 128c-85 0 -141 -52 -164 -133h-17c24 100 91 149 182 149c92 0 147 -52 147 -144c0 -90 -67 -161 -140 -172
c65 -15 113 -59 113 -159c0 -135 -87 -240 -212 -240z" />
    <glyph glyph-name="uni0449.bgr" horiz-adv-x="892" 
d="M811 -127l17 127h-80c1 27 5 72 13 121c-35 -67 -95 -128 -191 -128c-92 0 -149 51 -154 147c-32 -82 -107 -147 -200 -147c-113 0 -174 71 -151 220l49 310h18l-49 -310c-21 -141 32 -204 133 -204c95 0 184 74 203 197l50 317h18l-49 -310c-23 -139 31 -204 132 -204
c95 0 185 74 204 197l50 317h18l-61 -389c-9 -57 -11 -91 -14 -118h81l-23 -143h-14z" />
    <glyph glyph-name="uni044A.bgr" horiz-adv-x="554" 
d="M46 507l3 16h168l-35 -210c19 4 72 15 136 15c115 0 176 -56 176 -148c0 -107 -78 -186 -198 -186s-174 66 -154 189l54 324h-150zM296 10c110 0 180 72 180 170c0 83 -55 132 -158 132c-64 0 -119 -11 -138 -15l-19 -113c-19 -113 30 -174 135 -174z" />
    <glyph glyph-name="uni02BC" unicode="&#x2bc;" horiz-adv-x="166" 
d="M99 581l68 137l17 -8l-71 -136z" />
    <glyph glyph-name="uni00AD" unicode="&#xad;" horiz-adv-x="332" 
d="M65 288h204l-3 -17h-204z" />
    </font>
</defs>
</svg>
