<?xml version="1.0" standalone="no"?>
<!DOCTYPE svg PUBLIC "-//W3C//DTD SVG 1.1//EN" "http://www.w3.org/Graphics/SVG/1.1/DTD/svg11.dtd" >
<svg xmlns="http://www.w3.org/2000/svg" xmlns:xlink="http://www.w3.org/1999/xlink" version="1.1">
<metadata>
Created by FontForge 20190801 at Mon Jul  4 08:34:48 2016
 By Jimmy Wärting
LCG stand for Latin, Cyrillic and Greek.
</metadata>
<defs>
<font id="GraphikLCG-Thin" horiz-adv-x="600" >
  <font-face 
    font-family="Graphik LCG"
    font-weight="250"
    font-stretch="normal"
    units-per-em="1000"
    panose-1="2 11 2 3 3 2 2 6 2 3"
    ascent="818"
    descent="-182"
    x-height="523"
    cap-height="715"
    bbox="-217 -210 1042 1068"
    underline-thickness="50"
    underline-position="-100"
    stemh="34"
    stemv="33"
    unicode-range="U+000D-FB02"
  />
<missing-glyph horiz-adv-x="500" 
 />
    <glyph glyph-name="f_f" unicode="ff" horiz-adv-x="584" 
d="M109 507h-85v16h85v95c0 113 70 149 139 149c23 0 35 -2 52 -7v-17c-15 5 -31 8 -52 8c-62 0 -121 -29 -121 -133v-95h249v104c0 113 70 149 139 149c23 0 35 -2 52 -7v-17c-15 5 -31 8 -52 8c-62 0 -121 -29 -121 -133v-104h166v-16h-166v-507h-18v507h-249v-507h-18
v507z" />
    <glyph glyph-name=".notdef" horiz-adv-x="500" 
 />
    <glyph glyph-name="NULL" horiz-adv-x="0" 
 />
    <glyph glyph-name="NULL" horiz-adv-x="0" 
 />
    <glyph glyph-name="CR" unicode="&#xd;" horiz-adv-x="225" 
 />
    <glyph glyph-name="space" unicode=" " horiz-adv-x="225" 
 />
    <glyph glyph-name="exclam" unicode="!" horiz-adv-x="254" 
d="M127 -5c-11 0 -17 8 -17 17s6 17 17 17s17 -8 17 -17s-6 -17 -17 -17zM118 715h20l-2 -563h-16z" />
    <glyph glyph-name="quotedbl" unicode="&#x22;" horiz-adv-x="223" 
d="M55 715h20l-2 -167h-16zM148 715h20l-2 -167h-16z" />
    <glyph glyph-name="numbersign" unicode="#" horiz-adv-x="478" 
d="M296 310h-149l-30 -211h-17l31 211h-98v16h100l27 186h-99v16h102l27 187h17l-28 -187h149l27 187h17l-28 -187h101v-16h-103l-27 -186h102v-16h-105l-30 -211h-17zM150 326h148l27 186h-148z" />
    <glyph glyph-name="dollar" unicode="$" horiz-adv-x="582" 
d="M280 -6c-149 5 -223 89 -239 196h19c13 -93 79 -174 220 -179v356c-155 24 -214 81 -214 176c0 109 86 175 214 178v92h18v-92c117 -4 185 -63 204 -159h-19c-17 84 -77 139 -185 142v-322c159 -24 229 -63 229 -196c0 -104 -82 -192 -229 -192v-129h-18v129zM508 186
c0 119 -62 158 -210 179v-354c136 0 210 78 210 175zM85 543c0 -87 51 -135 195 -158v319c-120 -3 -195 -57 -195 -161z" />
    <glyph glyph-name="percent" unicode="%" horiz-adv-x="745" 
d="M195 431c69 0 130 50 130 136c0 84 -59 136 -130 136c-68 0 -129 -53 -129 -138c0 -84 61 -134 129 -134zM195 415c-76 0 -147 56 -147 150c0 93 69 154 147 154c81 0 148 -61 148 -152c0 -97 -70 -152 -148 -152zM600 715h20l-477 -715h-20zM547 11c69 0 130 50 130 136
c0 84 -59 136 -130 136c-68 0 -129 -53 -129 -138c0 -84 61 -134 129 -134zM547 -5c-76 0 -147 56 -147 150c0 93 69 154 147 154c81 0 148 -61 148 -152c0 -97 -70 -152 -148 -152z" />
    <glyph glyph-name="ampersand" unicode="&#x26;" horiz-adv-x="636" 
d="M478 147l129 -147h-24l-114 130c-45 -69 -113 -137 -224 -137c-128 0 -199 82 -199 190c0 112 95 174 185 219c-53 61 -85 107 -85 171c0 81 62 146 146 146c87 0 138 -65 138 -141c0 -83 -76 -139 -171 -181l207 -236l107 192h20zM245 10c104 0 169 65 211 134l-214 246
c-86 -43 -177 -104 -177 -207c0 -97 64 -173 180 -173zM165 573c0 -60 31 -104 83 -164c89 43 163 91 163 169c0 72 -43 124 -119 124c-74 0 -127 -56 -127 -129z" />
    <glyph glyph-name="quotesingle" unicode="'" horiz-adv-x="130" 
d="M55 715h20l-2 -167h-16z" />
    <glyph glyph-name="parenleft" unicode="(" horiz-adv-x="273" 
d="M222 -148c-91 107 -164 261 -164 460c0 200 73 352 164 461h19c-90 -112 -165 -258 -165 -461c0 -202 74 -348 165 -460h-19z" />
    <glyph glyph-name="parenright" unicode=")" horiz-adv-x="273" 
d="M32 -148c91 112 165 258 165 460c0 203 -75 349 -165 461h19c91 -109 164 -261 164 -461c0 -199 -73 -353 -164 -460h-19z" />
    <glyph glyph-name="asterisk" unicode="*" horiz-adv-x="412" 
d="M94 451l100 124l-143 52l6 17l141 -54l-1 153h19l-1 -153l140 54l6 -17l-142 -52l98 -124l-15 -12l-96 125l-97 -125z" />
    <glyph glyph-name="plus" unicode="+" horiz-adv-x="500" 
d="M241 334h-204v16h204v219h18v-219h204v-16h-204v-219h-18v219z" />
    <glyph glyph-name="comma" unicode="," horiz-adv-x="166" 
d="M29 -103l55 140l19 -7l-59 -139z" />
    <glyph glyph-name="hyphen" unicode="-" horiz-adv-x="332" 
d="M64 288h204v-17h-204v17z" />
    <glyph glyph-name="period" unicode="." horiz-adv-x="166" 
d="M83 -5c-11 0 -17 8 -17 17s6 17 17 17s17 -8 17 -17s-6 -17 -17 -17z" />
    <glyph glyph-name="slash" unicode="/" horiz-adv-x="376" 
d="M312 776h19l-291 -924h-19z" />
    <glyph glyph-name="zero" unicode="0" horiz-adv-x="634" 
d="M317 11c161 0 245 104 245 307v84c0 187 -93 302 -248 302s-242 -110 -242 -305v-84c0 -203 90 -304 245 -304zM317 -6c-169 0 -264 112 -264 321v84c0 207 94 322 261 322c163 0 267 -115 267 -319v-84c0 -211 -92 -324 -264 -324z" />
    <glyph glyph-name="one" unicode="1" horiz-adv-x="331" 
d="M188 689l-167 -112v18l177 120h8v-715h-18v689z" />
    <glyph glyph-name="two" unicode="2" horiz-adv-x="518" 
d="M21 5l291 294c88 88 122 155 122 235c0 115 -76 170 -180 170s-179 -60 -194 -183h-18c11 130 100 200 212 200s199 -63 199 -187c0 -87 -39 -158 -126 -245l-272 -272h415v-17h-449v5z" />
    <glyph glyph-name="three" unicode="3" horiz-adv-x="524" 
d="M260 -6c-142 0 -222 96 -227 197h18c8 -95 77 -180 209 -180c117 0 198 64 198 185c0 92 -55 170 -179 170h-49v17h46c114 0 157 80 157 153c0 95 -60 168 -167 168c-111 0 -177 -74 -188 -166h-18c8 104 91 183 206 183c117 0 186 -80 186 -185
c0 -76 -46 -144 -122 -160c85 -15 147 -80 147 -180c0 -129 -86 -202 -217 -202z" />
    <glyph glyph-name="four" unicode="4" horiz-adv-x="569" 
d="M408 173h-381v5l367 537h33v-525h99v-17h-99v-173h-19v173zM408 190v514l-351 -514h351z" />
    <glyph glyph-name="five" unicode="5" horiz-adv-x="531" 
d="M253 -6c-133 0 -212 89 -220 179h18c11 -81 78 -162 202 -162c136 0 212 85 212 218c0 127 -89 211 -197 211c-92 0 -152 -41 -188 -88h-8v363h376v-17h-358v-312c33 33 94 71 178 71c119 0 216 -88 216 -228c0 -147 -91 -235 -231 -235z" />
    <glyph glyph-name="six" unicode="6" horiz-adv-x="577" 
d="M300 -6c-164 0 -240 116 -240 273v91c0 268 108 363 257 363c98 0 175 -43 191 -150h-18c-15 92 -78 133 -173 133c-140 0 -238 -83 -238 -347v-64c32 104 133 151 219 151c156 0 234 -97 234 -223c0 -132 -92 -227 -232 -227zM300 11c131 0 213 87 213 210
s-68 206 -215 206c-108 0 -213 -71 -213 -199c0 -100 58 -217 215 -217z" />
    <glyph glyph-name="seven" unicode="7" horiz-adv-x="480" 
d="M439 698h-415v17h440v-5l-291 -710h-20z" />
    <glyph glyph-name="eight" unicode="8" horiz-adv-x="555" 
d="M278 -6c-129 0 -232 69 -232 201c0 103 78 174 184 190c-80 16 -151 70 -151 164c0 106 92 172 199 172s198 -68 198 -170c0 -97 -63 -150 -144 -166c104 -16 177 -82 177 -188c0 -133 -98 -203 -231 -203zM278 11c125 0 212 61 212 186c0 114 -94 179 -210 179
c-115 0 -215 -66 -215 -181c0 -124 94 -184 213 -184zM281 393c96 0 176 52 176 158c0 89 -75 153 -179 153s-180 -62 -180 -155c0 -105 96 -156 183 -156z" />
    <glyph glyph-name="nine" unicode="9" horiz-adv-x="574" 
d="M271 -6c-99 0 -186 49 -207 155h19c20 -91 92 -138 188 -138c140 0 227 57 227 319v83c-32 -99 -135 -143 -223 -143c-153 0 -230 93 -230 224c0 136 94 227 232 227c171 0 240 -126 240 -267v-125c0 -269 -94 -335 -246 -335zM275 287c111 0 219 70 219 192
c0 105 -59 225 -217 225c-131 0 -213 -87 -213 -210c0 -120 68 -207 211 -207z" />
    <glyph glyph-name="colon" unicode=":" horiz-adv-x="172" 
d="M86 -5c-11 0 -17 8 -17 17s6 17 17 17s17 -8 17 -17s-6 -17 -17 -17zM86 352c-11 0 -17 8 -17 17s6 17 17 17s17 -8 17 -17s-6 -17 -17 -17z" />
    <glyph glyph-name="semicolon" unicode=";" horiz-adv-x="172" 
d="M26 -103l55 140l19 -7l-59 -139zM86 352c-11 0 -17 8 -17 17s6 17 17 17s17 -8 17 -17s-6 -17 -17 -17z" />
    <glyph glyph-name="less" unicode="&#x3c;" horiz-adv-x="487" 
d="M48 319v6l384 204v-19l-356 -188l356 -188v-19z" />
    <glyph glyph-name="equal" unicode="=" horiz-adv-x="484" 
d="M40 249h404v-16h-404v16zM40 401h404v-16h-404v16z" />
    <glyph glyph-name="greater" unicode="&#x3e;" horiz-adv-x="487" 
d="M55 134l356 188l-356 188v19l384 -204v-6l-384 -204v19z" />
    <glyph glyph-name="question" unicode="?" horiz-adv-x="462" 
d="M198 218c0 78 36 116 97 177c55 55 100 93 100 173s-51 136 -158 136c-101 0 -172 -64 -180 -172h-19c8 117 87 189 200 189s176 -62 176 -153c0 -89 -47 -123 -107 -185c-58 -61 -91 -93 -91 -166v-65h-18v66zM207 -5c-11 0 -17 8 -17 17s6 17 17 17s17 -8 17 -17
s-6 -17 -17 -17z" />
    <glyph glyph-name="at" unicode="@" horiz-adv-x="902" 
d="M462 -147c-269 0 -415 196 -415 411c0 243 203 424 424 424c239 0 388 -160 388 -366c0 -179 -82 -248 -162 -248c-67 0 -109 41 -112 118c-19 -51 -75 -126 -161 -126c-91 0 -156 66 -156 174c0 133 92 232 191 232c75 0 130 -54 141 -122l12 113h18l-26 -226
c-11 -85 14 -148 93 -148c81 0 144 73 144 232c0 200 -137 351 -370 351c-216 0 -406 -175 -406 -408c0 -205 137 -395 397 -395c157 0 264 62 314 131h18c-48 -75 -164 -147 -332 -147zM424 82c95 0 168 104 168 211c0 100 -53 163 -133 163c-89 0 -173 -90 -173 -216
c0 -99 54 -158 138 -158z" />
    <glyph glyph-name="A" unicode="A" horiz-adv-x="630" 
d="M300 715h26l274 -715h-19l-90 235h-354l-89 -235h-18zM143 252h341l-171 448z" />
    <glyph glyph-name="B" unicode="B" horiz-adv-x="582" 
d="M95 715h188c120 0 201 -60 201 -177v-4c0 -95 -59 -144 -138 -159c112 -15 175 -74 175 -178v-4c0 -127 -80 -193 -208 -193h-218v715zM313 17c123 0 189 63 189 176v4c0 111 -77 168 -216 168h-172v-348h199zM286 382c113 0 179 57 179 152v4c0 107 -69 160 -182 160
h-169v-316h172z" />
    <glyph glyph-name="C" unicode="C" horiz-adv-x="720" 
d="M380 -6c-200 0 -330 148 -330 359v8c0 211 149 360 329 360c145 0 257 -75 286 -211h-19c-28 123 -123 194 -267 194c-175 0 -310 -143 -310 -342v-8c0 -204 122 -343 311 -343c145 0 248 79 277 210h18c-29 -141 -146 -227 -295 -227z" />
    <glyph glyph-name="D" unicode="D" horiz-adv-x="675" 
d="M272 17c226 0 334 148 334 339v8c0 187 -108 334 -335 334h-157v-681h158zM95 715h181c226 0 349 -152 349 -351v-8c0 -197 -114 -356 -351 -356h-179v715z" />
    <glyph glyph-name="E" unicode="E" horiz-adv-x="566" 
d="M95 715h403v-17h-384v-320h313v-17h-313v-344h402v-17h-421v715z" />
    <glyph glyph-name="F" unicode="F" horiz-adv-x="534" 
d="M95 715h393v-17h-374v-320h297v-17h-297v-361h-19v715z" />
    <glyph glyph-name="G" unicode="G" horiz-adv-x="744" 
d="M390 -6c-211 0 -340 148 -340 359v8c0 211 151 360 335 360c132 0 250 -63 282 -195h-19c-32 123 -135 178 -263 178c-180 0 -316 -143 -316 -342v-8c0 -204 118 -343 321 -343c183 0 285 104 285 297v9h-233v17h252v-26c0 -204 -119 -314 -304 -314z" />
    <glyph glyph-name="H" unicode="H" horiz-adv-x="702" 
d="M95 715h19v-344h474v344h19v-715h-19v354h-474v-354h-19v715z" />
    <glyph glyph-name="I" unicode="I" horiz-adv-x="219" 
d="M100 715h19v-715h-19v715z" />
    <glyph glyph-name="J" unicode="J" horiz-adv-x="378" 
d="M136 -4c-47 0 -82 12 -101 21v18c24 -11 58 -22 101 -22c89 0 144 41 144 152v550h19v-550c0 -119 -64 -169 -163 -169z" />
    <glyph glyph-name="K" unicode="K" horiz-adv-x="579" 
d="M124 365l380 350h24l-379 -349l397 -366h-25zM95 715h19v-715h-19v715z" />
    <glyph glyph-name="L" unicode="L" horiz-adv-x="525" 
d="M95 715h19v-698h371v-17h-390v715z" />
    <glyph glyph-name="M" unicode="M" horiz-adv-x="846" 
d="M95 715h31l289 -680l298 680h30v-715h-19v695l-305 -695h-9l-296 695v-695h-19v715z" />
    <glyph glyph-name="N" unicode="N" horiz-adv-x="701" 
d="M95 715h31l461 -693v693h19v-715h-26l-466 700v-700h-19v715z" />
    <glyph glyph-name="O" unicode="O" horiz-adv-x="790" 
d="M397 11c183 0 324 150 324 345v8c0 191 -140 340 -326 340c-188 0 -326 -150 -326 -343v-8c0 -191 140 -342 328 -342zM397 -6c-196 0 -347 159 -347 359v8c0 204 153 360 345 360s345 -156 345 -357v-8c0 -203 -154 -362 -343 -362z" />
    <glyph glyph-name="P" unicode="P" horiz-adv-x="552" 
d="M95 715h172c141 0 236 -51 236 -191v-4c0 -141 -92 -197 -233 -197h-157v-323h-18v715zM270 340c131 0 214 48 214 180v4c0 132 -89 174 -217 174h-154v-358h157z" />
    <glyph glyph-name="Q" unicode="Q" horiz-adv-x="790" 
d="M601 63c-57 -44 -128 -69 -204 -69c-196 0 -347 159 -347 359v8c0 204 153 360 345 360s345 -156 345 -357v-8c0 -116 -49 -215 -126 -282l86 -88l-12 -12zM397 11c73 0 139 23 192 64l-123 128l12 12l124 -129c73 64 119 158 119 270v8c0 191 -140 340 -326 340
c-188 0 -326 -150 -326 -343v-8c0 -191 140 -342 328 -342z" />
    <glyph glyph-name="R" unicode="R" horiz-adv-x="581" 
d="M95 715h172c141 0 236 -51 236 -183v-4c0 -121 -78 -172 -195 -183l237 -345h-22l-236 343h-174v-343h-18v715zM267 360c131 0 217 44 217 168v4c0 124 -89 166 -217 166h-154v-338h154z" />
    <glyph glyph-name="S" unicode="S" horiz-adv-x="572" 
d="M292 -6c-161 0 -240 85 -256 196h19c16 -96 82 -179 237 -179c137 0 211 76 211 175c0 120 -61 158 -214 179c-163 24 -222 80 -222 178c0 112 87 178 219 178c123 0 192 -60 211 -159h-19c-17 88 -76 142 -192 142c-124 0 -200 -53 -200 -161c0 -89 54 -139 206 -160
c163 -24 230 -64 230 -197c0 -105 -82 -192 -230 -192z" />
    <glyph glyph-name="T" unicode="T" horiz-adv-x="557" 
d="M269 698h-238v17h495v-17h-238v-698h-19v698z" />
    <glyph glyph-name="U" unicode="U" horiz-adv-x="666" 
d="M334 -4c-156 0 -255 87 -255 254v465h19v-464c0 -157 87 -238 236 -238c164 0 234 88 234 251v451h19v-454c0 -167 -81 -265 -253 -265z" />
    <glyph glyph-name="V" unicode="V" horiz-adv-x="616" 
d="M28 715h19l269 -694l254 694h18l-261 -715h-22z" />
    <glyph glyph-name="W" unicode="W" horiz-adv-x="910" 
d="M31 715h19l186 -692l213 692h13l198 -694l202 694h17l-208 -715h-24l-192 676l-208 -676h-23z" />
    <glyph glyph-name="X" unicode="X" horiz-adv-x="632" 
d="M306 374l-233 341h21l225 -329l224 329h21l-234 -343l255 -372h-21l-247 360l-249 -360h-21z" />
    <glyph glyph-name="Y" unicode="Y" horiz-adv-x="554" 
d="M275 325l-253 390h21l242 -372l227 372h20l-238 -390v-325h-19v325z" />
    <glyph glyph-name="Z" unicode="Z" horiz-adv-x="577" 
d="M26 7l487 691h-451v17h480v-7l-487 -691h481v-17h-510v7z" />
    <glyph glyph-name="bracketleft" unicode="[" horiz-adv-x="322" 
d="M99 776h184v-16h-166v-892h166v-16h-184v924z" />
    <glyph glyph-name="backslash" unicode="\" horiz-adv-x="376" 
d="M45 776h19l291 -924h-19z" />
    <glyph glyph-name="bracketright" unicode="]" horiz-adv-x="322" 
d="M39 -132h166v892h-166v16h184v-924h-184v16z" />
    <glyph glyph-name="asciicircum" unicode="^" horiz-adv-x="445" 
d="M215 715h15l167 -277h-20l-154 257l-155 -257h-20z" />
    <glyph glyph-name="underscore" unicode="_" horiz-adv-x="384" 
d="M-1 -125h386v-17h-386v17z" />
    <glyph glyph-name="grave" unicode="`" horiz-adv-x="400" 
d="M114 743h20l75 -147h-17z" />
    <glyph glyph-name="a" unicode="a" horiz-adv-x="515" 
d="M228 -7c-112 0 -181 52 -181 144c0 121 103 155 226 155h149v55c0 116 -49 167 -157 167c-88 0 -160 -39 -177 -131h-17c13 99 98 147 194 147c121 0 175 -66 175 -183v-347h-18v96c-27 -53 -94 -103 -194 -103zM228 9c104 0 194 68 194 143v124h-149
c-114 0 -208 -24 -208 -139c0 -84 60 -128 163 -128z" />
    <glyph glyph-name="b" unicode="b" horiz-adv-x="594" 
d="M322 -7c-125 0 -197 85 -224 165v-158h-18v773h18v-413c30 89 112 170 224 170c125 0 231 -102 231 -265v-8c0 -169 -106 -264 -231 -264zM322 9c119 0 213 92 213 248v8c0 158 -99 249 -213 249c-108 0 -224 -93 -224 -249v-8c0 -155 107 -248 224 -248z" />
    <glyph glyph-name="c" unicode="c" horiz-adv-x="539" 
d="M283 -7c-133 0 -242 107 -242 264v8c0 159 111 265 244 265c104 0 196 -64 209 -164h-18c-13 93 -97 148 -191 148c-124 0 -226 -95 -226 -249v-8c0 -151 102 -248 224 -248c103 0 182 59 201 164h17c-18 -111 -106 -180 -218 -180z" />
    <glyph glyph-name="d" unicode="d" horiz-adv-x="594" 
d="M275 -7c-129 0 -234 95 -234 264v8c0 163 109 265 242 265c121 0 184 -81 213 -160v403h18v-773h-18v157c-24 -76 -98 -164 -221 -164zM275 9c117 0 221 93 221 248v8c0 156 -94 249 -213 249c-120 0 -224 -91 -224 -249v-8c0 -156 93 -248 216 -248z" />
    <glyph glyph-name="e" unicode="e" horiz-adv-x="537" 
d="M282 -7c-155 0 -241 111 -241 264v8c0 156 99 265 234 265c132 0 221 -93 221 -249v-11h-437c0 -164 78 -261 223 -261c93 0 167 44 192 132h18c-27 -95 -105 -148 -210 -148zM478 286c-3 149 -82 228 -203 228c-119 0 -211 -89 -216 -228h419z" />
    <glyph glyph-name="f" unicode="f" horiz-adv-x="317" 
d="M109 507h-85v16h85v104c0 113 70 149 139 149c23 0 35 -2 52 -7v-17c-15 5 -31 8 -52 8c-62 0 -121 -29 -121 -133v-104h166v-16h-166v-507h-18v507z" />
    <glyph glyph-name="g" unicode="g" horiz-adv-x="594" 
d="M283 -185c-147 0 -220 75 -231 155h18c16 -76 78 -139 212 -139c121 0 214 55 214 203v142c-24 -76 -100 -159 -221 -159c-129 0 -234 89 -234 252v8c0 156 109 253 242 253c121 0 184 -74 213 -154v147h18v-489c0 -156 -99 -219 -231 -219zM275 33c117 0 221 88 221 236
v8c0 149 -94 237 -213 237c-120 0 -224 -85 -224 -237v-8c0 -149 93 -236 216 -236z" />
    <glyph glyph-name="h" unicode="h" horiz-adv-x="565" 
d="M80 773h18v-375c24 68 103 132 204 132c114 0 188 -62 188 -207v-323h-18v323c0 133 -66 191 -170 191c-99 0 -204 -69 -204 -197v-317h-18v773z" />
    <glyph glyph-name="i" unicode="i" horiz-adv-x="182" 
d="M82 523h18v-523h-18v523zM74 656c0 9 6 17 17 17s17 -8 17 -17s-6 -17 -17 -17s-17 8 -17 17z" />
    <glyph glyph-name="j" unicode="j" horiz-adv-x="182" 
d="M5 -168c59 5 77 34 77 102v589h18v-589c0 -80 -24 -115 -95 -118v16zM91 639c-11 0 -17 8 -17 17s6 17 17 17s17 -8 17 -17s-6 -17 -17 -17z" />
    <glyph glyph-name="k" unicode="k" horiz-adv-x="452" 
d="M103 277l293 246h24l-292 -246l307 -277h-25zM80 773h18v-773h-18v773z" />
    <glyph glyph-name="l" unicode="l" horiz-adv-x="182" 
d="M82 773h18v-773h-18v773z" />
    <glyph glyph-name="m" unicode="m" horiz-adv-x="897" 
d="M80 523h18v-122c24 68 92 129 189 129c92 0 151 -39 168 -139c27 80 100 139 194 139c109 0 173 -56 173 -200v-330h-18v330c0 133 -55 184 -155 184c-93 0 -189 -69 -189 -197v-317h-18v330c0 133 -55 184 -155 184c-93 0 -189 -69 -189 -197v-317h-18v523z" />
    <glyph glyph-name="n" unicode="n" horiz-adv-x="565" 
d="M80 523h18v-125c24 68 103 132 204 132c114 0 188 -62 188 -207v-323h-18v323c0 133 -66 191 -170 191c-99 0 -204 -69 -204 -197v-317h-18v523z" />
    <glyph glyph-name="o" unicode="o" horiz-adv-x="576" 
d="M288 9c120 0 229 94 229 249v8c0 157 -107 247 -227 247c-121 0 -231 -93 -231 -248v-8c0 -151 106 -248 229 -248zM287 -7c-133 0 -246 109 -246 264v8c0 157 117 264 249 264s245 -102 245 -263v-8c0 -158 -115 -265 -248 -265z" />
    <glyph glyph-name="p" unicode="p" horiz-adv-x="594" 
d="M80 523h18v-163c30 89 112 170 224 170c125 0 231 -102 231 -265v-8c0 -169 -106 -264 -231 -264s-197 85 -224 165v-340h-18v705zM322 9c119 0 213 92 213 248v8c0 158 -99 249 -213 249c-108 0 -224 -93 -224 -249v-8c0 -155 107 -248 224 -248z" />
    <glyph glyph-name="q" unicode="q" horiz-adv-x="594" 
d="M496 157c-24 -76 -98 -164 -221 -164c-129 0 -234 95 -234 264v8c0 163 109 265 242 265c121 0 184 -81 213 -160v153h18v-705h-18v339zM275 9c117 0 221 93 221 248v8c0 156 -94 249 -213 249c-120 0 -224 -91 -224 -249v-8c0 -156 93 -248 216 -248z" />
    <glyph glyph-name="r" unicode="r" horiz-adv-x="316" 
d="M80 523h18v-129c24 68 84 130 183 133v-16c-96 -3 -183 -67 -183 -218v-293h-18v523z" />
    <glyph glyph-name="s" unicode="s" horiz-adv-x="448" 
d="M231 -9c-120 0 -188 68 -197 160h17c11 -82 69 -144 180 -144c99 0 156 57 156 127c0 82 -37 106 -154 127c-120 21 -179 48 -179 138c0 77 71 130 168 130c95 0 158 -39 173 -131h-17c-15 80 -69 115 -157 115c-89 0 -150 -45 -150 -114c0 -76 48 -101 167 -122
c116 -21 168 -51 168 -143c0 -77 -66 -143 -175 -143z" />
    <glyph glyph-name="t" unicode="t" horiz-adv-x="319" 
d="M214 -7c-68 0 -112 39 -112 127v387h-80v16h80v119h18v-119h154v-16h-154v-387c0 -79 38 -111 94 -111c28 0 48 4 67 11v-16c-17 -7 -36 -11 -67 -11z" />
    <glyph glyph-name="u" unicode="u" horiz-adv-x="561" 
d="M262 -7c-115 0 -187 56 -187 200v330h18v-330c0 -133 66 -184 169 -184c99 0 201 66 201 194v320h18v-523h-18v121c-24 -68 -101 -128 -201 -128z" />
    <glyph glyph-name="v" unicode="v" horiz-adv-x="499" 
d="M26 523h19l206 -507l204 507h18l-209 -523h-26z" />
    <glyph glyph-name="w" unicode="w" horiz-adv-x="755" 
d="M30 523h19l160 -502l162 502h14l160 -502l162 502h18l-168 -523h-24l-155 491l-158 -491h-24z" />
    <glyph glyph-name="x" unicode="x" horiz-adv-x="491" 
d="M232 272l-189 251h22l179 -239l175 239h21l-185 -251l205 -272h-22l-195 260l-191 -260h-21z" />
    <glyph glyph-name="y" unicode="y" horiz-adv-x="483" 
d="M235 35l-209 488h19l200 -467l193 467h19l-293 -705h-19z" />
    <glyph glyph-name="z" unicode="z" horiz-adv-x="463" 
d="M27 5l376 502h-346v16h376v-5l-376 -502h367v-16h-397v5z" />
    <glyph glyph-name="braceleft" unicode="{" horiz-adv-x="341" 
d="M302 -144c-124 0 -190 45 -161 187l26 126c17 84 -16 138 -123 139v16c107 1 140 55 123 139l-26 126c-29 141 37 187 161 187v-16c-109 0 -173 -34 -144 -168l26 -126c19 -93 -22 -135 -89 -150c67 -15 108 -57 89 -150l-26 -126c-29 -135 35 -168 144 -168v-16z" />
    <glyph glyph-name="bar" unicode="|" horiz-adv-x="226" 
d="M104 776h18v-924h-18v924z" />
    <glyph glyph-name="braceright" unicode="}" horiz-adv-x="341" 
d="M39 -128c110 0 171 33 144 168l-26 126c-19 93 22 135 89 150c-67 15 -108 57 -89 150l26 126c26 134 -34 168 -144 168v16c124 0 190 -46 161 -187l-26 -126c-17 -84 16 -138 123 -139v-16c-107 -1 -140 -55 -123 -139l26 -126c30 -142 -37 -187 -161 -187v16z" />
    <glyph glyph-name="asciitilde" unicode="~" horiz-adv-x="429" 
d="M49 242c7 49 36 89 85 89c62 0 107 -71 162 -71c39 0 61 36 66 73h18c-7 -49 -36 -89 -85 -89c-64 0 -106 71 -162 71c-39 0 -61 -36 -66 -73h-18z" />
    <glyph glyph-name="uni00A0" unicode="&#xa0;" horiz-adv-x="280" 
 />
    <glyph glyph-name="exclamdown" unicode="&#xa1;" horiz-adv-x="254" 
d="M118 446h16l2 -563h-20zM127 569c-11 0 -17 8 -17 17s6 17 17 17s17 -8 17 -17s-6 -17 -17 -17z" />
    <glyph glyph-name="cent" unicode="&#xa2;" horiz-adv-x="539" 
d="M274 -7c-131 5 -233 101 -233 264v8c0 162 105 260 233 265v99h18v-99c101 -3 189 -66 202 -164h-18c-13 91 -92 145 -184 148v-505c97 3 173 61 192 164h17c-19 -108 -101 -176 -209 -180v-128h-18v128zM59 257c0 -154 97 -245 215 -248v505c-119 -5 -215 -92 -215 -249
v-8z" />
    <glyph glyph-name="sterling" unicode="&#xa3;" horiz-adv-x="581" 
d="M51 358h78c-15 51 -31 99 -31 163c0 123 86 200 211 200c129 0 195 -71 206 -176h-18c-15 101 -71 159 -188 159c-114 0 -192 -76 -192 -183c0 -64 16 -112 32 -163h247v-16h-242c13 -43 24 -87 24 -143c0 -41 -11 -77 -26 -104h7c83 0 167 -84 257 -84
c72 0 113 47 118 126h19c-7 -91 -61 -143 -137 -143c-96 0 -177 84 -257 84c-52 0 -86 -31 -93 -78h-20c7 43 35 81 84 92c17 28 29 66 29 107c0 56 -12 99 -25 143h-83v16z" />
    <glyph glyph-name="yen" unicode="&#xa5;" horiz-adv-x="516" 
d="M59 349h191l-222 366h21l217 -358l202 358h20l-207 -366h187v-16h-193v-120h193v-16h-193v-197h-19v197h-197v16h197v120h-197v16z" />
    <glyph glyph-name="brokenbar" unicode="&#xa6;" horiz-adv-x="226" 
d="M104 297h18v-445h-18v445zM104 776h18v-409h-18v409z" />
    <glyph glyph-name="section" unicode="&#xa7;" horiz-adv-x="530" 
d="M266 -137c-97 0 -173 51 -181 141h19c7 -79 71 -124 162 -124c95 0 142 51 142 128c0 90 -49 118 -169 150c-112 29 -188 64 -188 158c0 75 69 126 146 139c-52 27 -82 60 -82 129c0 85 72 140 160 140c92 0 145 -49 153 -133h-18c-8 76 -48 116 -135 116
c-75 0 -141 -40 -141 -123c0 -80 46 -114 162 -148c111 -34 183 -70 183 -158c0 -80 -56 -122 -136 -138c57 -27 84 -67 84 -132c0 -88 -58 -145 -161 -145zM324 151c84 16 136 52 136 127c0 78 -59 106 -167 141l-76 26c-81 -14 -147 -55 -147 -129c0 -86 67 -109 172 -141
z" />
    <glyph glyph-name="dieresis" unicode="&#xa8;" horiz-adv-x="400" 
d="M129 639c-11 0 -17 8 -17 17s6 17 17 17s17 -8 17 -17s-6 -17 -17 -17zM271 639c-11 0 -17 8 -17 17s6 17 17 17s17 -8 17 -17s-6 -17 -17 -17z" />
    <glyph glyph-name="copyright" unicode="&#xa9;" horiz-adv-x="844" 
d="M425 146c-120 0 -198 88 -198 214v6c0 124 89 214 197 214c88 0 156 -44 172 -128h-18c-16 72 -70 112 -154 112c-100 0 -179 -82 -179 -198v-6c0 -120 72 -198 180 -198c84 0 143 46 159 122h17c-16 -87 -87 -138 -176 -138zM421 6c197 0 351 153 351 353
c0 195 -150 350 -349 350c-197 0 -351 -156 -351 -352c0 -199 154 -351 349 -351zM421 -9c-204 0 -366 159 -366 366c0 204 162 367 368 367c208 0 366 -162 366 -365c0 -209 -162 -368 -368 -368z" />
    <glyph glyph-name="ordfeminine" unicode="&#xaa;" horiz-adv-x="417" 
d="M182 316c-83 0 -136 40 -136 109c0 92 77 117 173 117h107v41c0 84 -35 122 -115 122c-65 0 -116 -27 -129 -95h-18c11 75 75 111 148 111c89 0 132 -49 132 -138v-262h-18v71c-21 -39 -69 -76 -144 -76zM183 332c77 0 143 49 143 106v88h-107c-86 0 -155 -17 -155 -101
c0 -61 43 -93 119 -93z" />
    <glyph glyph-name="guillemotleft" unicode="&#xab;" horiz-adv-x="387" 
d="M49 261l140 178h21l-140 -178l140 -178h-21zM183 261l140 178h21l-140 -178l140 -178h-21z" />
    <glyph glyph-name="registered" unicode="&#xae;" horiz-adv-x="514" 
d="M185 630h72c49 0 83 -23 83 -67v-1c0 -39 -26 -58 -65 -63l78 -112h-22l-78 111h-49v-111h-19v243zM258 514c41 0 62 16 62 48v1c0 35 -21 49 -62 49h-54v-98h54zM257 297c115 0 205 89 205 206c0 115 -88 206 -205 206c-115 0 -205 -91 -205 -207
c0 -117 90 -205 205 -205zM257 282c-123 0 -222 96 -222 220c0 123 97 222 222 222s222 -97 222 -221c0 -125 -99 -221 -222 -221z" />
    <glyph glyph-name="macron" unicode="&#xaf;" horiz-adv-x="400" 
d="M90 663h219v-17h-219v17z" />
    <glyph glyph-name="degree" unicode="&#xb0;" horiz-adv-x="384" 
d="M192 468c68 0 122 54 122 119c0 67 -54 121 -122 121s-122 -54 -122 -121c0 -65 54 -119 122 -119zM192 452c-77 0 -140 60 -140 135s63 137 140 137s140 -62 140 -137s-63 -135 -140 -135z" />
    <glyph glyph-name="plusminus" unicode="&#xb1;" horiz-adv-x="500" 
d="M241 334h-204v16h204v219h18v-219h204v-16h-204v-219h-18v219zM37 16h426v-16h-426v16z" />
    <glyph glyph-name="twosuperior" unicode="&#xb2;" horiz-adv-x="288" 
d="M24 377l131 126c52 51 73 80 73 121c0 51 -36 79 -85 79c-57 0 -87 -36 -94 -92h-17c5 68 47 107 111 107c63 0 103 -38 103 -94c0 -48 -23 -79 -79 -132l-111 -106h194v-16h-226v7z" />
    <glyph glyph-name="threesuperior" unicode="&#xb3;" horiz-adv-x="305" 
d="M154 367c-76 0 -122 46 -126 98h18c5 -43 41 -82 108 -82c60 0 95 30 95 82c0 44 -32 78 -88 78h-27v16h25c52 0 78 32 78 71c0 44 -34 73 -85 73c-60 0 -89 -36 -94 -79h-17c4 51 43 94 111 94c61 0 103 -37 103 -88c0 -41 -25 -69 -61 -78c40 -8 73 -39 73 -87
c0 -63 -45 -98 -113 -98z" />
    <glyph glyph-name="acute" unicode="&#xb4;" horiz-adv-x="400" 
d="M266 743h20l-78 -147h-17z" />
    <glyph glyph-name="mu" unicode="&#xb5;" horiz-adv-x="566" 
d="M80 523h18v-340c0 -125 79 -174 179 -174c99 0 191 66 191 194v320h18v-523h-18v121c-24 -68 -91 -128 -191 -128c-85 0 -151 29 -179 105v-280h-18v705z" />
    <glyph glyph-name="paragraph" unicode="&#xb6;" horiz-adv-x="526" 
d="M266 361h-14c-122 0 -208 57 -208 173c0 123 91 181 208 181h179v-815h-18v799h-129v-799h-18v461z" />
    <glyph glyph-name="periodcentered" unicode="&#xb7;" horiz-adv-x="166" 
d="M83 303c-11 0 -17 8 -17 17s6 17 17 17s17 -8 17 -17s-6 -17 -17 -17z" />
    <glyph glyph-name="cedilla" unicode="&#xb8;" horiz-adv-x="400" 
d="M212 -210c-48 0 -83 27 -90 72h19c4 -35 30 -56 71 -56c43 0 67 24 67 59c0 43 -31 55 -64 55c-23 0 -38 -7 -46 -12l-9 8l48 84h18l-41 -71c53 19 111 -3 111 -64c0 -47 -36 -75 -84 -75z" />
    <glyph glyph-name="onesuperior" unicode="&#xb9;" horiz-adv-x="200" 
d="M113 690l-95 -68v19l103 74h10v-345h-18v320z" />
    <glyph glyph-name="ordmasculine" unicode="&#xba;" horiz-adv-x="454" 
d="M227 332c91 0 168 69 168 184v6c0 116 -77 182 -167 182c-89 0 -169 -70 -169 -183v-6c0 -111 77 -183 168 -183zM226 316c-101 0 -185 80 -185 199v6c0 123 87 199 187 199c101 0 185 -74 185 -198v-6c0 -124 -86 -200 -187 -200z" />
    <glyph glyph-name="guillemotright" unicode="&#xbb;" horiz-adv-x="387" 
d="M183 261l-140 178h21l140 -178l-140 -178h-21zM317 261l-140 178h21l140 -178l-140 -178h-21z" />
    <glyph glyph-name="onequarter" unicode="&#xbc;" horiz-adv-x="641" 
d="M116 690l-95 -68v19l103 74h10v-345h-18v320zM569 715h20l-527 -715h-20zM542 80h-186v6l177 259h27v-249h48v-16h-48v-80h-18v80zM542 96v236l-160 -236h160z" />
    <glyph glyph-name="onehalf" unicode="&#xbd;" horiz-adv-x="651" 
d="M119 690l-95 -68v19l103 74h10v-345h-18v320zM549 715h20l-527 -715h-20zM384 7l131 126c52 51 73 80 73 121c0 51 -36 79 -85 79c-57 0 -87 -36 -94 -92h-17c5 68 47 107 111 107c63 0 103 -38 103 -94c0 -48 -23 -79 -79 -132l-111 -106h194v-16h-226v7z" />
    <glyph glyph-name="threequarters" unicode="&#xbe;" horiz-adv-x="668" 
d="M157 367c-76 0 -122 46 -126 98h18c5 -43 41 -82 108 -82c60 0 95 30 95 82c0 44 -32 78 -88 78h-27v16h25c52 0 78 32 78 71c0 44 -34 73 -85 73c-60 0 -89 -36 -94 -79h-17c4 51 43 94 111 94c61 0 103 -37 103 -88c0 -41 -25 -69 -61 -78c40 -8 73 -39 73 -87
c0 -63 -45 -98 -113 -98zM615 715h20l-527 -715h-20zM562 80h-186v6l177 259h27v-249h48v-16h-48v-80h-18v80zM562 96v236l-160 -236h160z" />
    <glyph glyph-name="questiondown" unicode="&#xbf;" horiz-adv-x="462" 
d="M264 380c0 -78 -36 -116 -97 -177c-55 -55 -100 -93 -100 -173s51 -136 158 -136c101 0 172 64 180 172h19c-8 -117 -87 -189 -200 -189s-176 62 -176 153c0 88 46 124 107 185c59 59 91 94 91 166v65h18v-66zM255 603c11 0 17 -8 17 -17s-6 -17 -17 -17s-17 8 -17 17
s6 17 17 17z" />
    <glyph glyph-name="Agrave" unicode="&#xc0;" horiz-adv-x="630" 
d="M300 715h26l274 -715h-19l-90 235h-354l-89 -235h-18zM143 252h341l-171 448zM228 888h21l73 -117h-18z" />
    <glyph glyph-name="Aacute" unicode="&#xc1;" horiz-adv-x="630" 
d="M300 715h26l274 -715h-19l-90 235h-354l-89 -235h-18zM143 252h341l-171 448zM364 888h21l-76 -117h-18z" />
    <glyph glyph-name="Acircumflex" unicode="&#xc2;" horiz-adv-x="630" 
d="M300 715h26l274 -715h-19l-90 235h-354l-89 -235h-18zM143 252h341l-171 448zM298 888h20l111 -117h-20l-101 101l-103 -101h-20z" />
    <glyph glyph-name="Atilde" unicode="&#xc3;" horiz-adv-x="630" 
d="M300 715h26l274 -715h-19l-90 235h-354l-89 -235h-18zM143 252h341l-171 448zM378 773c-54 0 -97 65 -140 65c-28 0 -49 -20 -54 -63h-17c7 56 35 79 71 79c51 0 96 -65 140 -65c27 0 48 20 53 63h17c-7 -56 -35 -79 -70 -79z" />
    <glyph glyph-name="Adieresis" unicode="&#xc4;" horiz-adv-x="630" 
d="M300 715h26l274 -715h-19l-90 235h-354l-89 -235h-18zM143 252h341l-171 448zM230 787c-11 0 -17 8 -17 17s6 17 17 17s17 -8 17 -17s-6 -17 -17 -17zM384 787c-11 0 -17 8 -17 17s6 17 17 17s17 -8 17 -17s-6 -17 -17 -17z" />
    <glyph glyph-name="Aring" unicode="&#xc5;" horiz-adv-x="630" 
d="M300 715h26l274 -715h-19l-90 235h-354l-89 -235h-18zM143 252h341l-171 448zM307 764c40 0 71 31 71 70c0 41 -31 71 -71 71c-39 0 -70 -30 -70 -71c0 -39 31 -70 70 -70zM307 749c-47 0 -87 40 -87 85c0 47 40 86 87 86c48 0 88 -39 88 -86s-39 -85 -88 -85z" />
    <glyph glyph-name="AE" unicode="&#xc6;" horiz-adv-x="941" 
d="M383 715h490v-17h-384v-320h313v-17h-313v-344h402v-17h-421v235h-304l-117 -235h-21zM174 252h296v446h-74z" />
    <glyph glyph-name="Ccedilla" unicode="&#xc7;" horiz-adv-x="720" 
d="M361 -210c-48 0 -83 27 -90 72h19c4 -35 30 -56 71 -56c43 0 67 24 67 59c0 43 -31 55 -64 55c-23 0 -38 -7 -46 -12l-9 8l45 79c-185 11 -304 157 -304 358v8c0 211 149 360 329 360c145 0 257 -75 286 -211h-19c-28 123 -123 194 -267 194c-175 0 -310 -143 -310 -342
v-8c0 -204 122 -343 311 -343c145 0 248 79 277 210h18c-29 -141 -146 -227 -295 -227c-3 0 -6 1 -9 1l-37 -66c53 19 111 -3 111 -64c0 -47 -36 -75 -84 -75z" />
    <glyph glyph-name="Egrave" unicode="&#xc8;" horiz-adv-x="566" 
d="M95 715h403v-17h-384v-320h313v-17h-313v-344h402v-17h-421v715zM213 888h21l73 -117h-18z" />
    <glyph glyph-name="Eacute" unicode="&#xc9;" horiz-adv-x="566" 
d="M95 715h403v-17h-384v-320h313v-17h-313v-344h402v-17h-421v715zM349 888h21l-76 -117h-18z" />
    <glyph glyph-name="Ecircumflex" unicode="&#xca;" horiz-adv-x="566" 
d="M95 715h403v-17h-384v-320h313v-17h-313v-344h402v-17h-421v715zM283 888h20l111 -117h-20l-101 101l-103 -101h-20z" />
    <glyph glyph-name="Edieresis" unicode="&#xcb;" horiz-adv-x="566" 
d="M95 715h403v-17h-384v-320h313v-17h-313v-344h402v-17h-421v715zM215 787c-11 0 -17 8 -17 17s6 17 17 17s17 -8 17 -17s-6 -17 -17 -17zM369 787c-11 0 -17 8 -17 17s6 17 17 17s17 -8 17 -17s-6 -17 -17 -17z" />
    <glyph glyph-name="Igrave" unicode="&#xcc;" horiz-adv-x="219" 
d="M100 715h19v-715h-19v715zM30 888h21l73 -117h-18z" />
    <glyph glyph-name="Iacute" unicode="&#xcd;" horiz-adv-x="219" 
d="M100 715h19v-715h-19v715zM166 888h21l-76 -117h-18z" />
    <glyph glyph-name="Icircumflex" unicode="&#xce;" horiz-adv-x="219" 
d="M100 715h19v-715h-19v715zM100 888h20l111 -117h-20l-101 101l-103 -101h-20z" />
    <glyph glyph-name="Idieresis" unicode="&#xcf;" horiz-adv-x="219" 
d="M100 715h19v-715h-19v715zM32 787c-11 0 -17 8 -17 17s6 17 17 17s17 -8 17 -17s-6 -17 -17 -17zM186 787c-11 0 -17 8 -17 17s6 17 17 17s17 -8 17 -17s-6 -17 -17 -17z" />
    <glyph glyph-name="Eth" unicode="&#xd0;" horiz-adv-x="675" 
d="M21 369h74v346h181c226 0 349 -152 349 -351v-8c0 -197 -114 -356 -351 -356h-179v352h-74v17zM272 17c226 0 334 148 334 339v8c0 187 -108 334 -335 334h-157v-329h210v-17h-210v-335h158z" />
    <glyph glyph-name="Ntilde" unicode="&#xd1;" horiz-adv-x="701" 
d="M95 715h31l461 -693v693h19v-715h-26l-466 700v-700h-19v715zM433 773c-54 0 -97 65 -140 65c-28 0 -49 -20 -54 -63h-17c7 56 35 79 71 79c51 0 96 -65 140 -65c27 0 48 20 53 63h17c-7 -56 -35 -79 -70 -79z" />
    <glyph glyph-name="Ograve" unicode="&#xd2;" horiz-adv-x="790" 
d="M397 11c183 0 324 150 324 345v8c0 191 -140 340 -326 340c-188 0 -326 -150 -326 -343v-8c0 -191 140 -342 328 -342zM397 -6c-196 0 -347 159 -347 359v8c0 204 153 360 345 360s345 -156 345 -357v-8c0 -203 -154 -362 -343 -362zM316 888h21l73 -117h-18z" />
    <glyph glyph-name="Oacute" unicode="&#xd3;" horiz-adv-x="790" 
d="M397 11c183 0 324 150 324 345v8c0 191 -140 340 -326 340c-188 0 -326 -150 -326 -343v-8c0 -191 140 -342 328 -342zM397 -6c-196 0 -347 159 -347 359v8c0 204 153 360 345 360s345 -156 345 -357v-8c0 -203 -154 -362 -343 -362zM452 888h21l-76 -117h-18z" />
    <glyph glyph-name="Ocircumflex" unicode="&#xd4;" horiz-adv-x="790" 
d="M397 11c183 0 324 150 324 345v8c0 191 -140 340 -326 340c-188 0 -326 -150 -326 -343v-8c0 -191 140 -342 328 -342zM397 -6c-196 0 -347 159 -347 359v8c0 204 153 360 345 360s345 -156 345 -357v-8c0 -203 -154 -362 -343 -362zM386 888h20l111 -117h-20l-101 101
l-103 -101h-20z" />
    <glyph glyph-name="Otilde" unicode="&#xd5;" horiz-adv-x="790" 
d="M397 11c183 0 324 150 324 345v8c0 191 -140 340 -326 340c-188 0 -326 -150 -326 -343v-8c0 -191 140 -342 328 -342zM397 -6c-196 0 -347 159 -347 359v8c0 204 153 360 345 360s345 -156 345 -357v-8c0 -203 -154 -362 -343 -362zM466 773c-54 0 -97 65 -140 65
c-28 0 -49 -20 -54 -63h-17c7 56 35 79 71 79c51 0 96 -65 140 -65c27 0 48 20 53 63h17c-7 -56 -35 -79 -70 -79z" />
    <glyph glyph-name="Odieresis" unicode="&#xd6;" horiz-adv-x="790" 
d="M397 11c183 0 324 150 324 345v8c0 191 -140 340 -326 340c-188 0 -326 -150 -326 -343v-8c0 -191 140 -342 328 -342zM397 -6c-196 0 -347 159 -347 359v8c0 204 153 360 345 360s345 -156 345 -357v-8c0 -203 -154 -362 -343 -362zM318 787c-11 0 -17 8 -17 17
s6 17 17 17s17 -8 17 -17s-6 -17 -17 -17zM472 787c-11 0 -17 8 -17 17s6 17 17 17s17 -8 17 -17s-6 -17 -17 -17z" />
    <glyph glyph-name="multiply" unicode="&#xd7;" horiz-adv-x="500" 
d="M60 168l169 168l-169 169l12 12l168 -168l169 168l12 -12l-169 -169l169 -168l-12 -12l-169 168l-168 -168z" />
    <glyph glyph-name="Oslash" unicode="&#xd8;" horiz-adv-x="790" 
d="M49 -3l96 107c-60 64 -95 152 -95 249v8c0 204 153 360 345 360c88 0 166 -32 227 -87l90 101l12 -11l-90 -101c65 -64 106 -155 106 -259v-8c0 -203 -154 -362 -343 -362c-96 0 -178 37 -241 98l-95 -106zM397 11c183 0 324 150 324 345v8c0 99 -36 184 -99 247
l-454 -506c59 -60 137 -94 229 -94zM69 353c0 -92 31 -175 87 -236l454 505c-56 51 -131 82 -215 82c-188 0 -326 -150 -326 -343v-8z" />
    <glyph glyph-name="Ugrave" unicode="&#xd9;" horiz-adv-x="666" 
d="M334 -4c-156 0 -255 87 -255 254v465h19v-464c0 -157 87 -238 236 -238c164 0 234 88 234 251v451h19v-454c0 -167 -81 -265 -253 -265zM254 888h21l73 -117h-18z" />
    <glyph glyph-name="Uacute" unicode="&#xda;" horiz-adv-x="666" 
d="M334 -4c-156 0 -255 87 -255 254v465h19v-464c0 -157 87 -238 236 -238c164 0 234 88 234 251v451h19v-454c0 -167 -81 -265 -253 -265zM390 888h21l-76 -117h-18z" />
    <glyph glyph-name="Ucircumflex" unicode="&#xdb;" horiz-adv-x="666" 
d="M334 -4c-156 0 -255 87 -255 254v465h19v-464c0 -157 87 -238 236 -238c164 0 234 88 234 251v451h19v-454c0 -167 -81 -265 -253 -265zM324 888h20l111 -117h-20l-101 101l-103 -101h-20z" />
    <glyph glyph-name="Udieresis" unicode="&#xdc;" horiz-adv-x="666" 
d="M334 -4c-156 0 -255 87 -255 254v465h19v-464c0 -157 87 -238 236 -238c164 0 234 88 234 251v451h19v-454c0 -167 -81 -265 -253 -265zM256 787c-11 0 -17 8 -17 17s6 17 17 17s17 -8 17 -17s-6 -17 -17 -17zM410 787c-11 0 -17 8 -17 17s6 17 17 17s17 -8 17 -17
s-6 -17 -17 -17z" />
    <glyph glyph-name="Yacute" unicode="&#xdd;" horiz-adv-x="554" 
d="M275 325l-253 390h21l242 -372l227 372h20l-238 -390v-325h-19v325zM341 888h21l-76 -117h-18z" />
    <glyph glyph-name="Thorn" unicode="&#xde;" horiz-adv-x="552" 
d="M95 715h18v-156h154c141 0 236 -47 236 -186v-4c0 -139 -95 -188 -236 -188h-154v-181h-18v715zM267 198c131 0 217 41 217 171v4c0 131 -89 169 -217 169h-154v-344h154z" />
    <glyph glyph-name="germandbls" unicode="&#xdf;" horiz-adv-x="546" 
d="M303 -4c-41 0 -69 5 -97 16v17c31 -12 58 -17 97 -17c96 0 186 51 186 193v7c0 130 -109 231 -240 231v16c112 0 172 77 172 155v4c0 84 -53 142 -154 142c-108 0 -169 -71 -169 -182v-578h-18v578c0 122 75 198 187 198s172 -69 172 -158v-4c0 -81 -55 -143 -139 -162
c101 -16 207 -107 207 -240v-7c0 -156 -104 -209 -204 -209z" />
    <glyph glyph-name="agrave" unicode="&#xe0;" horiz-adv-x="515" 
d="M228 -7c-112 0 -181 52 -181 144c0 121 103 155 226 155h149v55c0 116 -49 167 -157 167c-88 0 -160 -39 -177 -131h-17c13 99 98 147 194 147c121 0 175 -66 175 -183v-347h-18v96c-27 -53 -94 -103 -194 -103zM228 9c104 0 194 68 194 143v124h-149
c-114 0 -208 -24 -208 -139c0 -84 60 -128 163 -128zM183 743h20l75 -147h-17z" />
    <glyph glyph-name="aacute" unicode="&#xe1;" horiz-adv-x="515" 
d="M228 -7c-112 0 -181 52 -181 144c0 121 103 155 226 155h149v55c0 116 -49 167 -157 167c-88 0 -160 -39 -177 -131h-17c13 99 98 147 194 147c121 0 175 -66 175 -183v-347h-18v96c-27 -53 -94 -103 -194 -103zM228 9c104 0 194 68 194 143v124h-149
c-114 0 -208 -24 -208 -139c0 -84 60 -128 163 -128zM322 743h20l-78 -147h-17z" />
    <glyph glyph-name="acircumflex" unicode="&#xe2;" horiz-adv-x="515" 
d="M228 -7c-112 0 -181 52 -181 144c0 121 103 155 226 155h149v55c0 116 -49 167 -157 167c-88 0 -160 -39 -177 -131h-17c13 99 98 147 194 147c121 0 175 -66 175 -183v-347h-18v96c-27 -53 -94 -103 -194 -103zM228 9c104 0 194 68 194 143v124h-149
c-114 0 -208 -24 -208 -139c0 -84 60 -128 163 -128zM256 720h20l110 -124h-20l-100 108l-102 -108h-20z" />
    <glyph glyph-name="atilde" unicode="&#xe3;" horiz-adv-x="515" 
d="M228 -7c-112 0 -181 52 -181 144c0 121 103 155 226 155h149v55c0 116 -49 167 -157 167c-88 0 -160 -39 -177 -131h-17c13 99 98 147 194 147c121 0 175 -66 175 -183v-347h-18v96c-27 -53 -94 -103 -194 -103zM228 9c104 0 194 68 194 143v124h-149
c-114 0 -208 -24 -208 -139c0 -84 60 -128 163 -128zM336 613c-53 0 -98 64 -141 64c-25 0 -48 -20 -53 -63h-17c7 56 35 79 71 79c51 0 98 -64 141 -64c24 0 47 20 52 63h17c-7 -56 -35 -79 -70 -79z" />
    <glyph glyph-name="adieresis" unicode="&#xe4;" horiz-adv-x="515" 
d="M228 -7c-112 0 -181 52 -181 144c0 121 103 155 226 155h149v55c0 116 -49 167 -157 167c-88 0 -160 -39 -177 -131h-17c13 99 98 147 194 147c121 0 175 -66 175 -183v-347h-18v96c-27 -53 -94 -103 -194 -103zM228 9c104 0 194 68 194 143v124h-149
c-114 0 -208 -24 -208 -139c0 -84 60 -128 163 -128zM194 639c-11 0 -17 8 -17 17s6 17 17 17s17 -8 17 -17s-6 -17 -17 -17zM336 639c-11 0 -17 8 -17 17s6 17 17 17s17 -8 17 -17s-6 -17 -17 -17z" />
    <glyph glyph-name="aring" unicode="&#xe5;" horiz-adv-x="515" 
d="M228 -7c-112 0 -181 52 -181 144c0 121 103 155 226 155h149v55c0 116 -49 167 -157 167c-88 0 -160 -39 -177 -131h-17c13 99 98 147 194 147c121 0 175 -66 175 -183v-347h-18v96c-27 -53 -94 -103 -194 -103zM228 9c104 0 194 68 194 143v124h-149
c-114 0 -208 -24 -208 -139c0 -84 60 -128 163 -128zM265 619c40 0 71 31 71 70c0 41 -31 71 -71 71c-39 0 -70 -30 -70 -71c0 -39 31 -70 70 -70zM265 604c-47 0 -87 40 -87 85c0 47 40 86 87 86c48 0 88 -39 88 -86s-39 -85 -88 -85z" />
    <glyph glyph-name="ae" unicode="&#xe6;" horiz-adv-x="918" 
d="M664 -7c-120 0 -195 66 -224 169c-11 -108 -111 -169 -211 -169c-112 0 -182 50 -182 142c0 121 100 151 224 151h155v61c0 116 -52 167 -160 167c-87 0 -162 -39 -178 -131h-17c13 99 99 147 195 147c116 0 170 -59 175 -166c31 101 111 166 216 166
c132 0 220 -93 220 -249v-11h-433c0 -164 75 -261 220 -261c93 0 166 44 191 132h18c-27 -95 -104 -148 -209 -148zM229 9c104 0 197 68 197 170v91h-155c-115 0 -206 -20 -206 -135c0 -84 61 -126 164 -126zM859 286c-3 149 -81 228 -202 228c-119 0 -208 -89 -213 -228
h415z" />
    <glyph glyph-name="ccedilla" unicode="&#xe7;" horiz-adv-x="539" 
d="M261 -210c-48 0 -83 27 -90 72h19c4 -35 30 -56 71 -56c43 0 67 24 67 59c0 43 -31 55 -64 55c-23 0 -38 -7 -46 -12l-9 8l45 79c-120 13 -213 116 -213 262v8c0 159 111 265 244 265c104 0 196 -64 209 -164h-18c-13 93 -97 148 -191 148c-124 0 -226 -95 -226 -249v-8
c0 -151 102 -248 224 -248c103 0 182 59 201 164h17c-18 -111 -106 -180 -218 -180h-12l-37 -64c53 19 111 -3 111 -64c0 -47 -36 -75 -84 -75z" />
    <glyph glyph-name="egrave" unicode="&#xe8;" horiz-adv-x="537" 
d="M282 -7c-155 0 -241 111 -241 264v8c0 156 99 265 234 265c132 0 221 -93 221 -249v-11h-437c0 -164 78 -261 223 -261c93 0 167 44 192 132h18c-27 -95 -105 -148 -210 -148zM478 286c-3 149 -82 228 -203 228c-119 0 -211 -89 -216 -228h419zM192 743h20l75 -147h-17z
" />
    <glyph glyph-name="eacute" unicode="&#xe9;" horiz-adv-x="537" 
d="M282 -7c-155 0 -241 111 -241 264v8c0 156 99 265 234 265c132 0 221 -93 221 -249v-11h-437c0 -164 78 -261 223 -261c93 0 167 44 192 132h18c-27 -95 -105 -148 -210 -148zM478 286c-3 149 -82 228 -203 228c-119 0 -211 -89 -216 -228h419zM331 743h20l-78 -147h-17z
" />
    <glyph glyph-name="ecircumflex" unicode="&#xea;" horiz-adv-x="537" 
d="M282 -7c-155 0 -241 111 -241 264v8c0 156 99 265 234 265c132 0 221 -93 221 -249v-11h-437c0 -164 78 -261 223 -261c93 0 167 44 192 132h18c-27 -95 -105 -148 -210 -148zM478 286c-3 149 -82 228 -203 228c-119 0 -211 -89 -216 -228h419zM265 720h20l110 -124h-20
l-100 108l-102 -108h-20z" />
    <glyph glyph-name="edieresis" unicode="&#xeb;" horiz-adv-x="537" 
d="M282 -7c-155 0 -241 111 -241 264v8c0 156 99 265 234 265c132 0 221 -93 221 -249v-11h-437c0 -164 78 -261 223 -261c93 0 167 44 192 132h18c-27 -95 -105 -148 -210 -148zM478 286c-3 149 -82 228 -203 228c-119 0 -211 -89 -216 -228h419zM203 639
c-11 0 -17 8 -17 17s6 17 17 17s17 -8 17 -17s-6 -17 -17 -17zM345 639c-11 0 -17 8 -17 17s6 17 17 17s17 -8 17 -17s-6 -17 -17 -17z" />
    <glyph glyph-name="igrave" unicode="&#xec;" horiz-adv-x="182" 
d="M82 523h18v-523h-18v523zM3 743h20l75 -147h-17z" />
    <glyph glyph-name="iacute" unicode="&#xed;" horiz-adv-x="182" 
d="M82 523h18v-523h-18v523zM154 743h20l-78 -147h-17z" />
    <glyph glyph-name="icircumflex" unicode="&#xee;" horiz-adv-x="182" 
d="M82 523h18v-523h-18v523zM82 720h20l110 -124h-20l-100 108l-102 -108h-20z" />
    <glyph glyph-name="idieresis" unicode="&#xef;" horiz-adv-x="182" 
d="M35 639c-11 0 -17 8 -17 17s6 17 17 17s17 -8 17 -17s-6 -17 -17 -17zM147 639c-11 0 -17 8 -17 17s6 17 17 17s17 -8 17 -17s-6 -17 -17 -17zM82 523h18v-523h-18v523z" />
    <glyph glyph-name="eth" unicode="&#xf0;" horiz-adv-x="583" 
d="M121 609l148 85c-39 28 -79 55 -122 79h28c32 -19 70 -41 109 -70l116 66l8 -13l-111 -63c117 -93 238 -234 238 -421v-15c0 -157 -115 -264 -248 -264s-246 109 -246 264v8c0 156 116 265 239 265c109 0 171 -49 214 -114c-40 103 -114 192 -213 268l-153 -87zM287 9
c122 0 230 94 230 251v20c0 141 -105 234 -236 234c-112 0 -222 -95 -222 -249v-8c0 -151 107 -248 228 -248z" />
    <glyph glyph-name="ntilde" unicode="&#xf1;" horiz-adv-x="565" 
d="M80 523h18v-125c24 68 103 132 204 132c114 0 188 -62 188 -207v-323h-18v323c0 133 -66 191 -170 191c-99 0 -204 -69 -204 -197v-317h-18v523zM352 613c-53 0 -98 64 -141 64c-25 0 -48 -20 -53 -63h-17c7 56 35 79 71 79c51 0 98 -64 141 -64c24 0 47 20 52 63h17
c-7 -56 -35 -79 -70 -79z" />
    <glyph glyph-name="ograve" unicode="&#xf2;" horiz-adv-x="576" 
d="M288 9c120 0 229 94 229 249v8c0 157 -107 247 -227 247c-121 0 -231 -93 -231 -248v-8c0 -151 106 -248 229 -248zM287 -7c-133 0 -246 109 -246 264v8c0 157 117 264 249 264s245 -102 245 -263v-8c0 -158 -115 -265 -248 -265zM206 743h20l75 -147h-17z" />
    <glyph glyph-name="oacute" unicode="&#xf3;" horiz-adv-x="576" 
d="M288 9c120 0 229 94 229 249v8c0 157 -107 247 -227 247c-121 0 -231 -93 -231 -248v-8c0 -151 106 -248 229 -248zM287 -7c-133 0 -246 109 -246 264v8c0 157 117 264 249 264s245 -102 245 -263v-8c0 -158 -115 -265 -248 -265zM345 743h20l-78 -147h-17z" />
    <glyph glyph-name="ocircumflex" unicode="&#xf4;" horiz-adv-x="576" 
d="M288 9c120 0 229 94 229 249v8c0 157 -107 247 -227 247c-121 0 -231 -93 -231 -248v-8c0 -151 106 -248 229 -248zM287 -7c-133 0 -246 109 -246 264v8c0 157 117 264 249 264s245 -102 245 -263v-8c0 -158 -115 -265 -248 -265zM279 720h20l110 -124h-20l-100 108
l-102 -108h-20z" />
    <glyph glyph-name="otilde" unicode="&#xf5;" horiz-adv-x="576" 
d="M288 9c120 0 229 94 229 249v8c0 157 -107 247 -227 247c-121 0 -231 -93 -231 -248v-8c0 -151 106 -248 229 -248zM287 -7c-133 0 -246 109 -246 264v8c0 157 117 264 249 264s245 -102 245 -263v-8c0 -158 -115 -265 -248 -265zM359 613c-53 0 -98 64 -141 64
c-25 0 -48 -20 -53 -63h-17c7 56 35 79 71 79c51 0 98 -64 141 -64c24 0 47 20 52 63h17c-7 -56 -35 -79 -70 -79z" />
    <glyph glyph-name="odieresis" unicode="&#xf6;" horiz-adv-x="576" 
d="M288 9c120 0 229 94 229 249v8c0 157 -107 247 -227 247c-121 0 -231 -93 -231 -248v-8c0 -151 106 -248 229 -248zM287 -7c-133 0 -246 109 -246 264v8c0 157 117 264 249 264s245 -102 245 -263v-8c0 -158 -115 -265 -248 -265zM217 639c-11 0 -17 8 -17 17s6 17 17 17
s17 -8 17 -17s-6 -17 -17 -17zM359 639c-11 0 -17 8 -17 17s6 17 17 17s17 -8 17 -17s-6 -17 -17 -17z" />
    <glyph glyph-name="divide" unicode="&#xf7;" horiz-adv-x="500" 
d="M250 161c-11 0 -17 8 -17 17s6 17 17 17s17 -8 17 -17s-6 -17 -17 -17zM37 350h426v-16h-426v16zM250 489c-11 0 -17 8 -17 17s6 17 17 17s17 -8 17 -17s-6 -17 -17 -17z" />
    <glyph glyph-name="oslash" unicode="&#xf8;" horiz-adv-x="576" 
d="M41 -1l66 75c-41 47 -66 108 -66 183v8c0 157 117 264 249 264c64 0 121 -24 165 -65l62 69l12 -10l-63 -70c43 -47 69 -110 69 -187v-8c0 -158 -115 -265 -248 -265c-65 0 -124 25 -169 69l-65 -73zM288 9c120 0 229 94 229 249v8c0 75 -24 132 -61 175l-327 -366
c43 -43 99 -66 159 -66zM59 257c0 -71 23 -128 59 -171l326 366c-41 40 -95 61 -154 61c-121 0 -231 -93 -231 -248v-8z" />
    <glyph glyph-name="ugrave" unicode="&#xf9;" horiz-adv-x="561" 
d="M262 -7c-115 0 -187 56 -187 200v330h18v-330c0 -133 66 -184 169 -184c99 0 201 66 201 194v320h18v-523h-18v121c-24 -68 -101 -128 -201 -128zM199 743h20l75 -147h-17z" />
    <glyph glyph-name="uacute" unicode="&#xfa;" horiz-adv-x="561" 
d="M262 -7c-115 0 -187 56 -187 200v330h18v-330c0 -133 66 -184 169 -184c99 0 201 66 201 194v320h18v-523h-18v121c-24 -68 -101 -128 -201 -128zM338 743h20l-78 -147h-17z" />
    <glyph glyph-name="ucircumflex" unicode="&#xfb;" horiz-adv-x="561" 
d="M262 -7c-115 0 -187 56 -187 200v330h18v-330c0 -133 66 -184 169 -184c99 0 201 66 201 194v320h18v-523h-18v121c-24 -68 -101 -128 -201 -128zM272 720h20l110 -124h-20l-100 108l-102 -108h-20z" />
    <glyph glyph-name="udieresis" unicode="&#xfc;" horiz-adv-x="561" 
d="M262 -7c-115 0 -187 56 -187 200v330h18v-330c0 -133 66 -184 169 -184c99 0 201 66 201 194v320h18v-523h-18v121c-24 -68 -101 -128 -201 -128zM210 639c-11 0 -17 8 -17 17s6 17 17 17s17 -8 17 -17s-6 -17 -17 -17zM352 639c-11 0 -17 8 -17 17s6 17 17 17
s17 -8 17 -17s-6 -17 -17 -17z" />
    <glyph glyph-name="yacute" unicode="&#xfd;" horiz-adv-x="483" 
d="M230 35l-209 488h19l200 -467l193 467h19l-293 -705h-19zM297 743h20l-78 -147h-17z" />
    <glyph glyph-name="thorn" unicode="&#xfe;" horiz-adv-x="594" 
d="M80 773h18v-413c32 91 114 170 226 170c126 0 229 -102 229 -265v-8c0 -169 -106 -264 -231 -264s-197 85 -224 165v-340h-18v955zM322 9c119 0 213 92 213 248v8c0 158 -97 249 -211 249c-112 0 -226 -93 -226 -249v-8c0 -155 107 -248 224 -248z" />
    <glyph glyph-name="ydieresis" unicode="&#xff;" horiz-adv-x="483" 
d="M235 35l-209 488h19l200 -467l193 467h19l-293 -705h-19zM174 639c-11 0 -17 8 -17 17s6 17 17 17s17 -8 17 -17s-6 -17 -17 -17zM316 639c-11 0 -17 8 -17 17s6 17 17 17s17 -8 17 -17s-6 -17 -17 -17z" />
    <glyph glyph-name="Amacron" unicode="&#x100;" horiz-adv-x="630" 
d="M300 715h26l274 -715h-19l-90 235h-354l-89 -235h-18zM143 252h341l-171 448zM194 814h226v-17h-226v17z" />
    <glyph glyph-name="amacron" unicode="&#x101;" horiz-adv-x="515" 
d="M228 -7c-112 0 -181 52 -181 144c0 121 103 155 226 155h149v55c0 116 -49 167 -157 167c-88 0 -160 -39 -177 -131h-17c13 99 98 147 194 147c121 0 175 -66 175 -183v-347h-18v96c-27 -53 -94 -103 -194 -103zM228 9c104 0 194 68 194 143v124h-149
c-114 0 -208 -24 -208 -139c0 -84 60 -128 163 -128zM155 663h219v-17h-219v17z" />
    <glyph glyph-name="Abreve" unicode="&#x102;" horiz-adv-x="630" 
d="M300 715h26l274 -715h-19l-90 235h-354l-89 -235h-18zM143 252h341l-171 448zM306 775c-64 0 -114 47 -119 112h18c4 -56 48 -96 101 -96c52 0 98 41 103 96h18c-5 -64 -60 -112 -121 -112z" />
    <glyph glyph-name="abreve" unicode="&#x103;" horiz-adv-x="515" 
d="M228 -7c-112 0 -181 52 -181 144c0 121 103 155 226 155h149v55c0 116 -49 167 -157 167c-88 0 -160 -39 -177 -131h-17c13 99 98 147 194 147c121 0 175 -66 175 -183v-347h-18v96c-27 -53 -94 -103 -194 -103zM228 9c104 0 194 68 194 143v124h-149
c-114 0 -208 -24 -208 -139c0 -84 60 -128 163 -128zM264 612c-64 0 -106 43 -111 108h18c4 -56 40 -92 93 -92c52 0 90 36 95 92h18c-5 -65 -50 -108 -113 -108z" />
    <glyph glyph-name="Aogonek" unicode="&#x104;" horiz-adv-x="630" 
d="M577 -182c-53 0 -81 31 -81 70c0 47 39 87 83 116l-89 231h-353l-89 -235h-18l270 715h26l274 -715c-55 -35 -85 -69 -85 -112c0 -31 18 -53 62 -53c16 0 32 3 48 9v-17c-13 -5 -29 -9 -48 -9zM143 252h341l-171 448z" />
    <glyph glyph-name="aogonek" unicode="&#x105;" horiz-adv-x="515" 
d="M420 -182c-53 0 -81 31 -81 70c0 47 42 90 83 117v91c-27 -53 -94 -103 -194 -103c-112 0 -181 52 -181 144c0 121 103 155 226 155h149v55c0 116 -49 167 -157 167c-88 0 -160 -39 -177 -131h-17c13 99 98 147 194 147c121 0 175 -66 175 -183v-347
c-52 -35 -83 -71 -83 -112c0 -31 19 -54 63 -54c16 0 32 3 48 9v-16c-13 -5 -29 -9 -48 -9zM228 9c104 0 194 68 194 143v124h-149c-114 0 -208 -24 -208 -139c0 -84 60 -128 163 -128z" />
    <glyph glyph-name="Cacute" unicode="&#x106;" horiz-adv-x="720" 
d="M380 -6c-200 0 -330 148 -330 359v8c0 211 149 360 329 360c145 0 257 -75 286 -211h-19c-28 123 -123 194 -267 194c-175 0 -310 -143 -310 -342v-8c0 -204 122 -343 311 -343c145 0 248 79 277 210h18c-29 -141 -146 -227 -295 -227zM437 888h21l-76 -117h-18z" />
    <glyph glyph-name="cacute" unicode="&#x107;" horiz-adv-x="539" 
d="M283 -7c-133 0 -242 107 -242 264v8c0 159 111 265 244 265c104 0 196 -64 209 -164h-18c-13 93 -97 148 -191 148c-124 0 -226 -95 -226 -249v-8c0 -151 102 -248 224 -248c103 0 182 59 201 164h17c-18 -111 -106 -180 -218 -180zM337 743h20l-78 -147h-17z" />
    <glyph glyph-name="Ccircumflex" unicode="&#x108;" horiz-adv-x="720" 
d="M380 -6c-200 0 -330 148 -330 359v8c0 211 149 360 329 360c145 0 257 -75 286 -211h-19c-28 123 -123 194 -267 194c-175 0 -310 -143 -310 -342v-8c0 -204 122 -343 311 -343c145 0 248 79 277 210h18c-29 -141 -146 -227 -295 -227zM371 888h20l111 -117h-20l-101 101
l-103 -101h-20z" />
    <glyph glyph-name="ccircumflex" unicode="&#x109;" horiz-adv-x="539" 
d="M283 -7c-133 0 -242 107 -242 264v8c0 159 111 265 244 265c104 0 196 -64 209 -164h-18c-13 93 -97 148 -191 148c-124 0 -226 -95 -226 -249v-8c0 -151 102 -248 224 -248c103 0 182 59 201 164h17c-18 -111 -106 -180 -218 -180zM271 720h20l110 -124h-20l-100 108
l-102 -108h-20z" />
    <glyph glyph-name="Cdotaccent" unicode="&#x10a;" horiz-adv-x="720" 
d="M380 -6c-200 0 -330 148 -330 359v8c0 211 149 360 329 360c145 0 257 -75 286 -211h-19c-28 123 -123 194 -267 194c-175 0 -310 -143 -310 -342v-8c0 -204 122 -343 311 -343c145 0 248 79 277 210h18c-29 -141 -146 -227 -295 -227zM380 787c-11 0 -17 8 -17 17
s6 17 17 17s17 -8 17 -17s-6 -17 -17 -17z" />
    <glyph glyph-name="cdotaccent" unicode="&#x10b;" horiz-adv-x="539" 
d="M283 -7c-133 0 -242 107 -242 264v8c0 159 111 265 244 265c104 0 196 -64 209 -164h-18c-13 93 -97 148 -191 148c-124 0 -226 -95 -226 -249v-8c0 -151 102 -248 224 -248c103 0 182 59 201 164h17c-18 -111 -106 -180 -218 -180zM280 639c-11 0 -17 8 -17 17
s6 17 17 17s17 -8 17 -17s-6 -17 -17 -17z" />
    <glyph glyph-name="Ccaron" unicode="&#x10c;" horiz-adv-x="720" 
d="M380 -6c-200 0 -330 148 -330 359v8c0 211 149 360 329 360c145 0 257 -75 286 -211h-19c-28 123 -123 194 -267 194c-175 0 -310 -143 -310 -342v-8c0 -204 122 -343 311 -343c145 0 248 79 277 210h18c-29 -141 -146 -227 -295 -227zM256 888h20l103 -101l105 101h20
l-115 -117h-20z" />
    <glyph glyph-name="ccaron" unicode="&#x10d;" horiz-adv-x="539" 
d="M283 -7c-133 0 -242 107 -242 264v8c0 159 111 265 244 265c104 0 196 -64 209 -164h-18c-13 93 -97 148 -191 148c-124 0 -226 -95 -226 -249v-8c0 -151 102 -248 224 -248c103 0 182 59 201 164h17c-18 -111 -106 -180 -218 -180zM159 737h20l100 -108l102 108h20
l-112 -124h-20z" />
    <glyph glyph-name="Dcaron" unicode="&#x10e;" horiz-adv-x="675" 
d="M272 17c226 0 334 148 334 339v8c0 187 -108 334 -335 334h-157v-681h158zM95 715h181c226 0 349 -152 349 -351v-8c0 -197 -114 -356 -351 -356h-179v715zM188 888h20l103 -101l105 101h20l-115 -117h-20z" />
    <glyph glyph-name="dcaron" unicode="&#x10f;" horiz-adv-x="594" 
d="M275 -7c-129 0 -234 95 -234 264v8c0 163 109 265 242 265c121 0 184 -81 213 -160v403h18v-773h-18v157c-24 -76 -98 -164 -221 -164zM275 9c117 0 221 93 221 248v8c0 156 -94 249 -213 249c-120 0 -224 -91 -224 -249v-8c0 -156 93 -248 216 -248zM591 773h19
l-15 -147h-17z" />
    <glyph glyph-name="Dcroat" unicode="&#x110;" horiz-adv-x="675" 
d="M21 369h74v346h181c226 0 349 -152 349 -351v-8c0 -197 -114 -356 -351 -356h-179v352h-74v17zM272 17c226 0 334 148 334 339v8c0 187 -108 334 -335 334h-157v-329h210v-17h-210v-335h158z" />
    <glyph glyph-name="dcroat" unicode="&#x111;" horiz-adv-x="594" 
d="M295 649h201v124h18v-124h81v-16h-81v-633h-18v157c-24 -76 -98 -164 -221 -164c-129 0 -234 95 -234 264v8c0 163 109 265 242 265c121 0 184 -81 213 -160v263h-201v16zM275 9c117 0 221 93 221 248v8c0 156 -94 249 -213 249c-120 0 -224 -91 -224 -249v-8
c0 -156 93 -248 216 -248z" />
    <glyph glyph-name="Emacron" unicode="&#x112;" horiz-adv-x="566" 
d="M95 715h403v-17h-384v-320h313v-17h-313v-344h402v-17h-421v715zM179 814h226v-17h-226v17z" />
    <glyph glyph-name="emacron" unicode="&#x113;" horiz-adv-x="537" 
d="M282 -7c-155 0 -241 111 -241 264v8c0 156 99 265 234 265c132 0 221 -93 221 -249v-11h-437c0 -164 78 -261 223 -261c93 0 167 44 192 132h18c-27 -95 -105 -148 -210 -148zM478 286c-3 149 -82 228 -203 228c-119 0 -211 -89 -216 -228h419zM164 663h219v-17h-219v17z
" />
    <glyph glyph-name="Ebreve" unicode="&#x114;" horiz-adv-x="566" 
d="M95 715h403v-17h-384v-320h313v-17h-313v-344h402v-17h-421v715zM291 775c-64 0 -114 47 -119 112h18c4 -56 48 -96 101 -96c52 0 98 41 103 96h18c-5 -64 -60 -112 -121 -112z" />
    <glyph glyph-name="ebreve" unicode="&#x115;" horiz-adv-x="537" 
d="M282 -7c-155 0 -241 111 -241 264v8c0 156 99 265 234 265c132 0 221 -93 221 -249v-11h-437c0 -164 78 -261 223 -261c93 0 167 44 192 132h18c-27 -95 -105 -148 -210 -148zM478 286c-3 149 -82 228 -203 228c-119 0 -211 -89 -216 -228h419zM273 612
c-64 0 -106 43 -111 108h18c4 -56 40 -92 93 -92c52 0 90 36 95 92h18c-5 -65 -50 -108 -113 -108z" />
    <glyph glyph-name="Edotaccent" unicode="&#x116;" horiz-adv-x="566" 
d="M95 715h403v-17h-384v-320h313v-17h-313v-344h402v-17h-421v715zM292 787c-11 0 -17 8 -17 17s6 17 17 17s17 -8 17 -17s-6 -17 -17 -17z" />
    <glyph glyph-name="edotaccent" unicode="&#x117;" horiz-adv-x="537" 
d="M282 -7c-155 0 -241 111 -241 264v8c0 156 99 265 234 265c132 0 221 -93 221 -249v-11h-437c0 -164 78 -261 223 -261c93 0 167 44 192 132h18c-27 -95 -105 -148 -210 -148zM478 286c-3 149 -82 228 -203 228c-119 0 -211 -89 -216 -228h419zM274 639
c-11 0 -17 8 -17 17s6 17 17 17s17 -8 17 -17s-6 -17 -17 -17z" />
    <glyph glyph-name="Eogonek" unicode="&#x118;" horiz-adv-x="566" 
d="M416 -182c-53 0 -81 31 -81 70c0 45 34 84 77 112h-317v715h403v-17h-384v-320h313v-17h-313v-344h402v-17h-77c-55 -35 -85 -69 -85 -112c0 -31 18 -53 62 -53c16 0 32 3 48 9v-17c-13 -5 -29 -9 -48 -9z" />
    <glyph glyph-name="eogonek" unicode="&#x119;" horiz-adv-x="537" 
d="M358 -182c-53 0 -81 31 -81 70c0 47 40 88 87 119c-27 -9 -53 -14 -82 -14c-155 0 -241 111 -241 264v8c0 156 99 265 234 265c132 0 221 -93 221 -249v-11h-437c0 -164 78 -261 223 -261c93 0 167 44 192 132h18c-15 -48 -36 -79 -67 -104c-50 -42 -130 -81 -130 -149
c0 -31 19 -54 63 -54c16 0 32 3 48 9v-16c-13 -5 -29 -9 -48 -9zM478 286c-3 149 -82 228 -203 228c-119 0 -211 -89 -216 -228h419z" />
    <glyph glyph-name="Ecaron" unicode="&#x11a;" horiz-adv-x="566" 
d="M95 715h403v-17h-384v-320h313v-17h-313v-344h402v-17h-421v715zM168 888h20l103 -101l105 101h20l-115 -117h-20z" />
    <glyph glyph-name="ecaron" unicode="&#x11b;" horiz-adv-x="537" 
d="M282 -7c-155 0 -241 111 -241 264v8c0 156 99 265 234 265c132 0 221 -93 221 -249v-11h-437c0 -164 78 -261 223 -261c93 0 167 44 192 132h18c-27 -95 -105 -148 -210 -148zM478 286c-3 149 -82 228 -203 228c-119 0 -211 -89 -216 -228h419zM153 737h20l100 -108
l102 108h20l-112 -124h-20z" />
    <glyph glyph-name="Gcircumflex" unicode="&#x11c;" horiz-adv-x="744" 
d="M390 -6c-211 0 -340 148 -340 359v8c0 211 151 360 335 360c132 0 250 -63 282 -195h-19c-32 123 -135 178 -263 178c-180 0 -316 -143 -316 -342v-8c0 -204 118 -343 321 -343c183 0 285 104 285 297v9h-233v17h252v-26c0 -204 -119 -314 -304 -314zM376 888h20
l111 -117h-20l-101 101l-103 -101h-20z" />
    <glyph glyph-name="gcircumflex" unicode="&#x11d;" horiz-adv-x="594" 
d="M283 -185c-147 0 -220 75 -231 155h18c16 -76 78 -139 212 -139c121 0 214 55 214 203v142c-24 -76 -100 -159 -221 -159c-129 0 -234 89 -234 252v8c0 156 109 253 242 253c121 0 184 -74 213 -154v147h18v-489c0 -156 -99 -219 -231 -219zM275 33c117 0 221 88 221 236
v8c0 149 -94 237 -213 237c-120 0 -224 -85 -224 -237v-8c0 -149 93 -236 216 -236zM276 720h20l110 -124h-20l-100 108l-102 -108h-20z" />
    <glyph glyph-name="Gbreve" unicode="&#x11e;" horiz-adv-x="744" 
d="M390 -6c-211 0 -340 148 -340 359v8c0 211 151 360 335 360c132 0 250 -63 282 -195h-19c-32 123 -135 178 -263 178c-180 0 -316 -143 -316 -342v-8c0 -204 118 -343 321 -343c183 0 285 104 285 297v9h-233v17h252v-26c0 -204 -119 -314 -304 -314zM384 775
c-64 0 -114 47 -119 112h18c4 -56 48 -96 101 -96c52 0 98 41 103 96h18c-5 -64 -60 -112 -121 -112z" />
    <glyph glyph-name="gbreve" unicode="&#x11f;" horiz-adv-x="594" 
d="M283 -185c-147 0 -220 75 -231 155h18c16 -76 78 -139 212 -139c121 0 214 55 214 203v142c-24 -76 -100 -159 -221 -159c-129 0 -234 89 -234 252v8c0 156 109 253 242 253c121 0 184 -74 213 -154v147h18v-489c0 -156 -99 -219 -231 -219zM275 33c117 0 221 88 221 236
v8c0 149 -94 237 -213 237c-120 0 -224 -85 -224 -237v-8c0 -149 93 -236 216 -236zM284 612c-64 0 -106 43 -111 108h18c4 -56 40 -92 93 -92c52 0 90 36 95 92h18c-5 -65 -50 -108 -113 -108z" />
    <glyph glyph-name="Gdotaccent" unicode="&#x120;" horiz-adv-x="744" 
d="M390 -6c-211 0 -340 148 -340 359v8c0 211 151 360 335 360c132 0 250 -63 282 -195h-19c-32 123 -135 178 -263 178c-180 0 -316 -143 -316 -342v-8c0 -204 118 -343 321 -343c183 0 285 104 285 297v9h-233v17h252v-26c0 -204 -119 -314 -304 -314zM385 787
c-11 0 -17 8 -17 17s6 17 17 17s17 -8 17 -17s-6 -17 -17 -17z" />
    <glyph glyph-name="gdotaccent" unicode="&#x121;" horiz-adv-x="594" 
d="M283 -185c-147 0 -220 75 -231 155h18c16 -76 78 -139 212 -139c121 0 214 55 214 203v142c-24 -76 -100 -159 -221 -159c-129 0 -234 89 -234 252v8c0 156 109 253 242 253c121 0 184 -74 213 -154v147h18v-489c0 -156 -99 -219 -231 -219zM275 33c117 0 221 88 221 236
v8c0 149 -94 237 -213 237c-120 0 -224 -85 -224 -237v-8c0 -149 93 -236 216 -236zM285 639c-11 0 -17 8 -17 17s6 17 17 17s17 -8 17 -17s-6 -17 -17 -17z" />
    <glyph glyph-name="uni0122" unicode="&#x122;" horiz-adv-x="744" 
d="M390 -6c-211 0 -340 148 -340 359v8c0 211 151 360 335 360c132 0 250 -63 282 -195h-19c-32 123 -135 178 -263 178c-180 0 -316 -143 -316 -342v-8c0 -204 118 -343 321 -343c183 0 285 104 285 297v9h-233v17h252v-26c0 -204 -119 -314 -304 -314zM327 -180l58 134
l19 -4l-62 -136z" />
    <glyph glyph-name="uni0123" unicode="&#x123;" horiz-adv-x="594" 
d="M283 -185c-147 0 -220 75 -231 155h18c16 -76 78 -139 212 -139c121 0 214 55 214 203v142c-24 -76 -100 -159 -221 -159c-129 0 -234 89 -234 252v8c0 156 109 253 242 253c121 0 184 -74 213 -154v147h18v-489c0 -156 -99 -219 -231 -219zM275 33c117 0 221 88 221 236
v8c0 149 -94 237 -213 237c-120 0 -224 -85 -224 -237v-8c0 -149 93 -236 216 -236zM267 617l62 136l15 -6l-58 -134z" />
    <glyph glyph-name="Hcircumflex" unicode="&#x124;" horiz-adv-x="702" 
d="M95 715h19v-344h474v344h19v-715h-19v354h-474v-354h-19v715zM342 888h20l111 -117h-20l-101 101l-103 -101h-20z" />
    <glyph glyph-name="hcircumflex" unicode="&#x125;" horiz-adv-x="565" 
d="M80 773h18v-375c24 68 103 132 204 132c114 0 188 -62 188 -207v-323h-18v323c0 133 -66 191 -170 191c-99 0 -204 -69 -204 -197v-317h-18v773zM276 928h20l111 -117h-20l-101 101l-103 -101h-20z" />
    <glyph glyph-name="Hbar" unicode="&#x126;" horiz-adv-x="702" 
d="M4 547h91v168h19v-168h474v168h19v-168h91v-16h-91v-531h-19v354h-474v-354h-19v531h-91v16zM588 371v160h-474v-160h474z" />
    <glyph glyph-name="hbar" unicode="&#x127;" horiz-adv-x="565" 
d="M-1 649h81v124h18v-124h201v-16h-201v-235c24 68 103 132 204 132c114 0 188 -62 188 -207v-323h-18v323c0 133 -66 191 -170 191c-99 0 -204 -69 -204 -197v-317h-18v633h-81v16z" />
    <glyph glyph-name="Itilde" unicode="&#x128;" horiz-adv-x="219" 
d="M100 715h19v-715h-19v715zM180 773c-54 0 -97 65 -140 65c-28 0 -49 -20 -54 -63h-17c7 56 35 79 71 79c51 0 96 -65 140 -65c27 0 48 20 53 63h17c-7 -56 -35 -79 -70 -79z" />
    <glyph glyph-name="itilde" unicode="&#x129;" horiz-adv-x="182" 
d="M82 523h18v-523h-18v523zM162 613c-53 0 -98 64 -141 64c-25 0 -48 -20 -53 -63h-17c7 56 35 79 71 79c51 0 98 -64 141 -64c24 0 47 20 52 63h17c-7 -56 -35 -79 -70 -79z" />
    <glyph glyph-name="Imacron" unicode="&#x12a;" horiz-adv-x="219" 
d="M100 715h19v-715h-19v715zM-4 814h226v-17h-226v17z" />
    <glyph glyph-name="imacron" unicode="&#x12b;" horiz-adv-x="182" 
d="M16 663h150v-17h-150v17zM82 523h18v-523h-18v523z" />
    <glyph glyph-name="Ibreve" unicode="&#x12c;" horiz-adv-x="219" 
d="M100 715h19v-715h-19v715zM108 775c-64 0 -114 47 -119 112h18c4 -56 48 -96 101 -96c52 0 98 41 103 96h18c-5 -64 -60 -112 -121 -112z" />
    <glyph glyph-name="ibreve" unicode="&#x12d;" horiz-adv-x="182" 
d="M82 523h18v-523h-18v523zM90 612c-64 0 -106 43 -111 108h18c4 -56 40 -92 93 -92c52 0 90 36 95 92h18c-5 -65 -50 -108 -113 -108z" />
    <glyph glyph-name="Iogonek" unicode="&#x12e;" horiz-adv-x="219" 
d="M116 -182c-53 0 -81 31 -81 70c0 49 33 85 65 116v711h19v-715c-31 -28 -65 -65 -65 -112c0 -31 18 -53 62 -53c16 0 32 3 48 9v-17c-13 -5 -29 -9 -48 -9z" />
    <glyph glyph-name="iogonek" unicode="&#x12f;" horiz-adv-x="182" 
d="M105 -182c-53 0 -81 31 -81 70c0 48 30 83 58 115v520h18v-523c-28 -31 -58 -65 -58 -112c0 -31 19 -54 63 -54c16 0 32 3 48 9v-16c-13 -5 -29 -9 -48 -9zM91 639c-11 0 -17 8 -17 17s6 17 17 17s17 -8 17 -17s-6 -17 -17 -17z" />
    <glyph glyph-name="Idotaccent" unicode="&#x130;" horiz-adv-x="219" 
d="M100 715h19v-715h-19v715zM109 787c-11 0 -17 8 -17 17s6 17 17 17s17 -8 17 -17s-6 -17 -17 -17z" />
    <glyph glyph-name="dotlessi" unicode="&#x131;" horiz-adv-x="182" 
d="M82 523h18v-523h-18v523z" />
    <glyph glyph-name="IJ" unicode="&#x132;" horiz-adv-x="567" 
d="M100 715h19v-715h-19v715zM325 -4c-47 0 -82 12 -101 21v18c24 -11 58 -22 101 -22c89 0 144 41 144 152v550h19v-550c0 -119 -64 -169 -163 -169z" />
    <glyph glyph-name="ij" unicode="&#x133;" horiz-adv-x="182" 
d="M82 523h18v-523h-18v523zM74 656c0 9 6 17 17 17s17 -8 17 -17s-6 -17 -17 -17s-17 8 -17 17zM187 -168c59 5 77 34 77 102v589h18v-589c0 -80 -24 -115 -95 -118v16zM273 639c-11 0 -17 8 -17 17s6 17 17 17s17 -8 17 -17s-6 -17 -17 -17z" />
    <glyph glyph-name="Jcircumflex" unicode="&#x134;" horiz-adv-x="378" 
d="M136 -4c-47 0 -82 12 -101 21v18c24 -11 58 -22 101 -22c89 0 144 41 144 152v550h19v-550c0 -119 -64 -169 -163 -169zM282 888h20l111 -117h-20l-101 101l-103 -101h-20z" />
    <glyph glyph-name="jcircumflex" unicode="&#x135;" horiz-adv-x="182" 
d="M5 -168c59 5 77 34 77 102v589h18v-589c0 -80 -24 -115 -95 -118v16zM83 720h20l110 -124h-20l-100 108l-102 -108h-20z" />
    <glyph glyph-name="uni0136" unicode="&#x136;" horiz-adv-x="579" 
d="M124 365l380 350h24l-379 -349l397 -366h-25zM95 715h19v-715h-19v715zM242 -180l58 134l19 -4l-62 -136z" />
    <glyph glyph-name="uni0137" unicode="&#x137;" horiz-adv-x="452" 
d="M103 277l293 246h24l-292 -246l307 -277h-25zM80 773h18v-773h-18v773zM179 -180l58 134l19 -4l-62 -136z" />
    <glyph glyph-name="Lacute" unicode="&#x139;" horiz-adv-x="525" 
d="M95 715h19v-698h371v-17h-390v715zM164 888h21l-76 -117h-18z" />
    <glyph glyph-name="lacute" unicode="&#x13a;" horiz-adv-x="182" 
d="M82 773h18v-773h-18v773zM148 928h21l-76 -117h-18z" />
    <glyph glyph-name="uni013B" unicode="&#x13b;" horiz-adv-x="525" 
d="M95 715h19v-698h371v-17h-390v715zM220 -180l58 134l19 -4l-62 -136z" />
    <glyph glyph-name="uni013C" unicode="&#x13c;" horiz-adv-x="182" 
d="M82 773h18v-773h-18v773zM29 -180l58 134l19 -4l-62 -136z" />
    <glyph glyph-name="Lcaron" unicode="&#x13d;" horiz-adv-x="525" 
d="M343 715h19l-29 -157h-17zM95 715h19v-698h371v-17h-390v715z" />
    <glyph glyph-name="lcaron" unicode="&#x13e;" horiz-adv-x="180" 
d="M82 773h18v-773h-18v773zM177 773h19l-15 -147h-17z" />
    <glyph glyph-name="Ldot" unicode="&#x13f;" horiz-adv-x="525" 
d="M95 715h19v-698h371v-17h-390v715zM443 350c-11 0 -17 8 -17 17s6 17 17 17s17 -8 17 -17s-6 -17 -17 -17z" />
    <glyph glyph-name="ldot" unicode="&#x140;" horiz-adv-x="222" 
d="M82 773h18v-773h-18v773zM202 363c-11 0 -17 8 -17 17s6 17 17 17s17 -8 17 -17s-6 -17 -17 -17z" />
    <glyph glyph-name="Lslash" unicode="&#x141;" horiz-adv-x="534" 
d="M25 286l79 29v400h19v-393l250 94v-17l-250 -94v-288h371v-17h-390v298l-79 -29v17z" />
    <glyph glyph-name="lslash" unicode="&#x142;" horiz-adv-x="196" 
d="M11 375l78 56v342h18v-329l82 59v-19l-82 -59v-425h-18v412l-78 -56v19z" />
    <glyph glyph-name="Nacute" unicode="&#x143;" horiz-adv-x="701" 
d="M95 715h31l461 -693v693h19v-715h-26l-466 700v-700h-19v715zM419 888h21l-76 -117h-18z" />
    <glyph glyph-name="nacute" unicode="&#x144;" horiz-adv-x="565" 
d="M80 523h18v-125c24 68 103 132 204 132c114 0 188 -62 188 -207v-323h-18v323c0 133 -66 191 -170 191c-99 0 -204 -69 -204 -197v-317h-18v523zM338 743h20l-78 -147h-17z" />
    <glyph glyph-name="uni0145" unicode="&#x145;" horiz-adv-x="701" 
d="M95 715h31l461 -693v693h19v-715h-26l-466 700v-700h-19v715zM284 -180l58 134l19 -4l-62 -136z" />
    <glyph glyph-name="uni0146" unicode="&#x146;" horiz-adv-x="565" 
d="M80 523h18v-125c24 68 103 132 204 132c114 0 188 -62 188 -207v-323h-18v323c0 133 -66 191 -170 191c-99 0 -204 -69 -204 -197v-317h-18v523zM223 -180l58 134l19 -4l-62 -136z" />
    <glyph glyph-name="Ncaron" unicode="&#x147;" horiz-adv-x="701" 
d="M95 715h31l461 -693v693h19v-715h-26l-466 700v-700h-19v715zM238 888h20l103 -101l105 101h20l-115 -117h-20z" />
    <glyph glyph-name="ncaron" unicode="&#x148;" horiz-adv-x="565" 
d="M80 523h18v-125c24 68 103 132 204 132c114 0 188 -62 188 -207v-323h-18v323c0 133 -66 191 -170 191c-99 0 -204 -69 -204 -197v-317h-18v523zM160 737h20l100 -108l102 108h20l-112 -124h-20z" />
    <glyph glyph-name="napostrophe" unicode="&#x149;" horiz-adv-x="580" 
d="M95 523h18v-125c24 68 103 132 204 132c114 0 188 -62 188 -207v-323h-18v323c0 133 -66 191 -170 191c-99 0 -204 -69 -204 -197v-317h-18v523zM-22 581l59 137l18 -7l-62 -136z" />
    <glyph glyph-name="Eng" unicode="&#x14a;" horiz-adv-x="701" 
d="M443 -187c-47 0 -82 12 -101 21v18c24 -11 58 -22 101 -22c87 0 144 41 144 160l-473 710v-700h-19v715h31l461 -693v693h19v-722c0 -130 -64 -180 -163 -180z" />
    <glyph glyph-name="eng" unicode="&#x14b;" horiz-adv-x="565" 
d="M375 -168c69 8 97 34 97 126v365c0 133 -66 191 -170 191c-99 0 -204 -69 -204 -197v-317h-18v523h18v-125c24 68 103 132 204 132c114 0 188 -62 188 -207v-365c0 -101 -35 -137 -115 -142v16z" />
    <glyph glyph-name="Omacron" unicode="&#x14c;" horiz-adv-x="790" 
d="M397 11c183 0 324 150 324 345v8c0 191 -140 340 -326 340c-188 0 -326 -150 -326 -343v-8c0 -191 140 -342 328 -342zM397 -6c-196 0 -347 159 -347 359v8c0 204 153 360 345 360s345 -156 345 -357v-8c0 -203 -154 -362 -343 -362zM282 814h226v-17h-226v17z" />
    <glyph glyph-name="omacron" unicode="&#x14d;" horiz-adv-x="576" 
d="M288 9c120 0 229 94 229 249v8c0 157 -107 247 -227 247c-121 0 -231 -93 -231 -248v-8c0 -151 106 -248 229 -248zM287 -7c-133 0 -246 109 -246 264v8c0 157 117 264 249 264s245 -102 245 -263v-8c0 -158 -115 -265 -248 -265zM178 663h219v-17h-219v17z" />
    <glyph glyph-name="Obreve" unicode="&#x14e;" horiz-adv-x="790" 
d="M397 11c183 0 324 150 324 345v8c0 191 -140 340 -326 340c-188 0 -326 -150 -326 -343v-8c0 -191 140 -342 328 -342zM397 -6c-196 0 -347 159 -347 359v8c0 204 153 360 345 360s345 -156 345 -357v-8c0 -203 -154 -362 -343 -362zM394 775c-64 0 -114 47 -119 112h18
c4 -56 48 -96 101 -96c52 0 98 41 103 96h18c-5 -64 -60 -112 -121 -112z" />
    <glyph glyph-name="obreve" unicode="&#x14f;" horiz-adv-x="576" 
d="M288 9c120 0 229 94 229 249v8c0 157 -107 247 -227 247c-121 0 -231 -93 -231 -248v-8c0 -151 106 -248 229 -248zM287 -7c-133 0 -246 109 -246 264v8c0 157 117 264 249 264s245 -102 245 -263v-8c0 -158 -115 -265 -248 -265zM287 612c-64 0 -106 43 -111 108h18
c4 -56 40 -92 93 -92c52 0 90 36 95 92h18c-5 -65 -50 -108 -113 -108z" />
    <glyph glyph-name="Ohungarumlaut" unicode="&#x150;" horiz-adv-x="790" 
d="M397 11c183 0 324 150 324 345v8c0 191 -140 340 -326 340c-188 0 -326 -150 -326 -343v-8c0 -191 140 -342 328 -342zM397 -6c-196 0 -347 159 -347 359v8c0 204 153 360 345 360s345 -156 345 -357v-8c0 -203 -154 -362 -343 -362zM386 888h20l-57 -117h-17zM492 888
h20l-57 -117h-17z" />
    <glyph glyph-name="ohungarumlaut" unicode="&#x151;" horiz-adv-x="576" 
d="M288 9c120 0 229 94 229 249v8c0 157 -107 247 -227 247c-121 0 -231 -93 -231 -248v-8c0 -151 106 -248 229 -248zM287 -7c-133 0 -246 109 -246 264v8c0 157 117 264 249 264s245 -102 245 -263v-8c0 -158 -115 -265 -248 -265zM291 743h20l-62 -147h-17zM397 743h20
l-62 -147h-17z" />
    <glyph glyph-name="OE" unicode="&#x152;" horiz-adv-x="958" 
d="M50 358c0 197 114 357 351 357h489v-17h-370v-320h299v-17h-299v-344h388v-17h-509c-227 0 -349 150 -349 350v8zM403 698c-226 0 -334 -148 -334 -339v-8c0 -189 108 -334 335 -334h97v681h-98z" />
    <glyph glyph-name="oe" unicode="&#x153;" horiz-adv-x="1013" 
d="M287 -7c-133 0 -246 109 -246 264v8c0 157 117 264 249 264c111 0 209 -72 236 -193c24 118 112 194 225 194c132 0 221 -93 221 -249v-11h-437c0 -164 78 -261 223 -261c93 0 167 44 192 132h18c-27 -95 -105 -148 -210 -148c-130 0 -212 79 -233 195
c-29 -120 -125 -195 -238 -195zM288 9c120 0 229 94 229 249v8c0 157 -107 247 -227 247c-121 0 -231 -93 -231 -248v-8c0 -151 106 -248 229 -248zM954 286c-3 149 -82 228 -203 228c-119 0 -211 -89 -216 -228h419z" />
    <glyph glyph-name="Racute" unicode="&#x154;" horiz-adv-x="581" 
d="M95 715h172c141 0 236 -51 236 -183v-4c0 -121 -78 -172 -195 -183l237 -345h-22l-236 343h-174v-343h-18v715zM267 360c131 0 217 44 217 168v4c0 124 -89 166 -217 166h-154v-338h154zM333 888h21l-76 -117h-18z" />
    <glyph glyph-name="racute" unicode="&#x155;" horiz-adv-x="316" 
d="M80 523h18v-129c24 68 84 130 183 133v-16c-96 -3 -183 -67 -183 -218v-293h-18v523zM234 743h20l-78 -147h-17z" />
    <glyph glyph-name="uni0156" unicode="&#x156;" horiz-adv-x="581" 
d="M95 715h172c141 0 236 -51 236 -183v-4c0 -121 -78 -172 -195 -183l237 -345h-22l-236 343h-174v-343h-18v715zM267 360c131 0 217 44 217 168v4c0 124 -89 166 -217 166h-154v-338h154zM238 -180l58 134l19 -4l-62 -136z" />
    <glyph glyph-name="uni0157" unicode="&#x157;" horiz-adv-x="316" 
d="M80 523h18v-129c24 68 84 130 183 133v-16c-96 -3 -183 -67 -183 -218v-293h-18v523zM28 -180l58 134l19 -4l-62 -136z" />
    <glyph glyph-name="Rcaron" unicode="&#x158;" horiz-adv-x="581" 
d="M95 715h172c141 0 236 -51 236 -183v-4c0 -121 -78 -172 -195 -183l237 -345h-22l-236 343h-174v-343h-18v715zM267 360c131 0 217 44 217 168v4c0 124 -89 166 -217 166h-154v-338h154zM152 888h20l103 -101l105 101h20l-115 -117h-20z" />
    <glyph glyph-name="rcaron" unicode="&#x159;" horiz-adv-x="316" 
d="M80 523h18v-129c24 68 84 130 183 133v-16c-96 -3 -183 -67 -183 -218v-293h-18v523zM56 737h20l100 -108l102 108h20l-112 -124h-20z" />
    <glyph glyph-name="Sacute" unicode="&#x15a;" horiz-adv-x="572" 
d="M292 -6c-161 0 -240 85 -256 196h19c16 -96 82 -179 237 -179c137 0 211 76 211 175c0 120 -61 158 -214 179c-163 24 -222 80 -222 178c0 112 87 178 219 178c123 0 192 -60 211 -159h-19c-17 88 -76 142 -192 142c-124 0 -200 -53 -200 -161c0 -89 54 -139 206 -160
c163 -24 230 -64 230 -197c0 -105 -82 -192 -230 -192zM342 888h21l-76 -117h-18z" />
    <glyph glyph-name="sacute" unicode="&#x15b;" horiz-adv-x="448" 
d="M231 -9c-120 0 -188 68 -197 160h17c11 -82 69 -144 180 -144c99 0 156 57 156 127c0 82 -37 106 -154 127c-120 21 -179 48 -179 138c0 77 71 130 168 130c95 0 158 -39 173 -131h-17c-15 80 -69 115 -157 115c-89 0 -150 -45 -150 -114c0 -76 48 -101 167 -122
c116 -21 168 -51 168 -143c0 -77 -66 -143 -175 -143zM284 743h20l-78 -147h-17z" />
    <glyph glyph-name="Scircumflex" unicode="&#x15c;" horiz-adv-x="572" 
d="M292 -6c-161 0 -240 85 -256 196h19c16 -96 82 -179 237 -179c137 0 211 76 211 175c0 120 -61 158 -214 179c-163 24 -222 80 -222 178c0 112 87 178 219 178c123 0 192 -60 211 -159h-19c-17 88 -76 142 -192 142c-124 0 -200 -53 -200 -161c0 -89 54 -139 206 -160
c163 -24 230 -64 230 -197c0 -105 -82 -192 -230 -192zM277 888h20l111 -117h-20l-101 101l-103 -101h-20z" />
    <glyph glyph-name="scircumflex" unicode="&#x15d;" horiz-adv-x="448" 
d="M231 -9c-120 0 -188 68 -197 160h17c11 -82 69 -144 180 -144c99 0 156 57 156 127c0 82 -37 106 -154 127c-120 21 -179 48 -179 138c0 77 71 130 168 130c95 0 158 -39 173 -131h-17c-15 80 -69 115 -157 115c-89 0 -150 -45 -150 -114c0 -76 48 -101 167 -122
c116 -21 168 -51 168 -143c0 -77 -66 -143 -175 -143zM218 720h20l110 -124h-20l-100 108l-102 -108h-20z" />
    <glyph glyph-name="uni015E" unicode="&#x15e;" horiz-adv-x="572" 
d="M262 -210c-48 0 -83 27 -90 72h19c4 -35 30 -56 71 -56c43 0 67 24 67 59c0 43 -31 55 -64 55c-23 0 -38 -7 -46 -12l-9 8l45 80c-135 11 -206 93 -219 194h19c16 -96 82 -179 237 -179c137 0 211 76 211 175c0 120 -61 158 -214 179c-163 24 -222 80 -222 178
c0 112 87 178 219 178c123 0 192 -60 211 -159h-19c-17 88 -76 142 -192 142c-124 0 -200 -53 -200 -161c0 -89 54 -139 206 -160c163 -24 230 -64 230 -197c0 -105 -82 -192 -230 -192c-7 0 -13 0 -20 1l-37 -66c53 19 111 -3 111 -64c0 -47 -36 -75 -84 -75z" />
    <glyph glyph-name="uni015F" unicode="&#x15f;" horiz-adv-x="448" 
d="M208 -210c-48 0 -83 27 -90 72h19c4 -35 30 -56 71 -56c43 0 67 24 67 59c0 43 -31 55 -64 55c-23 0 -38 -7 -46 -12l-9 8l44 77c-101 11 -158 74 -166 158h17c11 -82 69 -144 180 -144c99 0 156 57 156 127c0 82 -37 106 -154 127c-120 21 -179 48 -179 138
c0 77 71 130 168 130c95 0 158 -39 173 -131h-17c-15 80 -69 115 -157 115c-89 0 -150 -45 -150 -114c0 -76 48 -101 167 -122c116 -21 168 -51 168 -143c0 -77 -66 -143 -175 -143c-5 0 -10 1 -14 1l-36 -63c53 19 111 -3 111 -64c0 -47 -36 -75 -84 -75z" />
    <glyph glyph-name="Scaron" unicode="&#x160;" horiz-adv-x="572" 
d="M292 -6c-161 0 -240 85 -256 196h19c16 -96 82 -179 237 -179c137 0 211 76 211 175c0 120 -61 158 -214 179c-163 24 -222 80 -222 178c0 112 87 178 219 178c123 0 192 -60 211 -159h-19c-17 88 -76 142 -192 142c-124 0 -200 -53 -200 -161c0 -89 54 -139 206 -160
c163 -24 230 -64 230 -197c0 -105 -82 -192 -230 -192zM159 888h20l103 -101l105 101h20l-115 -117h-20z" />
    <glyph glyph-name="scaron" unicode="&#x161;" horiz-adv-x="448" 
d="M231 -9c-120 0 -188 68 -197 160h17c11 -82 69 -144 180 -144c99 0 156 57 156 127c0 82 -37 106 -154 127c-120 21 -179 48 -179 138c0 77 71 130 168 130c95 0 158 -39 173 -131h-17c-15 80 -69 115 -157 115c-89 0 -150 -45 -150 -114c0 -76 48 -101 167 -122
c116 -21 168 -51 168 -143c0 -77 -66 -143 -175 -143zM106 737h20l100 -108l102 108h20l-112 -124h-20z" />
    <glyph glyph-name="Tcommaaccent" unicode="&#x162;" horiz-adv-x="557" 
d="M269 698h-238v17h495v-17h-238v-698h-19v698zM220 -180l58 134l19 -4l-62 -136z" />
    <glyph glyph-name="tcommaaccent" unicode="&#x163;" horiz-adv-x="319" 
d="M214 -7c-68 0 -112 39 -112 127v387h-80v16h80v119h18v-119h154v-16h-154v-387c0 -79 38 -111 94 -111c28 0 48 4 67 11v-16c-17 -7 -36 -11 -67 -11zM115 -180l58 134l19 -4l-62 -136z" />
    <glyph glyph-name="Tcaron" unicode="&#x164;" horiz-adv-x="557" 
d="M269 698h-238v17h495v-17h-238v-698h-19v698zM154 888h20l103 -101l105 101h20l-115 -117h-20z" />
    <glyph glyph-name="tcaron" unicode="&#x165;" horiz-adv-x="319" 
d="M214 -7c-68 0 -112 39 -112 127v387h-80v16h80v119h18v-119h154v-16h-154v-387c0 -79 38 -111 94 -111c28 0 48 4 67 11v-16c-17 -7 -36 -11 -67 -11zM242 773h19l-15 -147h-17z" />
    <glyph glyph-name="Tbar" unicode="&#x166;" horiz-adv-x="557" 
d="M109 412h160v286h-238v17h495v-17h-238v-286h161v-16h-161v-396h-19v396h-160v16z" />
    <glyph glyph-name="tbar" unicode="&#x167;" horiz-adv-x="319" 
d="M22 343h80v164h-80v16h80v119h18v-119h154v-16h-154v-164h154v-16h-154v-207c0 -79 38 -111 94 -111c28 0 48 4 67 11v-16c-17 -7 -36 -11 -67 -11c-68 0 -112 39 -112 127v207h-80v16z" />
    <glyph glyph-name="Utilde" unicode="&#x168;" horiz-adv-x="666" 
d="M334 -4c-156 0 -255 87 -255 254v465h19v-464c0 -157 87 -238 236 -238c164 0 234 88 234 251v451h19v-454c0 -167 -81 -265 -253 -265zM404 773c-54 0 -97 65 -140 65c-28 0 -49 -20 -54 -63h-17c7 56 35 79 71 79c51 0 96 -65 140 -65c27 0 48 20 53 63h17
c-7 -56 -35 -79 -70 -79z" />
    <glyph glyph-name="utilde" unicode="&#x169;" horiz-adv-x="561" 
d="M262 -7c-115 0 -187 56 -187 200v330h18v-330c0 -133 66 -184 169 -184c99 0 201 66 201 194v320h18v-523h-18v121c-24 -68 -101 -128 -201 -128zM352 613c-53 0 -98 64 -141 64c-25 0 -48 -20 -53 -63h-17c7 56 35 79 71 79c51 0 98 -64 141 -64c24 0 47 20 52 63h17
c-7 -56 -35 -79 -70 -79z" />
    <glyph glyph-name="Umacron" unicode="&#x16a;" horiz-adv-x="666" 
d="M334 -4c-156 0 -255 87 -255 254v465h19v-464c0 -157 87 -238 236 -238c164 0 234 88 234 251v451h19v-454c0 -167 -81 -265 -253 -265zM220 814h226v-17h-226v17z" />
    <glyph glyph-name="umacron" unicode="&#x16b;" horiz-adv-x="561" 
d="M262 -7c-115 0 -187 56 -187 200v330h18v-330c0 -133 66 -184 169 -184c99 0 201 66 201 194v320h18v-523h-18v121c-24 -68 -101 -128 -201 -128zM171 663h219v-17h-219v17z" />
    <glyph glyph-name="Ubreve" unicode="&#x16c;" horiz-adv-x="666" 
d="M334 -4c-156 0 -255 87 -255 254v465h19v-464c0 -157 87 -238 236 -238c164 0 234 88 234 251v451h19v-454c0 -167 -81 -265 -253 -265zM332 775c-64 0 -114 47 -119 112h18c4 -56 48 -96 101 -96c52 0 98 41 103 96h18c-5 -64 -60 -112 -121 -112z" />
    <glyph glyph-name="ubreve" unicode="&#x16d;" horiz-adv-x="561" 
d="M262 -7c-115 0 -187 56 -187 200v330h18v-330c0 -133 66 -184 169 -184c99 0 201 66 201 194v320h18v-523h-18v121c-24 -68 -101 -128 -201 -128zM280 612c-64 0 -106 43 -111 108h18c4 -56 40 -92 93 -92c52 0 90 36 95 92h18c-5 -65 -50 -108 -113 -108z" />
    <glyph glyph-name="Uring" unicode="&#x16e;" horiz-adv-x="666" 
d="M334 -4c-156 0 -255 87 -255 254v465h19v-464c0 -157 87 -238 236 -238c164 0 234 88 234 251v451h19v-454c0 -167 -81 -265 -253 -265zM333 734c40 0 71 31 71 70c0 41 -31 71 -71 71c-39 0 -70 -30 -70 -71c0 -39 31 -70 70 -70zM333 719c-47 0 -87 40 -87 85
c0 47 40 86 87 86c48 0 88 -39 88 -86s-39 -85 -88 -85z" />
    <glyph glyph-name="uring" unicode="&#x16f;" horiz-adv-x="561" 
d="M262 -7c-115 0 -187 56 -187 200v330h18v-330c0 -133 66 -184 169 -184c99 0 201 66 201 194v320h18v-523h-18v121c-24 -68 -101 -128 -201 -128zM281 619c40 0 71 31 71 70c0 41 -31 71 -71 71c-39 0 -70 -30 -70 -71c0 -39 31 -70 70 -70zM281 604c-47 0 -87 40 -87 85
c0 47 40 86 87 86c48 0 88 -39 88 -86s-39 -85 -88 -85z" />
    <glyph glyph-name="Uhungarumlaut" unicode="&#x170;" horiz-adv-x="666" 
d="M334 -4c-156 0 -255 87 -255 254v465h19v-464c0 -157 87 -238 236 -238c164 0 234 88 234 251v451h19v-454c0 -167 -81 -265 -253 -265zM324 888h20l-57 -117h-17zM430 888h20l-57 -117h-17z" />
    <glyph glyph-name="uhungarumlaut" unicode="&#x171;" horiz-adv-x="561" 
d="M262 -7c-115 0 -187 56 -187 200v330h18v-330c0 -133 66 -184 169 -184c99 0 201 66 201 194v320h18v-523h-18v121c-24 -68 -101 -128 -201 -128zM284 743h20l-62 -147h-17zM390 743h20l-62 -147h-17z" />
    <glyph glyph-name="Uogonek" unicode="&#x172;" horiz-adv-x="666" 
d="M378 -182c-53 0 -81 31 -81 70c0 44 34 85 81 110c-12 -1 -31 -2 -44 -2c-156 0 -255 87 -255 254v465h19v-464c0 -157 87 -238 236 -238c164 0 234 88 234 251v451h19v-454c0 -124 -45 -211 -138 -246c-71 -26 -133 -66 -133 -127c0 -31 18 -53 62 -53c16 0 32 3 48 9
v-17c-13 -5 -29 -9 -48 -9z" />
    <glyph glyph-name="uogonek" unicode="&#x173;" horiz-adv-x="561" 
d="M461 -182c-53 0 -81 31 -81 70c0 47 42 90 83 117v116c-24 -68 -101 -128 -201 -128c-115 0 -187 56 -187 200v330h18v-330c0 -133 66 -184 169 -184c99 0 201 66 201 194v320h18v-523c-52 -35 -83 -71 -83 -112c0 -31 19 -54 63 -54c16 0 32 3 48 9v-16
c-13 -5 -29 -9 -48 -9z" />
    <glyph glyph-name="Wcircumflex" unicode="&#x174;" horiz-adv-x="910" 
d="M31 715h19l186 -692l213 692h13l198 -694l202 694h17l-208 -715h-24l-192 676l-208 -676h-23zM446 888h20l111 -117h-20l-101 101l-103 -101h-20z" />
    <glyph glyph-name="wcircumflex" unicode="&#x175;" horiz-adv-x="755" 
d="M30 523h19l160 -502l162 502h14l160 -502l162 502h18l-168 -523h-24l-155 491l-158 -491h-24zM370 720h20l110 -124h-20l-100 108l-102 -108h-20z" />
    <glyph glyph-name="Ycircumflex" unicode="&#x176;" horiz-adv-x="554" 
d="M275 325l-253 390h21l242 -372l227 372h20l-238 -390v-325h-19v325zM275 888h20l111 -117h-20l-101 101l-103 -101h-20z" />
    <glyph glyph-name="ycircumflex" unicode="&#x177;" horiz-adv-x="483" 
d="M235 35l-209 488h19l200 -467l193 467h19l-293 -705h-19zM236 720h20l110 -124h-20l-100 108l-102 -108h-20z" />
    <glyph glyph-name="Ydieresis" unicode="&#x178;" horiz-adv-x="554" 
d="M275 325l-253 390h21l242 -372l227 372h20l-238 -390v-325h-19v325zM207 787c-11 0 -17 8 -17 17s6 17 17 17s17 -8 17 -17s-6 -17 -17 -17zM361 787c-11 0 -17 8 -17 17s6 17 17 17s17 -8 17 -17s-6 -17 -17 -17z" />
    <glyph glyph-name="Zacute" unicode="&#x179;" horiz-adv-x="577" 
d="M26 7l487 691h-451v17h480v-7l-487 -691h481v-17h-510v7zM356 888h21l-76 -117h-18z" />
    <glyph glyph-name="zacute" unicode="&#x17a;" horiz-adv-x="463" 
d="M27 5l376 502h-346v16h376v-5l-376 -502h367v-16h-397v5zM300 743h20l-78 -147h-17z" />
    <glyph glyph-name="Zdotaccent" unicode="&#x17b;" horiz-adv-x="577" 
d="M26 7l487 691h-451v17h480v-7l-487 -691h481v-17h-510v7zM299 787c-11 0 -17 8 -17 17s6 17 17 17s17 -8 17 -17s-6 -17 -17 -17z" />
    <glyph glyph-name="zdotaccent" unicode="&#x17c;" horiz-adv-x="463" 
d="M27 5l376 502h-346v16h376v-5l-376 -502h367v-16h-397v5zM243 639c-11 0 -17 8 -17 17s6 17 17 17s17 -8 17 -17s-6 -17 -17 -17z" />
    <glyph glyph-name="Zcaron" unicode="&#x17d;" horiz-adv-x="577" 
d="M26 7l487 691h-451v17h480v-7l-487 -691h481v-17h-510v7zM175 888h20l103 -101l105 101h20l-115 -117h-20z" />
    <glyph glyph-name="zcaron" unicode="&#x17e;" horiz-adv-x="463" 
d="M27 5l376 502h-346v16h376v-5l-376 -502h367v-16h-397v5zM122 737h20l100 -108l102 108h20l-112 -124h-20z" />
    <glyph glyph-name="uni0192" unicode="&#x192;" horiz-adv-x="369" 
d="M30 391h91l27 177c19 120 78 156 152 156c31 0 51 -6 68 -11v-17c-15 5 -37 12 -68 12c-64 0 -118 -31 -134 -140l-27 -177h160v-16h-163l-85 -557h-18l85 557h-88v16z" />
    <glyph glyph-name="Aringacute" unicode="&#x1fa;" horiz-adv-x="630" 
d="M300 715h26l274 -715h-19l-90 235h-354l-89 -235h-18zM143 252h341l-171 448zM307 764c40 0 71 31 71 70c0 41 -31 71 -71 71c-39 0 -70 -30 -70 -71c0 -39 31 -70 70 -70zM307 749c-47 0 -87 40 -87 85c0 47 40 86 87 86c48 0 88 -39 88 -86s-39 -85 -88 -85zM364 1068
h21l-76 -117h-18z" />
    <glyph glyph-name="aringacute" unicode="&#x1fb;" horiz-adv-x="515" 
d="M228 -7c-112 0 -181 52 -181 144c0 121 103 155 226 155h149v55c0 116 -49 167 -157 167c-88 0 -160 -39 -177 -131h-17c13 99 98 147 194 147c121 0 175 -66 175 -183v-347h-18v96c-27 -53 -94 -103 -194 -103zM228 9c104 0 194 68 194 143v124h-149
c-114 0 -208 -24 -208 -139c0 -84 60 -128 163 -128zM265 619c40 0 71 31 71 70c0 41 -31 71 -71 71c-39 0 -70 -30 -70 -71c0 -39 31 -70 70 -70zM265 604c-47 0 -87 40 -87 85c0 47 40 86 87 86c48 0 88 -39 88 -86s-39 -85 -88 -85zM322 948h21l-76 -117h-18z" />
    <glyph glyph-name="AEacute" unicode="&#x1fc;" horiz-adv-x="941" 
d="M383 715h490v-17h-384v-320h313v-17h-313v-344h402v-17h-421v235h-304l-117 -235h-21zM174 252h296v446h-74zM663 888h21l-76 -117h-18z" />
    <glyph glyph-name="aeacute" unicode="&#x1fd;" horiz-adv-x="918" 
d="M664 -7c-120 0 -195 66 -224 169c-11 -108 -111 -169 -211 -169c-112 0 -182 50 -182 142c0 121 100 151 224 151h155v61c0 116 -52 167 -160 167c-87 0 -162 -39 -178 -131h-17c13 99 99 147 195 147c116 0 170 -59 175 -166c31 101 111 166 216 166
c132 0 220 -93 220 -249v-11h-433c0 -164 75 -261 220 -261c93 0 166 44 191 132h18c-27 -95 -104 -148 -209 -148zM229 9c104 0 197 68 197 170v91h-155c-115 0 -206 -20 -206 -135c0 -84 61 -126 164 -126zM859 286c-3 149 -81 228 -202 228c-119 0 -208 -89 -213 -228
h415zM522 743h20l-78 -147h-17z" />
    <glyph glyph-name="Oslashacute" unicode="&#x1fe;" horiz-adv-x="790" 
d="M49 -3l96 107c-60 64 -95 152 -95 249v8c0 204 153 360 345 360c88 0 166 -32 227 -87l90 101l12 -11l-90 -101c65 -64 106 -155 106 -259v-8c0 -203 -154 -362 -343 -362c-96 0 -178 37 -241 98l-95 -106zM397 11c183 0 324 150 324 345v8c0 99 -36 184 -99 247
l-454 -506c59 -60 137 -94 229 -94zM69 353c0 -92 31 -175 87 -236l454 505c-56 51 -131 82 -215 82c-188 0 -326 -150 -326 -343v-8zM452 888h21l-76 -117h-18z" />
    <glyph glyph-name="oslashacute" unicode="&#x1ff;" horiz-adv-x="576" 
d="M41 -1l66 75c-41 47 -66 108 -66 183v8c0 157 117 264 249 264c64 0 121 -24 165 -65l62 69l12 -10l-63 -70c43 -47 69 -110 69 -187v-8c0 -158 -115 -265 -248 -265c-65 0 -124 25 -169 69l-65 -73zM288 9c120 0 229 94 229 249v8c0 75 -24 132 -61 175l-327 -366
c43 -43 99 -66 159 -66zM59 257c0 -71 23 -128 59 -171l326 366c-41 40 -95 61 -154 61c-121 0 -231 -93 -231 -248v-8zM345 743h20l-78 -147h-17z" />
    <glyph glyph-name="uni0218" unicode="&#x218;" horiz-adv-x="572" 
d="M292 -6c-161 0 -240 85 -256 196h19c16 -96 82 -179 237 -179c137 0 211 76 211 175c0 120 -61 158 -214 179c-163 24 -222 80 -222 178c0 112 87 178 219 178c123 0 192 -60 211 -159h-19c-17 88 -76 142 -192 142c-124 0 -200 -53 -200 -161c0 -89 54 -139 206 -160
c163 -24 230 -64 230 -197c0 -105 -82 -192 -230 -192zM223 -180l58 134l19 -4l-62 -136z" />
    <glyph glyph-name="uni0219" unicode="&#x219;" horiz-adv-x="448" 
d="M231 -9c-120 0 -188 68 -197 160h17c11 -82 69 -144 180 -144c99 0 156 57 156 127c0 82 -37 106 -154 127c-120 21 -179 48 -179 138c0 77 71 130 168 130c95 0 158 -39 173 -131h-17c-15 80 -69 115 -157 115c-89 0 -150 -45 -150 -114c0 -76 48 -101 167 -122
c116 -21 168 -51 168 -143c0 -77 -66 -143 -175 -143zM169 -180l58 134l19 -4l-62 -136z" />
    <glyph glyph-name="uni021A" unicode="&#x21a;" horiz-adv-x="557" 
d="M269 698h-238v17h495v-17h-238v-698h-19v698zM220 -180l58 134l19 -4l-62 -136z" />
    <glyph glyph-name="uni021B" unicode="&#x21b;" horiz-adv-x="319" 
d="M214 -7c-68 0 -112 39 -112 127v387h-80v16h80v119h18v-119h154v-16h-154v-387c0 -79 38 -111 94 -111c28 0 48 4 67 11v-16c-17 -7 -36 -11 -67 -11zM115 -180l58 134l19 -4l-62 -136z" />
    <glyph glyph-name="uni0237" unicode="&#x237;" horiz-adv-x="182" 
d="M5 -168c59 5 77 34 77 102v589h18v-589c0 -80 -24 -115 -95 -118v16z" />
    <glyph glyph-name="circumflex" unicode="&#x2c6;" horiz-adv-x="400" 
d="M191 720h20l110 -124h-20l-100 108l-102 -108h-20z" />
    <glyph glyph-name="caron" unicode="&#x2c7;" horiz-adv-x="400" 
d="M79 737h20l100 -108l102 108h20l-112 -124h-20z" />
    <glyph glyph-name="breve" unicode="&#x2d8;" horiz-adv-x="400" 
d="M200 612c-64 0 -106 43 -111 108h18c4 -56 40 -92 93 -92c52 0 90 36 95 92h18c-5 -65 -50 -108 -113 -108z" />
    <glyph glyph-name="dotaccent" unicode="&#x2d9;" horiz-adv-x="400" 
d="M200 639c-11 0 -17 8 -17 17s6 17 17 17s17 -8 17 -17s-6 -17 -17 -17z" />
    <glyph glyph-name="ring" unicode="&#x2da;" horiz-adv-x="400" 
d="M200 619c40 0 71 31 71 70c0 41 -31 71 -71 71c-39 0 -70 -30 -70 -71c0 -39 31 -70 70 -70zM200 604c-47 0 -87 40 -87 85c0 47 40 86 87 86c48 0 88 -39 88 -86s-39 -85 -88 -85z" />
    <glyph glyph-name="ogonek" unicode="&#x2db;" horiz-adv-x="400" 
d="M210 -182c-53 0 -81 31 -81 70c0 48 41 85 81 112h23c-55 -35 -86 -69 -86 -112c0 -31 19 -54 63 -54c16 0 32 3 48 9v-16c-13 -5 -29 -9 -48 -9z" />
    <glyph glyph-name="tilde" unicode="&#x2dc;" horiz-adv-x="400" 
d="M275 613c-53 0 -98 64 -141 64c-25 0 -48 -20 -53 -63h-17c7 56 35 79 71 79c51 0 98 -64 141 -64c24 0 47 20 52 63h17c-7 -56 -35 -79 -70 -79z" />
    <glyph glyph-name="hungarumlaut" unicode="&#x2dd;" horiz-adv-x="400" 
d="M190 743h20l-62 -147h-17zM296 743h20l-62 -147h-17z" />
    <glyph glyph-name="uni037E" unicode="&#x37e;" horiz-adv-x="172" 
d="M26 -103l55 140l19 -7l-59 -139zM86 352c-11 0 -17 8 -17 17s6 17 17 17s17 -8 17 -17s-6 -17 -17 -17z" />
    <glyph glyph-name="tonos" unicode="&#x384;" horiz-adv-x="400" 
d="M266 743h20l-78 -147h-17z" />
    <glyph glyph-name="dieresistonos" unicode="&#x385;" horiz-adv-x="400" 
d="M232 785h20l-48 -147h-17zM285 639c-11 0 -17 8 -17 17s6 17 17 17s17 -8 17 -17s-6 -17 -17 -17zM115 639c-11 0 -17 8 -17 17s6 17 17 17s17 -8 17 -17s-6 -17 -17 -17z" />
    <glyph glyph-name="Alphatonos" unicode="&#x386;" horiz-adv-x="630" 
d="M300 715h26l274 -715h-19l-90 235h-354l-89 -235h-18zM143 252h341l-171 448zM116 715h20l-78 -147h-17z" />
    <glyph glyph-name="anoteleia" unicode="&#x387;" horiz-adv-x="166" 
d="M83 303c-11 0 -17 8 -17 17s6 17 17 17s17 -8 17 -17s-6 -17 -17 -17z" />
    <glyph glyph-name="Epsilontonos" unicode="&#x388;" horiz-adv-x="566" 
d="M95 715h403v-17h-384v-320h313v-17h-313v-344h402v-17h-421v715zM-14 715h20l-78 -147h-17z" />
    <glyph glyph-name="Etatonos" unicode="&#x389;" horiz-adv-x="702" 
d="M95 715h19v-344h474v344h19v-715h-19v354h-474v-354h-19v715zM-14 715h20l-78 -147h-17z" />
    <glyph glyph-name="Iotatonos" unicode="&#x38a;" horiz-adv-x="219" 
d="M100 715h19v-715h-19v715zM-14 715h20l-78 -147h-17z" />
    <glyph glyph-name="Omicrontonos" unicode="&#x38c;" horiz-adv-x="790" 
d="M397 11c183 0 324 150 324 345v8c0 191 -140 340 -326 340c-188 0 -326 -150 -326 -343v-8c0 -191 140 -342 328 -342zM397 -6c-196 0 -347 159 -347 359v8c0 204 153 360 345 360s345 -156 345 -357v-8c0 -203 -154 -362 -343 -362zM46 715h20l-78 -147h-17z" />
    <glyph glyph-name="Upsilontonos" unicode="&#x38e;" horiz-adv-x="554" 
d="M275 325l-253 390h21l242 -372l227 372h20l-238 -390v-325h-19v325zM-44 715h20l-78 -147h-17z" />
    <glyph glyph-name="Omegatonos" unicode="&#x38f;" horiz-adv-x="790" 
d="M69 355c0 -175 97 -282 230 -341v-14h-247v17h205c-102 51 -207 157 -207 338v8c0 184 138 358 345 358c205 0 345 -171 345 -355v-8c0 -181 -102 -290 -207 -341h205v-17h-247v14c136 59 230 169 230 344v8c0 170 -123 338 -326 338s-326 -169 -326 -341v-8zM46 715h20
l-78 -147h-17z" />
    <glyph glyph-name="iotadieresistonos" unicode="&#x390;" horiz-adv-x="182" 
d="M82 523h18v-523h-18v523zM127 785h20l-48 -147h-17zM180 639c-11 0 -17 8 -17 17s6 17 17 17s17 -8 17 -17s-6 -17 -17 -17zM10 639c-11 0 -17 8 -17 17s6 17 17 17s17 -8 17 -17s-6 -17 -17 -17z" />
    <glyph glyph-name="Alpha" unicode="&#x391;" horiz-adv-x="630" 
d="M300 715h26l274 -715h-19l-90 235h-354l-89 -235h-18zM143 252h341l-171 448z" />
    <glyph glyph-name="Beta" unicode="&#x392;" horiz-adv-x="582" 
d="M95 715h188c120 0 201 -60 201 -177v-4c0 -95 -59 -144 -138 -159c112 -15 175 -74 175 -178v-4c0 -127 -80 -193 -208 -193h-218v715zM313 17c123 0 189 63 189 176v4c0 111 -77 168 -216 168h-172v-348h199zM286 382c113 0 179 57 179 152v4c0 107 -69 160 -182 160
h-169v-316h172z" />
    <glyph glyph-name="Gamma" unicode="&#x393;" horiz-adv-x="519" 
d="M95 715h393v-17h-374v-698h-19v715z" />
    <glyph glyph-name="uni0394" unicode="&#x394;" horiz-adv-x="630" 
d="M33 7l267 708h26l271 -708v-7h-564v7zM54 17h520l-261 683z" />
    <glyph glyph-name="Epsilon" unicode="&#x395;" horiz-adv-x="566" 
d="M95 715h403v-17h-384v-320h313v-17h-313v-344h402v-17h-421v715z" />
    <glyph glyph-name="Zeta" unicode="&#x396;" horiz-adv-x="577" 
d="M26 7l487 691h-451v17h480v-7l-487 -691h481v-17h-510v7z" />
    <glyph glyph-name="Eta" unicode="&#x397;" horiz-adv-x="702" 
d="M95 715h19v-344h474v344h19v-715h-19v354h-474v-354h-19v715z" />
    <glyph glyph-name="Theta" unicode="&#x398;" horiz-adv-x="790" 
d="M397 -6c-196 0 -347 159 -347 359v8c0 204 153 360 345 360s345 -156 345 -357v-8c0 -203 -154 -362 -343 -362zM397 11c183 0 324 150 324 345v8c0 191 -140 340 -326 340c-188 0 -326 -150 -326 -343v-8c0 -191 140 -342 328 -342zM239 373h312v-17h-312v17z" />
    <glyph glyph-name="Iota" unicode="&#x399;" horiz-adv-x="219" 
d="M100 715h19v-715h-19v715z" />
    <glyph glyph-name="Kappa" unicode="&#x39a;" horiz-adv-x="579" 
d="M124 365l380 350h24l-379 -349l397 -366h-25zM95 715h19v-715h-19v715z" />
    <glyph glyph-name="Lambda" unicode="&#x39b;" horiz-adv-x="616" 
d="M595 0h-19l-263 694l-260 -694h-18l267 715h22z" />
    <glyph glyph-name="Mu" unicode="&#x39c;" horiz-adv-x="846" 
d="M95 715h31l289 -680l298 680h30v-715h-19v695l-305 -695h-9l-296 695v-695h-19v715z" />
    <glyph glyph-name="Nu" unicode="&#x39d;" horiz-adv-x="701" 
d="M95 715h31l461 -693v693h19v-715h-26l-466 700v-700h-19v715z" />
    <glyph glyph-name="Xi" unicode="&#x39e;" horiz-adv-x="585" 
d="M525 715v-17h-465v17h465zM463 373v-17h-341v17h341zM52 17h481v-17h-481v17z" />
    <glyph glyph-name="Omicron" unicode="&#x39f;" horiz-adv-x="790" 
d="M397 11c183 0 324 150 324 345v8c0 191 -140 340 -326 340c-188 0 -326 -150 -326 -343v-8c0 -191 140 -342 328 -342zM397 -6c-196 0 -347 159 -347 359v8c0 204 153 360 345 360s345 -156 345 -357v-8c0 -203 -154 -362 -343 -362z" />
    <glyph glyph-name="Pi" unicode="&#x3a0;" horiz-adv-x="694" 
d="M95 715h504v-715h-19v698h-466v-698h-19v715z" />
    <glyph glyph-name="Rho" unicode="&#x3a1;" horiz-adv-x="552" 
d="M95 715h172c141 0 236 -51 236 -191v-4c0 -141 -92 -197 -233 -197h-157v-323h-18v715zM270 340c131 0 214 48 214 180v4c0 132 -89 174 -217 174h-154v-358h157z" />
    <glyph glyph-name="Sigma" unicode="&#x3a3;" horiz-adv-x="572" 
d="M63 698v17h441v-17h-419l253 -336l-252 -345h436v-17h-462v11l256 351z" />
    <glyph glyph-name="Tau" unicode="&#x3a4;" horiz-adv-x="557" 
d="M269 698h-238v17h495v-17h-238v-698h-19v698z" />
    <glyph glyph-name="Upsilon" unicode="&#x3a5;" horiz-adv-x="554" 
d="M275 325l-253 390h21l242 -372l227 372h20l-238 -390v-325h-19v325z" />
    <glyph glyph-name="Phi" unicode="&#x3a6;" horiz-adv-x="821" 
d="M401 51c-212 5 -351 139 -351 304v6c0 169 142 300 351 305v61h19v-61c209 -5 351 -136 351 -302v-7c0 -167 -143 -303 -351 -306v-63h-19v63zM69 355c0 -158 131 -283 332 -288v583c-201 -5 -332 -128 -332 -289v-6zM752 364c0 158 -133 281 -332 286v-583
c199 3 332 130 332 290v7z" />
    <glyph glyph-name="Chi" unicode="&#x3a7;" horiz-adv-x="632" 
d="M306 374l-233 341h21l225 -329l224 329h21l-234 -343l255 -372h-21l-247 360l-249 -360h-21z" />
    <glyph glyph-name="Psi" unicode="&#x3a8;" horiz-adv-x="738" 
d="M359 200c-176 3 -289 103 -289 266v249h19v-248c0 -153 101 -247 270 -251v499h19v-499c187 3 271 104 271 264v235h19v-238c0 -164 -93 -274 -290 -277v-200h-19v200z" />
    <glyph glyph-name="uni03A9" unicode="&#x3a9;" horiz-adv-x="790" 
d="M69 355c0 -175 97 -282 230 -341v-14h-247v17h205c-102 51 -207 157 -207 338v8c0 184 138 358 345 358c205 0 345 -171 345 -355v-8c0 -181 -102 -290 -207 -341h205v-17h-247v14c136 59 230 169 230 344v8c0 170 -123 338 -326 338s-326 -169 -326 -341v-8z" />
    <glyph glyph-name="Iotadieresis" unicode="&#x3aa;" horiz-adv-x="219" 
d="M100 715h19v-715h-19v715zM32 787c-11 0 -17 8 -17 17s6 17 17 17s17 -8 17 -17s-6 -17 -17 -17zM186 787c-11 0 -17 8 -17 17s6 17 17 17s17 -8 17 -17s-6 -17 -17 -17z" />
    <glyph glyph-name="Upsilondieresis" unicode="&#x3ab;" horiz-adv-x="554" 
d="M275 325l-253 390h21l242 -372l227 372h20l-238 -390v-325h-19v325zM207 787c-11 0 -17 8 -17 17s6 17 17 17s17 -8 17 -17s-6 -17 -17 -17zM361 787c-11 0 -17 8 -17 17s6 17 17 17s17 -8 17 -17s-6 -17 -17 -17z" />
    <glyph glyph-name="alphatonos" unicode="&#x3ac;" horiz-adv-x="594" 
d="M275 9c117 0 221 93 221 248v8c0 156 -94 249 -213 249c-120 0 -224 -91 -224 -249v-8c0 -156 93 -248 216 -248zM275 -7c-129 0 -234 95 -234 264v8c0 163 109 265 242 265c121 0 184 -81 213 -160v153h18v-523h-18v157c-24 -76 -98 -164 -221 -164zM364 743h20
l-78 -147h-17z" />
    <glyph glyph-name="epsilontonos" unicode="&#x3ad;" horiz-adv-x="525" 
d="M159 270c-60 9 -102 57 -102 114c0 84 62 146 206 146c146 0 203 -57 216 -134h-18c-13 64 -58 118 -198 118c-135 0 -188 -52 -188 -131c0 -56 50 -105 126 -105h132v-16h-135c-91 0 -136 -61 -136 -122c0 -84 68 -131 197 -131c121 0 193 43 212 134h17
c-20 -101 -100 -150 -229 -150c-137 0 -215 52 -215 147c0 68 44 119 115 130zM341 743h20l-78 -147h-17z" />
    <glyph glyph-name="etatonos" unicode="&#x3ae;" horiz-adv-x="565" 
d="M80 523h18v-125c24 68 103 132 204 132c114 0 188 -62 188 -207v-505h-18v505c0 133 -66 191 -170 191c-99 0 -204 -69 -204 -197v-317h-18v523zM331 743h20l-78 -147h-17z" />
    <glyph glyph-name="iotatonos" unicode="&#x3af;" horiz-adv-x="182" 
d="M82 523h18v-523h-18v523zM159 743h20l-78 -147h-17z" />
    <glyph glyph-name="upsilondieresistonos" unicode="&#x3b0;" horiz-adv-x="546" 
d="M273 -7c-106 0 -203 68 -203 212v318h18v-318c0 -136 89 -196 185 -196c99 0 185 56 185 195v319h18v-319c0 -144 -97 -211 -203 -211zM310 785h20l-48 -147h-17zM363 639c-11 0 -17 8 -17 17s6 17 17 17s17 -8 17 -17s-6 -17 -17 -17zM193 639c-11 0 -17 8 -17 17
s6 17 17 17s17 -8 17 -17s-6 -17 -17 -17z" />
    <glyph glyph-name="alpha" unicode="&#x3b1;" horiz-adv-x="594" 
d="M275 9c117 0 221 93 221 248v8c0 156 -94 249 -213 249c-120 0 -224 -91 -224 -249v-8c0 -156 93 -248 216 -248zM275 -7c-129 0 -234 95 -234 264v8c0 163 109 265 242 265c121 0 184 -81 213 -160v153h18v-523h-18v157c-24 -76 -98 -164 -221 -164z" />
    <glyph glyph-name="beta" unicode="&#x3b2;" horiz-adv-x="568" 
d="M271 422c132 -5 203 92 203 171v4c0 100 -68 163 -181 163c-135 0 -195 -84 -195 -208v-341c0 -111 101 -202 209 -202c104 0 202 66 202 205v8c0 115 -87 184 -238 183v17zM333 415c101 -11 194 -71 194 -193v-8c0 -147 -109 -221 -220 -221c-92 0 -175 58 -209 140
v-315h-18v735c0 131 73 223 213 223c121 0 199 -72 199 -179v-4c0 -86 -77 -167 -159 -178z" />
    <glyph glyph-name="gamma" unicode="&#x3b3;" horiz-adv-x="531" 
d="M487 523h18l-229 -515v-190h-18v190l-232 515h19l222 -495z" />
    <glyph glyph-name="delta" unicode="&#x3b4;" horiz-adv-x="576" 
d="M96 773h393v-16h-358l327 -324c38 -38 77 -90 77 -178v-7c0 -140 -110 -255 -248 -255c-135 0 -246 111 -246 253v6c0 123 101 249 246 249c32 0 72 -7 103 -24l-294 291v5zM517 256c0 123 -98 229 -229 229c-132 0 -229 -111 -229 -232v-8c0 -132 101 -236 229 -236
s229 105 229 239v8z" />
    <glyph glyph-name="epsilon" unicode="&#x3b5;" horiz-adv-x="525" 
d="M159 270c-60 9 -102 57 -102 114c0 84 62 146 206 146c146 0 203 -57 216 -134h-18c-13 64 -58 118 -198 118c-135 0 -188 -52 -188 -131c0 -56 50 -105 126 -105h132v-16h-135c-91 0 -136 -61 -136 -122c0 -84 68 -131 197 -131c121 0 193 43 212 134h17
c-20 -101 -100 -150 -229 -150c-137 0 -215 52 -215 147c0 68 44 119 115 130z" />
    <glyph glyph-name="zeta" unicode="&#x3b6;" horiz-adv-x="466" 
d="M272 0c-136 0 -231 76 -231 209c0 213 223 407 380 548h-348v16h382v-5c-230 -201 -396 -374 -396 -559c0 -127 86 -193 213 -193h82c73 0 102 -25 102 -68c0 -36 -9 -71 -20 -102h-18c11 32 20 64 20 100c0 39 -24 54 -85 54h-81z" />
    <glyph glyph-name="eta" unicode="&#x3b7;" horiz-adv-x="565" 
d="M80 523h18v-125c24 68 103 132 204 132c114 0 188 -62 188 -207v-505h-18v505c0 133 -66 191 -170 191c-99 0 -204 -69 -204 -197v-317h-18v523z" />
    <glyph glyph-name="theta" unicode="&#x3b8;" horiz-adv-x="588" 
d="M528 363c0 -240 -82 -370 -234 -370c-149 0 -234 127 -234 367v50c0 237 86 366 231 366c143 0 237 -129 237 -363v-50zM291 760c-139 0 -212 -123 -212 -350v-7h430v10c0 228 -83 347 -218 347zM294 9c144 0 215 122 215 354v24h-430v-27c0 -229 74 -351 215 -351z" />
    <glyph glyph-name="iota" unicode="&#x3b9;" horiz-adv-x="182" 
d="M82 523h18v-523h-18v523z" />
    <glyph glyph-name="kappa" unicode="&#x3ba;" horiz-adv-x="459" 
d="M407 523h24l-303 -256l311 -267h-25l-311 267zM98 0h-18v523h18v-523z" />
    <glyph glyph-name="lambda" unicode="&#x3bb;" horiz-adv-x="513" 
d="M169 703c-15 37 -28 57 -64 57c-16 0 -38 -5 -53 -12v17c15 7 34 11 53 11c40 0 63 -22 79 -65l241 -643c15 -39 33 -56 64 -56c9 0 25 3 32 6v-16c-7 -3 -19 -6 -32 -6c-40 0 -63 20 -80 65l-164 436l-200 -497h-19l210 522z" />
    <glyph glyph-name="uni03BC" unicode="&#x3bc;" horiz-adv-x="566" 
d="M81 523h18v-340c0 -125 79 -174 179 -174c99 0 191 66 191 194v320h18v-523h-18v121c-24 -68 -91 -128 -191 -128c-85 0 -151 29 -179 105v-280h-18v705z" />
    <glyph glyph-name="nu" unicode="&#x3bd;" horiz-adv-x="499" 
d="M26 523h19l206 -507l204 507h18l-209 -523h-26z" />
    <glyph glyph-name="xi" unicode="&#x3be;" horiz-adv-x="487" 
d="M365 16c73 0 102 -25 102 -68c0 -36 -9 -71 -20 -102h-18c11 32 20 64 20 100c0 39 -24 54 -85 54h-74c-148 0 -249 76 -249 209c0 122 90 200 180 216c-76 21 -128 81 -128 161c0 81 67 158 158 171h-196v16h400v-16h-121c-120 0 -223 -65 -223 -171
c0 -72 55 -154 167 -154h132v-16h-132c-133 0 -219 -91 -219 -207c0 -127 96 -193 231 -193h75z" />
    <glyph glyph-name="omicron" unicode="&#x3bf;" horiz-adv-x="576" 
d="M288 9c120 0 229 94 229 249v8c0 157 -107 247 -227 247c-121 0 -231 -93 -231 -248v-8c0 -151 106 -248 229 -248zM287 -7c-133 0 -246 109 -246 264v8c0 157 117 264 249 264s245 -102 245 -263v-8c0 -158 -115 -265 -248 -265z" />
    <glyph glyph-name="pi" unicode="&#x3c0;" horiz-adv-x="577" 
d="M457 507h-337v-507h-18v507h-80v16h533v-16h-80v-507h-18v507z" />
    <glyph glyph-name="rho" unicode="&#x3c1;" horiz-adv-x="574" 
d="M302 9c119 0 213 92 213 248v8c0 158 -97 248 -216 248c-121 0 -221 -93 -221 -248v-8c0 -155 107 -248 224 -248zM302 -7c-125 0 -197 85 -224 165v-340h-18v447c0 157 107 264 239 264s234 -103 234 -264v-8c0 -169 -106 -264 -231 -264z" />
    <glyph glyph-name="uni03C2" unicode="&#x3c2;" horiz-adv-x="539" 
d="M59 257c0 -144 85 -241 235 -241h51c73 0 102 -25 102 -68c0 -36 -9 -71 -20 -102h-18c11 32 20 64 20 100c0 39 -24 54 -85 54h-50c-147 0 -253 93 -253 257v8c0 159 111 265 244 265c104 0 196 -64 209 -164h-18c-13 93 -97 148 -191 148c-124 0 -226 -95 -226 -249v-8
z" />
    <glyph glyph-name="sigma" unicode="&#x3c3;" horiz-adv-x="595" 
d="M287 -7c-133 0 -246 109 -246 264v8c0 157 117 258 249 258h275v-16h-193c97 -32 163 -118 163 -241v-8c0 -158 -115 -265 -248 -265zM288 9c120 0 229 94 229 249v8c0 154 -103 241 -227 241c-121 0 -231 -87 -231 -242v-8c0 -151 106 -248 229 -248z" />
    <glyph glyph-name="tau" unicode="&#x3c4;" horiz-adv-x="436" 
d="M304 -7c-64 0 -102 39 -102 127v387h-180v16h392v-16h-194v-387c0 -79 31 -111 84 -111c28 0 68 4 87 11v-16c-17 -7 -56 -11 -87 -11z" />
    <glyph glyph-name="upsilon" unicode="&#x3c5;" horiz-adv-x="546" 
d="M273 -7c-106 0 -203 68 -203 212v318h18v-318c0 -136 89 -196 185 -196c99 0 185 56 185 195v319h18v-319c0 -144 -97 -211 -203 -211z" />
    <glyph glyph-name="phi" unicode="&#x3c6;" horiz-adv-x="720" 
d="M679 262c0 -164 -139 -264 -311 -267v-177h-18v177c-189 5 -309 114 -309 261v8c0 152 89 238 189 262v-16c-96 -24 -171 -107 -171 -246v-8c0 -140 112 -240 291 -245v518h12c212 0 317 -103 317 -259v-8zM661 270c0 148 -96 242 -293 243v-502c167 5 293 91 293 251v8z
" />
    <glyph glyph-name="chi" unicode="&#x3c7;" horiz-adv-x="520" 
d="M252 177l-165 303c-17 31 -25 33 -41 33c-9 0 -19 -2 -29 -6v16c8 3 20 6 29 6c21 0 36 -5 56 -41l160 -293l192 328h20l-202 -346l161 -293c19 -35 31 -53 56 -53c9 0 26 3 33 6v-16c-7 -3 -20 -6 -33 -6c-33 0 -48 18 -72 61l-156 284l-199 -342h-20z" />
    <glyph glyph-name="psi" unicode="&#x3c8;" horiz-adv-x="714" 
d="M88 246c0 -127 80 -223 260 -231v508h18v-508c172 8 260 102 260 229v279h18v-277c0 -132 -94 -239 -278 -247v-181h-18v181c-190 8 -278 112 -278 247v277h18v-277z" />
    <glyph glyph-name="omega" unicode="&#x3c9;" horiz-adv-x="725" 
d="M371 153c0 -92 63 -144 139 -144c107 0 156 93 156 226v7c0 132 -33 252 -185 271v16c160 -16 203 -147 203 -287v-8c0 -139 -58 -241 -173 -241c-81 0 -134 49 -149 114c-14 -62 -65 -114 -148 -114c-116 0 -173 102 -173 242v8c0 141 48 270 203 286v-16
c-146 -19 -185 -138 -185 -270v-8c0 -133 53 -226 156 -226c75 0 138 52 138 144v198h18v-198z" />
    <glyph glyph-name="iotadieresis" unicode="&#x3ca;" horiz-adv-x="182" 
d="M82 523h18v-523h-18v523zM20 639c-11 0 -17 8 -17 17s6 17 17 17s17 -8 17 -17s-6 -17 -17 -17zM162 639c-11 0 -17 8 -17 17s6 17 17 17s17 -8 17 -17s-6 -17 -17 -17z" />
    <glyph glyph-name="upsilondieresis" unicode="&#x3cb;" horiz-adv-x="546" 
d="M273 -7c-106 0 -203 68 -203 212v318h18v-318c0 -136 89 -196 185 -196c99 0 185 56 185 195v319h18v-319c0 -144 -97 -211 -203 -211zM202 639c-11 0 -17 8 -17 17s6 17 17 17s17 -8 17 -17s-6 -17 -17 -17zM344 639c-11 0 -17 8 -17 17s6 17 17 17s17 -8 17 -17
s-6 -17 -17 -17z" />
    <glyph glyph-name="omicrontonos" unicode="&#x3cc;" horiz-adv-x="576" 
d="M356 743h20l-78 -147h-17zM288 9c120 0 229 94 229 249v8c0 157 -107 247 -227 247c-121 0 -231 -93 -231 -248v-8c0 -151 106 -248 229 -248zM287 -7c-133 0 -246 109 -246 264v8c0 157 117 264 249 264s245 -102 245 -263v-8c0 -158 -115 -265 -248 -265z" />
    <glyph glyph-name="upsilontonos" unicode="&#x3cd;" horiz-adv-x="546" 
d="M273 -7c-106 0 -203 68 -203 212v318h18v-318c0 -136 89 -196 185 -196c99 0 185 56 185 195v319h18v-319c0 -144 -97 -211 -203 -211zM336 743h20l-78 -147h-17z" />
    <glyph glyph-name="omegatonos" unicode="&#x3ce;" horiz-adv-x="725" 
d="M371 153c0 -92 63 -144 139 -144c107 0 156 93 156 226v7c0 132 -33 252 -185 271v16c160 -16 203 -147 203 -287v-8c0 -139 -58 -241 -173 -241c-81 0 -134 49 -149 114c-14 -62 -65 -114 -148 -114c-116 0 -173 102 -173 242v8c0 141 48 270 203 286v-16
c-146 -19 -185 -138 -185 -270v-8c0 -133 53 -226 156 -226c75 0 138 52 138 144v198h18v-198zM428 743h20l-78 -147h-17z" />
    <glyph glyph-name="uni0401" unicode="&#x401;" horiz-adv-x="566" 
d="M95 715h403v-17h-384v-320h313v-17h-313v-344h402v-17h-421v715zM215 787c-11 0 -17 8 -17 17s6 17 17 17s17 -8 17 -17s-6 -17 -17 -17zM369 787c-11 0 -17 8 -17 17s6 17 17 17s17 -8 17 -17s-6 -17 -17 -17z" />
    <glyph glyph-name="uni0402" unicode="&#x402;" horiz-adv-x="757" 
d="M288 333c11 19 25 35 44 50c32 25 81 51 161 51c143 0 209 -95 209 -228c0 -123 -59 -210 -173 -210c-47 0 -79 12 -98 21v18c24 -11 55 -22 98 -22c103 0 156 78 156 193c0 124 -60 211 -191 211c-81 0 -132 -29 -163 -57c-18 -17 -32 -35 -43 -56v-304h-19v698h-238v17
h515v-17h-258v-365z" />
    <glyph glyph-name="uni0403" unicode="&#x403;" horiz-adv-x="516" 
d="M351 888h21l-76 -117h-18zM95 715h383v-17h-364v-698h-19v715z" />
    <glyph glyph-name="uni0404" unicode="&#x404;" horiz-adv-x="720" 
d="M675 221c-29 -141 -146 -227 -295 -227c-200 0 -330 148 -330 359v8c0 211 149 360 329 360c145 0 257 -75 286 -211h-19c-28 123 -123 194 -267 194c-171 0 -307 -138 -310 -333h427v-17h-427c0 -204 122 -343 311 -343c145 0 248 79 277 210h18z" />
    <glyph glyph-name="uni0405" unicode="&#x405;" horiz-adv-x="572" 
d="M292 -6c-161 0 -240 85 -256 196h19c16 -96 82 -179 237 -179c137 0 211 76 211 175c0 120 -61 158 -214 179c-163 24 -222 80 -222 178c0 112 87 178 219 178c123 0 192 -60 211 -159h-19c-17 88 -76 142 -192 142c-124 0 -200 -53 -200 -161c0 -89 54 -139 206 -160
c163 -24 230 -64 230 -197c0 -105 -82 -192 -230 -192z" />
    <glyph glyph-name="uni0406" unicode="&#x406;" horiz-adv-x="219" 
d="M100 715h19v-715h-19v715z" />
    <glyph glyph-name="uni0407" unicode="&#x407;" horiz-adv-x="219" 
d="M100 715h19v-715h-19v715zM32 787c-11 0 -17 8 -17 17s6 17 17 17s17 -8 17 -17s-6 -17 -17 -17zM186 787c-11 0 -17 8 -17 17s6 17 17 17s17 -8 17 -17s-6 -17 -17 -17z" />
    <glyph glyph-name="uni0408" unicode="&#x408;" horiz-adv-x="378" 
d="M136 -4c-47 0 -82 12 -101 21v18c24 -11 58 -22 101 -22c89 0 144 41 144 152v550h19v-550c0 -119 -64 -169 -163 -169z" />
    <glyph glyph-name="uni0409" unicode="&#x409;" horiz-adv-x="1007" 
d="M549 698h-344c0 -60 -2 -263 -15 -449c-13 -182 -37 -255 -124 -255c-13 0 -23 2 -32 5c-5 1 -9 3 -12 5v19l14 -6c9 -3 18 -5 29 -5c72 0 94 74 107 243c7 105 10 220 13 309c1 52 2 102 2 151h380v-313h163c144 0 235 -66 235 -189v-4c0 -125 -80 -209 -208 -209h-208
v698zM757 17c122 0 189 79 189 192v4c0 111 -77 172 -216 172h-163v-368h190z" />
    <glyph glyph-name="uni040A" unicode="&#x40a;" horiz-adv-x="1026" 
d="M776 17c123 0 189 73 189 186v4c0 111 -77 178 -216 178h-163v-368h190zM568 354h-454v-354h-19v715h19v-344h454v344h18v-313h163c144 0 235 -71 235 -195v-4c0 -127 -80 -203 -208 -203h-208v354z" />
    <glyph glyph-name="uni040B" unicode="&#x40b;" horiz-adv-x="777" 
d="M288 333c11 19 26 35 45 50c32 25 80 51 156 51c148 0 203 -82 203 -249v-185h-19v184c0 156 -49 233 -184 233c-73 0 -123 -29 -155 -57c-19 -17 -34 -35 -46 -56v-304h-19v698h-238v17h515v-17h-258v-365z" />
    <glyph glyph-name="uni040C" unicode="&#x40c;" horiz-adv-x="579" 
d="M124 365l380 350h24l-379 -349l397 -366h-25zM95 715h19v-715h-19v715zM341 888h21l-76 -117h-18z" />
    <glyph glyph-name="uni040D" unicode="&#x40d;" horiz-adv-x="712" 
d="M95 0v715h19v-687l485 687h18v-715h-19v687l-485 -687h-18zM285 888h21l73 -117h-18z" />
    <glyph glyph-name="uni040E" unicode="&#x40e;" horiz-adv-x="562" 
d="M141 -6c-17 0 -30 2 -40 5c-5 1 -10 3 -13 5l1 19l15 -6c10 -3 22 -5 36 -5c63 0 99 47 136 127l-243 576h20l233 -552l232 552h18l-231 -552c-42 -100 -80 -169 -164 -169zM294 775c-64 0 -114 47 -119 112h18c4 -56 48 -96 101 -96c52 0 98 41 103 96h18
c-5 -64 -60 -112 -121 -112z" />
    <glyph glyph-name="uni040F" unicode="&#x40f;" horiz-adv-x="692" 
d="M95 0v715h19v-698h464v698h19v-715h-241l-2 -130h-15l-2 130h-242z" />
    <glyph glyph-name="uni0410" unicode="&#x410;" horiz-adv-x="630" 
d="M300 715h26l274 -715h-19l-90 235h-354l-89 -235h-18zM143 252h341l-171 448z" />
    <glyph glyph-name="uni0411" unicode="&#x411;" horiz-adv-x="582" 
d="M521 203c0 -127 -80 -203 -208 -203h-218v715h382v-17h-363v-296h172c144 0 235 -71 235 -195v-4zM313 17c123 0 189 73 189 186v4c0 111 -77 178 -216 178h-172v-368h199z" />
    <glyph glyph-name="uni0412" unicode="&#x412;" horiz-adv-x="582" 
d="M95 715h188c120 0 201 -60 201 -177v-4c0 -95 -59 -144 -138 -159c112 -15 175 -74 175 -178v-4c0 -127 -80 -193 -208 -193h-218v715zM313 17c123 0 189 63 189 176v4c0 111 -77 168 -216 168h-172v-348h199zM286 382c113 0 179 57 179 152v4c0 107 -69 160 -182 160
h-169v-316h172z" />
    <glyph glyph-name="uni0413" unicode="&#x413;" horiz-adv-x="516" 
d="M95 715h383v-17h-364v-698h-19v715z" />
    <glyph glyph-name="uni0414" unicode="&#x414;" horiz-adv-x="691" 
d="M167 289c-13 -141 -31 -243 -76 -272h459v681h-358c-1 -44 -3 -89 -6 -136c-4 -80 -10 -181 -19 -273zM26 -130h-16v147h53c52 22 70 128 86 278c11 105 16 209 20 289c3 47 5 90 6 131h394v-698h100v-147h-16l-3 130h-621z" />
    <glyph glyph-name="uni0415" unicode="&#x415;" horiz-adv-x="566" 
d="M95 715h403v-17h-384v-320h313v-17h-313v-344h402v-17h-421v715z" />
    <glyph glyph-name="uni0416" unicode="&#x416;" horiz-adv-x="858" 
d="M420 715h18v-715h-18v715zM805 0l-355 365l338 350h24l-341 -349l359 -366h-25zM28 0l359 365l-341 350h24l338 -351l-355 -364h-25z" />
    <glyph glyph-name="uni0417" unicode="&#x417;" horiz-adv-x="577" 
d="M282 -6c-145 0 -223 85 -239 196h19c16 -96 80 -179 220 -179c137 0 215 68 215 184c0 113 -72 170 -211 170h-95v17h95c113 0 181 63 181 159c0 108 -69 163 -182 163c-116 0 -175 -54 -192 -142h-19c19 99 88 159 211 159c120 0 201 -61 201 -180
c0 -97 -61 -150 -140 -166c112 -15 170 -75 170 -180c0 -128 -92 -201 -234 -201z" />
    <glyph glyph-name="uni0418" unicode="&#x418;" horiz-adv-x="712" 
d="M95 0v715h19v-687l485 687h18v-715h-19v687l-485 -687h-18z" />
    <glyph glyph-name="uni0419" unicode="&#x419;" horiz-adv-x="712" 
d="M95 0v715h19v-687l485 687h18v-715h-19v687l-485 -687h-18zM367 775c-64 0 -114 47 -119 112h18c4 -56 48 -96 101 -96c52 0 98 41 103 96h18c-5 -64 -60 -112 -121 -112z" />
    <glyph glyph-name="uni041A" unicode="&#x41a;" horiz-adv-x="579" 
d="M124 365l380 350h24l-379 -349l397 -366h-25zM95 715h19v-715h-19v715z" />
    <glyph glyph-name="uni041B" unicode="&#x41b;" horiz-adv-x="673" 
d="M190 249c-13 -182 -37 -255 -124 -255c-13 0 -23 2 -32 5c-5 1 -9 3 -12 5v19l14 -6c9 -3 18 -5 29 -5c72 0 94 74 107 243c7 105 10 220 13 309c1 52 2 102 2 151h391v-715h-19v698h-354c0 -60 -2 -263 -15 -449z" />
    <glyph glyph-name="uni041C" unicode="&#x41c;" horiz-adv-x="846" 
d="M95 715h31l289 -680l298 680h30v-715h-19v695l-305 -695h-9l-296 695v-695h-19v715z" />
    <glyph glyph-name="uni041D" unicode="&#x41d;" horiz-adv-x="702" 
d="M95 715h19v-344h474v344h19v-715h-19v354h-474v-354h-19v715z" />
    <glyph glyph-name="uni041E" unicode="&#x41e;" horiz-adv-x="790" 
d="M397 11c183 0 324 150 324 345v8c0 191 -140 340 -326 340c-188 0 -326 -150 -326 -343v-8c0 -191 140 -342 328 -342zM397 -6c-196 0 -347 159 -347 359v8c0 204 153 360 345 360s345 -156 345 -357v-8c0 -203 -154 -362 -343 -362z" />
    <glyph glyph-name="uni041F" unicode="&#x41f;" horiz-adv-x="692" 
d="M578 698h-464v-698h-19v715h502v-715h-19v698z" />
    <glyph glyph-name="uni0420" unicode="&#x420;" horiz-adv-x="552" 
d="M95 715h172c141 0 236 -51 236 -191v-4c0 -141 -92 -197 -233 -197h-157v-323h-18v715zM270 340c131 0 214 48 214 180v4c0 132 -89 174 -217 174h-154v-358h157z" />
    <glyph glyph-name="uni0421" unicode="&#x421;" horiz-adv-x="720" 
d="M380 -6c-200 0 -330 148 -330 359v8c0 211 149 360 329 360c145 0 257 -75 286 -211h-19c-28 123 -123 194 -267 194c-175 0 -310 -143 -310 -342v-8c0 -204 122 -343 311 -343c145 0 248 79 277 210h18c-29 -141 -146 -227 -295 -227z" />
    <glyph glyph-name="uni0422" unicode="&#x422;" horiz-adv-x="557" 
d="M269 698h-238v17h495v-17h-238v-698h-19v698z" />
    <glyph glyph-name="uni0423" unicode="&#x423;" horiz-adv-x="562" 
d="M141 -6c-17 0 -30 2 -40 5c-5 1 -10 3 -13 5l1 19l15 -6c10 -3 22 -5 36 -5c63 0 99 47 136 127l-243 576h20l233 -552l232 552h18l-231 -552c-42 -100 -80 -169 -164 -169z" />
    <glyph glyph-name="uni0424" unicode="&#x424;" horiz-adv-x="753" 
d="M386 634c199 0 322 -98 322 -269v-8c0 -172 -127 -270 -322 -270v-97h-19v97c-199 0 -322 98 -322 269v8c0 172 127 270 322 270v91h19v-91zM386 104c191 0 303 89 303 253v8c0 161 -111 252 -303 252v-513zM367 617c-191 0 -303 -89 -303 -253v-8
c0 -161 111 -252 303 -252v513z" />
    <glyph glyph-name="uni0425" unicode="&#x425;" horiz-adv-x="632" 
d="M306 374l-233 341h21l225 -329l224 329h21l-234 -343l255 -372h-21l-247 360l-249 -360h-21z" />
    <glyph glyph-name="uni0426" unicode="&#x426;" horiz-adv-x="719" 
d="M681 -130l-3 130h-583v715h19v-698h464v698h19v-698h100v-147h-16z" />
    <glyph glyph-name="uni0427" unicode="&#x427;" horiz-adv-x="622" 
d="M508 0v393c-23 -31 -89 -98 -230 -98c-145 0 -213 77 -213 245v175h19v-174c0 -157 62 -229 193 -229c160 0 223 93 231 107v296h19v-715h-19z" />
    <glyph glyph-name="uni0428" unicode="&#x428;" horiz-adv-x="975" 
d="M95 715h19v-698h364v698h19v-698h364v698h19v-715h-785v715z" />
    <glyph glyph-name="uni0429" unicode="&#x429;" horiz-adv-x="1002" 
d="M964 -130l-3 130h-866v715h19v-698h364v698h19v-698h364v698h19v-698h100v-147h-16z" />
    <glyph glyph-name="uni042A" unicode="&#x42a;" horiz-adv-x="701" 
d="M233 698h-202v17h220v-313h173c144 0 235 -71 235 -195v-4c0 -127 -80 -203 -208 -203h-218v698zM451 17c123 0 189 73 189 186v4c0 111 -77 178 -216 178h-173v-368h200z" />
    <glyph glyph-name="uni042B" unicode="&#x42b;" horiz-adv-x="748" 
d="M653 0h-18v715h18v-715zM95 715h18v-313h163c144 0 235 -71 235 -195v-4c0 -127 -80 -203 -208 -203h-208v715zM303 17c123 0 189 73 189 186v4c0 111 -77 178 -216 178h-163v-368h190z" />
    <glyph glyph-name="uni042C" unicode="&#x42c;" horiz-adv-x="563" 
d="M95 715h18v-313h173c144 0 235 -71 235 -195v-4c0 -127 -80 -203 -208 -203h-218v715zM313 17c123 0 189 73 189 186v4c0 111 -77 178 -216 178h-173v-368h200z" />
    <glyph glyph-name="uni042D" unicode="&#x42d;" horiz-adv-x="714" 
d="M339 -6c-148 0 -264 75 -293 211h19c28 -123 127 -194 274 -194c172 0 306 143 306 343h-417v17h417c-5 200 -115 333 -300 333c-145 0 -247 -78 -282 -210h-18c35 141 151 227 300 227c199 0 319 -148 319 -359v-8c0 -211 -146 -360 -325 -360z" />
    <glyph glyph-name="uni042E" unicode="&#x42e;" horiz-adv-x="1000" 
d="M617 -6c-196 0 -337 159 -337 360h-166v-354h-19v715h19v-344h166c5 197 146 350 335 350c192 0 335 -156 335 -357v-8c0 -203 -144 -362 -333 -362zM617 11c184 0 314 150 314 345v8c0 191 -129 340 -316 340s-316 -150 -316 -343v-8c0 -191 129 -342 318 -342z" />
    <glyph glyph-name="uni042F" unicode="&#x42f;" horiz-adv-x="596" 
d="M283 698c-123 0 -189 -64 -189 -177v-4c0 -111 77 -183 216 -183h173v364h-200zM501 0h-18v318h-173c-12 0 -23 0 -34 1l-218 -319h-23l221 322c-113 17 -181 87 -181 195v4c0 127 80 194 208 194h218v-715z" />
    <glyph glyph-name="uni0430" unicode="&#x430;" horiz-adv-x="515" 
d="M228 -7c-112 0 -181 52 -181 144c0 121 103 155 226 155h149v55c0 116 -49 167 -157 167c-88 0 -160 -39 -177 -131h-17c13 99 98 147 194 147c121 0 175 -66 175 -183v-347h-18v96c-27 -53 -94 -103 -194 -103zM228 9c104 0 194 68 194 143v124h-149
c-114 0 -208 -24 -208 -139c0 -84 60 -128 163 -128z" />
    <glyph glyph-name="uni0431" unicode="&#x431;" horiz-adv-x="587" 
d="M298 -7c-133 0 -246 102 -246 278v86c0 273 79 404 284 409l53 1c88 3 114 12 125 15v-16c-7 -3 -38 -12 -123 -15l-55 -1c-191 -3 -266 -129 -269 -394h2c32 108 127 173 242 173c132 0 235 -102 235 -263v-8c0 -158 -115 -265 -248 -265zM299 9c120 0 229 94 229 249v8
c0 157 -97 247 -217 247c-123 0 -241 -85 -241 -241v-2c0 -165 106 -261 229 -261z" />
    <glyph glyph-name="uni0432" unicode="&#x432;" horiz-adv-x="503" 
d="M81 523h192c92 0 151 -45 151 -130v-3c0 -69 -41 -103 -100 -114c81 -11 127 -54 127 -130v-3c0 -92 -55 -143 -167 -143h-203v523zM99 507v-225h175c84 0 131 39 131 108v3c0 77 -49 114 -132 114h-174zM99 266v-250h185c99 0 148 42 148 127v3c0 80 -57 120 -158 120
h-175z" />
    <glyph glyph-name="uni0433" unicode="&#x433;" horiz-adv-x="437" 
d="M99 507v-507h-18v523h332v-16h-314z" />
    <glyph glyph-name="uni0434" unicode="&#x434;" horiz-adv-x="560" 
d="M147 270c-13 -133 -25 -221 -68 -254h366v491h-282c-3 -43 -8 -165 -16 -237zM29 -127h-14v143h33c53 16 68 113 82 259c4 43 8 105 11 156l6 92h316v-507h69v-143h-14l-3 127h-483z" />
    <glyph glyph-name="uni0435" unicode="&#x435;" horiz-adv-x="537" 
d="M282 -7c-155 0 -241 111 -241 264v8c0 156 99 265 234 265c132 0 221 -93 221 -249v-11h-437c0 -164 78 -261 223 -261c93 0 167 44 192 132h18c-27 -95 -105 -148 -210 -148zM478 286c-3 149 -82 228 -203 228c-119 0 -211 -89 -216 -228h419z" />
    <glyph glyph-name="uni0436" unicode="&#x436;" horiz-adv-x="642" 
d="M312 523h17v-523h-17v523zM601 0l-266 274l252 249h22l-254 -249l269 -274h-23zM17 0l269 274l-254 249h22l252 -249l-266 -274h-23z" />
    <glyph glyph-name="uni0437" unicode="&#x437;" horiz-adv-x="466" 
d="M388 398c0 -72 -41 -111 -100 -122c80 -8 126 -54 126 -130v-7c0 -78 -69 -148 -178 -148c-113 0 -178 61 -193 145h18c16 -75 70 -129 175 -129c99 0 159 63 159 132v7c0 80 -51 120 -154 120h-95v16h95c84 0 128 44 128 116v3c0 72 -51 113 -138 113
c-85 0 -141 -50 -153 -133h-17c9 92 78 149 170 149c95 0 157 -49 157 -129v-3z" />
    <glyph glyph-name="uni0438" unicode="&#x438;" horiz-adv-x="561" 
d="M81 0v523h18v-495l363 495h18v-523h-18v497l-363 -497h-18z" />
    <glyph glyph-name="uni0439" unicode="&#x439;" horiz-adv-x="561" 
d="M276 612c-64 0 -114 47 -119 112h18c4 -56 45 -98 101 -98s98 42 103 98h18c-5 -64 -60 -112 -121 -112zM81 0v523h18v-495l363 495h18v-523h-18v497l-363 -497h-18z" />
    <glyph glyph-name="uni043A" unicode="&#x43a;" horiz-adv-x="452" 
d="M80 523h18v-523h-18v523zM103 274l293 249h24l-292 -249l307 -274h-25z" />
    <glyph glyph-name="uni043B" unicode="&#x43b;" horiz-adv-x="551" 
d="M165 270c-16 -171 -37 -273 -119 -273c-12 0 -23 1 -30 4c-4 1 -8 3 -11 5v18c4 -2 8 -4 13 -5c9 -3 18 -5 27 -5c68 0 87 103 103 261c4 43 8 105 11 156l6 92h305v-523h-18v507h-271c-3 -43 -8 -165 -16 -237z" />
    <glyph glyph-name="uni043C" unicode="&#x43c;" horiz-adv-x="664" 
d="M99 499v-499h-18v523h27l222 -492l228 492h25v-523h-18v499l-231 -499h-10z" />
    <glyph glyph-name="uni043D" unicode="&#x43d;" horiz-adv-x="551" 
d="M452 266h-353v-266h-18v523h18v-241h353v241h18v-523h-18v266z" />
    <glyph glyph-name="uni043E" unicode="&#x43e;" horiz-adv-x="576" 
d="M288 9c120 0 229 94 229 249v8c0 157 -107 247 -227 247c-121 0 -231 -93 -231 -248v-8c0 -151 106 -248 229 -248zM287 -7c-133 0 -246 109 -246 264v8c0 157 117 264 249 264s245 -102 245 -263v-8c0 -158 -115 -265 -248 -265z" />
    <glyph glyph-name="uni043F" unicode="&#x43f;" horiz-adv-x="541" 
d="M442 507h-343v-507h-18v523h379v-523h-18v507z" />
    <glyph glyph-name="uni0440" unicode="&#x440;" horiz-adv-x="594" 
d="M80 523h18v-163c30 89 112 170 224 170c125 0 231 -102 231 -265v-8c0 -169 -106 -264 -231 -264s-197 85 -224 165v-340h-18v705zM322 9c119 0 213 92 213 248v8c0 158 -99 249 -213 249c-108 0 -224 -93 -224 -249v-8c0 -155 107 -248 224 -248z" />
    <glyph glyph-name="uni0441" unicode="&#x441;" horiz-adv-x="539" 
d="M283 -7c-133 0 -242 107 -242 264v8c0 159 111 265 244 265c104 0 196 -64 209 -164h-18c-13 93 -97 148 -191 148c-124 0 -226 -95 -226 -249v-8c0 -151 102 -248 224 -248c103 0 182 59 201 164h17c-18 -111 -106 -180 -218 -180z" />
    <glyph glyph-name="uni0442" unicode="&#x442;" horiz-adv-x="446" 
d="M426 507h-194v-507h-18v507h-194v16h406v-16z" />
    <glyph glyph-name="uni0443" unicode="&#x443;" horiz-adv-x="483" 
d="M235 35l-209 488h19l200 -467l193 467h19l-293 -705h-19z" />
    <glyph glyph-name="uni0444" unicode="&#x444;" horiz-adv-x="658" 
d="M338 529c165 -3 279 -109 279 -264v-8c0 -156 -114 -261 -279 -264v-175h-18v175c-166 3 -279 109 -279 264v8c0 156 114 261 279 264v244h18v-244zM320 514c-155 -3 -261 -95 -261 -249v-8c0 -151 106 -246 261 -249v506zM338 8c155 3 261 95 261 249v8
c0 151 -106 246 -261 249v-506z" />
    <glyph glyph-name="uni0445" unicode="&#x445;" horiz-adv-x="491" 
d="M232 272l-189 251h22l179 -239l175 239h21l-185 -251l205 -272h-22l-195 260l-191 -260h-21z" />
    <glyph glyph-name="uni0446" unicode="&#x446;" horiz-adv-x="557" 
d="M515 -127l-3 127h-431v523h18v-507h343v507h18v-507h69v-143h-14z" />
    <glyph glyph-name="uni0447" unicode="&#x447;" horiz-adv-x="561" 
d="M438 0v286c-24 -34 -78 -93 -186 -93s-177 56 -177 200v130h18v-130c0 -133 60 -184 159 -184c68 0 115 27 144 54c17 16 31 34 42 54v206h18v-523h-18z" />
    <glyph glyph-name="uni0448" unicode="&#x448;" horiz-adv-x="782" 
d="M81 523h18v-507h283v507h18v-507h283v507h18v-523h-620v523z" />
    <glyph glyph-name="uni0449" unicode="&#x449;" horiz-adv-x="798" 
d="M756 -127l-3 127h-672v523h18v-507h283v507h18v-507h283v507h18v-507h69v-143h-14z" />
    <glyph glyph-name="uni044A" unicode="&#x44a;" horiz-adv-x="565" 
d="M186 507h-166v16h184v-202h138c116 0 187 -57 187 -156v-3c0 -101 -63 -162 -166 -162h-177v507zM363 15c95 0 148 56 148 147v3c0 88 -62 141 -169 141h-138v-291h159z" />
    <glyph glyph-name="uni044B" unicode="&#x44b;" horiz-adv-x="630" 
d="M531 523h18v-523h-18v523zM81 523h18v-202h138c116 0 187 -57 187 -156v-3c0 -101 -63 -162 -166 -162h-177v523zM258 15c95 0 148 56 148 147v3c0 88 -62 141 -169 141h-138v-291h159z" />
    <glyph glyph-name="uni044C" unicode="&#x44c;" horiz-adv-x="460" 
d="M81 523h18v-202h138c116 0 187 -57 187 -156v-3c0 -101 -63 -162 -166 -162h-177v523zM258 15c95 0 148 56 148 147v3c0 88 -62 141 -169 141h-138v-291h159z" />
    <glyph glyph-name="uni044D" unicode="&#x44d;" horiz-adv-x="539" 
d="M260 -7c-111 0 -206 65 -222 180h17c16 -108 104 -164 205 -164c133 0 220 97 220 257h-304v16h304c-8 144 -104 232 -220 232c-96 0 -171 -49 -198 -148h-18c28 104 109 164 216 164c132 0 238 -106 238 -265v-8c0 -157 -94 -264 -238 -264z" />
    <glyph glyph-name="uni044E" unicode="&#x44e;" horiz-adv-x="757" 
d="M478 -7c-133 0 -236 106 -236 272v1h-143v-266h-18v523h18v-241h143c8 148 112 247 239 247c132 0 235 -102 235 -263v-8c0 -158 -105 -265 -238 -265zM479 9c121 0 219 94 219 249v8c0 157 -97 247 -217 247c-121 0 -221 -93 -221 -248v-8c0 -151 96 -248 219 -248z" />
    <glyph glyph-name="uni044F" unicode="&#x44f;" horiz-adv-x="493" 
d="M235 508c-95 0 -148 -44 -148 -135v-3c0 -88 62 -133 169 -133h138v271h-159zM412 0h-18v222h-138c-11 0 -19 0 -30 1l-158 -223h-23l162 225c-87 13 -138 61 -138 145v3c0 101 63 150 166 150h177v-523z" />
    <glyph glyph-name="uni0451" unicode="&#x451;" horiz-adv-x="537" 
d="M282 -7c-155 0 -241 111 -241 264v8c0 156 99 265 234 265c132 0 221 -93 221 -249v-11h-437c0 -164 78 -261 223 -261c93 0 167 44 192 132h18c-27 -95 -105 -148 -210 -148zM478 286c-3 149 -82 228 -203 228c-119 0 -211 -89 -216 -228h419zM203 639
c-11 0 -17 8 -17 17s6 17 17 17s17 -8 17 -17s-6 -17 -17 -17zM345 639c-11 0 -17 8 -17 17s6 17 17 17s17 -8 17 -17s-6 -17 -17 -17z" />
    <glyph glyph-name="uni0452" unicode="&#x452;" horiz-adv-x="565" 
d="M472 323c0 133 -66 191 -170 191c-99 0 -204 -69 -204 -197v-317h-18v633h-81v16h81v124h18v-124h201v-16h-201v-235c24 68 103 132 204 132c114 0 188 -62 188 -207v-389c0 -80 -24 -115 -95 -118v16c59 5 77 34 77 102v389z" />
    <glyph glyph-name="uni0453" unicode="&#x453;" horiz-adv-x="437" 
d="M99 507v-507h-18v523h332v-16h-314zM296 743h20l-78 -147h-17z" />
    <glyph glyph-name="uni0454" unicode="&#x454;" horiz-adv-x="539" 
d="M501 173c-18 -111 -106 -180 -218 -180c-133 0 -242 107 -242 264v8c0 159 111 265 244 265c104 0 196 -64 209 -164h-18c-13 93 -97 148 -191 148c-119 0 -218 -88 -226 -232h304v-16h-304c0 -164 102 -257 224 -257c103 0 182 59 201 164h17z" />
    <glyph glyph-name="uni0455" unicode="&#x455;" horiz-adv-x="448" 
d="M231 -9c-120 0 -188 68 -197 160h17c11 -82 69 -144 180 -144c99 0 156 57 156 127c0 82 -37 106 -154 127c-120 21 -179 48 -179 138c0 77 71 130 168 130c95 0 158 -39 173 -131h-17c-15 80 -69 115 -157 115c-89 0 -150 -45 -150 -114c0 -76 48 -101 167 -122
c116 -21 168 -51 168 -143c0 -77 -66 -143 -175 -143z" />
    <glyph glyph-name="uni0456" unicode="&#x456;" horiz-adv-x="182" 
d="M82 523h18v-523h-18v523zM74 656c0 9 6 17 17 17s17 -8 17 -17s-6 -17 -17 -17s-17 8 -17 17z" />
    <glyph glyph-name="uni0457" unicode="&#x457;" horiz-adv-x="182" 
d="M35 639c-11 0 -17 8 -17 17s6 17 17 17s17 -8 17 -17s-6 -17 -17 -17zM147 639c-11 0 -17 8 -17 17s6 17 17 17s17 -8 17 -17s-6 -17 -17 -17zM82 523h18v-523h-18v523z" />
    <glyph glyph-name="uni0458" unicode="&#x458;" horiz-adv-x="182" 
d="M5 -168c59 5 77 34 77 102v589h18v-589c0 -80 -24 -115 -95 -118v16zM91 639c-11 0 -17 8 -17 17s6 17 17 17s17 -8 17 -17s-6 -17 -17 -17z" />
    <glyph glyph-name="uni0459" unicode="&#x459;" horiz-adv-x="811" 
d="M442 507h-261c-3 -43 -8 -165 -16 -237c-16 -171 -37 -273 -119 -273c-12 0 -23 1 -30 4c-4 1 -8 3 -11 5v18c4 -2 8 -4 13 -5c9 -3 18 -5 27 -5c68 0 87 103 103 261c4 43 8 105 11 156l6 92h295v-202h128c116 0 187 -57 187 -156v-3c0 -101 -63 -162 -166 -162h-167
v507zM609 15c95 0 148 56 148 147v3c0 88 -62 141 -169 141h-128v-291h149z" />
    <glyph glyph-name="uni045A" unicode="&#x45a;" horiz-adv-x="811" 
d="M609 15c95 0 148 56 148 147v3c0 88 -62 141 -169 141h-128v-291h149zM442 266h-343v-266h-18v523h18v-241h343v241h18v-202h128c116 0 187 -57 187 -156v-3c0 -101 -63 -162 -166 -162h-167v266z" />
    <glyph glyph-name="uni045B" unicode="&#x45b;" horiz-adv-x="565" 
d="M-1 649h81v124h18v-124h201v-16h-201v-235c24 68 103 132 204 132c114 0 188 -62 188 -207v-323h-18v323c0 133 -66 191 -170 191c-99 0 -204 -69 -204 -197v-317h-18v633h-81v16z" />
    <glyph glyph-name="uni045C" unicode="&#x45c;" horiz-adv-x="452" 
d="M296 743h20l-78 -147h-17zM80 523h18v-523h-18v523zM103 274l293 249h24l-292 -249l307 -274h-25z" />
    <glyph glyph-name="uni045D" unicode="&#x45d;" horiz-adv-x="561" 
d="M81 0v523h18v-495l363 495h18v-523h-18v497l-363 -497h-18zM215 743h20l75 -147h-17z" />
    <glyph glyph-name="uni045E" unicode="&#x45e;" horiz-adv-x="483" 
d="M246 612c-64 0 -114 47 -119 112h18c4 -56 45 -98 101 -98s98 42 103 98h18c-5 -64 -60 -112 -121 -112zM235 35l-209 488h19l200 -467l193 467h19l-293 -705h-19z" />
    <glyph glyph-name="uni045F" unicode="&#x45f;" horiz-adv-x="541" 
d="M81 0v523h18v-507h343v507h18v-523h-181l-2 -127h-13l-2 127h-181z" />
    <glyph glyph-name="uni0490" unicode="&#x490;" horiz-adv-x="524" 
d="M114 698v-698h-19v715h364l3 134h16v-151h-364z" />
    <glyph glyph-name="uni0491" unicode="&#x491;" horiz-adv-x="433" 
d="M99 507v-507h-18v523h305l3 134h14v-150h-304z" />
    <glyph glyph-name="Wgrave" unicode="&#x1e80;" horiz-adv-x="910" 
d="M31 715h19l186 -692l213 692h13l198 -694l202 694h17l-208 -715h-24l-192 676l-208 -676h-23zM376 888h21l73 -117h-18z" />
    <glyph glyph-name="wgrave" unicode="&#x1e81;" horiz-adv-x="755" 
d="M30 523h19l160 -502l162 502h14l160 -502l162 502h18l-168 -523h-24l-155 491l-158 -491h-24zM297 743h20l75 -147h-17z" />
    <glyph glyph-name="Wacute" unicode="&#x1e82;" horiz-adv-x="910" 
d="M31 715h19l186 -692l213 692h13l198 -694l202 694h17l-208 -715h-24l-192 676l-208 -676h-23zM512 888h21l-76 -117h-18z" />
    <glyph glyph-name="wacute" unicode="&#x1e83;" horiz-adv-x="755" 
d="M30 523h19l160 -502l162 502h14l160 -502l162 502h18l-168 -523h-24l-155 491l-158 -491h-24zM436 743h20l-78 -147h-17z" />
    <glyph glyph-name="Wdieresis" unicode="&#x1e84;" horiz-adv-x="910" 
d="M31 715h19l186 -692l213 692h13l198 -694l202 694h17l-208 -715h-24l-192 676l-208 -676h-23zM378 787c-11 0 -17 8 -17 17s6 17 17 17s17 -8 17 -17s-6 -17 -17 -17zM532 787c-11 0 -17 8 -17 17s6 17 17 17s17 -8 17 -17s-6 -17 -17 -17z" />
    <glyph glyph-name="wdieresis" unicode="&#x1e85;" horiz-adv-x="755" 
d="M30 523h19l160 -502l162 502h14l160 -502l162 502h18l-168 -523h-24l-155 491l-158 -491h-24zM308 639c-11 0 -17 8 -17 17s6 17 17 17s17 -8 17 -17s-6 -17 -17 -17zM450 639c-11 0 -17 8 -17 17s6 17 17 17s17 -8 17 -17s-6 -17 -17 -17z" />
    <glyph glyph-name="Ygrave" unicode="&#x1ef2;" horiz-adv-x="554" 
d="M275 325l-253 390h21l242 -372l227 372h20l-238 -390v-325h-19v325zM205 888h21l73 -117h-18z" />
    <glyph glyph-name="ygrave" unicode="&#x1ef3;" horiz-adv-x="483" 
d="M235 35l-209 488h19l200 -467l193 467h19l-293 -705h-19zM163 743h20l75 -147h-17z" />
    <glyph glyph-name="uni2009" unicode="&#x2009;" horiz-adv-x="110" 
 />
    <glyph glyph-name="endash" unicode="&#x2013;" horiz-adv-x="476" 
d="M48 287h380v-16h-380v16z" />
    <glyph glyph-name="emdash" unicode="&#x2014;" horiz-adv-x="850" 
d="M48 287h754v-16h-754v16z" />
    <glyph glyph-name="quoteleft" unicode="&#x2018;" horiz-adv-x="166" 
d="M45 582l62 136l15 -6l-59 -137z" />
    <glyph glyph-name="quoteright" unicode="&#x2019;" horiz-adv-x="166" 
d="M44 581l59 137l18 -7l-62 -136z" />
    <glyph glyph-name="quotesinglbase" unicode="&#x201a;" horiz-adv-x="166" 
d="M44 -49l59 137l18 -7l-62 -136z" />
    <glyph glyph-name="quotedblleft" unicode="&#x201c;" horiz-adv-x="262" 
d="M45 582l62 136l15 -6l-59 -137zM141 582l62 136l15 -6l-59 -137z" />
    <glyph glyph-name="quotedblright" unicode="&#x201d;" horiz-adv-x="262" 
d="M44 581l59 137l18 -7l-62 -136zM140 581l59 137l18 -7l-62 -136z" />
    <glyph glyph-name="quotedblbase" unicode="&#x201e;" horiz-adv-x="262" 
d="M44 -49l59 137l18 -7l-62 -136zM140 -49l59 137l18 -7l-62 -136z" />
    <glyph glyph-name="dagger" unicode="&#x2020;" horiz-adv-x="320" 
d="M151 556h-122v16h122v143h18v-143h122v-16h-122v-326h-18v326z" />
    <glyph glyph-name="daggerdbl" unicode="&#x2021;" horiz-adv-x="320" 
d="M151 556h-122v16h122v143h18v-143h122v-16h-122v-167h122v-16h-122v-143h-18v143h-122v16h122v167z" />
    <glyph glyph-name="bullet" unicode="&#x2022;" horiz-adv-x="298" 
d="M149 210c-53 0 -94 42 -94 94s41 94 94 94c55 0 94 -42 94 -94s-39 -94 -94 -94z" />
    <glyph glyph-name="ellipsis" unicode="&#x2026;" horiz-adv-x="568" 
d="M83 -5c-11 0 -17 8 -17 17s6 17 17 17s17 -8 17 -17s-6 -17 -17 -17zM284 -5c-11 0 -17 8 -17 17s6 17 17 17s17 -8 17 -17s-6 -17 -17 -17zM485 -5c-11 0 -17 8 -17 17s6 17 17 17s17 -8 17 -17s-6 -17 -17 -17z" />
    <glyph glyph-name="perthousand" unicode="&#x2030;" horiz-adv-x="1090" 
d="M195 431c69 0 130 50 130 136c0 84 -59 136 -130 136c-68 0 -129 -53 -129 -138c0 -84 61 -134 129 -134zM195 415c-76 0 -147 56 -147 150c0 93 69 154 147 154c81 0 148 -61 148 -152c0 -97 -70 -152 -148 -152zM600 715h20l-477 -715h-20zM547 11c69 0 130 50 130 136
c0 84 -59 136 -130 136c-68 0 -129 -53 -129 -138c0 -84 61 -134 129 -134zM547 -5c-76 0 -147 56 -147 150c0 93 69 154 147 154c81 0 148 -61 148 -152c0 -97 -70 -152 -148 -152zM894 11c69 0 130 50 130 136c0 84 -59 136 -130 136c-68 0 -129 -53 -129 -138
c0 -84 61 -134 129 -134zM894 -5c-76 0 -147 56 -147 150c0 93 69 154 147 154c81 0 148 -61 148 -152c0 -97 -70 -152 -148 -152z" />
    <glyph glyph-name="uni2032" unicode="&#x2032;" horiz-adv-x="130" 
d="M75 715h20l-38 -167h-17z" />
    <glyph glyph-name="uni2033" unicode="&#x2033;" horiz-adv-x="223" 
d="M75 715h20l-38 -167h-17zM168 715h20l-38 -167h-17z" />
    <glyph glyph-name="guilsinglleft" unicode="&#x2039;" horiz-adv-x="253" 
d="M49 261l140 178h21l-140 -178l140 -178h-21z" />
    <glyph glyph-name="guilsinglright" unicode="&#x203a;" horiz-adv-x="253" 
d="M183 261l-140 178h21l140 -178l-140 -178h-21z" />
    <glyph glyph-name="fraction" unicode="&#x2044;" horiz-adv-x="113" 
d="M310 715h20l-527 -715h-20z" />
    <glyph glyph-name="Euro" unicode="&#x20ac;" horiz-adv-x="636" 
d="M31 435h65c3 172 98 286 256 286c137 0 209 -75 225 -192h-18c-16 108 -80 175 -207 175c-148 0 -234 -106 -237 -269h268l-3 -16h-265v-120h242l-3 -16h-239c3 -166 84 -272 237 -272c132 0 201 76 218 192h17c-17 -131 -98 -209 -235 -209c-163 0 -253 114 -256 289
h-65v16h65v120h-65v16z" />
    <glyph glyph-name="uni20B4" unicode="&#x20b4;" horiz-adv-x="554" 
d="M265 -6c-131 0 -210 53 -210 160c0 63 24 99 68 134h-93v16h115c37 24 84 48 140 79c27 15 50 28 70 41h-325v16h349c47 35 72 71 72 136c0 88 -61 128 -161 128c-116 0 -174 -55 -191 -142h-19c19 99 86 159 210 159c112 0 180 -49 180 -145c0 -61 -21 -100 -64 -136
h118v-16h-139c-27 -19 -58 -37 -97 -58c-44 -24 -82 -43 -113 -62h349v-16h-374c-51 -35 -76 -70 -76 -134c0 -93 75 -143 191 -143c142 0 201 83 217 179h19c-16 -111 -88 -196 -236 -196z" />
    <glyph glyph-name="uni20B8" unicode="&#x20b8;" horiz-adv-x="557" 
d="M31 699v16h495v-16h-495zM269 568h-238v17h495v-17h-238v-568h-19v568z" />
    <glyph glyph-name="uni20BD" unicode="&#x20bd;" horiz-adv-x="592" 
d="M310 340c131 0 214 48 214 180v4c0 132 -89 174 -217 174h-154v-358h157zM153 188v-188h-18v188h-100v16h100v120h-100v16h100v375h172c141 0 236 -51 236 -191v-4c0 -141 -92 -197 -233 -197h-157v-119h272v-16h-272z" />
    <glyph glyph-name="uni2116" unicode="&#x2116;" horiz-adv-x="1025" 
d="M819 356c-92 0 -166 72 -166 180v5c0 111 77 179 168 179c92 0 166 -66 166 -178v-6c0 -111 -76 -180 -168 -180zM820 372c81 0 149 63 149 164v6c0 103 -68 162 -148 162c-79 0 -150 -63 -150 -163v-5c0 -100 68 -164 149 -164zM95 715h31l419 -692v692h19v-715h-26
l-424 699v-699h-19v715zM674 257h292v-17h-292v17z" />
    <glyph glyph-name="trademark" unicode="&#x2122;" horiz-adv-x="627" 
d="M302 715h27l114 -273l114 273h27v-307h-18v285l-120 -285h-7l-120 285v-285h-17v307zM124 699h-98v16h214v-16h-98v-291h-18v291z" />
    <glyph glyph-name="Omega" unicode="&#x2126;" horiz-adv-x="790" 
d="M69 355c0 -175 97 -282 230 -341v-14h-247v17h205c-102 51 -207 157 -207 338v8c0 184 138 358 345 358c205 0 345 -171 345 -355v-8c0 -181 -102 -290 -207 -341h205v-17h-247v14c136 59 230 169 230 344v8c0 170 -123 338 -326 338s-326 -169 -326 -341v-8z" />
    <glyph glyph-name="onethird" unicode="&#x2153;" horiz-adv-x="680" 
d="M123 690l-95 -68v19l103 74h10v-345h-18v320zM550 715h20l-527 -715h-20zM525 -3c-76 0 -122 46 -126 98h18c5 -43 41 -82 108 -82c60 0 95 30 95 82c0 44 -32 78 -88 78h-27v16h25c52 0 78 32 78 71c0 44 -34 73 -85 73c-60 0 -89 -36 -94 -79h-17c4 51 43 94 111 94
c61 0 103 -37 103 -88c0 -41 -25 -69 -61 -78c40 -8 73 -39 73 -87c0 -63 -45 -98 -113 -98z" />
    <glyph glyph-name="twothirds" unicode="&#x2154;" horiz-adv-x="723" 
d="M27 377l131 126c52 51 73 80 73 121c0 51 -36 79 -85 79c-57 0 -87 -36 -94 -92h-17c5 68 47 107 111 107c63 0 103 -38 103 -94c0 -48 -23 -79 -79 -132l-111 -106h194v-16h-226v7zM616 715h20l-527 -715h-20zM570 -3c-76 0 -122 46 -126 98h18c5 -43 41 -82 108 -82
c60 0 95 30 95 82c0 44 -32 78 -88 78h-27v16h25c52 0 78 32 78 71c0 44 -34 73 -85 73c-60 0 -89 -36 -94 -79h-17c4 51 43 94 111 94c61 0 103 -37 103 -88c0 -41 -25 -69 -61 -78c40 -8 73 -39 73 -87c0 -63 -45 -98 -113 -98z" />
    <glyph glyph-name="oneeighth" unicode="&#x215b;" horiz-adv-x="675" 
d="M116 690l-95 -68v19l103 74h10v-345h-18v320zM555 715h20l-527 -715h-20zM515 -3c-69 0 -122 32 -122 97c0 51 39 81 86 90c-37 9 -71 38 -71 79c0 52 50 85 107 85s106 -33 106 -84c0 -43 -31 -71 -68 -80c47 -11 83 -38 83 -89c0 -67 -50 -98 -121 -98zM515 13
c61 0 103 26 103 82c0 52 -45 81 -102 81s-105 -30 -105 -82c0 -56 45 -81 104 -81zM516 192c47 0 87 25 87 72c0 40 -37 68 -88 68s-89 -26 -89 -69c0 -46 47 -71 90 -71z" />
    <glyph glyph-name="threeeighths" unicode="&#x215c;" horiz-adv-x="715" 
d="M156 367c-76 0 -122 46 -126 98h18c5 -43 41 -82 108 -82c60 0 95 30 95 82c0 44 -32 78 -88 78h-27v16h25c52 0 78 32 78 71c0 44 -34 73 -85 73c-60 0 -89 -36 -94 -79h-17c4 51 43 94 111 94c61 0 103 -37 103 -88c0 -41 -25 -69 -61 -78c40 -8 73 -39 73 -87
c0 -63 -45 -98 -113 -98zM607 715h20l-527 -715h-20zM555 -3c-69 0 -122 32 -122 97c0 51 39 81 86 90c-37 9 -71 38 -71 79c0 52 50 85 107 85s106 -33 106 -84c0 -43 -31 -71 -68 -80c47 -11 83 -38 83 -89c0 -67 -50 -98 -121 -98zM555 13c61 0 103 26 103 82
c0 52 -45 81 -102 81s-105 -30 -105 -82c0 -56 45 -81 104 -81zM556 192c47 0 87 25 87 72c0 40 -37 68 -88 68s-89 -26 -89 -69c0 -46 47 -71 90 -71z" />
    <glyph glyph-name="fiveeighths" unicode="&#x215d;" horiz-adv-x="699" 
d="M141 367c-68 0 -107 42 -112 89h18c7 -39 37 -73 94 -73c60 0 96 38 96 98c0 59 -41 97 -90 97c-43 0 -74 -17 -91 -40h-8v177h187v-16h-170v-135c15 15 47 30 84 30c60 0 106 -44 106 -113c0 -72 -46 -114 -114 -114zM590 715h20l-527 -715h-20zM538 -3
c-69 0 -122 32 -122 97c0 51 39 81 86 90c-37 9 -71 38 -71 79c0 52 50 85 107 85s106 -33 106 -84c0 -43 -31 -71 -68 -80c47 -11 83 -38 83 -89c0 -67 -50 -98 -121 -98zM538 13c61 0 103 26 103 82c0 52 -45 81 -102 81s-105 -30 -105 -82c0 -56 45 -81 104 -81zM539 192
c47 0 87 25 87 72c0 40 -37 68 -88 68s-89 -26 -89 -69c0 -46 47 -71 90 -71z" />
    <glyph glyph-name="seveneighths" unicode="&#x215e;" horiz-adv-x="674" 
d="M231 699h-208v16h233v-4l-148 -341h-20zM551 715h20l-527 -715h-20zM514 -3c-69 0 -122 32 -122 97c0 51 39 81 86 90c-37 9 -71 38 -71 79c0 52 50 85 107 85s106 -33 106 -84c0 -43 -31 -71 -68 -80c47 -11 83 -38 83 -89c0 -67 -50 -98 -121 -98zM514 13
c61 0 103 26 103 82c0 52 -45 81 -102 81s-105 -30 -105 -82c0 -56 45 -81 104 -81zM515 192c47 0 87 25 87 72c0 40 -37 68 -88 68s-89 -26 -89 -69c0 -46 47 -71 90 -71z" />
    <glyph glyph-name="Delta" unicode="&#x2206;" horiz-adv-x="630" 
d="M33 7l267 708h26l271 -708v-7h-564v7zM54 17h520l-261 683z" />
    <glyph glyph-name="minus" unicode="&#x2212;" horiz-adv-x="500" 
d="M37 350h426v-16h-426v16z" />
    <glyph glyph-name="approxequal" unicode="&#x2248;" horiz-adv-x="491" 
d="M35 196c7 44 35 83 95 83c78 0 157 -65 232 -65c48 0 71 34 76 67h18c-7 -44 -35 -83 -95 -83c-78 0 -157 65 -232 65c-48 0 -71 -34 -76 -67h-18zM35 351c7 44 35 83 95 83c78 0 157 -65 232 -65c48 0 71 34 76 67h18c-7 -44 -35 -83 -95 -83c-78 0 -157 65 -232 65
c-48 0 -71 -34 -76 -67h-18z" />
    <glyph glyph-name="notequal" unicode="&#x2260;" horiz-adv-x="484" 
d="M40 401h233l65 133h18l-65 -133h153v-16h-160l-66 -136h226v-16h-234l-64 -133h-18l64 133h-152v16h160l66 136h-226v16z" />
    <glyph glyph-name="lessequal" unicode="&#x2264;" horiz-adv-x="487" 
d="M48 319v6l384 204v-19l-356 -188l356 -188v-19zM48 16h384v-16h-384v16z" />
    <glyph glyph-name="greaterequal" unicode="&#x2265;" horiz-adv-x="487" 
d="M55 134l356 188l-356 188v19l384 -204v-6l-384 -204v19zM55 16h384v-16h-384v16z" />
    <glyph glyph-name="uni24C5" unicode="&#x24c5;" horiz-adv-x="844" 
d="M319 571h107c85 0 142 -33 142 -117v-2c0 -85 -57 -118 -142 -118h-89v-188h-18v425zM426 350c76 0 124 27 124 102v2c0 73 -49 101 -124 101h-89v-205h89zM421 6c197 0 351 153 351 353c0 195 -150 350 -349 350c-197 0 -351 -156 -351 -352c0 -199 154 -351 349 -351z
M421 -9c-204 0 -366 159 -366 366c0 204 162 367 368 367c208 0 366 -162 366 -365c0 -209 -162 -368 -368 -368z" />
    <glyph glyph-name="zero.tab" unicode="&#xe44f;" 
d="M301 11c145 0 222 92 222 267v164c0 160 -85 262 -225 262c-139 0 -220 -97 -220 -265v-164c0 -173 83 -264 223 -264zM301 -6c-152 0 -242 102 -242 281v164c0 179 90 282 239 282c147 0 244 -104 244 -279v-164c0 -180 -86 -284 -241 -284z" />
    <glyph glyph-name="one.tab" unicode="&#xe450;" 
d="M340 687l-246 -193v20l256 201h8v-715h-18v687z" />
    <glyph glyph-name="two.tab" unicode="&#xe451;" 
d="M62 5l291 294c88 88 122 155 122 235c0 115 -76 170 -180 170s-179 -60 -194 -183h-18c11 130 100 200 212 200s199 -63 199 -187c0 -87 -39 -158 -126 -245l-272 -272h415v-17h-449v5z" />
    <glyph glyph-name="three.tab" unicode="&#xe452;" 
d="M298 -6c-142 0 -222 96 -227 197h18c8 -95 77 -180 209 -180c117 0 198 64 198 185c0 92 -55 170 -179 170h-49v17h46c114 0 157 80 157 153c0 95 -60 168 -167 168c-111 0 -177 -74 -188 -166h-18c8 104 91 183 206 183c117 0 186 -80 186 -185
c0 -76 -46 -144 -122 -160c85 -15 147 -80 147 -180c0 -129 -86 -202 -217 -202z" />
    <glyph glyph-name="four.tab" unicode="&#xe453;" 
d="M418 173h-371v5l358 537h32v-525h99v-17h-99v-173h-19v173zM418 190v514l-342 -514h342z" />
    <glyph glyph-name="five.tab" unicode="&#xe454;" 
d="M286 -6c-133 0 -212 89 -220 179h18c11 -81 78 -162 202 -162c136 0 212 85 212 218c0 127 -89 211 -197 211c-92 0 -152 -41 -188 -88h-8v363h376v-17h-358v-312c33 33 94 71 178 71c119 0 216 -88 216 -228c0 -147 -91 -235 -231 -235z" />
    <glyph glyph-name="six.tab" unicode="&#xe455;" 
d="M312 -6c-164 0 -240 116 -240 273v91c0 268 108 363 257 363c98 0 175 -43 191 -150h-18c-15 92 -78 133 -173 133c-140 0 -238 -83 -238 -347v-64c32 104 133 151 219 151c156 0 234 -97 234 -223c0 -132 -92 -227 -232 -227zM312 11c131 0 213 87 213 210
s-68 206 -215 206c-108 0 -213 -71 -213 -199c0 -100 58 -217 215 -217z" />
    <glyph glyph-name="seven.tab" unicode="&#xe456;" 
d="M499 698h-415v17h440v-5l-291 -710h-20z" />
    <glyph glyph-name="eight.tab" unicode="&#xe457;" 
d="M301 -6c-129 0 -232 69 -232 201c0 103 78 174 184 190c-80 16 -151 70 -151 164c0 106 92 172 199 172s198 -68 198 -170c0 -97 -63 -150 -144 -166c104 -16 177 -82 177 -188c0 -133 -98 -203 -231 -203zM301 11c125 0 212 61 212 186c0 114 -94 179 -210 179
c-115 0 -215 -66 -215 -181c0 -124 94 -184 213 -184zM304 393c96 0 176 52 176 158c0 89 -75 153 -179 153s-180 -62 -180 -155c0 -105 96 -156 183 -156z" />
    <glyph glyph-name="nine.tab" unicode="&#xe458;" 
d="M284 -6c-99 0 -186 49 -207 155h19c20 -91 92 -138 188 -138c140 0 227 57 227 319v83c-32 -99 -135 -143 -223 -143c-153 0 -230 93 -230 224c0 136 94 227 232 227c171 0 240 -126 240 -267v-125c0 -269 -94 -335 -246 -335zM288 287c111 0 219 70 219 192
c0 105 -59 225 -217 225c-131 0 -213 -87 -213 -210c0 -120 68 -207 211 -207z" />
    <glyph glyph-name="cent.tab" unicode="&#xe459;" 
d="M306 -7c-132 3 -234 103 -234 264v8c0 164 104 260 234 265v99h17v-99c101 -3 189 -66 202 -164h-18c-13 91 -92 145 -184 148v-505c97 3 173 61 192 164h17c-19 -108 -101 -176 -209 -180v-128h-17v128zM90 257c0 -156 97 -245 216 -248v505c-120 -5 -216 -92 -216 -249
v-8z" />
    <glyph glyph-name="dollar.tab" unicode="&#xe45a;" 
d="M289 -6c-149 5 -223 89 -239 196h19c13 -93 79 -174 220 -179v356c-155 24 -214 81 -214 176c0 109 86 175 214 178v92h18v-92c117 -4 185 -63 204 -159h-19c-17 84 -77 139 -185 142v-322c159 -24 229 -63 229 -196c0 -104 -82 -192 -229 -192v-129h-18v129zM517 186
c0 119 -62 158 -210 179v-354c136 0 210 78 210 175zM94 543c0 -87 51 -135 195 -158v319c-120 -3 -195 -57 -195 -161z" />
    <glyph glyph-name="Euro.tab" unicode="&#xe45b;" 
d="M40 435h61c0 176 81 286 232 286c128 0 191 -69 207 -186h-18c-16 108 -72 169 -189 169c-140 0 -213 -101 -213 -269h238l-3 -16h-235v-120h212l-3 -16h-209c0 -173 68 -272 213 -272c123 0 183 70 200 186h17c-17 -131 -89 -203 -217 -203c-155 0 -232 109 -232 289
h-61v16h61v120h-61v16z" />
    <glyph glyph-name="a.alt" unicode="&#xe4c0;" horiz-adv-x="586" 
d="M272 -7c-124 0 -231 95 -231 264v8c0 163 112 265 239 265c116 0 179 -79 208 -159v152h18v-523h-18v158c-24 -76 -96 -165 -216 -165zM272 9c112 0 216 93 216 248v8c0 156 -94 249 -208 249c-116 0 -221 -91 -221 -249v-8c0 -156 95 -248 213 -248z" />
    <glyph glyph-name="t.alt" unicode="&#xe4d3;" horiz-adv-x="296" 
d="M116 507h-94v16h94v119h18v-119h140v-16h-140v-507h-18v507z" />
    <glyph glyph-name="f_i" unicode="&#xfb01;" horiz-adv-x="490" 
d="M109 507h-85v16h85v104c0 115 67 149 131 149c23 0 38 -3 53 -7v-17c-13 4 -32 8 -53 8c-57 0 -113 -27 -113 -133v-104h166v-16h-166v-507h-18v507zM390 523h18v-523h-18v523zM382 656c0 9 6 17 17 17s17 -8 17 -17s-6 -17 -17 -17s-17 8 -17 17z" />
    <glyph glyph-name="f_l" unicode="&#xfb02;" horiz-adv-x="490" 
d="M109 507h-85v16h85v104c0 115 67 149 131 149c23 0 38 -3 53 -7v-17c-13 4 -32 8 -53 8c-57 0 -113 -27 -113 -133v-104h166v-16h-166v-507h-18v507zM390 773h18v-773h-18v773z" />
    <glyph glyph-name="braceright.uc" horiz-adv-x="343" 
d="M39 -71c110 0 170 33 144 168l-19 99c-19 93 23 134 89 150c-66 16 -108 57 -89 150l19 99c26 134 -34 168 -144 168v16c124 0 188 -46 161 -187l-19 -99c-16 -84 15 -138 118 -139v-16c-103 -1 -134 -55 -118 -139l19 -99c27 -142 -37 -187 -161 -187v16z" />
    <glyph glyph-name="seven.oldtab" 
d="M496 602h-407v16h430v-5l-291 -710h-19z" />
    <glyph glyph-name="uni0434.bgr" horiz-adv-x="594" 
d="M275 33c117 0 221 88 221 236v8c0 149 -94 237 -213 237c-120 0 -224 -85 -224 -237v-8c0 -149 93 -236 216 -236zM283 -185c-147 0 -220 75 -231 155h18c16 -76 78 -139 212 -139c121 0 214 55 214 203v142c-24 -76 -100 -159 -221 -159c-129 0 -234 89 -234 252v8
c0 156 109 253 242 253c121 0 184 -74 213 -154v147h18v-489c0 -156 -99 -219 -231 -219z" />
    <glyph glyph-name="uni20B4.oldtab" 
d="M291 -6c-127 0 -204 51 -204 155c0 61 22 97 65 130h-89v16h112c36 23 80 45 135 76c27 15 48 27 68 40h-315v16h339c45 33 69 68 69 132c0 84 -59 124 -156 124c-113 0 -169 -54 -185 -138h-18c17 96 83 154 203 154c108 0 175 -47 175 -140c0 -60 -19 -97 -62 -132h114
v-16h-135c-25 -19 -55 -36 -94 -56c-43 -23 -78 -41 -109 -60h338v-16h-363c-48 -33 -73 -67 -73 -130c0 -91 72 -139 185 -139c136 0 197 81 210 174h19c-16 -108 -85 -190 -229 -190z" />
    <glyph glyph-name="parenleft.uc" horiz-adv-x="267" 
d="M216 -98c-89 108 -158 253 -158 440c0 188 70 331 158 441h19c-88 -112 -159 -250 -159 -441c0 -192 71 -328 159 -440h-19z" />
    <glyph glyph-name="guillemotright.uc" horiz-adv-x="387" 
d="M183 301l-140 178h21l140 -178l-140 -178h-21zM317 301l-140 178h21l140 -178l-140 -178h-21z" />
    <glyph glyph-name="guillemotleft.uc" horiz-adv-x="387" 
d="M49 301l140 178h21l-140 -178l140 -178h-21zM183 301l140 178h21l-140 -178l140 -178h-21z" />
    <glyph glyph-name="guilsinglright.uc" horiz-adv-x="253" 
d="M183 301l-140 178h21l140 -178l-140 -178h-21z" />
    <glyph glyph-name="guilsinglleft.uc" horiz-adv-x="253" 
d="M49 301l140 178h21l-140 -178l140 -178h-21z" />
    <glyph glyph-name="uni0438.bgr" horiz-adv-x="561" 
d="M262 -7c-115 0 -187 56 -187 200v330h18v-330c0 -133 66 -184 169 -184c99 0 201 66 201 194v320h18v-523h-18v121c-24 -68 -101 -128 -201 -128z" />
    <glyph glyph-name="emdash.uc" horiz-adv-x="850" 
d="M48 348h754v-17h-754v17z" />
    <glyph glyph-name="endash.uc" horiz-adv-x="476" 
d="M48 348h380v-17h-380v17z" />
    <glyph glyph-name="uni043F.locl" horiz-adv-x="541" 
d="M442 507h-343v-507h-18v523h379v-523h-18v507z" />
    <glyph glyph-name="hyphen.uc" horiz-adv-x="352" 
d="M64 348h224v-17h-224v17z" />
    <glyph glyph-name="uni20BD.old" horiz-adv-x="577" 
d="M302 330c127 0 207 46 207 174v4c0 128 -86 169 -210 169h-150v-347h153zM149 182v-182h-17v182h-97v16h97v116h-97v16h97v364h167c138 0 229 -50 229 -186v-4c0 -136 -89 -191 -226 -191h-153v-115h264v-16h-264z" />
    <glyph glyph-name="exclamdown.uc" horiz-adv-x="254" 
d="M118 563h16l2 -563h-20zM127 686c-11 0 -17 8 -17 17s6 17 17 17s17 -8 17 -17s-6 -17 -17 -17z" />
    <glyph glyph-name="uni0446.bgr" horiz-adv-x="585" 
d="M536 -127l-3 127h-70v121c-24 -68 -101 -128 -201 -128c-115 0 -187 56 -187 200v330h18v-330c0 -133 66 -184 169 -184c99 0 201 66 201 194v320h18v-507h69v-143h-14z" />
    <glyph glyph-name="uni044C.bgr" horiz-adv-x="470" 
d="M256 -6c-108 0 -175 67 -175 168v361h18v-211c16 4 69 16 138 16c125 0 197 -64 197 -163v-3c0 -101 -71 -168 -178 -168zM256 10c100 0 160 61 160 152v3c0 88 -62 147 -179 147c-64 0 -121 -12 -138 -16v-134c0 -91 57 -152 157 -152z" />
    <glyph glyph-name="questiondown.uc" horiz-adv-x="462" 
d="M264 497c0 -78 -36 -116 -97 -177c-55 -55 -100 -93 -100 -173s51 -136 158 -136c101 0 172 64 180 172h19c-8 -117 -87 -189 -200 -189s-176 62 -176 153c0 88 46 124 107 185c59 59 91 94 91 166v65h18v-66zM255 720c11 0 17 -8 17 -17s-6 -17 -17 -17s-17 8 -17 17
s6 17 17 17z" />
    <glyph glyph-name="uni0439.bgr" horiz-adv-x="561" 
d="M275 612c-64 0 -114 47 -119 112h18c4 -56 45 -98 101 -98s98 42 103 98h18c-5 -64 -60 -112 -121 -112zM262 -7c-115 0 -187 56 -187 200v330h18v-330c0 -133 66 -184 169 -184c99 0 201 66 201 194v320h18v-523h-18v121c-24 -68 -101 -128 -201 -128z" />
    <glyph glyph-name="caron.alt" horiz-adv-x="256" 
d="M112 773h19l-15 -147h-17z" />
    <glyph glyph-name="registered.alt" horiz-adv-x="844" 
d="M309 577h106c85 0 142 -31 142 -111v-2c0 -72 -45 -103 -114 -110l139 -203h-20l-138 201h-97v-201h-18v426zM415 368c76 0 124 24 124 96v2c0 72 -49 95 -124 95h-88v-193h88zM421 6c197 0 351 153 351 353c0 195 -150 350 -349 350c-197 0 -351 -156 -351 -352
c0 -199 154 -351 349 -351zM421 -9c-204 0 -366 159 -366 366c0 204 162 367 368 367c208 0 366 -162 366 -365c0 -209 -162 -368 -368 -368z" />
    <glyph glyph-name="uni0414.bgr" horiz-adv-x="697" 
d="M88 17h520l-261 683zM16 -130h-16v147h70l264 698h26l267 -698h70v-147h-16l-3 130h-659z" />
    <glyph glyph-name="uni043B.bgr" horiz-adv-x="499" 
d="M473 0h-19l-206 507l-204 -507h-18l209 523h26z" />
    <glyph glyph-name="space_uni0326.alt" horiz-adv-x="400" 
d="M178 617l62 136l15 -6l-58 -134z" />
    <glyph glyph-name="uni041A.bgr" horiz-adv-x="579" 
d="M95 715h19v-715h-19v715zM124 365l380 350h24l-379 -349l397 -366h-25z" />
    <glyph glyph-name="uni0436.bgr" horiz-adv-x="642" 
d="M312 773h18v-773h-18v773zM602 0l-266 274l252 249h22l-254 -249l269 -274h-23zM17 0l269 274l-254 249h22l252 -249l-266 -274h-23z" />
    <glyph glyph-name="tcommaaccent.alt" horiz-adv-x="296" 
d="M60 -180l58 134l19 -4l-62 -136zM116 507h-94v16h94v119h18v-119h140v-16h-140v-507h-18v507z" />
    <glyph glyph-name="tcaron.alt" horiz-adv-x="296" 
d="M116 507h-94v16h94v119h18v-119h140v-16h-140v-507h-18v507zM242 773h19l-15 -147h-17z" />
    <glyph glyph-name="uni20B8.old" horiz-adv-x="542" 
d="M31 678v16h480v-16h-480zM262 551h-231v16h480v-16h-231v-551h-18v551z" />
    <glyph glyph-name="uni0432.bgr" horiz-adv-x="488" 
d="M60 537c0 170 80 241 181 241c117 0 180 -79 180 -186v-3c0 -96 -49 -163 -117 -176c81 -14 143 -86 143 -188v-7c0 -146 -89 -224 -194 -224c-139 0 -193 89 -193 237v306zM78 421h180c99 0 144 77 144 168v3c0 96 -53 170 -162 170c-95 0 -162 -67 -162 -224v-117z
M253 10c96 0 175 69 175 208v7c0 95 -58 180 -169 180h-181v-174c0 -136 49 -221 175 -221z" />
    <glyph glyph-name="tbar.alt" horiz-adv-x="296" 
d="M22 343h94v164h-94v16h94v119h18v-119h140v-16h-140v-164h140v-16h-140v-327h-18v327h-94v16z" />
    <glyph glyph-name="germandbls.alt" horiz-adv-x="572" 
d="M373 -4c-107 0 -165 69 -170 137h18c8 -59 52 -121 152 -121c87 0 145 50 145 133c0 76 -54 100 -135 143c-84 43 -130 63 -130 117c0 92 184 121 184 237c0 75 -57 118 -146 118c-123 0 -193 -87 -193 -214v-546h-18v546c0 137 80 230 211 230c103 0 164 -51 164 -134
c0 -124 -185 -156 -185 -237c0 -46 45 -61 119 -101c85 -45 148 -71 148 -159c0 -93 -69 -149 -164 -149z" />
    <glyph glyph-name="atilde.alt" horiz-adv-x="586" 
d="M272 -7c-124 0 -231 95 -231 264v8c0 163 112 265 239 265c116 0 179 -79 208 -159v152h18v-523h-18v158c-24 -76 -96 -165 -216 -165zM272 9c112 0 216 93 216 248v8c0 156 -94 249 -208 249c-116 0 -221 -91 -221 -249v-8c0 -156 95 -248 213 -248zM357 613
c-53 0 -98 64 -141 64c-25 0 -48 -20 -53 -63h-17c7 56 35 79 71 79c51 0 98 -64 141 -64c24 0 47 20 52 63h17c-7 -56 -35 -79 -70 -79z" />
    <glyph glyph-name="aringacute.alt" horiz-adv-x="586" 
d="M272 -7c-124 0 -231 95 -231 264v8c0 163 112 265 239 265c116 0 179 -79 208 -159v152h18v-523h-18v158c-24 -76 -96 -165 -216 -165zM272 9c112 0 216 93 216 248v8c0 156 -94 249 -208 249c-116 0 -221 -91 -221 -249v-8c0 -156 95 -248 213 -248zM286 619
c40 0 71 31 71 70c0 41 -31 71 -71 71c-39 0 -70 -30 -70 -71c0 -39 31 -70 70 -70zM286 604c-47 0 -87 40 -87 85c0 47 40 86 87 86c48 0 88 -39 88 -86s-39 -85 -88 -85zM343 948h21l-76 -117h-18z" />
    <glyph glyph-name="uni0424.bgr" horiz-adv-x="759" 
d="M389 654c199 0 322 -106 322 -289v-8c0 -187 -127 -290 -322 -290v-77h-19v77c-199 0 -322 106 -322 289v8c0 187 127 290 322 290v71h19v-71zM389 84c191 0 303 96 303 273v8c0 175 -111 272 -303 272v-553zM370 637c-191 0 -303 -96 -303 -273v-8
c0 -175 111 -272 303 -272v553z" />
    <glyph glyph-name="aring.alt" horiz-adv-x="586" 
d="M272 -7c-124 0 -231 95 -231 264v8c0 163 112 265 239 265c116 0 179 -79 208 -159v152h18v-523h-18v158c-24 -76 -96 -165 -216 -165zM272 9c112 0 216 93 216 248v8c0 156 -94 249 -208 249c-116 0 -221 -91 -221 -249v-8c0 -156 95 -248 213 -248zM286 619
c40 0 71 31 71 70c0 41 -31 71 -71 71c-39 0 -70 -30 -70 -71c0 -39 31 -70 70 -70zM286 604c-47 0 -87 40 -87 85c0 47 40 86 87 86c48 0 88 -39 88 -86s-39 -85 -88 -85z" />
    <glyph glyph-name="aogonek.alt" horiz-adv-x="586" 
d="M486 -182c-53 0 -81 31 -81 70c0 47 42 90 83 117v153c-24 -76 -96 -165 -216 -165c-124 0 -231 95 -231 264v8c0 163 112 265 239 265c116 0 179 -79 208 -159v152h18v-523c-52 -35 -83 -71 -83 -112c0 -31 19 -54 63 -54c16 0 32 3 48 9v-16c-13 -5 -29 -9 -48 -9z
M272 9c112 0 216 93 216 248v8c0 156 -94 249 -208 249c-116 0 -221 -91 -221 -249v-8c0 -156 95 -248 213 -248z" />
    <glyph glyph-name="amacron.alt" horiz-adv-x="586" 
d="M272 -7c-124 0 -231 95 -231 264v8c0 163 112 265 239 265c116 0 179 -79 208 -159v152h18v-523h-18v158c-24 -76 -96 -165 -216 -165zM272 9c112 0 216 93 216 248v8c0 156 -94 249 -208 249c-116 0 -221 -91 -221 -249v-8c0 -156 95 -248 213 -248zM176 663h219v-17
h-219v17z" />
    <glyph glyph-name="uni0442.bgr" horiz-adv-x="897" 
d="M80 523h18v-122c24 68 92 129 189 129c92 0 151 -39 168 -139c27 80 100 139 194 139c109 0 173 -56 173 -200v-330h-18v330c0 133 -55 184 -155 184c-93 0 -189 -69 -189 -197v-317h-18v330c0 133 -55 184 -155 184c-93 0 -189 -69 -189 -197v-317h-18v523z" />
    <glyph glyph-name="agrave.alt" horiz-adv-x="586" 
d="M272 -7c-124 0 -231 95 -231 264v8c0 163 112 265 239 265c116 0 179 -79 208 -159v152h18v-523h-18v158c-24 -76 -96 -165 -216 -165zM272 9c112 0 216 93 216 248v8c0 156 -94 249 -208 249c-116 0 -221 -91 -221 -249v-8c0 -156 95 -248 213 -248zM204 743h20l75 -147
h-17z" />
    <glyph glyph-name="adieresis.alt" horiz-adv-x="586" 
d="M272 -7c-124 0 -231 95 -231 264v8c0 163 112 265 239 265c116 0 179 -79 208 -159v152h18v-523h-18v158c-24 -76 -96 -165 -216 -165zM272 9c112 0 216 93 216 248v8c0 156 -94 249 -208 249c-116 0 -221 -91 -221 -249v-8c0 -156 95 -248 213 -248zM215 639
c-11 0 -17 8 -17 17s6 17 17 17s17 -8 17 -17s-6 -17 -17 -17zM357 639c-11 0 -17 8 -17 17s6 17 17 17s17 -8 17 -17s-6 -17 -17 -17z" />
    <glyph glyph-name="acircumflex.alt" horiz-adv-x="586" 
d="M272 -7c-124 0 -231 95 -231 264v8c0 163 112 265 239 265c116 0 179 -79 208 -159v152h18v-523h-18v158c-24 -76 -96 -165 -216 -165zM272 9c112 0 216 93 216 248v8c0 156 -94 249 -208 249c-116 0 -221 -91 -221 -249v-8c0 -156 95 -248 213 -248zM277 720h20
l110 -124h-20l-100 108l-102 -108h-20z" />
    <glyph glyph-name="abreve.alt" horiz-adv-x="586" 
d="M272 -7c-124 0 -231 95 -231 264v8c0 163 112 265 239 265c116 0 179 -79 208 -159v152h18v-523h-18v158c-24 -76 -96 -165 -216 -165zM272 9c112 0 216 93 216 248v8c0 156 -94 249 -208 249c-116 0 -221 -91 -221 -249v-8c0 -156 95 -248 213 -248zM285 612
c-64 0 -106 43 -111 108h18c4 -56 40 -92 93 -92c52 0 90 36 95 92h18c-5 -65 -50 -108 -113 -108z" />
    <glyph glyph-name="aacute.alt" horiz-adv-x="586" 
d="M272 -7c-124 0 -231 95 -231 264v8c0 163 112 265 239 265c116 0 179 -79 208 -159v152h18v-523h-18v158c-24 -76 -96 -165 -216 -165zM272 9c112 0 216 93 216 248v8c0 156 -94 249 -208 249c-116 0 -221 -91 -221 -249v-8c0 -156 95 -248 213 -248zM343 743h20
l-78 -147h-17z" />
    <glyph glyph-name="parenright.uc" horiz-adv-x="267" 
d="M32 -98c88 112 159 248 159 440c0 191 -71 329 -159 441h19c88 -110 158 -253 158 -441c0 -187 -69 -332 -158 -440h-19z" />
    <glyph glyph-name="bracketleft.uc" horiz-adv-x="322" 
d="M99 778h184v-16h-166v-830h166v-16h-184v862z" />
    <glyph glyph-name="minus.sup" horiz-adv-x="305" 
d="M34 608h237v-16h-237v16z" />
    <glyph glyph-name="plus.sup" horiz-adv-x="305" 
d="M143 592h-109v16h109v114h18v-114h110v-16h-110v-113h-18v113z" />
    <glyph glyph-name="nine.sup" horiz-adv-x="313" 
d="M147 425c-51 0 -97 29 -105 81h17c11 -43 44 -65 89 -65c63 0 108 33 108 144v32c-19 -41 -63 -61 -104 -61c-75 0 -116 44 -116 108c0 68 49 112 118 112c86 0 120 -61 120 -143v-43c0 -128 -53 -165 -127 -165zM152 571c52 0 101 33 101 92c0 51 -32 97 -99 97
c-59 0 -100 -39 -100 -96c0 -56 37 -93 98 -93z" />
    <glyph glyph-name="eight.sup" horiz-adv-x="315" 
d="M158 425c-69 0 -122 32 -122 97c0 51 39 81 86 90c-37 9 -71 38 -71 79c0 52 50 85 107 85s106 -33 106 -84c0 -43 -31 -71 -68 -80c47 -11 83 -38 83 -89c0 -67 -50 -98 -121 -98zM158 441c61 0 103 26 103 82c0 52 -45 81 -102 81s-105 -30 -105 -82
c0 -56 45 -81 104 -81zM159 620c47 0 87 25 87 72c0 40 -37 68 -88 68s-89 -26 -89 -69c0 -46 47 -71 90 -71z" />
    <glyph glyph-name="seven.sup" horiz-adv-x="271" 
d="M224 757h-208v16h233v-4l-148 -341h-20z" />
    <glyph glyph-name="six.sup" horiz-adv-x="314" 
d="M160 425c-86 0 -120 61 -120 143v29c0 127 54 179 129 179c51 0 90 -24 98 -76h-16c-7 40 -38 60 -83 60c-63 0 -110 -45 -110 -158v-19c16 40 62 62 104 62c75 0 116 -45 116 -109c0 -68 -49 -111 -118 -111zM160 441c59 0 100 38 100 95c0 56 -37 94 -98 94
c-52 0 -101 -33 -101 -92c0 -51 32 -97 99 -97z" />
    <glyph glyph-name="five.sup" horiz-adv-x="287" 
d="M138 425c-68 0 -107 42 -112 89h18c7 -39 37 -73 94 -73c60 0 96 38 96 98c0 59 -41 97 -90 97c-43 0 -74 -17 -91 -40h-8v177h187v-16h-170v-135c15 15 47 30 84 30c60 0 106 -44 106 -113c0 -72 -46 -114 -114 -114z" />
    <glyph glyph-name="four.sup" horiz-adv-x="301" 
d="M205 508h-186v6l177 259h27v-249h48v-16h-48v-80h-18v80zM205 524v236l-160 -236h160z" />
    <glyph glyph-name="three.sup" horiz-adv-x="305" 
d="M154 425c-76 0 -122 46 -126 98h18c5 -43 41 -82 108 -82c60 0 95 30 95 82c0 44 -32 78 -88 78h-27v16h25c52 0 78 32 78 71c0 44 -34 73 -85 73c-60 0 -89 -36 -94 -79h-17c4 51 43 94 111 94c61 0 103 -37 103 -88c0 -41 -25 -69 -61 -78c40 -8 73 -39 73 -87
c0 -63 -45 -98 -113 -98z" />
    <glyph glyph-name="two.sup" horiz-adv-x="284" 
d="M24 435l131 126c52 51 73 80 73 121c0 51 -36 79 -85 79c-57 0 -87 -36 -94 -92h-17c5 68 47 107 111 107c63 0 103 -38 103 -94c0 -48 -23 -79 -79 -132l-111 -106h194v-16h-226v7z" />
    <glyph glyph-name="one.sup" horiz-adv-x="205" 
d="M113 748l-95 -68v19l103 74h10v-345h-18v320z" />
    <glyph glyph-name="zero.sup" horiz-adv-x="349" 
d="M175 441c72 0 118 44 118 144v34c0 93 -49 141 -120 141c-69 0 -117 -47 -117 -142v-35c0 -99 50 -142 119 -142zM175 425c-83 0 -137 53 -137 158v34c0 104 54 159 135 159s138 -53 138 -157v-35c0 -105 -52 -159 -136 -159z" />
    <glyph glyph-name="minus.sub" horiz-adv-x="305" 
d="M34 90h237v-16h-237v16z" />
    <glyph glyph-name="plus.sub" horiz-adv-x="305" 
d="M143 74h-109v16h109v114h18v-114h110v-16h-110v-113h-18v113z" />
    <glyph glyph-name="nine.sub" horiz-adv-x="313" 
d="M147 -89c-51 0 -97 29 -105 81h17c11 -43 44 -65 89 -65c63 0 108 33 108 144v32c-19 -41 -63 -61 -104 -61c-75 0 -116 44 -116 108c0 68 49 112 118 112c86 0 120 -61 120 -143v-43c0 -128 -53 -165 -127 -165zM152 57c52 0 101 33 101 92c0 51 -32 97 -99 97
c-59 0 -100 -39 -100 -96c0 -56 37 -93 98 -93z" />
    <glyph glyph-name="uni20B4.old" horiz-adv-x="539" 
d="M258 -6c-127 0 -204 51 -204 155c0 61 22 97 65 130h-89v16h112c36 23 80 45 135 76c27 15 48 27 68 40h-315v16h339c45 33 69 68 69 132c0 84 -59 124 -156 124c-113 0 -169 -54 -185 -138h-18c17 96 83 154 203 154c108 0 175 -47 175 -140c0 -60 -19 -97 -62 -132h114
v-16h-135c-25 -19 -55 -36 -94 -56c-43 -23 -78 -41 -109 -60h338v-16h-363c-48 -33 -73 -67 -73 -130c0 -91 72 -139 185 -139c136 0 197 81 210 174h19c-16 -108 -85 -190 -229 -190z" />
    <glyph glyph-name="eight.sub" horiz-adv-x="315" 
d="M158 -89c-69 0 -122 32 -122 97c0 51 39 81 86 90c-37 9 -71 38 -71 79c0 52 50 85 107 85s106 -33 106 -84c0 -43 -31 -71 -68 -80c47 -11 83 -38 83 -89c0 -67 -50 -98 -121 -98zM158 -73c61 0 103 26 103 82c0 52 -45 81 -102 81s-105 -30 -105 -82
c0 -56 45 -81 104 -81zM159 106c47 0 87 25 87 72c0 40 -37 68 -88 68s-89 -26 -89 -69c0 -46 47 -71 90 -71z" />
    <glyph glyph-name="seven.sub" horiz-adv-x="271" 
d="M224 243h-208v16h233v-4l-148 -341h-20z" />
    <glyph glyph-name="six.sub" horiz-adv-x="314" 
d="M160 -89c-86 0 -120 61 -120 143v29c0 127 54 179 129 179c51 0 90 -24 98 -76h-16c-7 40 -38 60 -83 60c-63 0 -110 -45 -110 -158v-19c16 40 62 62 104 62c75 0 116 -45 116 -109c0 -68 -49 -111 -118 -111zM160 -73c59 0 100 38 100 95c0 56 -37 94 -98 94
c-52 0 -101 -33 -101 -92c0 -51 32 -97 99 -97z" />
    <glyph glyph-name="five.sub" horiz-adv-x="287" 
d="M138 -89c-68 0 -107 42 -112 89h18c7 -39 37 -73 94 -73c60 0 96 38 96 98c0 59 -41 97 -90 97c-43 0 -74 -17 -91 -40h-8v177h187v-16h-170v-135c15 15 47 30 84 30c60 0 106 -44 106 -113c0 -72 -46 -114 -114 -114z" />
    <glyph glyph-name="four.sub" horiz-adv-x="301" 
d="M205 -6h-186v6l177 259h27v-249h48v-16h-48v-80h-18v80zM205 10v236l-160 -236h160z" />
    <glyph glyph-name="three.sub" horiz-adv-x="305" 
d="M154 -89c-76 0 -122 46 -126 98h18c5 -43 41 -82 108 -82c60 0 95 30 95 82c0 44 -32 78 -88 78h-27v16h25c52 0 78 32 78 71c0 44 -34 73 -85 73c-60 0 -89 -36 -94 -79h-17c4 51 43 94 111 94c61 0 103 -37 103 -88c0 -41 -25 -69 -61 -78c40 -8 73 -39 73 -87
c0 -63 -45 -98 -113 -98z" />
    <glyph glyph-name="two.sub" horiz-adv-x="284" 
d="M24 -79l131 126c52 51 73 80 73 121c0 51 -36 79 -85 79c-57 0 -87 -36 -94 -92h-17c5 68 47 107 111 107c63 0 103 -38 103 -94c0 -48 -23 -79 -79 -132l-111 -106h194v-16h-226v7z" />
    <glyph glyph-name="uni20BD.oldtab" 
d="M309 330c127 0 207 46 207 174v4c0 128 -86 169 -210 169h-140v-347h143zM166 182v-182h-17v182h-97v16h97v116h-97v16h97v364h157c138 0 229 -50 229 -186v-4c0 -136 -89 -191 -226 -191h-143v-115h254v-16h-254z" />
    <glyph glyph-name="one.sub" horiz-adv-x="205" 
d="M113 234l-95 -68v19l103 74h10v-345h-18v320z" />
    <glyph glyph-name="uni041B.bgr" horiz-adv-x="630" 
d="M313 700l-265 -700h-18l270 715h26l274 -715h-19z" />
    <glyph glyph-name="zero.sub" horiz-adv-x="349" 
d="M175 -73c72 0 118 44 118 144v34c0 93 -49 141 -120 141c-69 0 -117 -47 -117 -142v-35c0 -99 50 -142 119 -142zM175 -89c-83 0 -137 53 -137 158v34c0 104 54 159 135 159s138 -53 138 -157v-35c0 -105 -52 -159 -136 -159z" />
    <glyph glyph-name="nine.den" horiz-adv-x="313" 
d="M147 -3c-51 0 -97 29 -105 81h17c11 -43 44 -65 89 -65c63 0 108 33 108 144v32c-19 -41 -63 -61 -104 -61c-75 0 -116 44 -116 108c0 68 49 112 118 112c86 0 120 -61 120 -143v-43c0 -128 -53 -165 -127 -165zM152 143c52 0 101 33 101 92c0 51 -32 97 -99 97
c-59 0 -100 -39 -100 -96c0 -56 37 -93 98 -93z" />
    <glyph glyph-name="eight.den" horiz-adv-x="315" 
d="M158 -3c-69 0 -122 32 -122 97c0 51 39 81 86 90c-37 9 -71 38 -71 79c0 52 50 85 107 85s106 -33 106 -84c0 -43 -31 -71 -68 -80c47 -11 83 -38 83 -89c0 -67 -50 -98 -121 -98zM158 13c61 0 103 26 103 82c0 52 -45 81 -102 81s-105 -30 -105 -82
c0 -56 45 -81 104 -81zM159 192c47 0 87 25 87 72c0 40 -37 68 -88 68s-89 -26 -89 -69c0 -46 47 -71 90 -71z" />
    <glyph glyph-name="seven.den" horiz-adv-x="271" 
d="M224 329h-208v16h233v-4l-148 -341h-20z" />
    <glyph glyph-name="six.den" horiz-adv-x="314" 
d="M160 -3c-86 0 -120 61 -120 143v29c0 127 54 179 129 179c51 0 90 -24 98 -76h-16c-7 40 -38 60 -83 60c-63 0 -110 -45 -110 -158v-19c16 40 62 62 104 62c75 0 116 -45 116 -109c0 -68 -49 -111 -118 -111zM160 13c59 0 100 38 100 95c0 56 -37 94 -98 94
c-52 0 -101 -33 -101 -92c0 -51 32 -97 99 -97z" />
    <glyph glyph-name="five.den" horiz-adv-x="287" 
d="M138 -3c-68 0 -107 42 -112 89h18c7 -39 37 -73 94 -73c60 0 96 38 96 98c0 59 -41 97 -90 97c-43 0 -74 -17 -91 -40h-8v177h187v-16h-170v-135c15 15 47 30 84 30c60 0 106 -44 106 -113c0 -72 -46 -114 -114 -114z" />
    <glyph glyph-name="four.den" horiz-adv-x="301" 
d="M205 80h-186v6l177 259h27v-249h48v-16h-48v-80h-18v80zM205 96v236l-160 -236h160z" />
    <glyph glyph-name="three.den" horiz-adv-x="305" 
d="M154 -3c-76 0 -122 46 -126 98h18c5 -43 41 -82 108 -82c60 0 95 30 95 82c0 44 -32 78 -88 78h-27v16h25c52 0 78 32 78 71c0 44 -34 73 -85 73c-60 0 -89 -36 -94 -79h-17c4 51 43 94 111 94c61 0 103 -37 103 -88c0 -41 -25 -69 -61 -78c40 -8 73 -39 73 -87
c0 -63 -45 -98 -113 -98z" />
    <glyph glyph-name="two.den" horiz-adv-x="284" 
d="M24 7l131 126c52 51 73 80 73 121c0 51 -36 79 -85 79c-57 0 -87 -36 -94 -92h-17c5 68 47 107 111 107c63 0 103 -38 103 -94c0 -48 -23 -79 -79 -132l-111 -106h194v-16h-226v7z" />
    <glyph glyph-name="one.den" horiz-adv-x="205" 
d="M113 320l-95 -68v19l103 74h10v-345h-18v320z" />
    <glyph glyph-name="zero.den" horiz-adv-x="349" 
d="M175 13c72 0 118 44 118 144v34c0 93 -49 141 -120 141c-69 0 -117 -47 -117 -142v-35c0 -99 50 -142 119 -142zM175 -3c-83 0 -137 53 -137 158v34c0 104 54 159 135 159s138 -53 138 -157v-35c0 -105 -52 -159 -136 -159z" />
    <glyph glyph-name="nine.num" horiz-adv-x="313" 
d="M147 367c-51 0 -97 29 -105 81h17c11 -43 44 -65 89 -65c63 0 108 33 108 144v32c-19 -41 -63 -61 -104 -61c-75 0 -116 44 -116 108c0 68 49 112 118 112c86 0 120 -61 120 -143v-43c0 -128 -53 -165 -127 -165zM152 513c52 0 101 33 101 92c0 51 -32 97 -99 97
c-59 0 -100 -39 -100 -96c0 -56 37 -93 98 -93z" />
    <glyph glyph-name="eight.num" horiz-adv-x="315" 
d="M158 367c-69 0 -122 32 -122 97c0 51 39 81 86 90c-37 9 -71 38 -71 79c0 52 50 85 107 85s106 -33 106 -84c0 -43 -31 -71 -68 -80c47 -11 83 -38 83 -89c0 -67 -50 -98 -121 -98zM158 383c61 0 103 26 103 82c0 52 -45 81 -102 81s-105 -30 -105 -82
c0 -56 45 -81 104 -81zM159 562c47 0 87 25 87 72c0 40 -37 68 -88 68s-89 -26 -89 -69c0 -46 47 -71 90 -71z" />
    <glyph glyph-name="seven.num" horiz-adv-x="271" 
d="M224 699h-208v16h233v-4l-148 -341h-20z" />
    <glyph glyph-name="six.num" horiz-adv-x="314" 
d="M160 367c-86 0 -120 61 -120 143v29c0 127 54 179 129 179c51 0 90 -24 98 -76h-16c-7 40 -38 60 -83 60c-63 0 -110 -45 -110 -158v-19c16 40 62 62 104 62c75 0 116 -45 116 -109c0 -68 -49 -111 -118 -111zM160 383c59 0 100 38 100 95c0 56 -37 94 -98 94
c-52 0 -101 -33 -101 -92c0 -51 32 -97 99 -97z" />
    <glyph glyph-name="five.num" horiz-adv-x="287" 
d="M138 367c-68 0 -107 42 -112 89h18c7 -39 37 -73 94 -73c60 0 96 38 96 98c0 59 -41 97 -90 97c-43 0 -74 -17 -91 -40h-8v177h187v-16h-170v-135c15 15 47 30 84 30c60 0 106 -44 106 -113c0 -72 -46 -114 -114 -114z" />
    <glyph glyph-name="four.num" horiz-adv-x="301" 
d="M205 450h-186v6l177 259h27v-249h48v-16h-48v-80h-18v80zM205 466v236l-160 -236h160z" />
    <glyph glyph-name="three.num" horiz-adv-x="305" 
d="M154 367c-76 0 -122 46 -126 98h18c5 -43 41 -82 108 -82c60 0 95 30 95 82c0 44 -32 78 -88 78h-27v16h25c52 0 78 32 78 71c0 44 -34 73 -85 73c-60 0 -89 -36 -94 -79h-17c4 51 43 94 111 94c61 0 103 -37 103 -88c0 -41 -25 -69 -61 -78c40 -8 73 -39 73 -87
c0 -63 -45 -98 -113 -98z" />
    <glyph glyph-name="two.num" horiz-adv-x="284" 
d="M24 377l131 126c52 51 73 80 73 121c0 51 -36 79 -85 79c-57 0 -87 -36 -94 -92h-17c5 68 47 107 111 107c63 0 103 -38 103 -94c0 -48 -23 -79 -79 -132l-111 -106h194v-16h-226v7z" />
    <glyph glyph-name="one.num" horiz-adv-x="205" 
d="M113 690l-95 -68v19l103 74h10v-345h-18v320z" />
    <glyph glyph-name="zero.num" horiz-adv-x="349" 
d="M175 383c72 0 118 44 118 144v34c0 93 -49 141 -120 141c-69 0 -117 -47 -117 -142v-35c0 -99 50 -142 119 -142zM175 367c-83 0 -137 53 -137 158v34c0 104 54 159 135 159s138 -53 138 -157v-35c0 -105 -52 -159 -136 -159z" />
    <glyph glyph-name="nine.oldtab" 
d="M286 -103c-101 0 -187 54 -203 157h18c15 -89 88 -141 185 -141c131 0 221 80 221 327v95c-29 -103 -129 -147 -212 -147c-152 0 -227 94 -227 217c0 129 92 220 225 220c164 0 232 -112 232 -271v-115c0 -256 -100 -342 -239 -342zM295 204c105 0 207 71 207 196
c0 98 -56 209 -209 209c-127 0 -207 -84 -207 -204s67 -201 209 -201z" />
    <glyph glyph-name="eight.oldtab" 
d="M300 -6c-124 0 -230 67 -230 199c0 103 76 170 177 189c-77 19 -144 71 -144 165c0 106 94 174 197 174c104 0 197 -70 197 -172c0 -95 -60 -151 -138 -167c98 -18 171 -81 171 -187c0 -133 -102 -201 -230 -201zM300 10c122 0 212 61 212 185c0 116 -98 178 -210 178
s-214 -64 -214 -180c0 -124 97 -183 212 -183zM303 389c96 0 176 53 176 160c0 88 -79 156 -179 156s-179 -65 -179 -158c0 -104 94 -158 182 -158z" />
    <glyph glyph-name="uni20BD.tab" 
d="M318 340c131 0 214 48 214 180v4c0 132 -89 174 -217 174h-154v-358h157zM161 188v-188h-18v188h-100v16h100v120h-100v16h100v375h172c141 0 236 -51 236 -191v-4c0 -141 -92 -197 -233 -197h-157v-119h272v-16h-272z" />
    <glyph glyph-name="six.oldtab" 
d="M308 -7c-164 0 -232 117 -232 267v109c0 260 110 352 253 352c101 0 165 -53 181 -145h-18c-15 80 -71 129 -163 129c-133 0 -235 -85 -235 -337v-84c27 99 130 146 212 146c152 0 227 -94 227 -217c0 -129 -92 -220 -225 -220zM308 9c127 0 207 84 207 204
s-67 201 -209 201c-106 0 -207 -72 -207 -193c0 -95 56 -212 209 -212z" />
    <glyph glyph-name="five.oldtab" 
d="M286 -102c-131 0 -212 86 -220 176h17c11 -82 80 -160 203 -160c133 0 213 80 213 216c0 129 -87 210 -194 210c-92 0 -152 -41 -188 -88h-8v366h372v-16h-355v-318c32 34 96 72 179 72c118 0 212 -86 212 -226c0 -147 -95 -232 -231 -232z" />
    <glyph glyph-name="four.oldtab" 
d="M424 76h-381v5l368 537h32v-525h99v-17h-99v-173h-19v173zM424 93v514l-352 -514h352z" />
    <glyph glyph-name="three.oldtab" 
d="M301 -102c-148 0 -232 96 -237 197h17c8 -95 81 -181 220 -181c119 0 202 61 202 182c0 93 -68 176 -191 176h-54v16h51c114 0 165 75 165 152c0 99 -65 169 -173 169c-112 0 -180 -74 -191 -167h-17c8 104 94 183 208 183c117 0 191 -79 191 -185
c0 -83 -52 -143 -129 -159c85 -13 158 -85 158 -185c0 -127 -89 -198 -220 -198z" />
    <glyph glyph-name="two.oldtab" 
d="M71 5l253 222c92 81 151 138 151 231c0 97 -65 151 -169 151c-103 0 -178 -63 -191 -174h-18c11 119 100 190 209 190c111 0 187 -60 187 -167c0 -99 -64 -164 -155 -241l-230 -201h402v-16h-439v5z" />
    <glyph glyph-name="one.oldtab" 
d="M336 591l-236 -183v19l245 191h8v-618h-17v591z" />
    <glyph glyph-name="uni043F.bgr" horiz-adv-x="565" 
d="M80 523h18v-125c24 68 103 132 204 132c114 0 188 -62 188 -207v-323h-18v323c0 133 -66 191 -170 191c-99 0 -204 -69 -204 -197v-317h-18v523z" />
    <glyph glyph-name="zero.oldtab" 
d="M301 9c145 0 222 93 222 268v69c0 160 -85 263 -225 263c-139 0 -220 -98 -220 -266v-69c0 -173 83 -265 223 -265zM301 -7c-152 0 -241 102 -241 281v69c0 179 89 282 238 282c147 0 243 -104 243 -279v-69c0 -180 -85 -284 -240 -284z" />
    <glyph glyph-name="yen.oldtab" 
d="M99 339h185l-215 355h21l210 -348l196 348h19l-200 -355h181v-16h-187v-116h187v-16h-187v-191h-19v191h-191v16h191v116h-191v16z" />
    <glyph glyph-name="sterling.oldtab" 
d="M59 348h75c-15 48 -29 96 -29 157c0 119 85 194 205 194c125 0 189 -69 200 -170h-18c-13 96 -69 153 -182 153c-111 0 -186 -69 -186 -177c0 -61 15 -108 30 -157h240v-16h-235c13 -43 24 -84 24 -139c0 -40 -10 -74 -25 -101h6c83 0 161 -81 250 -81
c68 0 108 46 113 122h19c-5 -88 -59 -139 -132 -139c-95 0 -173 81 -250 81c-51 0 -82 -30 -89 -75h-20c7 41 33 78 81 89c17 28 28 64 28 104c0 53 -12 96 -25 139h-80v16z" />
    <glyph glyph-name="Euro.oldtab" 
d="M32 422h63c0 172 85 277 232 277c124 0 188 -69 204 -182h-18c-15 105 -73 165 -186 165c-137 0 -214 -96 -214 -260h241l-3 -16h-238v-116h215l-3 -16h-212c0 -167 73 -263 214 -263c119 0 180 70 197 182h17c-16 -127 -90 -199 -214 -199c-151 0 -232 105 -232 280h-63
v16h63v116h-63v16z" />
    <glyph glyph-name="dollar.oldtab" 
d="M293 -6c-145 5 -219 87 -232 190h19c13 -91 75 -168 213 -173v345c-151 23 -208 79 -208 171c0 104 84 169 208 172v90h18v-90c113 -3 181 -62 198 -154h-19c-17 83 -74 134 -179 137v-311c153 -24 221 -63 221 -191c0 -100 -79 -186 -221 -186v-129h-18v129zM513 180
c0 116 -59 153 -202 174v-343c132 0 202 74 202 169zM104 527c0 -84 50 -132 189 -153v308c-116 -3 -189 -55 -189 -155z" />
    <glyph glyph-name="braceright.tab" horiz-adv-x="300" 
d="M43 -128c96 0 159 37 130 168l-28 126c-21 94 23 134 80 150c-57 16 -101 56 -80 150l28 126c29 131 -30 168 -130 168v16c114 0 179 -46 147 -187l-28 -126c-19 -84 21 -138 109 -139v-16c-88 -1 -128 -55 -109 -139l28 -126c32 -141 -33 -187 -147 -187v16z" />
    <glyph glyph-name="braceleft.tab" horiz-adv-x="300" 
d="M257 -144c-114 0 -179 46 -147 187l28 126c19 84 -21 138 -109 139v16c88 1 128 55 109 139l-28 126c-32 141 33 187 147 187v-16c-100 0 -159 -37 -130 -168l28 -126c21 -94 -23 -134 -80 -150c57 -16 101 -56 80 -150l-28 -126c-29 -131 34 -168 130 -168v-16z" />
    <glyph glyph-name="bracketright.tab" horiz-adv-x="300" 
d="M43 -132h156v892h-156v16h174v-924h-174v16z" />
    <glyph glyph-name="bracketleft.tab" horiz-adv-x="300" 
d="M83 776h174v-16h-156v-892h156v-16h-174v924z" />
    <glyph glyph-name="parenright.tab" horiz-adv-x="300" 
d="M41 -148c91 112 165 258 165 460c0 203 -75 349 -165 461h19c91 -109 164 -261 164 -461c0 -199 -73 -353 -164 -460h-19z" />
    <glyph glyph-name="parenleft.tab" horiz-adv-x="300" 
d="M241 -148c-91 107 -164 261 -164 460c0 200 73 352 164 461h19c-90 -112 -165 -258 -165 -461c0 -202 74 -348 165 -460h-19z" />
    <glyph glyph-name="uni045D.bgr" horiz-adv-x="561" 
d="M262 -7c-115 0 -187 56 -187 200v330h18v-330c0 -133 66 -184 169 -184c99 0 201 66 201 194v320h18v-523h-18v121c-24 -68 -101 -128 -201 -128zM199 743h20l75 -147h-17z" />
    <glyph glyph-name="semicolon.tab" horiz-adv-x="300" 
d="M90 -103l56 140l18 -7l-59 -139zM150 352c-11 0 -17 8 -17 17s6 17 17 17s17 -8 17 -17s-6 -17 -17 -17z" />
    <glyph glyph-name="colon.tab" horiz-adv-x="300" 
d="M150 -5c-11 0 -17 8 -17 17s6 17 17 17s17 -8 17 -17s-6 -17 -17 -17zM150 352c-11 0 -17 8 -17 17s6 17 17 17s17 -8 17 -17s-6 -17 -17 -17z" />
    <glyph glyph-name="comma.tab" horiz-adv-x="300" 
d="M96 -103l56 140l18 -7l-59 -139z" />
    <glyph glyph-name="period.tab" horiz-adv-x="300" 
d="M150 -5c-11 0 -17 8 -17 17s6 17 17 17s17 -8 17 -17s-6 -17 -17 -17z" />
    <glyph glyph-name="greaterequal.tab" 
d="M112 134l356 188l-356 188v19l384 -204v-6l-384 -204v19zM112 16h384v-16h-384v16z" />
    <glyph glyph-name="lessequal.tab" 
d="M105 319v6l384 204v-19l-356 -188l356 -188v-19zM105 16h384v-16h-384v16z" />
    <glyph glyph-name="greater.tab" 
d="M112 134l356 188l-356 188v19l384 -204v-6l-384 -204v19z" />
    <glyph glyph-name="uni20B8.tab" 
d="M52 699v16h495v-16h-495zM290 568h-238v17h495v-17h-238v-568h-19v568z" />
    <glyph glyph-name="less.tab" 
d="M105 319v6l384 204v-19l-356 -188l356 -188v-19z" />
    <glyph glyph-name="approxequal.tab" 
d="M90 196c7 44 35 83 95 83c78 0 157 -65 232 -65c48 0 71 34 76 67h18c-7 -44 -35 -83 -95 -83c-78 0 -157 65 -232 65c-48 0 -71 -34 -76 -67h-18zM90 351c7 44 35 83 95 83c78 0 157 -65 232 -65c48 0 71 34 76 67h18c-7 -44 -35 -83 -95 -83c-78 0 -157 65 -232 65
c-48 0 -71 -34 -76 -67h-18z" />
    <glyph glyph-name="notequal.tab" 
d="M98 401h233l65 133h18l-65 -133h153v-16h-160l-66 -136h226v-16h-234l-64 -133h-18l64 133h-152v16h160l66 136h-226v16z" />
    <glyph glyph-name="equal.tab" 
d="M98 249h404v-16h-404v16zM98 401h404v-16h-404v16z" />
    <glyph glyph-name="divide.tab" 
d="M300 161c-11 0 -17 8 -17 17s6 17 17 17s17 -8 17 -17s-6 -17 -17 -17zM87 350h426v-16h-426v16zM300 489c-11 0 -17 8 -17 17s6 17 17 17s17 -8 17 -17s-6 -17 -17 -17z" />
    <glyph glyph-name="multiply.tab" 
d="M110 168l169 168l-169 169l12 12l168 -168l169 168l12 -12l-169 -169l169 -168l-12 -12l-169 168l-168 -168z" />
    <glyph glyph-name="plusminus.tab" 
d="M291 334h-204v16h204v219h18v-219h204v-16h-204v-219h-18v219zM87 16h426v-16h-426v16z" />
    <glyph glyph-name="minus.tab" 
d="M87 350h426v-16h-426v16z" />
    <glyph glyph-name="uni043A.bgr" horiz-adv-x="452" 
d="M80 773h18v-773h-18v773zM103 277l293 246h24l-292 -246l307 -277h-25z" />
    <glyph glyph-name="plus.tab" 
d="M291 334h-204v16h204v219h18v-219h204v-16h-204v-219h-18v219z" />
    <glyph glyph-name="uni043D.bgr" horiz-adv-x="551" 
d="M452 266h-353v-266h-18v523h18v-241h353v241h18v-523h-18v266z" />
    <glyph glyph-name="perthousand.tab" horiz-adv-x="1000" 
d="M190 450c69 0 126 52 126 127s-57 129 -126 129s-126 -54 -126 -130c0 -74 58 -126 126 -126zM190 434c-77 0 -144 58 -144 142s66 146 144 146c79 0 144 -62 144 -145c0 -85 -67 -143 -144 -143zM555 715h20l-477 -715h-20zM468 11c69 0 126 52 126 128
c0 75 -57 128 -126 128c-68 0 -125 -53 -125 -129c0 -75 57 -127 125 -127zM468 -5c-76 0 -143 59 -143 143s66 145 143 145c79 0 144 -61 144 -144c0 -85 -66 -144 -144 -144zM810 11c69 0 126 52 126 128c0 75 -57 128 -126 128c-68 0 -125 -53 -125 -129
c0 -75 57 -127 125 -127zM810 -5c-76 0 -143 59 -143 143s66 145 143 145c79 0 144 -61 144 -144c0 -85 -66 -144 -144 -144z" />
    <glyph glyph-name="percent.tab" horiz-adv-x="800" 
d="M203 431c69 0 130 50 130 136c0 84 -59 136 -130 136c-68 0 -129 -53 -129 -138c0 -84 61 -134 129 -134zM203 415c-76 0 -147 56 -147 150c0 93 69 154 147 154c81 0 148 -61 148 -152c0 -97 -70 -152 -148 -152zM629 715h20l-477 -715h-20zM596 11c69 0 130 50 130 136
c0 84 -59 136 -130 136c-68 0 -129 -53 -129 -138c0 -84 61 -134 129 -134zM596 -5c-76 0 -147 56 -147 150c0 93 69 154 147 154c81 0 148 -61 148 -152c0 -97 -70 -152 -148 -152z" />
    <glyph glyph-name="bracketright.uc" horiz-adv-x="322" 
d="M39 -68h166v830h-166v16h184v-862h-184v16z" />
    <glyph glyph-name="braceleft.uc" horiz-adv-x="343" 
d="M304 -87c-124 0 -188 45 -161 187l19 99c16 84 -15 138 -118 139v16c103 1 134 55 118 139l-19 99c-27 141 37 187 161 187v-16c-110 0 -170 -34 -144 -168l19 -99c17 -93 -22 -135 -89 -150c67 -15 106 -57 89 -150l-19 -99c-26 -135 34 -168 144 -168v-16z" />
    <glyph glyph-name="uni044A.bgr" horiz-adv-x="570" 
d="M15 507v16h184v-211c16 4 69 16 138 16c125 0 197 -64 197 -163v-3c0 -101 -71 -168 -178 -168c-108 0 -175 67 -175 168v345h-166zM356 10c100 0 160 61 160 152v3c0 88 -62 147 -179 147c-64 0 -121 -12 -138 -16v-134c0 -91 57 -152 157 -152z" />
    <glyph glyph-name="slash.uc" horiz-adv-x="376" 
d="M312 778h19l-271 -862h-19z" />
    <glyph glyph-name="uni0433.locl" horiz-adv-x="443" 
d="M99 507v-507h-18v523h332v-16h-314z" />
    <glyph glyph-name="backslash.uc" horiz-adv-x="376" 
d="M45 778h19l271 -862h-19z" />
    <glyph glyph-name="bar.uc" horiz-adv-x="226" 
d="M104 778h18v-862h-18v862z" />
    <glyph glyph-name="at.uc" horiz-adv-x="877" 
d="M449 -59c-261 0 -402 186 -402 394c0 236 197 415 411 415c231 0 376 -153 376 -354c0 -169 -72 -240 -157 -240c-64 0 -108 38 -109 114c-16 -51 -73 -122 -156 -122c-91 0 -151 64 -151 168c0 130 89 225 185 225c71 0 126 -51 137 -118l11 109h19l-25 -219
c-11 -83 12 -140 89 -140c78 0 138 67 138 222c0 193 -132 338 -357 338c-205 0 -392 -172 -392 -398c0 -198 131 -377 383 -377c155 0 253 62 301 126h21c-47 -74 -159 -143 -322 -143zM412 165c92 0 162 99 162 203c0 96 -52 156 -128 156c-84 0 -166 -86 -166 -208
c0 -96 52 -151 132 -151z" />
    <glyph glyph-name="uni0447.bgr" horiz-adv-x="561" 
d="M438 0v286c-24 -34 -78 -93 -186 -93s-177 56 -177 200v130h18v-130c0 -133 60 -184 159 -184c68 0 115 27 144 54c17 16 31 34 42 54v206h18v-523h-18z" />
    <glyph glyph-name="uni044E.bgr" horiz-adv-x="757" 
d="M478 -7c-133 0 -236 109 -236 272v1h-143v-266h-18v773h18v-491h143c8 148 112 247 239 247c132 0 235 -102 235 -263v-8c0 -158 -105 -265 -238 -265zM479 9c121 0 219 94 219 249v8c0 157 -97 247 -217 247c-121 0 -221 -93 -221 -248v-8c0 -151 96 -248 219 -248z" />
    <glyph glyph-name="uni0448.bgr" horiz-adv-x="897" 
d="M822 0h-18v122c-24 -68 -92 -129 -189 -129c-92 0 -151 39 -168 139c-29 -80 -98 -139 -194 -139c-109 0 -173 56 -173 200v330h18v-330c0 -133 55 -184 155 -184c93 0 189 69 189 197v317h18v-330c0 -133 55 -184 155 -184c93 0 189 69 189 197v317h18v-523z" />
    <glyph glyph-name="uni0442.locl" horiz-adv-x="446" 
d="M426 507h-194v-507h-18v507h-194v16h406v-16z" />
    <glyph glyph-name="florin.tab" 
d="M111 391h126l24 158c20 129 84 175 175 175c31 0 55 -5 72 -12v-17c-15 7 -41 13 -72 13c-81 0 -139 -40 -157 -159l-24 -158h200v-16h-203l-85 -557h-18l85 557h-123v16z" />
    <glyph glyph-name="yen.tab" 
d="M101 349h191l-222 366h21l217 -358l202 358h20l-207 -366h187v-16h-193v-120h193v-16h-193v-197h-19v197h-197v16h197v120h-197v16z" />
    <glyph glyph-name="uni0416.bgr" horiz-adv-x="858" 
d="M420 715h18v-715h-18v715zM805 0l-355 365l338 350h24l-341 -349l359 -366h-25zM28 0l359 365l-341 350h24l338 -351l-355 -364h-25z" />
    <glyph glyph-name="sterling.tab" 
d="M55 358h78c-15 51 -31 99 -31 163c0 123 85 200 206 200c125 0 190 -71 201 -176h-18c-15 101 -70 159 -183 159c-111 0 -187 -76 -187 -183c0 -64 16 -112 32 -163h247v-16h-242c13 -43 24 -87 24 -143c0 -41 -11 -77 -26 -104h2c81 0 169 -84 257 -84
c69 0 108 47 113 126h19c-7 -91 -57 -143 -132 -143c-93 0 -180 84 -257 84c-51 0 -81 -31 -88 -78h-20c7 44 34 84 85 93c17 28 28 66 28 106c0 56 -12 99 -25 143h-83v16z" />
    <glyph glyph-name="uni0433.bgr" horiz-adv-x="440" 
d="M215 -9c-109 0 -175 55 -175 131c0 81 51 120 173 149c117 27 157 60 157 131c0 72 -60 111 -139 111c-83 0 -139 -42 -155 -123h-17c16 93 84 139 172 139c91 0 156 -46 156 -127c0 -87 -52 -119 -169 -146c-115 -28 -159 -62 -159 -134c0 -68 56 -115 156 -115
c113 0 155 56 168 133h17c-8 -87 -65 -149 -185 -149z" />
    <glyph glyph-name="grave.uc" horiz-adv-x="400" 
d="M116 888h21l73 -117h-18z" />
    <glyph glyph-name="dieresis.uc" horiz-adv-x="400" 
d="M123 787c-11 0 -17 8 -17 17s6 17 17 17s17 -8 17 -17s-6 -17 -17 -17zM277 787c-11 0 -17 8 -17 17s6 17 17 17s17 -8 17 -17s-6 -17 -17 -17z" />
    <glyph glyph-name="space.tab" horiz-adv-x="300" 
 />
    <glyph glyph-name="nine.old" horiz-adv-x="547" 
d="M259 -103c-101 0 -187 54 -203 157h18c15 -89 88 -141 185 -141c131 0 221 80 221 327v95c-29 -103 -129 -147 -212 -147c-152 0 -227 94 -227 217c0 129 92 220 225 220c164 0 232 -112 232 -271v-115c0 -256 -100 -342 -239 -342zM268 204c105 0 207 71 207 196
c0 98 -56 209 -209 209c-127 0 -207 -84 -207 -204s67 -201 209 -201z" />
    <glyph glyph-name="eight.old" horiz-adv-x="546" 
d="M273 -6c-124 0 -230 67 -230 199c0 103 76 170 177 189c-77 19 -144 71 -144 165c0 106 94 174 197 174c104 0 197 -70 197 -172c0 -95 -60 -151 -138 -167c98 -18 171 -81 171 -187c0 -133 -102 -201 -230 -201zM273 10c122 0 212 61 212 185c0 116 -98 178 -210 178
s-214 -64 -214 -180c0 -124 97 -183 212 -183zM276 389c96 0 176 53 176 160c0 88 -79 156 -179 156s-179 -65 -179 -158c0 -104 94 -158 182 -158z" />
    <glyph glyph-name="seven.old" horiz-adv-x="470" 
d="M431 602h-407v16h430v-5l-291 -710h-19z" />
    <glyph glyph-name="six.old" horiz-adv-x="547" 
d="M281 -7c-164 0 -232 117 -232 267v109c0 260 110 352 253 352c101 0 165 -53 181 -145h-18c-15 80 -71 129 -163 129c-133 0 -235 -85 -235 -337v-84c27 99 130 146 212 146c152 0 227 -94 227 -217c0 -129 -92 -220 -225 -220zM281 9c127 0 207 84 207 204
s-67 201 -209 201c-106 0 -207 -72 -207 -193c0 -95 56 -212 209 -212z" />
    <glyph glyph-name="five.old" horiz-adv-x="527" 
d="M249 -102c-131 0 -212 83 -220 176h17c11 -82 80 -160 203 -160c133 0 213 83 213 219c0 129 -87 207 -194 207c-92 0 -152 -41 -188 -88h-8v366h372v-16h-355v-318c32 34 96 72 179 72c118 0 212 -83 212 -223c0 -147 -91 -235 -231 -235z" />
    <glyph glyph-name="four.old" horiz-adv-x="569" 
d="M408 76h-381v5l368 537h32v-525h99v-17h-99v-173h-19v173zM408 93v514l-352 -514h352z" />
    <glyph glyph-name="three.old" horiz-adv-x="533" 
d="M269 -102c-148 0 -232 96 -237 197h17c8 -95 81 -181 220 -181c119 0 202 61 202 182c0 93 -68 176 -191 176h-54v16h51c114 0 165 75 165 152c0 99 -65 169 -173 169c-112 0 -180 -74 -191 -167h-17c8 104 94 183 208 183c117 0 191 -79 191 -185
c0 -83 -52 -143 -129 -159c85 -13 158 -85 158 -185c0 -127 -89 -198 -220 -198z" />
    <glyph glyph-name="two.old" horiz-adv-x="510" 
d="M26 5l253 222c92 81 151 138 151 231c0 97 -65 151 -169 151c-103 0 -178 -63 -191 -174h-18c11 119 100 190 209 190c111 0 187 -60 187 -167c0 -99 -64 -164 -155 -241l-230 -201h402v-16h-439v5z" />
    <glyph glyph-name="one.old" horiz-adv-x="331" 
d="M188 592l-167 -112v18l177 120h8v-618h-18v592z" />
    <glyph glyph-name="zero.old" horiz-adv-x="605" 
d="M303 9c140 0 239 100 239 279v46c0 172 -103 275 -240 275s-239 -104 -239 -277v-46c0 -176 101 -277 240 -277zM302 -7c-150 0 -257 113 -257 293v46c0 182 109 293 257 293s258 -107 258 -291v-46c0 -183 -106 -295 -258 -295z" />
    <glyph glyph-name="yen.old" horiz-adv-x="508" 
d="M53 339h185l-215 355h21l210 -348l196 348h19l-200 -355h181v-16h-187v-116h187v-16h-187v-191h-19v191h-191v16h191v116h-191v16z" />
    <glyph glyph-name="uni20B4.tab" 
d="M287 -6c-131 0 -210 53 -210 160c0 63 24 99 68 134h-93v16h115c37 24 84 48 140 79c27 15 50 28 70 41h-325v16h349c47 35 72 71 72 136c0 88 -61 128 -161 128c-116 0 -174 -55 -191 -142h-19c19 99 86 159 210 159c112 0 180 -49 180 -145c0 -61 -21 -100 -64 -136
h118v-16h-139c-27 -19 -58 -37 -97 -58c-44 -24 -82 -43 -113 -62h349v-16h-374c-51 -35 -76 -70 -76 -134c0 -93 75 -143 191 -143c142 0 201 83 217 179h19c-16 -111 -88 -196 -236 -196z" />
    <glyph glyph-name="sterling.old" horiz-adv-x="581" 
d="M49 348h75c-15 48 -29 96 -29 157c0 119 85 194 205 194c125 0 189 -69 200 -170h-18c-13 96 -69 153 -182 153c-111 0 -186 -69 -186 -177c0 -61 15 -108 30 -157h240v-16h-235c13 -43 24 -84 24 -139c0 -40 -10 -74 -25 -101h6c83 0 161 -81 250 -81
c68 0 108 46 113 122h19c-5 -88 -59 -139 -132 -139c-95 0 -173 81 -250 81c-51 0 -82 -30 -89 -75h-20c7 41 33 78 81 89c17 28 28 64 28 104c0 53 -12 96 -25 139h-80v16z" />
    <glyph glyph-name="Euro.old" horiz-adv-x="636" 
d="M30 422h63c3 165 94 277 248 277c133 0 203 -71 219 -186h-18c-15 105 -77 169 -201 169c-143 0 -226 -103 -229 -260h260l-3 -16h-257v-116h234l-3 -16h-231c3 -161 81 -263 229 -263c128 0 195 73 212 186h17c-16 -127 -96 -203 -229 -203c-158 0 -245 111 -248 280
h-63v16h63v116h-63v16z" />
    <glyph glyph-name="dollar.old" horiz-adv-x="564" 
d="M272 -6c-145 5 -219 87 -232 190h19c13 -91 75 -168 213 -173v345c-151 23 -208 79 -208 171c0 104 84 169 208 172v90h18v-90c113 -3 181 -62 198 -154h-19c-17 83 -74 134 -179 137v-311c153 -24 221 -63 221 -191c0 -100 -79 -186 -221 -186v-129h-18v129zM492 180
c0 116 -59 153 -202 174v-343c132 0 202 74 202 169zM83 527c0 -84 50 -132 189 -153v308c-116 -3 -189 -55 -189 -155z" />
    <glyph glyph-name="macron.uc" horiz-adv-x="400" 
d="M87 814h226v-17h-226v17z" />
    <glyph glyph-name="acute.uc" horiz-adv-x="400" 
d="M263 888h21l-76 -117h-18z" />
    <glyph glyph-name="uni0430.alt" horiz-adv-x="586" 
d="M272 -7c-124 0 -231 95 -231 264v8c0 163 112 265 239 265c116 0 179 -79 208 -159v152h18v-523h-18v158c-24 -76 -96 -165 -216 -165zM272 9c112 0 216 93 216 248v8c0 156 -94 249 -208 249c-116 0 -221 -91 -221 -249v-8c0 -156 95 -248 213 -248z" />
    <glyph glyph-name="circumflex.uc" horiz-adv-x="400" 
d="M191 888h20l111 -117h-20l-101 101l-103 -101h-20z" />
    <glyph glyph-name="uni20B8.oldtab" 
d="M58 678v16h480v-16h-480zM289 551h-231v16h480v-16h-231v-551h-18v551z" />
    <glyph glyph-name="caron.uc" horiz-adv-x="400" 
d="M76 888h20l103 -101l105 101h20l-115 -117h-20z" />
    <glyph glyph-name="breve.uc" horiz-adv-x="400" 
d="M200 775c-64 0 -114 47 -119 112h18c4 -56 48 -96 101 -96c52 0 98 41 103 96h18c-5 -64 -60 -112 -121 -112z" />
    <glyph glyph-name="dotaccent.uc" horiz-adv-x="400" 
d="M200 787c-11 0 -17 8 -17 17s6 17 17 17s17 -8 17 -17s-6 -17 -17 -17z" />
    <glyph glyph-name="uni0434.locl" horiz-adv-x="560" 
d="M147 270c-13 -133 -25 -221 -68 -254h366v491h-282c-3 -43 -8 -165 -16 -237zM29 -127h-14v143h33c53 16 68 113 82 259c4 43 8 105 11 156l6 92h316v-507h69v-143h-14l-3 127h-483z" />
    <glyph glyph-name="space_uni0326" horiz-adv-x="400" 
d="M153 -180l58 134l19 -4l-62 -136z" />
    <glyph glyph-name="ring.uc" horiz-adv-x="400" 
d="M200 764c40 0 71 31 71 70c0 41 -31 71 -71 71c-39 0 -70 -30 -70 -71c0 -39 31 -70 70 -70zM200 749c-47 0 -87 40 -87 85c0 47 40 86 87 86c48 0 88 -39 88 -86s-39 -85 -88 -85z" />
    <glyph glyph-name="tilde.uc" horiz-adv-x="400" 
d="M275 773c-54 0 -97 65 -140 65c-28 0 -49 -20 -54 -63h-17c7 56 35 79 71 79c51 0 96 -65 140 -65c27 0 48 20 53 63h17c-7 -56 -35 -79 -70 -79z" />
    <glyph glyph-name="hungarumlaut.uc" horiz-adv-x="400" 
d="M185 888h20l-57 -117h-17zM291 888h20l-57 -117h-17z" />
    <glyph glyph-name="idotaccent" horiz-adv-x="182" 
d="M91 639c-11 0 -17 8 -17 17s6 17 17 17s17 -8 17 -17s-6 -17 -17 -17zM82 523h18v-523h-18v523z" />
    <glyph glyph-name="f.short" horiz-adv-x="308" 
d="M109 507h-85v16h85v104c0 115 67 149 131 149c23 0 38 -3 53 -7v-17c-13 4 -32 8 -53 8c-57 0 -113 -27 -113 -133v-104h166v-16h-166v-507h-18v507z" />
    <glyph glyph-name="f_f.short" horiz-adv-x="575" 
d="M109 507h-85v16h85v95c0 113 70 149 139 149c23 0 35 -2 52 -7v-17c-15 5 -31 8 -52 8c-62 0 -121 -29 -121 -133v-95h249v104c0 115 67 149 131 149c23 0 38 -3 53 -7v-17c-13 4 -32 8 -53 8c-57 0 -113 -27 -113 -133v-104h166v-16h-166v-507h-18v507h-249v-507h-18
v507z" />
    <glyph glyph-name="uni021B.alt" horiz-adv-x="296" 
d="M60 -180l58 134l19 -4l-62 -136zM116 507h-94v16h94v119h18v-119h140v-16h-140v-507h-18v507z" />
    <glyph glyph-name="uni0437.bgr" horiz-adv-x="452" 
d="M408 25c0 -144 -76 -210 -183 -210c-124 0 -184 83 -189 175h18c5 -88 60 -159 171 -159c93 0 164 57 164 194v7c0 96 -53 169 -169 169h-80v16h79c100 0 145 58 145 150v3c0 84 -53 144 -142 144c-87 0 -134 -56 -149 -133h-17c11 88 73 149 166 149
c97 0 161 -64 161 -160v-3c0 -92 -52 -147 -113 -158c76 -11 138 -69 138 -177v-7z" />
    <glyph glyph-name="uni0431.locl" horiz-adv-x="576" 
d="M287 -7c-133 0 -246 104 -246 254v8c0 151 117 254 249 254c7 0 13 0 20 -1c-148 59 -226 95 -226 183c0 48 41 82 104 82h176c79 0 109 6 122 9v-16c-11 -3 -39 -9 -122 -9h-176c-56 0 -86 -31 -86 -68c0 -83 104 -126 255 -184c97 -40 178 -98 178 -249v-8
c0 -152 -115 -255 -248 -255zM288 9c120 0 229 94 229 239v7c0 150 -99 238 -227 238c-121 0 -231 -95 -231 -238v-8c0 -140 106 -238 229 -238z" />
    <glyph glyph-name="uni0449.bgr" horiz-adv-x="926" 
d="M877 -127l-3 127h-70v122c-24 -68 -92 -129 -189 -129c-92 0 -151 39 -168 139c-29 -80 -98 -139 -194 -139c-109 0 -173 56 -173 200v330h18v-330c0 -133 55 -184 155 -184c93 0 189 69 189 197v317h18v-330c0 -133 55 -184 155 -184c93 0 189 69 189 197v317h18v-507
h69v-143h-14z" />
    <glyph glyph-name="uni02BC" unicode="&#x2bc;" horiz-adv-x="166" 
d="M44 581l59 137l18 -7l-62 -136z" />
    <glyph glyph-name="uni00AD" unicode="&#xad;" horiz-adv-x="332" 
d="M64 288h204v-17h-204v17z" />
    </font>
</defs>
</svg>
