<?xml version="1.0" standalone="no"?>
<!DOCTYPE svg PUBLIC "-//W3C//DTD SVG 1.1//EN" "http://www.w3.org/Graphics/SVG/1.1/DTD/svg11.dtd" >
<svg xmlns="http://www.w3.org/2000/svg" xmlns:xlink="http://www.w3.org/1999/xlink" version="1.1">
<metadata>
Created by FontForge 20190801 at Mon Jul  4 08:35:27 2016
 By Jimmy Wärting
LCG stand for Latin, Cyrillic and Greek.
</metadata>
<defs>
<font id="GraphikLCG-SuperItalic" horiz-adv-x="600" >
  <font-face 
    font-family="Graphik LCG"
    font-weight="900"
    font-style="italic"
    font-stretch="normal"
    units-per-em="1000"
    panose-1="2 11 11 3 3 2 2 13 2 3"
    ascent="828"
    descent="-172"
    x-height="523"
    cap-height="715"
    bbox="-254 -236 1258 1150"
    underline-thickness="50"
    underline-position="-100"
    slope="-8"
    stemh="166"
    stemv="229"
    unicode-range="U+000D-FB02"
  />
<missing-glyph horiz-adv-x="529" 
 />
    <glyph glyph-name="f_f" unicode="ff" horiz-adv-x="761" 
d="M440 374h-127l-59 -374h-228l59 374h-61l23 149h61l6 37c21 136 123 187 240 187c49 0 76 -6 103 -15l-26 -163c-13 4 -22 6 -41 6c-32 0 -47 -12 -52 -41l-2 -11h127l8 48c21 136 124 187 245 187c53 0 78 -6 105 -15l-26 -164c-13 4 -23 7 -44 7c-35 0 -51 -16 -56 -41
l-4 -22h95l-23 -149h-95l-59 -374h-228z" />
    <glyph glyph-name=".notdef" horiz-adv-x="529" 
 />
    <glyph glyph-name="NULL" horiz-adv-x="0" 
 />
    <glyph glyph-name="NULL" horiz-adv-x="0" 
 />
    <glyph glyph-name="CR" unicode="&#xd;" horiz-adv-x="162" 
 />
    <glyph glyph-name="space" unicode=" " horiz-adv-x="162" 
 />
    <glyph glyph-name="exclam" unicode="!" horiz-adv-x="358" 
d="M154 -14c-71 0 -122 51 -122 116s54 119 125 119s124 -52 124 -117c0 -64 -56 -118 -127 -118zM121 715h258l-107 -463h-192z" />
    <glyph glyph-name="quotedbl" unicode="&#x22;" horiz-adv-x="507" 
d="M101 715h209l-68 -291h-161zM339 715h209l-68 -291h-161z" />
    <glyph glyph-name="numbersign" unicode="#" horiz-adv-x="603" 
d="M303 220h-45l-29 -121h-148l29 121h-73l29 178h86l11 46h-73l25 168h88l25 103h148l-25 -103h45l25 103h148l-25 -103h74l-25 -168h-89l-11 -46h76l-29 -178h-89l-29 -121h-148zM300 398h45l11 46h-45z" />
    <glyph glyph-name="dollar" unicode="$" horiz-adv-x="657" 
d="M244 -8c-120 16 -236 75 -241 238h228c0 -36 15 -56 40 -67l15 97c-168 32 -233 93 -233 213c0 163 141 250 307 253l14 87h88l-15 -92c124 -16 223 -71 231 -224h-222c-1 27 -15 43 -36 52l-15 -97c147 -29 238 -80 238 -209c0 -174 -136 -253 -312 -256l-19 -122h-88z
M414 202c0 19 -11 29 -42 40l-14 -88c37 4 56 20 56 48zM278 512c0 -23 10 -35 41 -44l14 89c-27 -4 -55 -14 -55 -45z" />
    <glyph glyph-name="percent" unicode="%" horiz-adv-x="849" 
d="M212 524c0 -24 10 -46 39 -45c35 0 47 47 47 81c0 24 -12 43 -37 43c-35 0 -49 -38 -49 -79zM245 354c-101 0 -194 53 -194 162c0 117 85 208 215 208c99 0 192 -54 192 -162c0 -113 -85 -208 -213 -208zM687 715h109l-592 -715h-109zM590 156c0 -24 10 -46 39 -45
c35 0 47 47 47 81c0 24 -12 43 -37 43c-35 0 -49 -38 -49 -79zM623 -14c-101 0 -194 53 -194 162c0 114 85 208 215 208c99 0 192 -54 192 -162c0 -113 -85 -208 -213 -208z" />
    <glyph glyph-name="ampersand" unicode="&#x26;" horiz-adv-x="804" 
d="M654 133l85 -133h-282l-25 38c-43 -27 -97 -52 -189 -52c-124 0 -237 58 -237 206c0 117 86 177 187 220c-19 28 -30 70 -30 103c0 140 129 212 273 212c109 0 235 -44 235 -177c0 -98 -78 -147 -163 -182l49 -77l54 83h199zM250 220c0 -35 18 -61 61 -61c17 0 30 4 37 7
l-72 112c-12 -11 -26 -30 -26 -58zM432 570c-27 0 -46 -17 -46 -48c0 -21 13 -41 29 -60c31 15 58 33 58 68c0 23 -16 40 -41 40z" />
    <glyph glyph-name="quotesingle" unicode="'" horiz-adv-x="279" 
d="M101 715h219l-68 -291h-171z" />
    <glyph glyph-name="parenleft" unicode="(" horiz-adv-x="373" 
d="M133 -148c-51 78 -106 190 -106 362c0 225 97 419 254 562h175c-133 -184 -216 -352 -216 -582c0 -147 29 -262 62 -342h-169z" />
    <glyph glyph-name="parenright" unicode=")" horiz-adv-x="373" 
d="M253 776c51 -78 106 -190 106 -362c0 -225 -97 -419 -254 -562h-175c133 184 216 352 216 582c0 147 -29 262 -62 342h169z" />
    <glyph glyph-name="asterisk" unicode="*" horiz-adv-x="450" 
d="M72 456l104 72l-113 13l65 148l97 -62l-14 116h178l-50 -123l113 47l17 -153l-115 3l80 -85l-149 -85l-29 114l-65 -108z" />
    <glyph glyph-name="plus" unicode="+" horiz-adv-x="596" 
d="M206 258h-170l26 162h170l29 186h180l-29 -186h170l-26 -162h-170l-29 -186h-180z" />
    <glyph glyph-name="comma" unicode="," horiz-adv-x="319" 
d="M-29 -72l101 284l200 -70l-177 -266z" />
    <glyph glyph-name="hyphen" unicode="-" horiz-adv-x="406" 
d="M63 373h314l-27 -165h-314z" />
    <glyph glyph-name="period" unicode="." horiz-adv-x="308" 
d="M126 -14c-71 0 -122 53 -122 120c0 66 50 120 121 120c73 0 127 -54 127 -120c0 -67 -53 -120 -126 -120z" />
    <glyph glyph-name="slash" unicode="/" horiz-adv-x="450" 
d="M359 776h181l-457 -924h-180z" />
    <glyph glyph-name="zero" unicode="0" horiz-adv-x="758" 
d="M302 352c-4 -28 -8 -53 -8 -76c0 -51 20 -86 80 -86c67 0 91 46 107 147l4 25c4 28 7 52 7 75c0 53 -18 89 -77 89c-65 0 -93 -44 -109 -149zM364 -14c-198 0 -332 102 -332 298c0 25 3 52 7 80l4 26c35 228 180 336 378 336c188 0 333 -98 333 -302c0 -25 -2 -49 -6 -74
l-4 -26c-35 -229 -173 -338 -380 -338z" />
    <glyph glyph-name="one" unicode="1" horiz-adv-x="476" 
d="M184 455l-135 -72l35 223l181 109h227l-113 -715h-266z" />
    <glyph glyph-name="two" unicode="2" horiz-adv-x="646" 
d="M-34 34l271 249c83 72 154 134 154 200c0 30 -15 45 -45 45c-33 0 -59 -22 -74 -93h-239c21 198 156 291 337 291c166 0 285 -71 285 -220c0 -120 -79 -192 -169 -266l-55 -45h184l-30 -195h-624z" />
    <glyph glyph-name="three" unicode="3" horiz-adv-x="677" 
d="M335 -14c-192 0 -320 74 -320 262h239c-1 -45 18 -74 66 -74c35 0 62 23 62 58c0 33 -21 50 -63 50h-52l25 155h65c43 0 64 19 65 56c1 33 -22 47 -51 47c-41 0 -66 -23 -74 -69h-236c19 155 139 255 328 255c146 0 284 -51 284 -195c0 -81 -49 -143 -140 -166
c72 -17 115 -73 115 -142c0 -167 -164 -237 -313 -237z" />
    <glyph glyph-name="four" unicode="4" horiz-adv-x="709" 
d="M328 130h-343l16 102l361 483h314l-65 -407h88l-28 -178h-88l-20 -130h-255zM363 308l32 201l-142 -201h110z" />
    <glyph glyph-name="five" unicode="5" horiz-adv-x="654" 
d="M308 -14c-158 0 -304 65 -301 255h248c-1 -35 14 -57 53 -57s56 28 57 68c1 45 -26 65 -69 65s-75 -18 -94 -43h-164l87 441h523l-30 -189h-334l-24 -122c31 44 88 85 179 85c116 0 192 -68 192 -211c0 -183 -124 -292 -323 -292z" />
    <glyph glyph-name="six" unicode="6" horiz-adv-x="703" 
d="M354 -14c-192 0 -321 96 -318 293c0 28 3 61 8 92l3 20c32 205 176 335 371 335c144 0 279 -59 284 -231h-245c0 25 -15 38 -44 38c-67 0 -93 -66 -107 -142c30 38 74 79 160 79c108 0 216 -63 216 -203c0 -185 -152 -281 -328 -281zM299 232c0 -35 17 -61 56 -61
c40 0 69 36 69 80c0 33 -17 60 -56 60s-69 -32 -69 -79z" />
    <glyph glyph-name="seven" unicode="7" horiz-adv-x="603" 
d="M303 499h-246l34 216h582l-4 -26l-347 -689h-273z" />
    <glyph glyph-name="eight" unicode="8" horiz-adv-x="683" 
d="M270 226c0 -37 23 -58 62 -58c37 0 70 25 70 72c0 36 -24 56 -61 56s-71 -23 -71 -70zM316 489c0 -31 19 -54 54 -54c33 0 67 23 67 63c0 33 -21 54 -56 54c-32 0 -65 -23 -65 -63zM322 -14c-164 0 -318 61 -318 202c0 105 65 165 157 192c-49 27 -79 70 -79 126
c0 152 147 220 304 220c131 0 291 -46 291 -197c0 -76 -47 -137 -122 -166c71 -27 103 -82 103 -143c0 -160 -141 -234 -336 -234z" />
    <glyph glyph-name="nine" unicode="9" horiz-adv-x="703" 
d="M310 -13c-148 0 -286 61 -291 229h244c3 -24 26 -35 55 -35c64 0 89 53 106 137c-31 -44 -71 -79 -155 -79c-109 0 -220 53 -220 200c0 183 142 288 327 288c195 0 322 -99 322 -304c0 -29 -2 -57 -7 -84l-2 -12c-39 -229 -159 -340 -379 -340zM302 464
c0 -36 19 -61 56 -61c39 0 71 33 71 80c0 33 -19 60 -58 60s-69 -31 -69 -79z" />
    <glyph glyph-name="colon" unicode=":" horiz-adv-x="312" 
d="M128 -14c-71 0 -122 53 -122 120c0 66 50 120 121 120c73 0 127 -54 127 -120c0 -67 -53 -120 -126 -120zM173 266c-71 0 -122 53 -122 120c0 66 50 120 121 120c73 0 127 -54 127 -120c0 -67 -53 -120 -126 -120z" />
    <glyph glyph-name="semicolon" unicode=";" horiz-adv-x="336" 
d="M203 266c-71 0 -122 53 -122 120c0 66 50 120 121 120c73 0 127 -54 127 -120c0 -67 -53 -120 -126 -120zM-29 -72l101 284l200 -70l-177 -266z" />
    <glyph glyph-name="less" unicode="&#x3c;" horiz-adv-x="517" 
d="M42 307l7 43l481 254l-33 -209l-164 -75l139 -85l-31 -194z" />
    <glyph glyph-name="equal" unicode="=" horiz-adv-x="594" 
d="M43 300h518l-23 -148h-518zM75 505h518l-23 -148h-518z" />
    <glyph glyph-name="greater" unicode="&#x3e;" horiz-adv-x="517" 
d="M492 339l-7 -43l-481 -254l33 209l164 75l-139 85l31 194z" />
    <glyph glyph-name="question" unicode="?" horiz-adv-x="591" 
d="M163 262c28 140 198 170 198 248c-1 21 -13 31 -34 31c-27 0 -44 -19 -55 -66h-224c21 172 150 251 310 251c168 0 253 -68 253 -187c0 -165 -178 -194 -231 -284l-1 -3h-218zM244 -14c-71 0 -122 51 -122 116s54 119 125 119s124 -52 124 -117c0 -64 -56 -118 -127 -118
z" />
    <glyph glyph-name="at" unicode="@" horiz-adv-x="919" 
d="M461 -164c-272 0 -441 177 -441 411c0 274 224 445 466 445c233 0 417 -137 417 -363c0 -204 -113 -284 -239 -284c-85 0 -139 24 -155 79c-27 -51 -71 -79 -139 -79c-91 0 -149 68 -152 177c0 152 91 251 207 251c59 0 86 -23 101 -55l9 47h180l-46 -283
c-7 -36 2 -60 37 -60c54 0 113 59 113 211c0 172 -134 288 -334 288c-208 0 -376 -143 -376 -377c0 -196 120 -337 357 -337c120 0 222 47 268 93h98c-71 -101 -215 -164 -371 -164zM444 190c36 0 59 45 59 96c0 27 -13 46 -42 46c-32 0 -59 -38 -58 -95
c0 -28 12 -47 41 -47z" />
    <glyph glyph-name="A" unicode="A" horiz-adv-x="784" 
d="M454 95h-202l-39 -95h-254l333 715h343l106 -715h-278zM325 273h113l-20 228z" />
    <glyph glyph-name="B" unicode="B" horiz-adv-x="709" 
d="M129 715h333c180 0 239 -86 239 -179c0 -96 -65 -152 -141 -168c68 -14 124 -60 124 -147c0 -131 -111 -221 -286 -221h-382zM353 172c45 0 74 27 74 66c0 35 -22 53 -66 53h-40l-19 -119h51zM398 445c43 0 63 19 63 54c0 33 -20 45 -56 45h-44l-16 -99h53z" />
    <glyph glyph-name="C" unicode="C" horiz-adv-x="779" 
d="M396 -14c-219 0 -364 100 -364 316c0 251 150 424 410 424c209 0 332 -96 339 -296h-270c-3 56 -24 89 -76 89c-87 0 -122 -98 -125 -205c0 -60 19 -118 89 -118c48 0 85 25 100 89h265c-24 -204 -182 -299 -368 -299z" />
    <glyph glyph-name="D" unicode="D" horiz-adv-x="773" 
d="M129 715h261c248 0 379 -107 379 -304c0 -279 -177 -411 -420 -411h-333zM352 201c92 0 141 69 141 198c0 80 -37 115 -108 115h-21l-50 -313h38z" />
    <glyph glyph-name="E" unicode="E" horiz-adv-x="635" 
d="M129 715h534l-32 -203h-269l-10 -61h212l-28 -182h-212l-11 -66h284l-32 -203h-549z" />
    <glyph glyph-name="F" unicode="F" horiz-adv-x="596" 
d="M129 715h517l-33 -204h-250l-15 -100h203l-31 -193h-203l-34 -218h-267z" />
    <glyph glyph-name="G" unicode="G" horiz-adv-x="797" 
d="M402 -14c-216 0 -370 99 -370 318c0 248 173 422 420 422c179 0 333 -76 341 -282h-264c-4 45 -23 73 -86 73c-92 0 -136 -103 -136 -210c0 -77 30 -120 113 -120c64 0 87 27 98 58h-98l26 162h353c-24 -289 -117 -421 -397 -421z" />
    <glyph glyph-name="H" unicode="H" horiz-adv-x="812" 
d="M129 715h267l-39 -247h163l39 247h266l-113 -715h-266l41 263h-163l-41 -263h-267z" />
    <glyph glyph-name="I" unicode="I" horiz-adv-x="391" 
d="M132 715h269l-113 -715h-269z" />
    <glyph glyph-name="J" unicode="J" horiz-adv-x="508" 
d="M162 -9c-89 0 -140 17 -171 32l31 194c23 -8 51 -16 88 -16c41 0 77 16 85 69l71 445h267l-72 -454c-29 -185 -130 -270 -299 -270z" />
    <glyph glyph-name="K" unicode="K" horiz-adv-x="782" 
d="M129 715h267l-39 -248l212 248h282l-300 -341l184 -374h-286l-123 274l-43 -274h-267z" />
    <glyph glyph-name="L" unicode="L" horiz-adv-x="595" 
d="M129 715h267l-81 -511h241l-32 -204h-508z" />
    <glyph glyph-name="M" unicode="M" horiz-adv-x="986" 
d="M129 715h332l48 -286l143 286h346l-113 -715h-265l60 380l-202 -380h-90l-76 380l-60 -380h-236z" />
    <glyph glyph-name="N" unicode="N" horiz-adv-x="805" 
d="M129 715h294l108 -317l50 317h236l-113 -715h-250l-142 375l-59 -375h-237z" />
    <glyph glyph-name="O" unicode="O" horiz-adv-x="823" 
d="M308 307c0 -63 25 -113 100 -113c100 0 135 109 135 208c0 64 -24 114 -98 117c-96 3 -137 -107 -137 -212zM387 -14c-186 0 -355 101 -355 310c0 258 170 430 421 430c195 0 367 -95 367 -314c0 -256 -168 -426 -433 -426z" />
    <glyph glyph-name="P" unicode="P" horiz-adv-x="688" 
d="M129 715h287c192 0 288 -87 288 -214c0 -180 -111 -285 -314 -285h-73l-34 -216h-267zM376 392c48 0 77 25 77 76c0 32 -22 53 -66 53h-24l-20 -129h33z" />
    <glyph glyph-name="Q" unicode="Q" horiz-adv-x="823" 
d="M387 -14c-186 0 -355 101 -355 310c0 258 170 430 421 430c195 0 367 -95 367 -314c0 -152 -58 -271 -161 -346l56 -56l-157 -146l-118 125c-17 -2 -35 -3 -53 -3zM308 307c0 -43 11 -84 44 -107l99 78l47 -48c32 41 46 105 46 172c0 62 -24 114 -99 117
c-96 3 -137 -107 -137 -212z" />
    <glyph glyph-name="R" unicode="R" horiz-adv-x="733" 
d="M129 715h303c200 0 286 -86 286 -214c0 -115 -58 -187 -146 -218l114 -283h-266l-89 227h-15l-35 -227h-265zM384 394c45 0 75 18 75 69c0 36 -22 54 -65 54h-32l-19 -123h41z" />
    <glyph glyph-name="S" unicode="S" horiz-adv-x="657" 
d="M317 -14c-200 0 -322 81 -319 246h249c1 -35 18 -61 75 -61c37 0 56 13 56 38c0 20 -22 31 -74 40c-187 32 -251 96 -251 219c0 148 111 258 311 258c184 0 295 -71 292 -237h-243c-2 35 -20 52 -55 52c-33 0 -49 -11 -49 -34s19 -32 74 -41c164 -27 256 -84 256 -215
c0 -157 -110 -262 -322 -265z" />
    <glyph glyph-name="T" unicode="T" horiz-adv-x="648" 
d="M228 511h-173l33 204h614l-33 -204h-173l-80 -511h-268z" />
    <glyph glyph-name="U" unicode="U" horiz-adv-x="799" 
d="M391 -14c-234 0 -366 112 -329 335l63 394h266l-64 -402c-12 -76 3 -119 67 -119c67 0 78 41 89 109l65 412h268l-68 -432c-32 -212 -147 -297 -357 -297z" />
    <glyph glyph-name="V" unicode="V" horiz-adv-x="762" 
d="M72 715h279l41 -436l180 436h260l-340 -715h-299z" />
    <glyph glyph-name="W" unicode="W" horiz-adv-x="1027" 
d="M72 715h270l3 -393l130 393h224l20 -398l134 398h243l-279 -715h-258l-24 378l-141 -378h-269z" />
    <glyph glyph-name="X" unicode="X" horiz-adv-x="783" 
d="M239 377l-141 338h287l52 -179l104 179h275l-230 -345l155 -370h-286l-72 218l-137 -218h-278z" />
    <glyph glyph-name="Y" unicode="Y" horiz-adv-x="722" 
d="M234 304l-164 411h276l59 -190l118 190h265l-287 -424l-46 -291h-268z" />
    <glyph glyph-name="Z" unicode="Z" horiz-adv-x="628" 
d="M-33 27l333 495h-217l31 193h585l-5 -27l-332 -492h228l-31 -196h-596z" />
    <glyph glyph-name="bracketleft" unicode="[" horiz-adv-x="437" 
d="M134 776h348l-26 -164h-117l-94 -596h117l-26 -164h-348z" />
    <glyph glyph-name="backslash" unicode="\" horiz-adv-x="450" 
d="M52 776h170l212 -924h-170z" />
    <glyph glyph-name="bracketright" unicode="]" 
d="M-4 16h115l94 596h-115l26 164h346l-146 -924h-346z" />
    <glyph glyph-name="asciicircum" unicode="^" horiz-adv-x="543" 
d="M243 715h193l114 -329h-184l-50 145l-95 -145h-190z" />
    <glyph glyph-name="underscore" unicode="_" horiz-adv-x="454" 
d="M-53 -66h455l-15 -96h-455z" />
    <glyph glyph-name="grave" unicode="`" horiz-adv-x="400" 
d="M82 743h217l36 -175h-158z" />
    <glyph glyph-name="a" unicode="a" horiz-adv-x="595" 
d="M263 134c33 0 57 22 61 49l4 19h-40c-49 0 -64 -12 -64 -36c0 -19 14 -32 39 -32zM318 0c-4 19 -4 45 -4 65c-25 -38 -69 -79 -154 -79c-89 0 -164 51 -164 144c0 140 99 186 286 186h64l1 7c5 33 2 61 -41 61c-36 0 -47 -27 -50 -45h-212c27 129 114 200 273 200
c193 0 277 -82 251 -246l-20 -127c-11 -68 -15 -122 -8 -166h-222z" />
    <glyph glyph-name="b" unicode="b" horiz-adv-x="651" 
d="M-6 0l118 743h229l-47 -298c35 57 88 94 172 94c97 0 171 -71 171 -224c0 -217 -111 -329 -249 -329c-72 0 -134 35 -151 95l-14 -81h-229zM315 156c51 0 88 54 88 142c0 48 -19 75 -59 75c-52 0 -86 -63 -86 -141c0 -51 19 -76 57 -76z" />
    <glyph glyph-name="c" unicode="c" horiz-adv-x="592" 
d="M293 -13c-152 0 -277 76 -277 241c0 183 119 311 306 311c147 0 257 -67 262 -231h-214c-3 36 -15 56 -52 56c-61 0 -74 -78 -74 -139c0 -44 13 -76 58 -76c37 0 59 22 67 66h204c-16 -148 -111 -228 -280 -228z" />
    <glyph glyph-name="d" unicode="d" horiz-adv-x="651" 
d="M598 166c-11 -68 -15 -121 -11 -166h-227c-5 20 -5 56 -5 84c-37 -63 -87 -98 -166 -98c-104 0 -177 71 -177 224c0 217 114 329 257 329c67 0 125 -35 144 -91l47 295h229zM334 373c-51 0 -88 -54 -88 -142c0 -48 18 -77 58 -77c52 0 87 66 87 143c0 51 -19 76 -57 76z
" />
    <glyph glyph-name="e" unicode="e" horiz-adv-x="616" 
d="M238 215c0 -40 19 -81 74 -81c43 0 59 23 67 50h213c-23 -128 -128 -198 -285 -198c-156 0 -291 67 -291 244c0 188 136 309 316 309c182 0 290 -112 261 -304l-3 -20h-352zM329 398c-33 0 -63 -21 -79 -77h139c3 43 -13 77 -60 77z" />
    <glyph glyph-name="f" unicode="f" horiz-adv-x="406" 
d="M108 523l8 48c24 136 123 187 245 187c53 0 78 -6 105 -15l-26 -164c-13 4 -23 7 -44 7c-35 0 -51 -16 -56 -41l-4 -22h95l-23 -149h-95l-59 -374h-228l59 374h-61l23 149h61z" />
    <glyph glyph-name="g" unicode="g" horiz-adv-x="648" 
d="M268 -195c-199 0 -288 88 -291 207h226c1 -23 16 -53 64 -53c59 0 72 33 77 72l15 94c-31 -49 -80 -86 -160 -86c-100 0 -183 66 -183 209c0 179 108 291 251 291c77 0 123 -36 143 -92l12 76h229l-78 -491c-24 -156 -113 -227 -305 -227zM306 191c59 0 84 57 84 117
c-1 37 -18 68 -55 68c-59 0 -84 -59 -84 -112c0 -43 16 -73 55 -73z" />
    <glyph glyph-name="h" unicode="h" horiz-adv-x="635" 
d="M112 743h229l-50 -314c37 63 94 110 179 110c94 0 166 -65 142 -223l-50 -316h-229l45 287c7 47 -8 70 -43 70c-41 0 -59 -23 -67 -76l-44 -281h-229z" />
    <glyph glyph-name="i" unicode="i" horiz-adv-x="316" 
d="M216 544c-69 0 -117 46 -117 110s49 110 118 110c68 0 118 -46 118 -110s-51 -110 -119 -110zM84 523h228l-82 -523h-228z" />
    <glyph glyph-name="j" unicode="j" horiz-adv-x="316" 
d="M-59 -20c36 3 59 13 64 48l78 495h228l-82 -518c-16 -106 -81 -197 -312 -184zM215 544c-69 0 -117 46 -117 110s49 110 118 110c68 0 118 -46 118 -110s-51 -110 -119 -110z" />
    <glyph glyph-name="k" unicode="k" horiz-adv-x="609" 
d="M112 743h229l-65 -408l135 188h241l-191 -243l111 -280h-243l-72 209l-33 -209h-229z" />
    <glyph glyph-name="l" unicode="l" horiz-adv-x="312" 
d="M118 743h227l-117 -743h-227z" />
    <glyph glyph-name="m" unicode="m" horiz-adv-x="939" 
d="M289 429c34 55 98 110 181 110c67 0 110 -31 129 -98c43 61 104 98 176 98c100 0 165 -67 144 -203l-53 -336h-228l46 295c7 41 -8 61 -37 61c-35 0 -50 -23 -57 -62l-46 -294h-226l46 294c7 43 -8 62 -37 62c-37 0 -50 -23 -57 -62l-46 -294h-229l54 344
c12 77 18 130 21 179h225c0 -25 -2 -63 -6 -94z" />
    <glyph glyph-name="n" unicode="n" horiz-adv-x="635" 
d="M49 344c12 77 18 130 21 179h225c0 -25 -2 -66 -6 -97c37 63 96 113 181 113c94 0 166 -65 142 -223l-50 -316h-229l45 287c7 47 -8 70 -43 70c-41 0 -59 -23 -67 -76l-44 -281h-229z" />
    <glyph glyph-name="o" unicode="o" horiz-adv-x="629" 
d="M244 226c0 -32 8 -74 59 -74c59 0 82 66 82 152c0 35 -15 68 -56 68c-61 0 -85 -62 -85 -146zM300 -14c-140 0 -283 66 -283 242c0 180 125 311 314 311c140 0 283 -70 283 -247c0 -183 -128 -306 -314 -306z" />
    <glyph glyph-name="p" unicode="p" horiz-adv-x="651" 
d="M315 156c51 0 88 54 88 142c0 48 -19 75 -59 75c-52 0 -86 -63 -86 -141c0 -51 19 -76 57 -76zM290 437c35 64 92 102 176 102c98 0 171 -71 171 -224c0 -217 -108 -329 -247 -329c-72 0 -136 35 -153 95l-41 -253h-229l82 516c12 77 18 130 21 179h225
c0 -23 -2 -57 -5 -86z" />
    <glyph glyph-name="q" unicode="q" horiz-adv-x="651" 
d="M654 523l-110 -695h-229l41 256c-37 -63 -88 -98 -167 -98c-104 0 -177 71 -177 224c0 217 114 329 257 329c67 0 125 -35 144 -91l12 75h229zM334 373c-51 0 -88 -54 -88 -142c0 -48 18 -77 58 -77c52 0 87 66 87 143c0 51 -19 76 -57 76z" />
    <glyph glyph-name="r" unicode="r" horiz-adv-x="458" 
d="M49 344c12 77 17 130 20 179h225c0 -25 -3 -80 -8 -123c39 92 104 132 188 129l-33 -213c-113 9 -169 -18 -184 -106l-33 -210h-229z" />
    <glyph glyph-name="s" unicode="s" horiz-adv-x="530" 
d="M237 -15c-144 0 -252 51 -252 187h211c3 -29 12 -45 47 -45c23 0 38 8 38 27c0 17 -13 25 -81 36c-119 18 -178 61 -178 154c0 132 107 196 259 196c143 0 235 -51 243 -180h-206c-3 23 -13 43 -42 43c-27 0 -39 -11 -39 -27c0 -21 22 -26 66 -34
c147 -27 203 -63 203 -164c0 -136 -116 -193 -269 -193z" />
    <glyph glyph-name="t" unicode="t" horiz-adv-x="407" 
d="M235 -14c-132 0 -208 55 -181 220l27 168h-57l23 149h57l17 104h229l-17 -104h93l-23 -149h-93l-25 -158c-7 -39 8 -51 39 -51c12 0 28 1 45 8l-27 -170c-24 -9 -60 -17 -107 -17z" />
    <glyph glyph-name="u" unicode="u" horiz-adv-x="638" 
d="M582 166c-11 -68 -16 -121 -13 -166h-225c-3 21 -1 66 0 94c-39 -64 -95 -108 -179 -108c-94 0 -166 64 -142 221l50 316h229l-48 -301c-7 -47 7 -70 42 -70c40 0 58 23 66 76l47 295h229z" />
    <glyph glyph-name="v" unicode="v" horiz-adv-x="614" 
d="M39 523h234l31 -286l127 286h224l-276 -523h-239z" />
    <glyph glyph-name="w" unicode="w" horiz-adv-x="863" 
d="M39 523h231l16 -257l100 257h182l18 -257l100 257h219l-247 -523h-212l-21 240l-96 -240h-218z" />
    <glyph glyph-name="x" unicode="x" horiz-adv-x="633" 
d="M169 267l-116 256h251l39 -111l72 111h239l-198 -244l132 -279h-251l-48 128l-91 -128h-238z" />
    <glyph glyph-name="y" unicode="y" horiz-adv-x="614" 
d="M168 59l-129 464h238l43 -232l110 232h225l-382 -695h-226z" />
    <glyph glyph-name="z" unicode="z" horiz-adv-x="521" 
d="M-35 21l244 337h-171l25 165h491l-3 -21l-257 -339h187l-25 -163h-494z" />
    <glyph glyph-name="braceleft" unicode="{" horiz-adv-x="437" 
d="M336 -148c-219 0 -315 88 -262 250l23 74c15 44 -9 65 -74 69l25 157c69 0 95 19 94 60v74c0 184 104 240 340 240l-26 -165c-67 -5 -84 -25 -87 -78l-5 -94c-3 -67 -48 -109 -125 -124c76 -19 103 -68 84 -135l-25 -93c-13 -49 -1 -65 64 -70z" />
    <glyph glyph-name="bar" unicode="|" horiz-adv-x="275" 
d="M73 776h155v-924h-155v924z" />
    <glyph glyph-name="braceright" unicode="}" horiz-adv-x="437" 
d="M115 776c220 0 313 -86 262 -250l-22 -72c-13 -44 9 -65 74 -69l-25 -157c-69 0 -93 -19 -94 -60l-1 -76c-3 -184 -104 -240 -340 -240l26 165c67 5 84 25 87 78l6 96c4 67 48 109 125 124c-76 19 -101 68 -84 135l24 91c13 49 1 65 -64 70z" />
    <glyph glyph-name="asciitilde" unicode="~" horiz-adv-x="556" 
d="M14 210c21 174 104 234 188 234c75 0 131 -41 167 -41c29 0 42 17 49 42h142c-16 -160 -104 -234 -188 -234c-77 0 -131 41 -168 41c-29 0 -41 -18 -48 -42h-142z" />
    <glyph glyph-name="uni00A0" unicode="&#xa0;" horiz-adv-x="246" 
 />
    <glyph glyph-name="exclamdown" unicode="&#xa1;" horiz-adv-x="358" 
d="M211 612c71 0 122 -51 122 -116s-54 -119 -125 -119s-124 52 -124 117c0 64 56 118 127 118zM244 -117h-258l107 463h192z" />
    <glyph glyph-name="cent" unicode="&#xa2;" horiz-adv-x="610" 
d="M242 -10c-126 16 -230 93 -230 229c0 179 121 314 316 319l15 91h69l-15 -94c125 -16 204 -87 208 -227h-204c0 32 -7 51 -30 62l-37 -230c37 8 56 32 65 75h196c-13 -132 -117 -226 -285 -229l-19 -121h-69zM232 222c0 -39 11 -65 34 -77l36 227
c-44 -15 -70 -63 -70 -150z" />
    <glyph glyph-name="sterling" unicode="&#xa3;" horiz-adv-x="688" 
d="M50 414h40c-3 19 -4 36 -4 56c0 164 137 256 310 256c170 0 299 -63 296 -268h-245c3 51 -12 70 -48 70c-49 0 -60 -46 -60 -97v-17h168l-21 -132h-147c-3 -23 -8 -51 -20 -78c24 -5 43 -9 62 -9c31 0 49 15 54 45h239c-19 -143 -101 -249 -257 -249
c-107 0 -171 47 -215 47c-24 0 -40 -15 -44 -38h-191c15 92 53 169 125 204c11 25 17 51 18 78h-81z" />
    <glyph glyph-name="yen" unicode="&#xa5;" horiz-adv-x="682" 
d="M72 379h128l-127 336h282l37 -186l100 186h259l-225 -336h130l-12 -78h-159l-6 -38h158l-12 -78h-158l-29 -185h-268l29 185h-158l12 78h158l6 38h-157z" />
    <glyph glyph-name="brokenbar" unicode="&#xa6;" horiz-adv-x="275" 
d="M73 303h155v-451h-155v451zM73 776h155v-401h-155v401z" />
    <glyph glyph-name="section" unicode="&#xa7;" horiz-adv-x="641" 
d="M280 -137c-130 0 -243 53 -243 193h205c3 -29 14 -46 45 -46c19 0 33 7 33 23c0 19 -27 27 -91 46c-132 40 -217 87 -217 192c0 89 52 135 129 160c-17 25 -26 51 -26 79c0 151 117 216 259 216c132 0 235 -49 240 -197h-208c-3 27 -6 45 -41 46c-23 0 -34 -8 -34 -25
c0 -20 25 -26 89 -46c130 -40 216 -87 216 -193c0 -87 -49 -130 -129 -158c20 -24 30 -50 30 -79c0 -152 -124 -211 -257 -211zM386 239c15 3 25 8 25 23c0 20 -17 25 -79 52l-67 30c-13 -1 -26 -7 -26 -23c0 -19 18 -25 78 -52z" />
    <glyph glyph-name="dieresis" unicode="&#xa8;" horiz-adv-x="400" 
d="M148 552c-57 0 -102 43 -102 99s45 99 102 99s103 -43 103 -99s-46 -99 -103 -99zM373 552c-56 0 -101 43 -101 99s45 99 101 99c59 0 103 -43 103 -99s-44 -99 -103 -99z" />
    <glyph glyph-name="copyright" unicode="&#xa9;" horiz-adv-x="842" 
d="M444 149c-155 0 -222 81 -222 205v8c0 126 93 204 215 204c115 0 190 -50 199 -166h-155c-3 31 -17 48 -44 48c-36 0 -57 -26 -57 -86v-7c0 -58 20 -87 60 -87c28 0 49 14 52 49h149c-5 -109 -84 -168 -197 -168zM433 30c180 0 324 132 324 329c0 195 -140 326 -322 326
c-185 0 -324 -133 -324 -328c0 -197 144 -327 322 -327zM433 -25c-217 0 -392 165 -392 382c0 213 174 383 394 383c223 0 392 -168 392 -381c0 -218 -174 -384 -394 -384z" />
    <glyph glyph-name="ordfeminine" unicode="&#xaa;" horiz-adv-x="516" 
d="M307 298c-3 15 -4 36 -4 51c-19 -27 -52 -63 -122 -63c-66 0 -129 37 -129 112c0 112 86 147 241 147h33l1 8c3 19 4 38 -24 38c-24 0 -31 -18 -34 -33h-185c19 107 100 165 235 165c166 0 220 -61 196 -213l-13 -82c-9 -52 -11 -95 -6 -130h-189zM272 414
c21 0 34 9 37 27l2 12h-25c-31 0 -39 -8 -39 -21c0 -12 8 -18 25 -18z" />
    <glyph glyph-name="guillemotleft" unicode="&#xab;" horiz-adv-x="470" 
d="M15 267l138 192h136l-137 -193l88 -203h-129zM198 264l138 195h136l-137 -199l83 -197h-129z" />
    <glyph glyph-name="uni00AD" unicode="&#xad;" horiz-adv-x="406" 
d="M63 373h314l-27 -165h-314z" />
    <glyph glyph-name="registered" unicode="&#xae;" horiz-adv-x="518" 
d="M206 615h96c63 0 95 -25 95 -74v-1c0 -29 -13 -46 -32 -57l45 -87h-83l-34 70h-6v-70h-81v219zM296 517c15 0 23 6 23 19v1c0 11 -8 17 -23 17h-9v-37h9zM296 320c106 0 187 75 187 183s-78 183 -187 183s-187 -76 -187 -184c0 -109 82 -182 187 -182zM296 280
c-128 0 -233 97 -233 222c0 124 102 224 233 224c132 0 233 -99 233 -223c0 -126 -102 -223 -233 -223z" />
    <glyph glyph-name="macron" unicode="&#xaf;" horiz-adv-x="400" 
d="M104 712h331l-19 -119h-331z" />
    <glyph glyph-name="degree" unicode="&#xb0;" horiz-adv-x="466" 
d="M277 444c53 0 91 44 91 101c0 60 -38 103 -91 103c-56 0 -93 -43 -93 -103c0 -57 37 -101 93 -101zM277 368c-101 0 -184 81 -184 177c0 99 83 179 184 179c100 0 182 -80 182 -179c0 -96 -82 -177 -182 -177z" />
    <glyph glyph-name="plusminus" unicode="&#xb1;" horiz-adv-x="596" 
d="M221 348h-170l25 162h170l25 156h180l-25 -156h170l-25 -162h-170l-25 -156h-180zM18 142h524l-22 -142h-524z" />
    <glyph glyph-name="twosuperior" unicode="&#xb2;" horiz-adv-x="388" 
d="M16 342l149 133c34 29 91 79 91 104c0 15 -6 22 -19 22c-16 0 -29 -13 -36 -46h-152c16 115 93 166 201 166c93 0 171 -30 171 -122c0 -56 -42 -100 -106 -151l-11 -9h93l-19 -117h-366z" />
    <glyph glyph-name="threesuperior" unicode="&#xb3;" horiz-adv-x="406" 
d="M231 314c-112 0 -184 42 -185 145h146c0 -21 10 -32 31 -32c12 0 27 6 27 26c0 13 -10 21 -37 21h-30l14 88h37c24 0 36 9 36 26c0 12 -6 21 -25 21c-15 0 -29 -7 -34 -30h-144c13 91 79 142 194 142c76 0 165 -23 165 -108c0 -51 -33 -81 -81 -94c41 -9 68 -31 68 -78
c0 -91 -83 -127 -182 -127z" />
    <glyph glyph-name="acute" unicode="&#xb4;" horiz-adv-x="400" 
d="M230 743h219l-127 -175h-163z" />
    <glyph glyph-name="mu" unicode="&#xb5;" horiz-adv-x="642" 
d="M586 166c-11 -68 -16 -121 -13 -166h-225c-3 19 -1 53 0 76c-21 -56 -45 -73 -76 -73c-16 0 -33 7 -44 26l-33 -201h-228l110 695h229l-49 -308c-7 -43 8 -65 36 -65c39 0 64 23 72 76l48 297h229z" />
    <glyph glyph-name="paragraph" unicode="&#xb6;" horiz-adv-x="532" 
d="M254 320h-2c-109 0 -197 57 -197 174c0 148 106 221 249 221h241l-129 -815h-79l118 748h-71l-118 -748h-78z" />
    <glyph glyph-name="periodcentered" unicode="&#xb7;" horiz-adv-x="308" 
d="M161 206c-71 0 -122 53 -122 120c0 66 50 120 121 120c73 0 127 -54 127 -120c0 -67 -53 -120 -126 -120z" />
    <glyph glyph-name="cedilla" unicode="&#xb8;" horiz-adv-x="400" 
d="M137 -232c-70 0 -135 28 -140 97h100c3 -11 8 -23 31 -23c13 0 30 7 30 30c0 17 -10 26 -30 26c-16 0 -24 -4 -31 -11l-38 42l58 71h82l-35 -41c60 4 106 -27 106 -83c0 -74 -62 -108 -133 -108z" />
    <glyph glyph-name="onesuperior" unicode="&#xb9;" horiz-adv-x="315" 
d="M146 553l-89 -42l21 134l119 70h142l-63 -393h-167z" />
    <glyph glyph-name="ordmasculine" unicode="&#xba;" horiz-adv-x="537" 
d="M279 286c-133 0 -218 67 -218 187c0 153 124 250 265 250c145 0 217 -77 217 -193c0 -153 -128 -244 -264 -244zM293 427c39 0 55 55 55 108c0 29 -8 46 -35 46c-35 0 -56 -47 -56 -108c0 -31 12 -46 36 -46z" />
    <glyph glyph-name="guillemotright" unicode="&#xbb;" horiz-adv-x="470" 
d="M454 255l-138 -192h-136l137 193l-88 203h129zM271 258l-138 -195h-136l137 199l-83 197h129z" />
    <glyph glyph-name="onequarter" unicode="&#xbc;" horiz-adv-x="862" 
d="M149 553l-89 -42l21 134l119 70h142l-63 -393h-167zM688 715h109l-618 -715h-109zM598 70h-194l10 62l199 261h198l-34 -216h49l-17 -107h-49l-11 -70h-162zM621 177l17 106l-78 -106h61z" />
    <glyph glyph-name="onehalf" unicode="&#xbd;" horiz-adv-x="874" 
d="M149 553l-89 -42l21 134l119 70h142l-63 -393h-167zM675 715h109l-618 -715h-109zM449 20l149 133c34 29 91 79 91 104c0 15 -6 22 -19 22c-16 0 -29 -13 -36 -46h-152c16 115 93 166 201 166c93 0 171 -30 171 -122c0 -56 -42 -100 -106 -151l-11 -9h93l-19 -117h-366z
" />
    <glyph glyph-name="threequarters" unicode="&#xbe;" horiz-adv-x="910" 
d="M234 314c-112 0 -184 42 -185 145h146c0 -21 10 -32 31 -32c12 0 27 6 27 26c0 13 -10 21 -37 21h-30l14 88h37c24 0 36 9 36 26c0 12 -6 21 -25 21c-15 0 -29 -7 -34 -30h-144c13 91 79 142 194 142c76 0 165 -23 165 -108c0 -51 -33 -81 -81 -94c41 -9 68 -31 68 -78
c0 -91 -83 -127 -182 -127zM750 715h109l-618 -715h-109zM646 70h-194l10 62l199 261h198l-34 -216h49l-17 -107h-49l-11 -70h-162zM669 177l17 106l-78 -106h61z" />
    <glyph glyph-name="questiondown" unicode="&#xbf;" horiz-adv-x="591" 
d="M438 337c-28 -140 -198 -170 -198 -248c1 -21 13 -31 34 -31c27 0 44 19 55 66h224c-21 -172 -151 -251 -310 -251c-168 0 -253 68 -253 187c0 166 179 192 231 284l1 3h218zM357 613c71 0 122 -51 122 -116s-54 -119 -125 -119s-124 52 -124 117c0 64 56 118 127 118z
" />
    <glyph glyph-name="Agrave" unicode="&#xc0;" horiz-adv-x="784" 
d="M454 95h-202l-39 -95h-254l333 715h343l106 -715h-278zM325 273h113l-20 228zM304 908h227l30 -155h-168z" />
    <glyph glyph-name="Aacute" unicode="&#xc1;" horiz-adv-x="784" 
d="M454 95h-202l-39 -95h-254l333 715h343l106 -715h-278zM325 273h113l-20 228zM433 908h229l-118 -155h-173z" />
    <glyph glyph-name="Acircumflex" unicode="&#xc2;" horiz-adv-x="784" 
d="M454 95h-202l-39 -95h-254l333 715h343l106 -715h-278zM325 273h113l-20 228zM384 908h189l93 -155h-159l-40 44l-50 -44h-168z" />
    <glyph glyph-name="Atilde" unicode="&#xc3;" horiz-adv-x="784" 
d="M454 95h-202l-39 -95h-254l333 715h343l106 -715h-278zM325 273h113l-20 228zM534 750c-63 0 -92 29 -123 29c-15 0 -27 -11 -30 -26h-123c19 121 81 172 149 172c58 0 92 -29 126 -29c15 0 26 9 31 26h123c-21 -122 -88 -172 -153 -172z" />
    <glyph glyph-name="Adieresis" unicode="&#xc4;" horiz-adv-x="784" 
d="M454 95h-202l-39 -95h-254l333 715h343l106 -715h-278zM325 273h113l-20 228zM353 742c-57 0 -102 43 -102 99s45 99 102 99s103 -43 103 -99s-46 -99 -103 -99zM586 742c-56 0 -101 43 -101 99s45 99 101 99c59 0 103 -43 103 -99s-44 -99 -103 -99z" />
    <glyph glyph-name="Aring" unicode="&#xc5;" horiz-adv-x="784" 
d="M454 95h-202l-39 -95h-254l333 715h343l106 -715h-278zM325 273h113l-20 228zM468 812c25 0 43 19 43 47s-18 47 -43 47c-27 0 -43 -19 -43 -47s16 -47 43 -47zM468 737c-69 0 -126 54 -126 122s57 122 126 122s126 -54 126 -122s-57 -122 -126 -122z" />
    <glyph glyph-name="AE" unicode="&#xc6;" horiz-adv-x="1029" 
d="M438 115h-162l-61 -115h-256l405 715h693l-32 -203h-260l-10 -61h203l-28 -182h-203l-11 -66h275l-32 -203h-539zM368 288h97l36 224h-14z" />
    <glyph glyph-name="Ccedilla" unicode="&#xc7;" horiz-adv-x="779" 
d="M322 -232c-70 0 -135 28 -140 97h100c3 -11 8 -23 31 -23c13 0 30 7 30 30c0 17 -10 26 -30 26c-16 0 -24 -4 -31 -11l-38 42l53 65c-163 27 -265 127 -265 308c0 251 150 424 410 424c209 0 332 -96 339 -296h-270c-3 56 -24 89 -76 89c-87 0 -122 -98 -125 -205
c0 -60 19 -118 89 -118c48 0 85 25 100 89h265c-24 -204 -182 -299 -368 -299c-8 0 -11 0 -24 1l-23 -28c60 4 106 -27 106 -83c0 -74 -62 -108 -133 -108z" />
    <glyph glyph-name="Egrave" unicode="&#xc8;" horiz-adv-x="635" 
d="M129 715h534l-32 -203h-269l-10 -61h212l-28 -182h-212l-11 -66h284l-32 -203h-549zM232 908h227l30 -155h-168z" />
    <glyph glyph-name="Eacute" unicode="&#xc9;" horiz-adv-x="635" 
d="M129 715h534l-32 -203h-269l-10 -61h212l-28 -182h-212l-11 -66h284l-32 -203h-549zM357 908h229l-118 -155h-173z" />
    <glyph glyph-name="Ecircumflex" unicode="&#xca;" horiz-adv-x="635" 
d="M129 715h534l-32 -203h-269l-10 -61h212l-28 -182h-212l-11 -66h284l-32 -203h-549zM322 908h189l93 -155h-159l-40 44l-50 -44h-168z" />
    <glyph glyph-name="Edieresis" unicode="&#xcb;" horiz-adv-x="635" 
d="M129 715h534l-32 -203h-269l-10 -61h212l-28 -182h-212l-11 -66h284l-32 -203h-549zM293 742c-57 0 -102 43 -102 99s45 99 102 99s103 -43 103 -99s-46 -99 -103 -99zM526 742c-56 0 -101 43 -101 99s45 99 101 99c59 0 103 -43 103 -99s-44 -99 -103 -99z" />
    <glyph glyph-name="Igrave" unicode="&#xcc;" horiz-adv-x="391" 
d="M132 715h269l-113 -715h-269zM105 908h227l30 -155h-168z" />
    <glyph glyph-name="Iacute" unicode="&#xcd;" horiz-adv-x="391" 
d="M132 715h269l-113 -715h-269zM230 908h229l-118 -155h-173z" />
    <glyph glyph-name="Icircumflex" unicode="&#xce;" horiz-adv-x="391" 
d="M132 715h269l-113 -715h-269zM195 908h189l93 -155h-159l-40 44l-50 -44h-168z" />
    <glyph glyph-name="Idieresis" unicode="&#xcf;" horiz-adv-x="391" 
d="M132 715h269l-113 -715h-269zM166 742c-57 0 -102 43 -102 99s45 99 102 99s103 -43 103 -99s-46 -99 -103 -99zM399 742c-56 0 -101 43 -101 99s45 99 101 99c59 0 103 -43 103 -99s-44 -99 -103 -99z" />
    <glyph glyph-name="Eth" unicode="&#xd0;" horiz-adv-x="791" 
d="M55 447h49l43 268h261c248 0 379 -107 379 -304c0 -279 -177 -411 -420 -411h-333l43 272h-49zM370 201c92 0 141 69 141 198c0 80 -37 115 -108 115h-27l-11 -67h75l-27 -175h-76l-11 -71h44z" />
    <glyph glyph-name="Ntilde" unicode="&#xd1;" horiz-adv-x="805" 
d="M129 715h294l108 -317l50 317h236l-113 -715h-250l-142 375l-59 -375h-237zM563 750c-63 0 -92 29 -123 29c-15 0 -27 -11 -30 -26h-123c19 121 81 172 149 172c58 0 92 -29 126 -29c15 0 26 9 31 26h123c-21 -122 -88 -172 -153 -172z" />
    <glyph glyph-name="Ograve" unicode="&#xd2;" horiz-adv-x="823" 
d="M308 307c0 -63 25 -113 100 -113c100 0 135 109 135 208c0 64 -24 114 -98 117c-96 3 -137 -107 -137 -212zM387 -14c-186 0 -355 101 -355 310c0 258 170 430 421 430c195 0 367 -95 367 -314c0 -256 -168 -426 -433 -426zM299 908h227l30 -155h-168z" />
    <glyph glyph-name="Oacute" unicode="&#xd3;" horiz-adv-x="823" 
d="M308 307c0 -63 25 -113 100 -113c100 0 135 109 135 208c0 64 -24 114 -98 117c-96 3 -137 -107 -137 -212zM387 -14c-186 0 -355 101 -355 310c0 258 170 430 421 430c195 0 367 -95 367 -314c0 -256 -168 -426 -433 -426zM424 908h229l-118 -155h-173z" />
    <glyph glyph-name="Ocircumflex" unicode="&#xd4;" horiz-adv-x="823" 
d="M308 307c0 -63 25 -113 100 -113c100 0 135 109 135 208c0 64 -24 114 -98 117c-96 3 -137 -107 -137 -212zM387 -14c-186 0 -355 101 -355 310c0 258 170 430 421 430c195 0 367 -95 367 -314c0 -256 -168 -426 -433 -426zM384 908h189l93 -155h-159l-40 44l-50 -44
h-168z" />
    <glyph glyph-name="Otilde" unicode="&#xd5;" horiz-adv-x="823" 
d="M308 307c0 -63 25 -113 100 -113c100 0 135 109 135 208c0 64 -24 114 -98 117c-96 3 -137 -107 -137 -212zM387 -14c-186 0 -355 101 -355 310c0 258 170 430 421 430c195 0 367 -95 367 -314c0 -256 -168 -426 -433 -426zM530 750c-63 0 -92 29 -123 29
c-15 0 -27 -11 -30 -26h-123c19 121 81 172 149 172c58 0 92 -29 126 -29c15 0 26 9 31 26h123c-21 -122 -88 -172 -153 -172z" />
    <glyph glyph-name="Odieresis" unicode="&#xd6;" horiz-adv-x="823" 
d="M308 307c0 -63 25 -113 100 -113c100 0 135 109 135 208c0 64 -24 114 -98 117c-96 3 -137 -107 -137 -212zM387 -14c-186 0 -355 101 -355 310c0 258 170 430 421 430c195 0 367 -95 367 -314c0 -256 -168 -426 -433 -426zM360 742c-57 0 -102 43 -102 99s45 99 102 99
s103 -43 103 -99s-46 -99 -103 -99zM593 742c-56 0 -101 43 -101 99s45 99 101 99c59 0 103 -43 103 -99s-44 -99 -103 -99z" />
    <glyph glyph-name="multiply" unicode="&#xd7;" horiz-adv-x="623" 
d="M203 339l-130 154l134 119l132 -156l174 151l103 -119l-175 -152l131 -153l-135 -119l-132 155l-173 -150l-103 119z" />
    <glyph glyph-name="Oslash" unicode="&#xd8;" horiz-adv-x="823" 
d="M32 18l74 75c-47 51 -74 116 -74 203c0 258 170 430 421 430c84 0 164 -17 228 -56l72 72l51 -52l-65 -65c51 -51 81 -121 81 -213c0 -256 -168 -426 -433 -426c-84 0 -161 20 -224 60l-80 -80zM552 403c0 11 -1 22 -2 31l-218 -219c18 -16 43 -24 76 -24
c102 0 144 108 144 212zM300 306c0 -7 0 -11 1 -18l213 213c-17 13 -40 20 -69 21c-98 3 -145 -104 -145 -216z" />
    <glyph glyph-name="Ugrave" unicode="&#xd9;" horiz-adv-x="799" 
d="M391 -14c-234 0 -366 112 -329 335l63 394h266l-64 -402c-12 -76 3 -119 67 -119c67 0 78 41 89 109l65 412h268l-68 -432c-32 -212 -147 -297 -357 -297zM300 908h227l30 -155h-168z" />
    <glyph glyph-name="Uacute" unicode="&#xda;" horiz-adv-x="799" 
d="M391 -14c-234 0 -366 112 -329 335l63 394h266l-64 -402c-12 -76 3 -119 67 -119c67 0 78 41 89 109l65 412h268l-68 -432c-32 -212 -147 -297 -357 -297zM443 908h229l-118 -155h-173z" />
    <glyph glyph-name="Ucircumflex" unicode="&#xdb;" horiz-adv-x="799" 
d="M391 -14c-234 0 -366 112 -329 335l63 394h266l-64 -402c-12 -76 3 -119 67 -119c67 0 78 41 89 109l65 412h268l-68 -432c-32 -212 -147 -297 -357 -297zM392 908h189l93 -155h-159l-40 44l-50 -44h-168z" />
    <glyph glyph-name="Udieresis" unicode="&#xdc;" horiz-adv-x="799" 
d="M391 -14c-234 0 -366 112 -329 335l63 394h266l-64 -402c-12 -76 3 -119 67 -119c67 0 78 41 89 109l65 412h268l-68 -432c-32 -212 -147 -297 -357 -297zM359 742c-57 0 -102 43 -102 99s45 99 102 99s103 -43 103 -99s-46 -99 -103 -99zM592 742c-56 0 -101 43 -101 99
s45 99 101 99c59 0 103 -43 103 -99s-44 -99 -103 -99z" />
    <glyph glyph-name="Yacute" unicode="&#xdd;" horiz-adv-x="722" 
d="M234 304l-164 411h276l59 -190l118 190h265l-287 -424l-46 -291h-268zM415 908h229l-118 -155h-173z" />
    <glyph glyph-name="Thorn" unicode="&#xde;" horiz-adv-x="688" 
d="M301 120l-18 -120h-267l113 715h265l-17 -110h25c193 0 287 -76 287 -212c0 -165 -114 -273 -314 -273h-74zM348 422l-19 -126h32c48 0 76 26 76 75c0 31 -20 51 -65 51h-24z" />
    <glyph glyph-name="germandbls" unicode="&#xdf;" horiz-adv-x="657" 
d="M370 -10c-43 0 -79 6 -108 14l27 165c11 -5 23 -7 36 -7c68 0 87 51 87 123c0 67 -37 88 -92 85l23 145c45 1 74 18 74 62c0 29 -16 48 -47 48c-32 0 -51 -20 -59 -71l-87 -554h-229l86 540c27 172 142 229 297 229c154 0 253 -59 253 -178c0 -79 -54 -129 -134 -150
c81 -22 143 -86 143 -189c0 -158 -95 -262 -270 -262z" />
    <glyph glyph-name="agrave" unicode="&#xe0;" horiz-adv-x="595" 
d="M263 134c33 0 57 22 61 49l4 19h-40c-49 0 -64 -12 -64 -36c0 -19 14 -32 39 -32zM318 0c-4 19 -4 45 -4 65c-25 -38 -69 -79 -154 -79c-89 0 -164 51 -164 144c0 140 99 186 286 186h64l1 7c5 33 2 61 -41 61c-36 0 -47 -27 -50 -45h-212c27 129 114 200 273 200
c193 0 277 -82 251 -246l-20 -127c-11 -68 -15 -122 -8 -166h-222zM154 743h217l36 -175h-158z" />
    <glyph glyph-name="aacute" unicode="&#xe1;" horiz-adv-x="595" 
d="M263 134c33 0 57 22 61 49l4 19h-40c-49 0 -64 -12 -64 -36c0 -19 14 -32 39 -32zM318 0c-4 19 -4 45 -4 65c-25 -38 -69 -79 -154 -79c-89 0 -164 51 -164 144c0 140 99 186 286 186h64l1 7c5 33 2 61 -41 61c-36 0 -47 -27 -50 -45h-212c27 129 114 200 273 200
c193 0 277 -82 251 -246l-20 -127c-11 -68 -15 -122 -8 -166h-222zM327 743h219l-127 -175h-163z" />
    <glyph glyph-name="acircumflex" unicode="&#xe2;" horiz-adv-x="595" 
d="M263 134c33 0 57 22 61 49l4 19h-40c-49 0 -64 -12 -64 -36c0 -19 14 -32 39 -32zM318 0c-4 19 -4 45 -4 65c-25 -38 -69 -79 -154 -79c-89 0 -164 51 -164 144c0 140 99 186 286 186h64l1 7c5 33 2 61 -41 61c-36 0 -47 -27 -50 -45h-212c27 129 114 200 273 200
c193 0 277 -82 251 -246l-20 -127c-11 -68 -15 -122 -8 -166h-222zM278 743h155l102 -172h-152l-42 46l-54 -46h-161z" />
    <glyph glyph-name="atilde" unicode="&#xe3;" horiz-adv-x="595" 
d="M263 134c33 0 57 22 61 49l4 19h-40c-49 0 -64 -12 -64 -36c0 -19 14 -32 39 -32zM318 0c-4 19 -4 45 -4 65c-25 -38 -69 -79 -154 -79c-89 0 -164 51 -164 144c0 140 99 186 286 186h64l1 7c5 33 2 61 -41 61c-36 0 -47 -27 -50 -45h-212c27 129 114 200 273 200
c193 0 277 -82 251 -246l-20 -127c-11 -68 -15 -122 -8 -166h-222zM403 570c-63 0 -89 29 -120 29c-15 0 -25 -11 -29 -26h-116c19 123 71 176 139 176c60 0 88 -29 124 -29c17 0 24 10 29 26h116c-19 -122 -78 -176 -143 -176z" />
    <glyph glyph-name="adieresis" unicode="&#xe4;" horiz-adv-x="595" 
d="M263 134c33 0 57 22 61 49l4 19h-40c-49 0 -64 -12 -64 -36c0 -19 14 -32 39 -32zM318 0c-4 19 -4 45 -4 65c-25 -38 -69 -79 -154 -79c-89 0 -164 51 -164 144c0 140 99 186 286 186h64l1 7c5 33 2 61 -41 61c-36 0 -47 -27 -50 -45h-212c27 129 114 200 273 200
c193 0 277 -82 251 -246l-20 -127c-11 -68 -15 -122 -8 -166h-222zM225 552c-57 0 -102 43 -102 99s45 99 102 99s103 -43 103 -99s-46 -99 -103 -99zM450 552c-56 0 -101 43 -101 99s45 99 101 99c59 0 103 -43 103 -99s-44 -99 -103 -99z" />
    <glyph glyph-name="aring" unicode="&#xe5;" horiz-adv-x="595" 
d="M263 134c33 0 57 22 61 49l4 19h-40c-49 0 -64 -12 -64 -36c0 -19 14 -32 39 -32zM318 0c-4 19 -4 45 -4 65c-25 -38 -69 -79 -154 -79c-89 0 -164 51 -164 144c0 140 99 186 286 186h64l1 7c5 33 2 61 -41 61c-36 0 -47 -27 -50 -45h-212c27 129 114 200 273 200
c193 0 277 -82 251 -246l-20 -127c-11 -68 -15 -122 -8 -166h-222zM331 641c25 0 42 19 42 46s-17 46 -42 46s-42 -19 -42 -46s17 -46 42 -46zM331 567c-68 0 -124 54 -124 120s56 120 124 120s124 -54 124 -120s-56 -120 -124 -120z" />
    <glyph glyph-name="ae" unicode="&#xe6;" horiz-adv-x="922" 
d="M315 539c79 0 130 -17 163 -50c47 32 102 50 162 50c181 0 288 -112 259 -304l-3 -20h-352c0 -40 19 -81 74 -81c43 0 59 23 67 50h213c-23 -128 -128 -198 -285 -198c-100 0 -177 24 -222 87c-27 -43 -79 -87 -195 -87c-115 0 -200 52 -200 149c0 135 103 183 286 183
h64l1 7c3 31 2 59 -43 59c-37 0 -50 -26 -54 -45h-212c24 133 128 200 277 200zM635 398c-33 0 -63 -21 -79 -77h139c3 43 -13 77 -60 77zM263 134c33 0 57 21 62 52l4 25h-40c-49 0 -65 -16 -65 -43c0 -23 13 -34 39 -34z" />
    <glyph glyph-name="ccedilla" unicode="&#xe7;" horiz-adv-x="592" 
d="M236 -232c-70 0 -135 28 -140 97h100c3 -11 8 -23 31 -23c13 0 30 7 30 30c0 17 -10 26 -30 26c-16 0 -24 -4 -31 -11l-38 42l54 66c-113 24 -196 97 -196 233c0 183 119 311 306 311c147 0 257 -67 262 -231h-214c-3 36 -15 56 -52 56c-61 0 -74 -78 -74 -139
c0 -44 13 -76 58 -76c37 0 59 22 67 66h204c-16 -148 -111 -228 -280 -228h-6l-24 -28c60 4 106 -27 106 -83c0 -74 -62 -108 -133 -108z" />
    <glyph glyph-name="egrave" unicode="&#xe8;" horiz-adv-x="616" 
d="M238 215c0 -40 19 -81 74 -81c43 0 59 23 67 50h213c-23 -128 -128 -198 -285 -198c-156 0 -291 67 -291 244c0 188 136 309 316 309c182 0 290 -112 261 -304l-3 -20h-352zM329 398c-33 0 -63 -21 -79 -77h139c3 43 -13 77 -60 77zM172 743h217l36 -175h-158z" />
    <glyph glyph-name="eacute" unicode="&#xe9;" horiz-adv-x="616" 
d="M238 215c0 -40 19 -81 74 -81c43 0 59 23 67 50h213c-23 -128 -128 -198 -285 -198c-156 0 -291 67 -291 244c0 188 136 309 316 309c182 0 290 -112 261 -304l-3 -20h-352zM329 398c-33 0 -63 -21 -79 -77h139c3 43 -13 77 -60 77zM328 743h219l-127 -175h-163z" />
    <glyph glyph-name="ecircumflex" unicode="&#xea;" horiz-adv-x="616" 
d="M238 215c0 -40 19 -81 74 -81c43 0 59 23 67 50h213c-23 -128 -128 -198 -285 -198c-156 0 -291 67 -291 244c0 188 136 309 316 309c182 0 290 -112 261 -304l-3 -20h-352zM329 398c-33 0 -63 -21 -79 -77h139c3 43 -13 77 -60 77zM287 743h155l102 -172h-152l-42 46
l-54 -46h-161z" />
    <glyph glyph-name="edieresis" unicode="&#xeb;" horiz-adv-x="616" 
d="M238 215c0 -40 19 -81 74 -81c43 0 59 23 67 50h213c-23 -128 -128 -198 -285 -198c-156 0 -291 67 -291 244c0 188 136 309 316 309c182 0 290 -112 261 -304l-3 -20h-352zM329 398c-33 0 -63 -21 -79 -77h139c3 43 -13 77 -60 77zM236 552c-57 0 -102 43 -102 99
s45 99 102 99s103 -43 103 -99s-46 -99 -103 -99zM461 552c-56 0 -101 43 -101 99s45 99 101 99c59 0 103 -43 103 -99s-44 -99 -103 -99z" />
    <glyph glyph-name="igrave" unicode="&#xec;" horiz-adv-x="316" 
d="M84 523h228l-82 -523h-228zM37 743h217l36 -175h-158z" />
    <glyph glyph-name="iacute" unicode="&#xed;" horiz-adv-x="316" 
d="M84 523h228l-82 -523h-228zM187 743h219l-127 -175h-163z" />
    <glyph glyph-name="icircumflex" unicode="&#xee;" horiz-adv-x="316" 
d="M84 523h228l-82 -523h-228zM154 743h155l102 -172h-152l-42 46l-54 -46h-161z" />
    <glyph glyph-name="idieresis" unicode="&#xef;" horiz-adv-x="316" 
d="M108 552c-57 0 -102 43 -102 99s45 99 102 99s103 -43 103 -99s-46 -99 -103 -99zM333 552c-56 0 -101 43 -101 99s45 99 101 99c59 0 103 -43 103 -99s-44 -99 -103 -99zM84 523h228l-82 -523h-228z" />
    <glyph glyph-name="eth" unicode="&#xf0;" horiz-adv-x="635" 
d="M121 617l119 34c-39 35 -76 67 -108 92h265c15 -11 32 -21 48 -34l117 33l14 -62l-78 -22c67 -75 123 -182 123 -314c0 -198 -99 -358 -319 -358c-161 0 -285 77 -285 250c0 161 95 292 255 292c43 0 77 -12 104 -45c-20 39 -50 79 -85 116l-155 -43zM244 224
c0 -41 16 -72 63 -72c65 0 82 86 82 151c0 41 -17 69 -62 69c-60 0 -83 -67 -83 -148z" />
    <glyph glyph-name="ntilde" unicode="&#xf1;" horiz-adv-x="635" 
d="M49 344c12 77 18 130 21 179h225c0 -25 -2 -66 -6 -97c37 63 96 113 181 113c94 0 166 -65 142 -223l-50 -316h-229l45 287c7 47 -8 70 -43 70c-41 0 -59 -23 -67 -76l-44 -281h-229zM425 570c-63 0 -89 29 -120 29c-15 0 -25 -11 -29 -26h-116c19 123 71 176 139 176
c60 0 88 -29 124 -29c17 0 24 10 29 26h116c-19 -122 -78 -176 -143 -176z" />
    <glyph glyph-name="ograve" unicode="&#xf2;" horiz-adv-x="629" 
d="M244 226c0 -32 8 -74 59 -74c59 0 82 66 82 152c0 35 -15 68 -56 68c-61 0 -85 -62 -85 -146zM300 -14c-140 0 -283 66 -283 242c0 180 125 311 314 311c140 0 283 -70 283 -247c0 -183 -128 -306 -314 -306zM171 743h217l36 -175h-158z" />
    <glyph glyph-name="oacute" unicode="&#xf3;" horiz-adv-x="629" 
d="M244 226c0 -32 8 -74 59 -74c59 0 82 66 82 152c0 35 -15 68 -56 68c-61 0 -85 -62 -85 -146zM300 -14c-140 0 -283 66 -283 242c0 180 125 311 314 311c140 0 283 -70 283 -247c0 -183 -128 -306 -314 -306zM321 743h219l-127 -175h-163z" />
    <glyph glyph-name="ocircumflex" unicode="&#xf4;" horiz-adv-x="629" 
d="M244 226c0 -32 8 -74 59 -74c59 0 82 66 82 152c0 35 -15 68 -56 68c-61 0 -85 -62 -85 -146zM300 -14c-140 0 -283 66 -283 242c0 180 125 311 314 311c140 0 283 -70 283 -247c0 -183 -128 -306 -314 -306zM288 743h155l102 -172h-152l-42 46l-54 -46h-161z" />
    <glyph glyph-name="otilde" unicode="&#xf5;" horiz-adv-x="629" 
d="M244 226c0 -32 8 -74 59 -74c59 0 82 66 82 152c0 35 -15 68 -56 68c-61 0 -85 -62 -85 -146zM300 -14c-140 0 -283 66 -283 242c0 180 125 311 314 311c140 0 283 -70 283 -247c0 -183 -128 -306 -314 -306zM415 570c-63 0 -89 29 -120 29c-15 0 -25 -11 -29 -26h-116
c19 123 71 176 139 176c60 0 88 -29 124 -29c17 0 24 10 29 26h116c-19 -122 -78 -176 -143 -176z" />
    <glyph glyph-name="odieresis" unicode="&#xf6;" horiz-adv-x="629" 
d="M244 226c0 -32 8 -74 59 -74c59 0 82 66 82 152c0 35 -15 68 -56 68c-61 0 -85 -62 -85 -146zM300 -14c-140 0 -283 66 -283 242c0 180 125 311 314 311c140 0 283 -70 283 -247c0 -183 -128 -306 -314 -306zM242 552c-57 0 -102 43 -102 99s45 99 102 99
s103 -43 103 -99s-46 -99 -103 -99zM467 552c-56 0 -101 43 -101 99s45 99 101 99c59 0 103 -43 103 -99s-44 -99 -103 -99z" />
    <glyph glyph-name="divide" unicode="&#xf7;" 
d="M61 415h524l-24 -152h-524zM286 19c-64 0 -109 47 -109 107s44 107 108 107c65 0 113 -48 113 -107c0 -60 -48 -107 -112 -107zM334 445c-64 0 -109 47 -109 107s44 107 108 107c65 0 113 -48 113 -107c0 -60 -48 -107 -112 -107z" />
    <glyph glyph-name="oslash" unicode="&#xf8;" horiz-adv-x="629" 
d="M14 4l63 64c-37 39 -60 90 -60 162c0 180 125 309 314 309c59 0 118 -13 167 -41l67 69l46 -44l-62 -63c39 -40 65 -95 65 -170c0 -183 -128 -304 -314 -304c-63 0 -123 12 -174 43l-67 -69zM304 147c61 0 91 69 91 155l-138 -140c11 -9 24 -15 47 -15zM330 376
c-64 0 -95 -60 -95 -147l133 136c-11 7 -23 11 -38 11z" />
    <glyph glyph-name="ugrave" unicode="&#xf9;" horiz-adv-x="638" 
d="M582 166c-11 -68 -16 -121 -13 -166h-225c-3 21 -1 66 0 94c-39 -64 -95 -108 -179 -108c-94 0 -166 64 -142 221l50 316h229l-48 -301c-7 -47 7 -70 42 -70c40 0 58 23 66 76l47 295h229zM183 743h217l36 -175h-158z" />
    <glyph glyph-name="uacute" unicode="&#xfa;" horiz-adv-x="638" 
d="M582 166c-11 -68 -16 -121 -13 -166h-225c-3 21 -1 66 0 94c-39 -64 -95 -108 -179 -108c-94 0 -166 64 -142 221l50 316h229l-48 -301c-7 -47 7 -70 42 -70c40 0 58 23 66 76l47 295h229zM349 743h219l-127 -175h-163z" />
    <glyph glyph-name="ucircumflex" unicode="&#xfb;" horiz-adv-x="638" 
d="M582 166c-11 -68 -16 -121 -13 -166h-225c-3 21 -1 66 0 94c-39 -64 -95 -108 -179 -108c-94 0 -166 64 -142 221l50 316h229l-48 -301c-7 -47 7 -70 42 -70c40 0 58 23 66 76l47 295h229zM299 743h155l102 -172h-152l-42 46l-54 -46h-161z" />
    <glyph glyph-name="udieresis" unicode="&#xfc;" horiz-adv-x="638" 
d="M582 166c-11 -68 -16 -121 -13 -166h-225c-3 21 -1 66 0 94c-39 -64 -95 -108 -179 -108c-94 0 -166 64 -142 221l50 316h229l-48 -301c-7 -47 7 -70 42 -70c40 0 58 23 66 76l47 295h229zM250 552c-57 0 -102 43 -102 99s45 99 102 99s103 -43 103 -99s-46 -99 -103 -99
zM475 552c-56 0 -101 43 -101 99s45 99 101 99c59 0 103 -43 103 -99s-44 -99 -103 -99z" />
    <glyph glyph-name="yacute" unicode="&#xfd;" horiz-adv-x="614" 
d="M168 59l-129 464h238l43 -232l110 232h225l-382 -695h-226zM347 743h219l-127 -175h-163z" />
    <glyph glyph-name="thorn" unicode="&#xfe;" horiz-adv-x="651" 
d="M-33 -172l145 915h229l-47 -298c35 57 88 94 172 94c93 0 171 -71 171 -224c0 -217 -110 -329 -248 -329c-72 0 -135 35 -152 95l-41 -253h-229zM315 156c51 0 88 54 88 142c0 48 -19 75 -59 75c-52 0 -86 -63 -86 -141c0 -51 19 -76 57 -76z" />
    <glyph glyph-name="ydieresis" unicode="&#xff;" horiz-adv-x="614" 
d="M168 59l-129 464h238l43 -232l110 232h225l-382 -695h-226zM255 552c-57 0 -102 43 -102 99s45 99 102 99s103 -43 103 -99s-46 -99 -103 -99zM480 552c-56 0 -101 43 -101 99s45 99 101 99c59 0 103 -43 103 -99s-44 -99 -103 -99z" />
    <glyph glyph-name="Amacron" unicode="&#x100;" horiz-adv-x="784" 
d="M454 95h-202l-39 -95h-254l333 715h343l106 -715h-278zM325 273h113l-20 228zM312 893h351l-20 -129h-351z" />
    <glyph glyph-name="amacron" unicode="&#x101;" horiz-adv-x="595" 
d="M263 134c33 0 57 22 61 49l4 19h-40c-49 0 -64 -12 -64 -36c0 -19 14 -32 39 -32zM318 0c-4 19 -4 45 -4 65c-25 -38 -69 -79 -154 -79c-89 0 -164 51 -164 144c0 140 99 186 286 186h64l1 7c5 33 2 61 -41 61c-36 0 -47 -27 -50 -45h-212c27 129 114 200 273 200
c193 0 277 -82 251 -246l-20 -127c-11 -68 -15 -122 -8 -166h-222zM188 712h331l-19 -119h-331z" />
    <glyph glyph-name="Abreve" unicode="&#x102;" horiz-adv-x="784" 
d="M454 95h-202l-39 -95h-254l333 715h343l106 -715h-278zM325 273h113l-20 228zM475 744c-120 0 -177 63 -178 164h140c1 -21 13 -36 40 -36c23 0 38 12 42 36h142c-19 -108 -86 -164 -186 -164z" />
    <glyph glyph-name="abreve" unicode="&#x103;" horiz-adv-x="595" 
d="M263 134c33 0 57 22 61 49l4 19h-40c-49 0 -64 -12 -64 -36c0 -19 14 -32 39 -32zM318 0c-4 19 -4 45 -4 65c-25 -38 -69 -79 -154 -79c-89 0 -164 51 -164 144c0 140 99 186 286 186h64l1 7c5 33 2 61 -41 61c-36 0 -47 -27 -50 -45h-212c27 129 114 200 273 200
c193 0 277 -82 251 -246l-20 -127c-11 -68 -15 -122 -8 -166h-222zM350 572c-113 0 -178 61 -174 172h133c1 -27 16 -40 43 -40s44 15 47 40h135c-16 -115 -81 -172 -184 -172z" />
    <glyph glyph-name="Aogonek" unicode="&#x104;" horiz-adv-x="784" 
d="M454 95h-202l-39 -95h-254l333 715h343l104 -701c-37 -25 -55 -48 -55 -69c0 -13 8 -20 25 -20c5 0 11 1 18 2l-15 -93c-19 -8 -46 -16 -87 -16c-60 0 -120 17 -120 78c0 56 56 91 101 104h-143zM325 273h113l-20 228z" />
    <glyph glyph-name="aogonek" unicode="&#x105;" horiz-adv-x="595" 
d="M263 134c33 0 57 22 61 49l4 19h-40c-49 0 -64 -12 -64 -36c0 -19 14 -32 39 -32zM548 166c-11 -64 -14 -117 -9 -158c-21 -19 -39 -43 -39 -63c0 -13 8 -20 25 -20c5 0 11 1 18 2l-15 -93c-19 -8 -46 -16 -87 -16c-60 0 -120 17 -120 78c0 56 56 91 101 104h-104
c-4 19 -4 45 -4 65c-25 -38 -69 -79 -154 -79c-89 0 -164 51 -164 144c0 140 99 186 286 186h64l1 7c5 33 2 61 -41 61c-36 0 -47 -27 -50 -45h-212c27 129 114 200 273 200c193 0 277 -82 251 -246z" />
    <glyph glyph-name="Cacute" unicode="&#x106;" horiz-adv-x="779" 
d="M396 -14c-219 0 -364 100 -364 316c0 251 150 424 410 424c209 0 332 -96 339 -296h-270c-3 56 -24 89 -76 89c-87 0 -122 -98 -125 -205c0 -60 19 -118 89 -118c48 0 85 25 100 89h265c-24 -204 -182 -299 -368 -299zM409 908h229l-118 -155h-173z" />
    <glyph glyph-name="cacute" unicode="&#x107;" horiz-adv-x="592" 
d="M293 -13c-152 0 -277 76 -277 241c0 183 119 311 306 311c147 0 257 -67 262 -231h-214c-3 36 -15 56 -52 56c-61 0 -74 -78 -74 -139c0 -44 13 -76 58 -76c37 0 59 22 67 66h204c-16 -148 -111 -228 -280 -228zM310 743h219l-127 -175h-163z" />
    <glyph glyph-name="Ccircumflex" unicode="&#x108;" horiz-adv-x="779" 
d="M396 -14c-219 0 -364 100 -364 316c0 251 150 424 410 424c209 0 332 -96 339 -296h-270c-3 56 -24 89 -76 89c-87 0 -122 -98 -125 -205c0 -60 19 -118 89 -118c48 0 85 25 100 89h265c-24 -204 -182 -299 -368 -299zM374 908h189l93 -155h-159l-40 44l-50 -44h-168z
" />
    <glyph glyph-name="ccircumflex" unicode="&#x109;" horiz-adv-x="592" 
d="M293 -13c-152 0 -277 76 -277 241c0 183 119 311 306 311c147 0 257 -67 262 -231h-214c-3 36 -15 56 -52 56c-61 0 -74 -78 -74 -139c0 -44 13 -76 58 -76c37 0 59 22 67 66h204c-16 -148 -111 -228 -280 -228zM273 743h155l102 -172h-152l-42 46l-54 -46h-161z" />
    <glyph glyph-name="Cdotaccent" unicode="&#x10a;" horiz-adv-x="779" 
d="M396 -14c-219 0 -364 100 -364 316c0 251 150 424 410 424c209 0 332 -96 339 -296h-270c-3 56 -24 89 -76 89c-87 0 -122 -98 -125 -205c0 -60 19 -118 89 -118c48 0 85 25 100 89h265c-24 -204 -182 -299 -368 -299zM453 742c-68 0 -116 43 -116 106s49 107 116 107
s117 -44 117 -107s-50 -106 -117 -106z" />
    <glyph glyph-name="cdotaccent" unicode="&#x10b;" horiz-adv-x="592" 
d="M293 -13c-152 0 -277 76 -277 241c0 183 119 311 306 311c147 0 257 -67 262 -231h-214c-3 36 -15 56 -52 56c-61 0 -74 -78 -74 -139c0 -44 13 -76 58 -76c37 0 59 22 67 66h204c-16 -148 -111 -228 -280 -228zM333 551c-68 0 -116 43 -116 106s49 107 116 107
s117 -44 117 -107s-50 -106 -117 -106z" />
    <glyph glyph-name="Ccaron" unicode="&#x10c;" horiz-adv-x="779" 
d="M396 -14c-219 0 -364 100 -364 316c0 251 150 424 410 424c209 0 332 -96 339 -296h-270c-3 56 -24 89 -76 89c-87 0 -122 -98 -125 -205c0 -60 19 -118 89 -118c48 0 85 25 100 89h265c-24 -204 -182 -299 -368 -299zM540 753h-189l-93 155h159l40 -44l50 44h168z" />
    <glyph glyph-name="ccaron" unicode="&#x10d;" horiz-adv-x="592" 
d="M293 -13c-152 0 -277 76 -277 241c0 183 119 311 306 311c147 0 257 -67 262 -231h-214c-3 36 -15 56 -52 56c-61 0 -74 -78 -74 -139c0 -44 13 -76 58 -76c37 0 59 22 67 66h204c-16 -148 -111 -228 -280 -228zM399 571h-155l-102 172h152l42 -46l54 46h161z" />
    <glyph glyph-name="Dcaron" unicode="&#x10e;" horiz-adv-x="773" 
d="M129 715h261c248 0 379 -107 379 -304c0 -279 -177 -411 -420 -411h-333zM352 201c92 0 141 69 141 198c0 80 -37 115 -108 115h-21l-50 -313h38zM513 753h-189l-93 155h159l40 -44l50 44h168z" />
    <glyph glyph-name="dcaron" unicode="&#x10f;" horiz-adv-x="651" 
d="M598 166c-11 -68 -15 -121 -11 -166h-227c-5 20 -5 56 -5 84c-37 -63 -87 -98 -166 -98c-104 0 -177 71 -177 224c0 217 114 329 257 329c67 0 125 -35 144 -91l47 295h229zM334 373c-51 0 -88 -54 -88 -142c0 -48 18 -77 58 -77c52 0 87 66 87 143c0 51 -19 76 -57 76z
M726 743h153l-77 -174h-110z" />
    <glyph glyph-name="Dcroat" unicode="&#x110;" horiz-adv-x="791" 
d="M55 447h49l43 268h261c248 0 379 -107 379 -304c0 -279 -177 -411 -420 -411h-333l43 272h-49zM370 201c92 0 141 69 141 198c0 80 -37 115 -108 115h-27l-11 -67h75l-27 -175h-76l-11 -71h44z" />
    <glyph glyph-name="dcroat" unicode="&#x111;" horiz-adv-x="651" 
d="M680 686h47l-18 -114h-47l-64 -406c-11 -68 -15 -121 -11 -166h-227c-5 20 -5 56 -5 84c-37 -63 -87 -98 -166 -98c-104 0 -177 71 -177 224c0 217 114 329 257 329c67 0 125 -35 144 -91l20 124h-143l18 114h143l9 57h229zM334 373c-51 0 -88 -54 -88 -142
c0 -48 18 -77 58 -77c52 0 87 66 87 143c0 51 -19 76 -57 76z" />
    <glyph glyph-name="Emacron" unicode="&#x112;" horiz-adv-x="635" 
d="M129 715h534l-32 -203h-269l-10 -61h212l-28 -182h-212l-11 -66h284l-32 -203h-549zM244 893h351l-20 -129h-351z" />
    <glyph glyph-name="emacron" unicode="&#x113;" horiz-adv-x="616" 
d="M238 215c0 -40 19 -81 74 -81c43 0 59 23 67 50h213c-23 -128 -128 -198 -285 -198c-156 0 -291 67 -291 244c0 188 136 309 316 309c182 0 290 -112 261 -304l-3 -20h-352zM329 398c-33 0 -63 -21 -79 -77h139c3 43 -13 77 -60 77zM198 712h331l-19 -119h-331z" />
    <glyph glyph-name="Ebreve" unicode="&#x114;" horiz-adv-x="635" 
d="M129 715h534l-32 -203h-269l-10 -61h212l-28 -182h-212l-11 -66h284l-32 -203h-549zM407 744c-120 0 -177 63 -178 164h140c1 -21 13 -36 40 -36c23 0 38 12 42 36h142c-19 -108 -86 -164 -186 -164z" />
    <glyph glyph-name="ebreve" unicode="&#x115;" horiz-adv-x="616" 
d="M238 215c0 -40 19 -81 74 -81c43 0 59 23 67 50h213c-23 -128 -128 -198 -285 -198c-156 0 -291 67 -291 244c0 188 136 309 316 309c182 0 290 -112 261 -304l-3 -20h-352zM329 398c-33 0 -63 -21 -79 -77h139c3 43 -13 77 -60 77zM351 570c-113 0 -178 61 -174 172h133
c1 -27 16 -40 43 -40s44 15 47 40h135c-16 -115 -81 -172 -184 -172z" />
    <glyph glyph-name="Edotaccent" unicode="&#x116;" horiz-adv-x="635" 
d="M129 715h534l-32 -203h-269l-10 -61h212l-28 -182h-212l-11 -66h284l-32 -203h-549zM401 742c-68 0 -116 43 -116 106s49 107 116 107s117 -44 117 -107s-50 -106 -117 -106z" />
    <glyph glyph-name="edotaccent" unicode="&#x117;" horiz-adv-x="616" 
d="M238 215c0 -40 19 -81 74 -81c43 0 59 23 67 50h213c-23 -128 -128 -198 -285 -198c-156 0 -291 67 -291 244c0 188 136 309 316 309c182 0 290 -112 261 -304l-3 -20h-352zM329 398c-33 0 -63 -21 -79 -77h139c3 43 -13 77 -60 77zM342 551c-68 0 -116 43 -116 106
s49 107 116 107s117 -44 117 -107s-50 -106 -117 -106z" />
    <glyph glyph-name="Eogonek" unicode="&#x118;" horiz-adv-x="635" 
d="M129 715h534l-32 -203h-269l-10 -61h212l-28 -182h-212l-11 -66h284l-32 -203h-40c-15 -12 -37 -34 -37 -55c0 -13 8 -20 25 -20c5 0 11 1 18 2l-15 -93c-19 -8 -46 -16 -87 -16c-60 0 -120 17 -120 78c0 56 56 91 101 104h-394z" />
    <glyph glyph-name="eogonek" unicode="&#x119;" horiz-adv-x="616" 
d="M332 539c182 0 290 -112 261 -304l-3 -20h-352c0 -40 19 -81 74 -81c43 0 59 23 67 50h213c-12 -64 -39 -107 -90 -146c-26 -21 -93 -52 -93 -93c0 -13 8 -20 25 -20c5 0 11 1 18 2l-15 -93c-19 -8 -46 -16 -87 -16c-60 0 -120 17 -120 74c0 53 46 78 86 94h-9
c-156 0 -291 67 -291 244c0 188 138 309 316 309zM329 398c-33 0 -63 -21 -79 -77h139c3 43 -13 77 -60 77z" />
    <glyph glyph-name="Ecaron" unicode="&#x11a;" horiz-adv-x="635" 
d="M129 715h534l-32 -203h-269l-10 -61h212l-28 -182h-212l-11 -66h284l-32 -203h-549zM488 753h-189l-93 155h159l40 -44l50 44h168z" />
    <glyph glyph-name="ecaron" unicode="&#x11b;" horiz-adv-x="616" 
d="M238 215c0 -40 19 -81 74 -81c43 0 59 23 67 50h213c-23 -128 -128 -198 -285 -198c-156 0 -291 67 -291 244c0 188 136 309 316 309c182 0 290 -112 261 -304l-3 -20h-352zM329 398c-33 0 -63 -21 -79 -77h139c3 43 -13 77 -60 77zM410 571h-155l-102 172h152l42 -46
l54 46h161z" />
    <glyph glyph-name="Gcircumflex" unicode="&#x11c;" horiz-adv-x="797" 
d="M402 -14c-216 0 -370 99 -370 318c0 248 173 422 420 422c179 0 333 -76 341 -282h-264c-4 45 -23 73 -86 73c-92 0 -136 -103 -136 -210c0 -77 30 -120 113 -120c64 0 87 27 98 58h-98l26 162h353c-24 -289 -117 -421 -397 -421zM370 908h189l93 -155h-159l-40 44
l-50 -44h-168z" />
    <glyph glyph-name="gcircumflex" unicode="&#x11d;" horiz-adv-x="648" 
d="M268 -195c-199 0 -288 88 -291 207h226c1 -23 16 -53 64 -53c59 0 72 33 77 72l15 94c-31 -49 -80 -86 -160 -86c-100 0 -183 66 -183 209c0 179 108 291 251 291c77 0 123 -36 143 -92l12 76h229l-78 -491c-24 -156 -113 -227 -305 -227zM306 191c59 0 84 57 84 117
c-1 37 -18 68 -55 68c-59 0 -84 -59 -84 -112c0 -43 16 -73 55 -73zM307 743h155l102 -172h-152l-42 46l-54 -46h-161z" />
    <glyph glyph-name="Gbreve" unicode="&#x11e;" horiz-adv-x="797" 
d="M402 -14c-216 0 -370 99 -370 318c0 248 173 422 420 422c179 0 333 -76 341 -282h-264c-4 45 -23 73 -86 73c-92 0 -136 -103 -136 -210c0 -77 30 -120 113 -120c64 0 87 27 98 58h-98l26 162h353c-24 -289 -117 -421 -397 -421zM455 744c-120 0 -177 63 -178 164h140
c1 -21 13 -36 40 -36c23 0 38 12 42 36h142c-19 -108 -86 -164 -186 -164z" />
    <glyph glyph-name="gbreve" unicode="&#x11f;" horiz-adv-x="648" 
d="M268 -195c-199 0 -288 88 -291 207h226c1 -23 16 -53 64 -53c59 0 72 33 77 72l15 94c-31 -49 -80 -86 -160 -86c-100 0 -183 66 -183 209c0 179 108 291 251 291c77 0 123 -36 143 -92l12 76h229l-78 -491c-24 -156 -113 -227 -305 -227zM306 191c59 0 84 57 84 117
c-1 37 -18 68 -55 68c-59 0 -84 -59 -84 -112c0 -43 16 -73 55 -73zM366 570c-113 0 -178 61 -174 172h133c1 -27 16 -40 43 -40s44 15 47 40h135c-16 -115 -81 -172 -184 -172z" />
    <glyph glyph-name="Gdotaccent" unicode="&#x120;" horiz-adv-x="797" 
d="M402 -14c-216 0 -370 99 -370 318c0 248 173 422 420 422c179 0 333 -76 341 -282h-264c-4 45 -23 73 -86 73c-92 0 -136 -103 -136 -210c0 -77 30 -120 113 -120c64 0 87 27 98 58h-98l26 162h353c-24 -289 -117 -421 -397 -421zM449 742c-68 0 -116 43 -116 106
s49 107 116 107s117 -44 117 -107s-50 -106 -117 -106z" />
    <glyph glyph-name="gdotaccent" unicode="&#x121;" horiz-adv-x="648" 
d="M268 -195c-199 0 -288 88 -291 207h226c1 -23 16 -53 64 -53c59 0 72 33 77 72l15 94c-31 -49 -80 -86 -160 -86c-100 0 -183 66 -183 209c0 179 108 291 251 291c77 0 123 -36 143 -92l12 76h229l-78 -491c-24 -156 -113 -227 -305 -227zM306 191c59 0 84 57 84 117
c-1 37 -18 68 -55 68c-59 0 -84 -59 -84 -112c0 -43 16 -73 55 -73zM354 551c-68 0 -116 43 -116 106s49 107 116 107s117 -44 117 -107s-50 -106 -117 -106z" />
    <glyph glyph-name="uni0122" unicode="&#x122;" horiz-adv-x="797" 
d="M402 -14c-216 0 -370 99 -370 318c0 248 173 422 420 422c179 0 333 -76 341 -282h-264c-4 45 -23 73 -86 73c-92 0 -136 -103 -136 -210c0 -77 30 -120 113 -120c64 0 87 27 98 58h-98l26 162h353c-24 -289 -117 -421 -397 -421zM226 -209l41 173h197l-114 -200z" />
    <glyph glyph-name="uni0123" unicode="&#x123;" horiz-adv-x="648" 
d="M268 -195c-199 0 -288 88 -291 207h226c1 -23 16 -53 64 -53c59 0 72 33 77 72l15 94c-31 -49 -80 -86 -160 -86c-100 0 -183 66 -183 209c0 179 108 291 251 291c77 0 123 -36 143 -92l12 76h229l-78 -491c-24 -156 -113 -227 -305 -227zM306 191c59 0 84 57 84 117
c-1 37 -18 68 -55 68c-59 0 -84 -59 -84 -112c0 -43 16 -73 55 -73zM493 735l-41 -173h-197l114 200z" />
    <glyph glyph-name="Hcircumflex" unicode="&#x124;" horiz-adv-x="812" 
d="M129 715h267l-39 -247h163l39 247h266l-113 -715h-266l41 263h-163l-41 -263h-267zM401 908h189l93 -155h-159l-40 44l-50 -44h-168z" />
    <glyph glyph-name="hcircumflex" unicode="&#x125;" horiz-adv-x="635" 
d="M112 743h229l-50 -314c37 63 94 110 179 110c94 0 166 -65 142 -223l-50 -316h-229l45 287c7 47 -8 70 -43 70c-41 0 -59 -23 -67 -76l-44 -281h-229zM321 933h189l93 -155h-159l-40 44l-50 -44h-168z" />
    <glyph glyph-name="Hbar" unicode="&#x126;" horiz-adv-x="812" 
d="M63 646h55l11 69h267l-11 -69h163l11 69h266l-11 -69h55l-18 -111h-55l-84 -535h-266l41 263h-163l-41 -263h-267l84 535h-55zM520 468l10 67h-163l-10 -67h163z" />
    <glyph glyph-name="hbar" unicode="&#x127;" horiz-adv-x="635" 
d="M56 686h47l9 57h229l-9 -57h143l-18 -114h-143l-23 -143c37 63 94 110 179 110c94 0 166 -65 142 -223l-50 -316h-229l45 287c7 47 -8 70 -43 70c-41 0 -59 -23 -67 -76l-44 -281h-229l90 572h-47z" />
    <glyph glyph-name="Itilde" unicode="&#x128;" horiz-adv-x="391" 
d="M132 715h269l-113 -715h-269zM348 750c-63 0 -92 29 -123 29c-15 0 -27 -11 -30 -26h-123c19 121 81 172 149 172c58 0 92 -29 126 -29c15 0 26 9 31 26h123c-21 -122 -88 -172 -153 -172z" />
    <glyph glyph-name="itilde" unicode="&#x129;" horiz-adv-x="316" 
d="M84 523h228l-82 -523h-228zM281 570c-63 0 -89 29 -120 29c-15 0 -25 -11 -29 -26h-116c19 123 71 176 139 176c60 0 88 -29 124 -29c17 0 24 10 29 26h116c-19 -122 -78 -176 -143 -176z" />
    <glyph glyph-name="Imacron" unicode="&#x12a;" horiz-adv-x="391" 
d="M132 715h269l-113 -715h-269zM114 893h351l-20 -129h-351z" />
    <glyph glyph-name="imacron" unicode="&#x12b;" horiz-adv-x="316" 
d="M93 712h272l-19 -119h-272zM84 523h228l-82 -523h-228z" />
    <glyph glyph-name="Ibreve" unicode="&#x12c;" horiz-adv-x="391" 
d="M132 715h269l-113 -715h-269zM281 744c-120 0 -177 63 -178 164h140c1 -21 13 -36 40 -36c23 0 38 12 42 36h142c-19 -108 -86 -164 -186 -164z" />
    <glyph glyph-name="ibreve" unicode="&#x12d;" horiz-adv-x="316" 
d="M84 523h228l-82 -523h-228zM213 570c-113 0 -178 61 -174 172h133c1 -27 16 -40 43 -40s44 15 47 40h135c-16 -115 -81 -172 -184 -172z" />
    <glyph glyph-name="Iogonek" unicode="&#x12e;" horiz-adv-x="391" 
d="M132 715h269l-110 -697c-39 -29 -58 -54 -58 -73c0 -13 8 -20 25 -20c5 0 11 1 18 2l-15 -93c-19 -8 -46 -16 -87 -16c-60 0 -120 17 -120 78c0 56 56 91 101 104h-136z" />
    <glyph glyph-name="iogonek" unicode="&#x12f;" horiz-adv-x="316" 
d="M84 523h228l-79 -506c-39 -27 -58 -51 -58 -72c0 -13 8 -20 25 -20c5 0 11 1 18 2l-15 -93c-19 -8 -46 -16 -87 -16c-60 0 -120 17 -120 78c0 56 56 91 101 104h-95zM216 544c-69 0 -117 46 -117 110s49 110 118 110c68 0 118 -46 118 -110s-51 -110 -119 -110z" />
    <glyph glyph-name="Idotaccent" unicode="&#x130;" horiz-adv-x="391" 
d="M132 715h269l-113 -715h-269zM274 742c-68 0 -116 43 -116 106s49 107 116 107s117 -44 117 -107s-50 -106 -117 -106z" />
    <glyph glyph-name="dotlessi" unicode="&#x131;" horiz-adv-x="316" 
d="M84 523h228l-82 -523h-228z" />
    <glyph glyph-name="IJ" unicode="&#x132;" horiz-adv-x="879" 
d="M132 715h269l-113 -715h-269zM533 -9c-89 0 -140 17 -171 32l31 194c23 -8 51 -16 88 -16c41 0 77 16 85 69l71 445h267l-72 -454c-29 -185 -130 -270 -299 -270z" />
    <glyph glyph-name="ij" unicode="&#x133;" horiz-adv-x="316" 
d="M216 544c-69 0 -117 46 -117 110s49 110 118 110c68 0 118 -46 118 -110s-51 -110 -119 -110zM84 523h228l-82 -523h-228zM257 -20c36 3 59 13 64 48l78 495h228l-82 -518c-16 -106 -81 -197 -312 -184zM531 544c-69 0 -117 46 -117 110s49 110 118 110
c68 0 118 -46 118 -110s-51 -110 -119 -110z" />
    <glyph glyph-name="Jcircumflex" unicode="&#x134;" horiz-adv-x="508" 
d="M162 -9c-89 0 -140 17 -171 32l31 194c23 -8 51 -16 88 -16c41 0 77 16 85 69l71 445h267l-72 -454c-29 -185 -130 -270 -299 -270zM324 908h189l93 -155h-159l-40 44l-50 -44h-168z" />
    <glyph glyph-name="jcircumflex" unicode="&#x135;" horiz-adv-x="316" 
d="M-59 -20c36 3 59 13 64 48l78 495h228l-82 -518c-16 -106 -81 -197 -312 -184zM145 743h155l102 -172h-152l-42 46l-54 -46h-161z" />
    <glyph glyph-name="uni0136" unicode="&#x136;" horiz-adv-x="782" 
d="M129 715h267l-39 -248l212 248h282l-300 -341l184 -374h-286l-123 274l-43 -274h-267zM212 -209l41 173h197l-114 -200z" />
    <glyph glyph-name="uni0137" unicode="&#x137;" horiz-adv-x="609" 
d="M112 743h229l-65 -408l135 188h241l-191 -243l111 -280h-243l-72 209l-33 -209h-229zM140 -209l41 173h197l-114 -200z" />
    <glyph glyph-name="Lacute" unicode="&#x139;" horiz-adv-x="595" 
d="M129 715h267l-81 -511h241l-32 -204h-508zM226 908h229l-118 -155h-173z" />
    <glyph glyph-name="lacute" unicode="&#x13a;" horiz-adv-x="312" 
d="M118 743h227l-117 -743h-227zM199 933h229l-118 -155h-173z" />
    <glyph glyph-name="uni013B" unicode="&#x13b;" horiz-adv-x="595" 
d="M129 715h267l-81 -511h241l-32 -204h-508zM125 -209l41 173h197l-114 -200z" />
    <glyph glyph-name="uni013C" unicode="&#x13c;" horiz-adv-x="312" 
d="M118 743h227l-117 -743h-227zM-32 -209l41 173h197l-114 -200z" />
    <glyph glyph-name="Lcaron" unicode="&#x13d;" horiz-adv-x="595" 
d="M457 715h176l-92 -186h-127zM129 715h267l-81 -511h241l-32 -204h-508z" />
    <glyph glyph-name="lcaron" unicode="&#x13e;" horiz-adv-x="312" 
d="M118 743h227l-117 -743h-227zM383 743h153l-77 -174h-110z" />
    <glyph glyph-name="Ldot" unicode="&#x13f;" horiz-adv-x="635" 
d="M129 715h267l-81 -511h241l-32 -204h-508zM535 290c-71 0 -122 53 -122 120c0 66 50 120 121 120c73 0 127 -54 127 -120c0 -67 -53 -120 -126 -120z" />
    <glyph glyph-name="ldot" unicode="&#x140;" horiz-adv-x="520" 
d="M118 743h227l-117 -743h-227zM428 236c-71 0 -122 53 -122 120c0 66 50 120 121 120c73 0 127 -54 127 -120c0 -67 -53 -120 -126 -120z" />
    <glyph glyph-name="Lslash" unicode="&#x141;" horiz-adv-x="613" 
d="M28 350l64 20l55 345h267l-41 -256l179 57l-22 -134l-178 -57l-19 -121h241l-32 -204h-508l37 236l-63 -20z" />
    <glyph glyph-name="lslash" unicode="&#x142;" horiz-adv-x="363" 
d="M32 377l57 23l54 343h227l-38 -243l60 25l-22 -142l-61 -25l-56 -358h-227l40 258l-56 -23z" />
    <glyph glyph-name="Nacute" unicode="&#x143;" horiz-adv-x="805" 
d="M129 715h294l108 -317l50 317h236l-113 -715h-250l-142 375l-59 -375h-237zM452 908h229l-118 -155h-173z" />
    <glyph glyph-name="nacute" unicode="&#x144;" horiz-adv-x="635" 
d="M49 344c12 77 18 130 21 179h225c0 -25 -2 -66 -6 -97c37 63 96 113 181 113c94 0 166 -65 142 -223l-50 -316h-229l45 287c7 47 -8 70 -43 70c-41 0 -59 -23 -67 -76l-44 -281h-229zM340 743h219l-127 -175h-163z" />
    <glyph glyph-name="uni0145" unicode="&#x145;" horiz-adv-x="805" 
d="M129 715h294l108 -317l50 317h236l-113 -715h-250l-142 375l-59 -375h-237zM215 -209l41 173h197l-114 -200z" />
    <glyph glyph-name="uni0146" unicode="&#x146;" horiz-adv-x="635" 
d="M49 344c12 77 18 130 21 179h225c0 -25 -2 -66 -6 -97c37 63 96 113 181 113c94 0 166 -65 142 -223l-50 -316h-229l45 287c7 47 -8 70 -43 70c-41 0 -59 -23 -67 -76l-44 -281h-229zM139 -209l41 173h197l-114 -200z" />
    <glyph glyph-name="Ncaron" unicode="&#x147;" horiz-adv-x="805" 
d="M129 715h294l108 -317l50 317h236l-113 -715h-250l-142 375l-59 -375h-237zM583 753h-189l-93 155h159l40 -44l50 44h168z" />
    <glyph glyph-name="ncaron" unicode="&#x148;" horiz-adv-x="635" 
d="M49 344c12 77 18 130 21 179h225c0 -25 -2 -66 -6 -97c37 63 96 113 181 113c94 0 166 -65 142 -223l-50 -316h-229l45 287c7 47 -8 70 -43 70c-41 0 -59 -23 -67 -76l-44 -281h-229zM426 571h-155l-102 172h152l42 -46l54 46h161z" />
    <glyph glyph-name="napostrophe" unicode="&#x149;" horiz-adv-x="814" 
d="M228 344c12 77 18 130 21 179h225c0 -25 -2 -66 -6 -97c37 63 96 113 181 113c94 0 166 -65 142 -223l-50 -316h-229l45 287c7 47 -8 70 -43 70c-41 0 -59 -23 -67 -76l-44 -281h-229zM297 667l-170 -270l-123 45l99 287z" />
    <glyph glyph-name="Eng" unicode="&#x14a;" horiz-adv-x="805" 
d="M425 -192c-72 0 -115 10 -146 25l29 183c20 -7 37 -11 70 -11c31 0 53 7 66 22l-132 348l-59 -375h-237l113 715h295l107 -317l50 317h236l-110 -695c-21 -123 -103 -212 -282 -212z" />
    <glyph glyph-name="eng" unicode="&#x14b;" horiz-adv-x="638" 
d="M563 5c-16 -106 -81 -197 -313 -184l24 159c36 3 59 13 64 48l40 259c7 47 -8 70 -43 70c-41 0 -59 -23 -67 -76l-44 -281h-229l54 344c12 77 18 130 21 179h225c0 -25 -2 -66 -6 -97c37 63 96 113 181 113c94 0 166 -65 142 -223z" />
    <glyph glyph-name="Omacron" unicode="&#x14c;" horiz-adv-x="823" 
d="M308 307c0 -63 25 -113 100 -113c100 0 135 109 135 208c0 64 -24 114 -98 117c-96 3 -137 -107 -137 -212zM387 -14c-186 0 -355 101 -355 310c0 258 170 430 421 430c195 0 367 -95 367 -314c0 -256 -168 -426 -433 -426zM308 893h351l-20 -129h-351z" />
    <glyph glyph-name="omacron" unicode="&#x14d;" horiz-adv-x="629" 
d="M244 226c0 -32 8 -74 59 -74c59 0 82 66 82 152c0 35 -15 68 -56 68c-61 0 -85 -62 -85 -146zM300 -14c-140 0 -283 66 -283 242c0 180 125 311 314 311c140 0 283 -70 283 -247c0 -183 -128 -306 -314 -306zM197 712h331l-19 -119h-331z" />
    <glyph glyph-name="Obreve" unicode="&#x14e;" horiz-adv-x="823" 
d="M308 307c0 -63 25 -113 100 -113c100 0 135 109 135 208c0 64 -24 114 -98 117c-96 3 -137 -107 -137 -212zM387 -14c-186 0 -355 101 -355 310c0 258 170 430 421 430c195 0 367 -95 367 -314c0 -256 -168 -426 -433 -426zM474 744c-120 0 -177 63 -178 164h140
c1 -21 13 -36 40 -36c23 0 38 12 42 36h142c-19 -108 -86 -164 -186 -164z" />
    <glyph glyph-name="obreve" unicode="&#x14f;" horiz-adv-x="629" 
d="M244 226c0 -32 8 -74 59 -74c59 0 82 66 82 152c0 35 -15 68 -56 68c-61 0 -85 -62 -85 -146zM300 -14c-140 0 -283 66 -283 242c0 180 125 311 314 311c140 0 283 -70 283 -247c0 -183 -128 -306 -314 -306zM346 570c-113 0 -178 61 -174 172h133c1 -27 16 -40 43 -40
s44 15 47 40h135c-16 -115 -81 -172 -184 -172z" />
    <glyph glyph-name="Ohungarumlaut" unicode="&#x150;" horiz-adv-x="823" 
d="M308 307c0 -63 25 -113 100 -113c100 0 135 109 135 208c0 64 -24 114 -98 117c-96 3 -137 -107 -137 -212zM387 -14c-186 0 -355 101 -355 310c0 258 170 430 421 430c195 0 367 -95 367 -314c0 -256 -168 -426 -433 -426zM343 908h183l-93 -155h-150zM558 908h183
l-93 -155h-150z" />
    <glyph glyph-name="ohungarumlaut" unicode="&#x151;" horiz-adv-x="629" 
d="M244 226c0 -32 8 -74 59 -74c59 0 82 66 82 152c0 35 -15 68 -56 68c-61 0 -85 -62 -85 -146zM300 -14c-140 0 -283 66 -283 242c0 180 125 311 314 311c140 0 283 -70 283 -247c0 -183 -128 -306 -314 -306zM245 743h163l-101 -175h-130zM434 743h163l-101 -175h-130z
" />
    <glyph glyph-name="OE" unicode="&#x152;" horiz-adv-x="996" 
d="M1024 715l-32 -203h-255l-10 -61h198l-28 -182h-198l-11 -66h270l-32 -203h-525c-241 0 -369 100 -369 297c0 279 177 418 420 418h572zM449 514c-92 0 -141 -76 -141 -205c0 -80 37 -108 108 -108h9l50 313h-26z" />
    <glyph glyph-name="oe" unicode="&#x153;" horiz-adv-x="982" 
d="M698 539c182 0 290 -112 261 -304l-3 -20h-352c0 -40 19 -81 74 -81c43 0 59 23 67 50h213c-23 -128 -128 -198 -285 -198c-77 0 -144 18 -192 62c-48 -40 -109 -62 -181 -62c-140 0 -283 69 -283 244c0 180 125 309 314 309c69 0 136 -20 183 -67c51 43 113 67 184 67z
M244 226c0 -32 8 -74 59 -74c59 0 82 66 82 152c0 35 -15 68 -56 68c-61 0 -85 -62 -85 -146zM695 398c-33 0 -63 -21 -79 -77h139c3 43 -13 77 -60 77z" />
    <glyph glyph-name="Racute" unicode="&#x154;" horiz-adv-x="733" 
d="M129 715h303c200 0 286 -86 286 -214c0 -115 -58 -187 -146 -218l114 -283h-266l-89 227h-15l-35 -227h-265zM384 394c45 0 75 18 75 69c0 36 -22 54 -65 54h-32l-19 -123h41zM367 908h229l-118 -155h-173z" />
    <glyph glyph-name="racute" unicode="&#x155;" horiz-adv-x="458" 
d="M49 344c12 77 17 130 20 179h225c0 -25 -3 -80 -8 -123c39 92 104 132 188 129l-33 -213c-113 9 -169 -18 -184 -106l-33 -210h-229zM285 743h219l-127 -175h-163z" />
    <glyph glyph-name="uni0156" unicode="&#x156;" horiz-adv-x="733" 
d="M129 715h303c200 0 286 -86 286 -214c0 -115 -58 -187 -146 -218l114 -283h-266l-89 227h-15l-35 -227h-265zM384 394c45 0 75 18 75 69c0 36 -22 54 -65 54h-32l-19 -123h41zM194 -209l41 173h197l-114 -200z" />
    <glyph glyph-name="uni0157" unicode="&#x157;" horiz-adv-x="458" 
d="M49 344c12 77 17 130 20 179h225c0 -25 -3 -80 -8 -123c39 92 104 132 188 129l-33 -213c-113 9 -169 -18 -184 -106l-33 -210h-229zM-38 -209l41 173h197l-114 -200z" />
    <glyph glyph-name="Rcaron" unicode="&#x158;" horiz-adv-x="733" 
d="M129 715h303c200 0 286 -86 286 -214c0 -115 -58 -187 -146 -218l114 -283h-266l-89 227h-15l-35 -227h-265zM384 394c45 0 75 18 75 69c0 36 -22 54 -65 54h-32l-19 -123h41zM498 753h-189l-93 155h159l40 -44l50 44h168z" />
    <glyph glyph-name="rcaron" unicode="&#x159;" horiz-adv-x="458" 
d="M49 344c12 77 17 130 20 179h225c0 -25 -3 -80 -8 -123c39 92 104 132 188 129l-33 -213c-113 9 -169 -18 -184 -106l-33 -210h-229zM370 571h-155l-102 172h152l42 -46l54 46h161z" />
    <glyph glyph-name="Sacute" unicode="&#x15a;" horiz-adv-x="657" 
d="M317 -14c-200 0 -322 81 -319 246h249c1 -35 18 -61 75 -61c37 0 56 13 56 38c0 20 -22 31 -74 40c-187 32 -251 96 -251 219c0 148 111 258 311 258c184 0 295 -71 292 -237h-243c-2 35 -20 52 -55 52c-33 0 -49 -11 -49 -34s19 -32 74 -41c164 -27 256 -84 256 -215
c0 -157 -110 -262 -322 -265zM350 908h229l-118 -155h-173z" />
    <glyph glyph-name="sacute" unicode="&#x15b;" horiz-adv-x="530" 
d="M237 -15c-144 0 -252 51 -252 187h211c3 -29 12 -45 47 -45c23 0 38 8 38 27c0 17 -13 25 -81 36c-119 18 -178 61 -178 154c0 132 107 196 259 196c143 0 235 -51 243 -180h-206c-3 23 -13 43 -42 43c-27 0 -39 -11 -39 -27c0 -21 22 -26 66 -34
c147 -27 203 -63 203 -164c0 -136 -116 -193 -269 -193zM275 743h219l-127 -175h-163z" />
    <glyph glyph-name="Scircumflex" unicode="&#x15c;" horiz-adv-x="657" 
d="M317 -14c-200 0 -322 81 -319 246h249c1 -35 18 -61 75 -61c37 0 56 13 56 38c0 20 -22 31 -74 40c-187 32 -251 96 -251 219c0 148 111 258 311 258c184 0 295 -71 292 -237h-243c-2 35 -20 52 -55 52c-33 0 -49 -11 -49 -34s19 -32 74 -41c164 -27 256 -84 256 -215
c0 -157 -110 -262 -322 -265zM315 908h189l93 -155h-159l-40 44l-50 -44h-168z" />
    <glyph glyph-name="scircumflex" unicode="&#x15d;" horiz-adv-x="530" 
d="M237 -15c-144 0 -252 51 -252 187h211c3 -29 12 -45 47 -45c23 0 38 8 38 27c0 17 -13 25 -81 36c-119 18 -178 61 -178 154c0 132 107 196 259 196c143 0 235 -51 243 -180h-206c-3 23 -13 43 -42 43c-27 0 -39 -11 -39 -27c0 -21 22 -26 66 -34
c147 -27 203 -63 203 -164c0 -136 -116 -193 -269 -193zM240 743h155l102 -172h-152l-42 46l-54 -46h-161z" />
    <glyph glyph-name="uni015E" unicode="&#x15e;" horiz-adv-x="657" 
d="M267 -232c-70 0 -135 28 -140 97h100c3 -11 8 -23 31 -23c13 0 30 7 30 30c0 17 -10 26 -30 26c-16 0 -24 -4 -31 -11l-38 42l50 62c-155 19 -242 97 -241 241h249c1 -35 18 -61 75 -61c37 0 56 13 56 38c0 20 -22 31 -74 40c-187 32 -251 96 -251 219
c0 148 111 258 311 258c184 0 295 -71 292 -237h-243c-2 35 -20 52 -55 52c-33 0 -49 -11 -49 -34s19 -32 74 -41c164 -27 256 -84 256 -215c0 -157 -110 -262 -322 -265l-23 -27c60 4 106 -27 106 -83c0 -74 -62 -108 -133 -108z" />
    <glyph glyph-name="uni015F" unicode="&#x15f;" horiz-adv-x="530" 
d="M207 -232c-70 0 -135 28 -140 97h100c3 -11 8 -23 31 -23c13 0 30 7 30 30c0 17 -10 26 -30 26c-16 0 -24 -4 -31 -11l-38 42l48 59c-112 13 -192 67 -192 184h211c3 -29 12 -45 47 -45c23 0 38 8 38 27c0 17 -13 25 -81 36c-119 18 -178 61 -178 154
c0 132 107 196 259 196c143 0 235 -51 243 -180h-206c-3 23 -13 43 -42 43c-27 0 -39 -11 -39 -27c0 -21 22 -26 66 -34c147 -27 203 -63 203 -164c0 -130 -106 -189 -250 -192l-22 -27c60 4 106 -27 106 -83c0 -74 -62 -108 -133 -108z" />
    <glyph glyph-name="Scaron" unicode="&#x160;" horiz-adv-x="657" 
d="M317 -14c-200 0 -322 81 -319 246h249c1 -35 18 -61 75 -61c37 0 56 13 56 38c0 20 -22 31 -74 40c-187 32 -251 96 -251 219c0 148 111 258 311 258c184 0 295 -71 292 -237h-243c-2 35 -20 52 -55 52c-33 0 -49 -11 -49 -34s19 -32 74 -41c164 -27 256 -84 256 -215
c0 -157 -110 -262 -322 -265zM467 753h-189l-93 155h159l40 -44l50 44h168z" />
    <glyph glyph-name="scaron" unicode="&#x161;" horiz-adv-x="530" 
d="M237 -15c-144 0 -252 51 -252 187h211c3 -29 12 -45 47 -45c23 0 38 8 38 27c0 17 -13 25 -81 36c-119 18 -178 61 -178 154c0 132 107 196 259 196c143 0 235 -51 243 -180h-206c-3 23 -13 43 -42 43c-27 0 -39 -11 -39 -27c0 -21 22 -26 66 -34
c147 -27 203 -63 203 -164c0 -136 -116 -193 -269 -193zM359 571h-155l-102 172h152l42 -46l54 46h161z" />
    <glyph glyph-name="Tcommaaccent" unicode="&#x162;" horiz-adv-x="648" 
d="M228 511h-173l33 204h614l-33 -204h-173l-80 -511h-268zM147 -209l41 173h197l-114 -200z" />
    <glyph glyph-name="tcommaaccent" unicode="&#x163;" horiz-adv-x="407" 
d="M235 -14c-132 0 -208 55 -181 220l27 168h-57l23 149h57l17 104h229l-17 -104h93l-23 -149h-93l-25 -158c-7 -39 8 -51 39 -51c12 0 28 1 45 8l-27 -170c-24 -9 -60 -17 -107 -17zM48 -209l41 173h197l-114 -200z" />
    <glyph glyph-name="Tcaron" unicode="&#x164;" horiz-adv-x="648" 
d="M228 511h-173l33 204h614l-33 -204h-173l-80 -511h-268zM489 753h-189l-93 155h159l40 -44l50 44h168z" />
    <glyph glyph-name="tcaron" unicode="&#x165;" horiz-adv-x="407" 
d="M235 -14c-132 0 -208 55 -181 220l27 168h-57l23 149h57l17 104h229l-17 -104h93l-23 -149h-93l-25 -158c-7 -39 8 -51 39 -51c12 0 28 1 45 8l-27 -170c-24 -9 -60 -17 -107 -17zM407 743h153l-77 -174h-110z" />
    <glyph glyph-name="Tbar" unicode="&#x166;" horiz-adv-x="648" 
d="M96 409h116l16 102h-173l33 204h614l-33 -204h-173l-16 -102h116l-25 -161h-116l-39 -248h-268l39 248h-116z" />
    <glyph glyph-name="tbar" unicode="&#x167;" horiz-adv-x="407" 
d="M17 329h57l7 45h-57l23 149h57l17 104h229l-17 -104h93l-23 -149h-93l-7 -45h93l-14 -89h-93l-4 -24c-7 -39 8 -51 39 -51c12 0 28 1 45 8l-27 -170c-24 -9 -60 -17 -107 -17c-132 0 -208 55 -181 220l5 34h-56z" />
    <glyph glyph-name="Utilde" unicode="&#x168;" horiz-adv-x="799" 
d="M391 -14c-234 0 -366 112 -329 335l63 394h266l-64 -402c-12 -76 3 -119 67 -119c67 0 78 41 89 109l65 412h268l-68 -432c-32 -212 -147 -297 -357 -297zM535 750c-63 0 -92 29 -123 29c-15 0 -27 -11 -30 -26h-123c19 121 81 172 149 172c58 0 92 -29 126 -29
c15 0 26 9 31 26h123c-21 -122 -88 -172 -153 -172z" />
    <glyph glyph-name="utilde" unicode="&#x169;" horiz-adv-x="638" 
d="M582 166c-11 -68 -16 -121 -13 -166h-225c-3 21 -1 66 0 94c-39 -64 -95 -108 -179 -108c-94 0 -166 64 -142 221l50 316h229l-48 -301c-7 -47 7 -70 42 -70c40 0 58 23 66 76l47 295h229zM426 570c-63 0 -89 29 -120 29c-15 0 -25 -11 -29 -26h-116
c19 123 71 176 139 176c60 0 88 -29 124 -29c17 0 24 10 29 26h116c-19 -122 -78 -176 -143 -176z" />
    <glyph glyph-name="Umacron" unicode="&#x16a;" horiz-adv-x="799" 
d="M391 -14c-234 0 -366 112 -329 335l63 394h266l-64 -402c-12 -76 3 -119 67 -119c67 0 78 41 89 109l65 412h268l-68 -432c-32 -212 -147 -297 -357 -297zM322 893h351l-20 -129h-351z" />
    <glyph glyph-name="umacron" unicode="&#x16b;" horiz-adv-x="638" 
d="M582 166c-11 -68 -16 -121 -13 -166h-225c-3 21 -1 66 0 94c-39 -64 -95 -108 -179 -108c-94 0 -166 64 -142 221l50 316h229l-48 -301c-7 -47 7 -70 42 -70c40 0 58 23 66 76l47 295h229zM208 712h331l-19 -119h-331z" />
    <glyph glyph-name="Ubreve" unicode="&#x16c;" horiz-adv-x="799" 
d="M391 -14c-234 0 -366 112 -329 335l63 394h266l-64 -402c-12 -76 3 -119 67 -119c67 0 78 41 89 109l65 412h268l-68 -432c-32 -212 -147 -297 -357 -297zM478 744c-120 0 -177 63 -178 164h140c1 -21 13 -36 40 -36c23 0 38 12 42 36h142c-19 -108 -86 -164 -186 -164z
" />
    <glyph glyph-name="ubreve" unicode="&#x16d;" horiz-adv-x="638" 
d="M582 166c-11 -68 -16 -121 -13 -166h-225c-3 21 -1 66 0 94c-39 -64 -95 -108 -179 -108c-94 0 -166 64 -142 221l50 316h229l-48 -301c-7 -47 7 -70 42 -70c40 0 58 23 66 76l47 295h229zM369 570c-113 0 -178 61 -174 172h133c1 -27 16 -40 43 -40s44 15 47 40h135
c-16 -115 -81 -172 -184 -172z" />
    <glyph glyph-name="Uring" unicode="&#x16e;" horiz-adv-x="799" 
d="M391 -14c-234 0 -366 112 -329 335l63 394h266l-64 -402c-12 -76 3 -119 67 -119c67 0 78 41 89 109l65 412h268l-68 -432c-32 -212 -147 -297 -357 -297zM475 792c25 0 43 19 43 47s-18 47 -43 47c-27 0 -43 -19 -43 -47s16 -47 43 -47zM475 717c-69 0 -126 54 -126 122
s57 122 126 122s126 -54 126 -122s-57 -122 -126 -122z" />
    <glyph glyph-name="uring" unicode="&#x16f;" horiz-adv-x="638" 
d="M582 166c-11 -68 -16 -121 -13 -166h-225c-3 21 -1 66 0 94c-39 -64 -95 -108 -179 -108c-94 0 -166 64 -142 221l50 316h229l-48 -301c-7 -47 7 -70 42 -70c40 0 58 23 66 76l47 295h229zM358 641c25 0 42 19 42 46s-17 46 -42 46s-42 -19 -42 -46s17 -46 42 -46z
M358 567c-68 0 -124 54 -124 120s56 120 124 120s124 -54 124 -120s-56 -120 -124 -120z" />
    <glyph glyph-name="Uhungarumlaut" unicode="&#x170;" horiz-adv-x="799" 
d="M391 -14c-234 0 -366 112 -329 335l63 394h266l-64 -402c-12 -76 3 -119 67 -119c67 0 78 41 89 109l65 412h268l-68 -432c-32 -212 -147 -297 -357 -297zM352 908h183l-93 -155h-150zM567 908h183l-93 -155h-150z" />
    <glyph glyph-name="uhungarumlaut" unicode="&#x171;" horiz-adv-x="638" 
d="M582 166c-11 -68 -16 -121 -13 -166h-225c-3 21 -1 66 0 94c-39 -64 -95 -108 -179 -108c-94 0 -166 64 -142 221l50 316h229l-48 -301c-7 -47 7 -70 42 -70c40 0 58 23 66 76l47 295h229zM257 743h163l-101 -175h-130zM446 743h163l-101 -175h-130z" />
    <glyph glyph-name="Uogonek" unicode="&#x172;" horiz-adv-x="799" 
d="M748 283c-24 -153 -85 -236 -222 -282c-40 -13 -84 -23 -84 -56c0 -13 8 -20 25 -20c5 0 11 1 18 2l-15 -93c-19 -8 -46 -16 -87 -16c-60 0 -120 17 -120 78c0 44 34 74 71 93c-200 16 -304 128 -272 332l63 394h266l-64 -402c-12 -76 3 -119 67 -119c67 0 78 41 89 109
l65 412h268z" />
    <glyph glyph-name="uogonek" unicode="&#x173;" horiz-adv-x="638" 
d="M570 10c-23 -23 -44 -44 -44 -65c0 -13 8 -20 25 -20c5 0 11 1 18 2l-15 -93c-19 -8 -46 -16 -87 -16c-60 0 -120 17 -120 78c0 56 56 91 101 104h-104c-3 21 -1 66 0 94c-39 -64 -95 -108 -179 -108c-94 0 -166 64 -142 221l50 316h229l-48 -301c-7 -47 7 -70 42 -70
c40 0 58 23 66 76l47 295h229l-56 -357c-11 -68 -15 -121 -12 -156z" />
    <glyph glyph-name="Wcircumflex" unicode="&#x174;" horiz-adv-x="1027" 
d="M72 715h270l3 -393l130 393h224l20 -398l134 398h243l-279 -715h-258l-24 378l-141 -378h-269zM511 908h189l93 -155h-159l-40 44l-50 -44h-168z" />
    <glyph glyph-name="wcircumflex" unicode="&#x175;" horiz-adv-x="863" 
d="M39 523h231l16 -257l100 257h182l18 -257l100 257h219l-247 -523h-212l-21 240l-96 -240h-218zM415 743h155l102 -172h-152l-42 46l-54 -46h-161z" />
    <glyph glyph-name="Ycircumflex" unicode="&#x176;" horiz-adv-x="722" 
d="M234 304l-164 411h276l59 -190l118 190h265l-287 -424l-46 -291h-268zM359 908h189l93 -155h-159l-40 44l-50 -44h-168z" />
    <glyph glyph-name="ycircumflex" unicode="&#x177;" horiz-adv-x="614" 
d="M168 59l-129 464h238l43 -232l110 232h225l-382 -695h-226zM301 743h155l102 -172h-152l-42 46l-54 -46h-161z" />
    <glyph glyph-name="Ydieresis" unicode="&#x178;" horiz-adv-x="722" 
d="M234 304l-164 411h276l59 -190l118 190h265l-287 -424l-46 -291h-268zM330 742c-57 0 -102 43 -102 99s45 99 102 99s103 -43 103 -99s-46 -99 -103 -99zM563 742c-56 0 -101 43 -101 99s45 99 101 99c59 0 103 -43 103 -99s-44 -99 -103 -99z" />
    <glyph glyph-name="Zacute" unicode="&#x179;" horiz-adv-x="628" 
d="M-33 27l333 495h-217l31 193h585l-5 -27l-332 -492h228l-31 -196h-596zM363 908h229l-118 -155h-173z" />
    <glyph glyph-name="zacute" unicode="&#x17a;" horiz-adv-x="521" 
d="M-35 21l244 337h-171l25 165h491l-3 -21l-257 -339h187l-25 -163h-494zM296 743h219l-127 -175h-163z" />
    <glyph glyph-name="Zdotaccent" unicode="&#x17b;" horiz-adv-x="628" 
d="M-33 27l333 495h-217l31 193h585l-5 -27l-332 -492h228l-31 -196h-596zM407 742c-68 0 -116 43 -116 106s49 107 116 107s117 -44 117 -107s-50 -106 -117 -106z" />
    <glyph glyph-name="zdotaccent" unicode="&#x17c;" horiz-adv-x="521" 
d="M-35 21l244 337h-171l25 165h491l-3 -21l-257 -339h187l-25 -163h-494zM310 551c-68 0 -116 43 -116 106s49 107 116 107s117 -44 117 -107s-50 -106 -117 -106z" />
    <glyph glyph-name="Zcaron" unicode="&#x17d;" horiz-adv-x="628" 
d="M-33 27l333 495h-217l31 193h585l-5 -27l-332 -492h228l-31 -196h-596zM494 753h-189l-93 155h159l40 -44l50 44h168z" />
    <glyph glyph-name="zcaron" unicode="&#x17e;" horiz-adv-x="521" 
d="M-35 21l244 337h-171l25 165h491l-3 -21l-257 -339h187l-25 -163h-494zM382 571h-155l-102 172h152l42 -46l54 46h161z" />
    <glyph glyph-name="uni0192" unicode="&#x192;" horiz-adv-x="473" 
d="M52 415h82l21 110c27 150 141 200 265 200c48 0 69 -3 96 -11l-27 -167c-13 4 -23 5 -46 5c-32 0 -61 -15 -68 -51l-16 -86h108l-23 -149h-113l-83 -448h-226l84 448h-77z" />
    <glyph glyph-name="Aringacute" unicode="&#x1fa;" horiz-adv-x="784" 
d="M454 95h-202l-39 -95h-254l333 715h343l106 -715h-278zM325 273h113l-20 228zM465 812c25 0 43 19 43 47s-18 47 -43 47c-27 0 -43 -19 -43 -47s16 -47 43 -47zM465 737c-69 0 -126 54 -126 122s57 122 126 122s126 -54 126 -122s-57 -122 -126 -122zM454 1150h229
l-118 -155h-173z" />
    <glyph glyph-name="aringacute" unicode="&#x1fb;" horiz-adv-x="595" 
d="M263 134c33 0 57 22 61 49l4 19h-40c-49 0 -64 -12 -64 -36c0 -19 14 -32 39 -32zM318 0c-4 19 -4 45 -4 65c-25 -38 -69 -79 -154 -79c-89 0 -164 51 -164 144c0 140 99 186 286 186h64l1 7c5 33 2 61 -41 61c-36 0 -47 -27 -50 -45h-212c27 129 114 200 273 200
c193 0 277 -82 251 -246l-20 -127c-11 -68 -15 -122 -8 -166h-222zM353 641c25 0 42 19 42 46s-17 46 -42 46s-42 -19 -42 -46s17 -46 42 -46zM353 567c-68 0 -124 54 -124 120s56 120 124 120s124 -54 124 -120s-56 -120 -124 -120zM343 985h229l-118 -155h-173z" />
    <glyph glyph-name="AEacute" unicode="&#x1fc;" horiz-adv-x="1029" 
d="M438 115h-162l-61 -115h-256l405 715h693l-32 -203h-260l-10 -61h203l-28 -182h-203l-11 -66h275l-32 -203h-539zM368 288h97l36 224h-14zM660 908h229l-118 -155h-173z" />
    <glyph glyph-name="aeacute" unicode="&#x1fd;" horiz-adv-x="922" 
d="M315 539c79 0 130 -17 163 -50c47 32 102 50 162 50c181 0 288 -112 259 -304l-3 -20h-352c0 -40 19 -81 74 -81c43 0 59 23 67 50h213c-23 -128 -128 -198 -285 -198c-100 0 -177 24 -222 87c-27 -43 -79 -87 -195 -87c-115 0 -200 52 -200 149c0 135 103 183 286 183
h64l1 7c3 31 2 59 -43 59c-37 0 -50 -26 -54 -45h-212c24 133 128 200 277 200zM635 398c-33 0 -63 -21 -79 -77h139c3 43 -13 77 -60 77zM263 134c33 0 57 21 62 52l4 25h-40c-49 0 -65 -16 -65 -43c0 -23 13 -34 39 -34zM482 743h219l-127 -175h-163z" />
    <glyph glyph-name="Oslashacute" unicode="&#x1fe;" horiz-adv-x="823" 
d="M32 18l74 75c-47 51 -74 116 -74 203c0 258 170 430 421 430c84 0 164 -17 228 -56l72 72l51 -52l-65 -65c51 -51 81 -121 81 -213c0 -256 -168 -426 -433 -426c-84 0 -161 20 -224 60l-80 -80zM552 403c0 11 -1 22 -2 31l-218 -219c18 -16 43 -24 76 -24
c102 0 144 108 144 212zM300 306c0 -7 0 -11 1 -18l213 213c-17 13 -40 20 -69 21c-98 3 -145 -104 -145 -216zM424 908h229l-118 -155h-173z" />
    <glyph glyph-name="oslashacute" unicode="&#x1ff;" horiz-adv-x="629" 
d="M14 4l63 64c-37 39 -60 90 -60 162c0 180 125 309 314 309c59 0 118 -13 167 -41l67 69l46 -44l-62 -63c39 -40 65 -95 65 -170c0 -183 -128 -304 -314 -304c-63 0 -123 12 -174 43l-67 -69zM304 147c61 0 91 69 91 155l-138 -140c11 -9 24 -15 47 -15zM330 376
c-64 0 -95 -60 -95 -147l133 136c-11 7 -23 11 -38 11zM321 743h219l-127 -175h-163z" />
    <glyph glyph-name="uni0218" unicode="&#x218;" horiz-adv-x="657" 
d="M317 -14c-200 0 -322 81 -319 246h249c1 -35 18 -61 75 -61c37 0 56 13 56 38c0 20 -22 31 -74 40c-187 32 -251 96 -251 219c0 148 111 258 311 258c184 0 295 -71 292 -237h-243c-2 35 -20 52 -55 52c-33 0 -49 -11 -49 -34s19 -32 74 -41c164 -27 256 -84 256 -215
c0 -157 -110 -262 -322 -265zM153 -209l41 173h197l-114 -200z" />
    <glyph glyph-name="uni0219" unicode="&#x219;" horiz-adv-x="530" 
d="M237 -15c-144 0 -252 51 -252 187h211c3 -29 12 -45 47 -45c23 0 38 8 38 27c0 17 -13 25 -81 36c-119 18 -178 61 -178 154c0 132 107 196 259 196c143 0 235 -51 243 -180h-206c-3 23 -13 43 -42 43c-27 0 -39 -11 -39 -27c0 -21 22 -26 66 -34
c147 -27 203 -63 203 -164c0 -136 -116 -193 -269 -193zM87 -209l41 173h197l-114 -200z" />
    <glyph glyph-name="uni021A" unicode="&#x21a;" horiz-adv-x="648" 
d="M228 511h-173l33 204h614l-33 -204h-173l-80 -511h-268zM147 -209l41 173h197l-114 -200z" />
    <glyph glyph-name="uni021B" unicode="&#x21b;" horiz-adv-x="407" 
d="M235 -14c-132 0 -208 55 -181 220l27 168h-57l23 149h57l17 104h229l-17 -104h93l-23 -149h-93l-25 -158c-7 -39 8 -51 39 -51c12 0 28 1 45 8l-27 -170c-24 -9 -60 -17 -107 -17zM48 -209l41 173h197l-114 -200z" />
    <glyph glyph-name="uni0237" unicode="&#x237;" horiz-adv-x="316" 
d="M-59 -20c36 3 59 13 64 48l78 495h228l-82 -518c-16 -106 -81 -197 -312 -184z" />
    <glyph glyph-name="circumflex" unicode="&#x2c6;" horiz-adv-x="400" 
d="M195 743h155l102 -172h-152l-42 46l-54 -46h-161z" />
    <glyph glyph-name="caron" unicode="&#x2c7;" horiz-adv-x="400" 
d="M327 571h-155l-102 172h152l42 -46l54 46h161z" />
    <glyph glyph-name="breve" unicode="&#x2d8;" horiz-adv-x="400" 
d="M264 570c-113 0 -178 61 -174 172h133c1 -27 16 -40 43 -40s44 15 47 40h135c-16 -115 -81 -172 -184 -172z" />
    <glyph glyph-name="dotaccent" unicode="&#x2d9;" horiz-adv-x="400" 
d="M262 551c-68 0 -116 43 -116 106s49 107 116 107s117 -44 117 -107s-50 -106 -117 -106z" />
    <glyph glyph-name="ring" unicode="&#x2da;" horiz-adv-x="400" 
d="M266 641c25 0 42 19 42 46s-17 46 -42 46s-42 -19 -42 -46s17 -46 42 -46zM266 567c-68 0 -124 54 -124 120s56 120 124 120s124 -54 124 -120s-56 -120 -124 -120z" />
    <glyph glyph-name="ogonek" unicode="&#x2db;" horiz-adv-x="400" 
d="M131 -182c-60 0 -120 17 -120 78c0 56 56 91 101 104h115c-15 -12 -37 -34 -37 -55c0 -13 8 -20 25 -20c5 0 11 1 18 2l-15 -93c-19 -8 -46 -16 -87 -16z" />
    <glyph glyph-name="tilde" unicode="&#x2dc;" horiz-adv-x="400" 
d="M323 570c-63 0 -89 29 -120 29c-15 0 -25 -11 -29 -26h-116c19 123 71 176 139 176c60 0 88 -29 124 -29c17 0 24 10 29 26h116c-19 -122 -78 -176 -143 -176z" />
    <glyph glyph-name="hungarumlaut" unicode="&#x2dd;" horiz-adv-x="400" 
d="M148 743h163l-101 -175h-130zM337 743h163l-101 -175h-130z" />
    <glyph glyph-name="uni037E" unicode="&#x37e;" horiz-adv-x="336" 
d="M203 266c-71 0 -122 53 -122 120c0 66 50 120 121 120c73 0 127 -54 127 -120c0 -67 -53 -120 -126 -120zM-29 -72l101 284l200 -70l-177 -266z" />
    <glyph glyph-name="tonos" unicode="&#x384;" horiz-adv-x="400" 
d="M230 743h219l-127 -175h-163z" />
    <glyph glyph-name="dieresistonos" unicode="&#x385;" horiz-adv-x="400" 
d="M252 763h154l-102 -195h-118zM473 562c-49 0 -87 37 -87 85s38 85 87 85c51 0 88 -37 88 -85s-37 -85 -88 -85zM93 562c-48 0 -88 37 -88 85s40 85 88 85s88 -37 88 -85s-40 -85 -88 -85z" />
    <glyph glyph-name="Alphatonos" unicode="&#x386;" horiz-adv-x="784" 
d="M454 95h-202l-39 -95h-254l333 715h343l106 -715h-278zM325 273h113l-20 228zM30 715h219l-127 -175h-163z" />
    <glyph glyph-name="anoteleia" unicode="&#x387;" horiz-adv-x="308" 
d="M161 206c-71 0 -122 53 -122 120c0 66 50 120 121 120c73 0 127 -54 127 -120c0 -67 -53 -120 -126 -120z" />
    <glyph glyph-name="Epsilontonos" unicode="&#x388;" horiz-adv-x="635" 
d="M129 715h534l-32 -203h-269l-10 -61h212l-28 -182h-212l-11 -66h284l-32 -203h-549zM-115 715h219l-127 -175h-163z" />
    <glyph glyph-name="Etatonos" unicode="&#x389;" horiz-adv-x="812" 
d="M129 715h267l-39 -247h163l39 247h266l-113 -715h-266l41 263h-163l-41 -263h-267zM-115 715h219l-127 -175h-163z" />
    <glyph glyph-name="Iotatonos" unicode="&#x38a;" horiz-adv-x="391" 
d="M132 715h269l-113 -715h-269zM-115 715h219l-127 -175h-163z" />
    <glyph glyph-name="Omicrontonos" unicode="&#x38c;" horiz-adv-x="823" 
d="M308 307c0 -63 25 -113 100 -113c100 0 135 109 135 208c0 64 -24 114 -98 117c-96 3 -137 -107 -137 -212zM387 -14c-186 0 -355 101 -355 310c0 258 170 430 421 430c195 0 367 -95 367 -314c0 -256 -168 -426 -433 -426zM-55 715h219l-127 -175h-163z" />
    <glyph glyph-name="Upsilontonos" unicode="&#x38e;" horiz-adv-x="722" 
d="M234 304l-164 411h276l59 -190l118 190h265l-287 -424l-46 -291h-268zM-165 715h219l-127 -175h-163z" />
    <glyph glyph-name="Omegatonos" unicode="&#x38f;" horiz-adv-x="829" 
d="M445 519c-109 0 -136 -110 -136 -202c0 -76 25 -137 68 -182l-21 -135h-355l29 192h76c-35 36 -65 100 -65 169c0 237 204 365 409 365c210 0 373 -112 373 -308c0 -81 -41 -178 -105 -226h88l-30 -192h-347l21 135c62 59 98 156 98 250c0 92 -40 134 -103 134zM-60 715
h219l-127 -175h-163z" />
    <glyph glyph-name="iotadieresistonos" unicode="&#x390;" horiz-adv-x="316" 
d="M84 523h228l-82 -523h-228zM202 763h154l-102 -195h-118zM423 562c-49 0 -87 37 -87 85s38 85 87 85c51 0 88 -37 88 -85s-37 -85 -88 -85zM43 562c-48 0 -88 37 -88 85s40 85 88 85s88 -37 88 -85s-40 -85 -88 -85z" />
    <glyph glyph-name="Alpha" unicode="&#x391;" horiz-adv-x="784" 
d="M454 95h-202l-39 -95h-254l333 715h343l106 -715h-278zM325 273h113l-20 228z" />
    <glyph glyph-name="Beta" unicode="&#x392;" horiz-adv-x="709" 
d="M129 715h333c180 0 239 -86 239 -179c0 -96 -65 -152 -141 -168c68 -14 124 -60 124 -147c0 -131 -111 -221 -286 -221h-382zM353 172c45 0 74 27 74 66c0 35 -22 53 -66 53h-40l-19 -119h51zM398 445c43 0 63 19 63 54c0 33 -20 45 -56 45h-44l-16 -99h53z" />
    <glyph glyph-name="Gamma" unicode="&#x393;" horiz-adv-x="581" 
d="M129 715h506l-32 -204h-239l-81 -511h-267z" />
    <glyph glyph-name="uni0394" unicode="&#x394;" horiz-adv-x="797" 
d="M-29 27l318 688h363l97 -688l-4 -27h-778zM296 201h166l-30 327z" />
    <glyph glyph-name="Epsilon" unicode="&#x395;" horiz-adv-x="635" 
d="M129 715h534l-32 -203h-269l-10 -61h212l-28 -182h-212l-11 -66h284l-32 -203h-549z" />
    <glyph glyph-name="Zeta" unicode="&#x396;" horiz-adv-x="628" 
d="M-33 27l333 495h-217l31 193h585l-5 -27l-332 -492h228l-31 -196h-596z" />
    <glyph glyph-name="Eta" unicode="&#x397;" horiz-adv-x="812" 
d="M129 715h267l-39 -247h163l39 247h266l-113 -715h-266l41 263h-163l-41 -263h-267z" />
    <glyph glyph-name="Theta" unicode="&#x398;" horiz-adv-x="847" 
d="M845 415c0 -268 -172 -429 -443 -429c-235 0 -369 122 -369 309c0 276 180 431 432 431c219 0 380 -99 380 -311zM571 399c0 83 -40 126 -112 126c-103 0 -154 -112 -154 -209c0 -80 38 -128 114 -128c103 0 152 104 152 211zM378 433h143l-24 -147h-143z" />
    <glyph glyph-name="Iota" unicode="&#x399;" horiz-adv-x="391" 
d="M132 715h269l-113 -715h-269z" />
    <glyph glyph-name="Kappa" unicode="&#x39a;" horiz-adv-x="782" 
d="M129 715h267l-39 -248l212 248h282l-300 -341l184 -374h-286l-123 274l-43 -274h-267z" />
    <glyph glyph-name="Lambda" unicode="&#x39b;" horiz-adv-x="762" 
d="M718 0h-282l-44 426l-178 -426h-255l337 715h308z" />
    <glyph glyph-name="Mu" unicode="&#x39c;" horiz-adv-x="986" 
d="M129 715h332l48 -286l143 286h346l-113 -715h-265l60 380l-202 -380h-90l-76 380l-60 -380h-236z" />
    <glyph glyph-name="Nu" unicode="&#x39d;" horiz-adv-x="805" 
d="M129 715h294l108 -317l50 317h236l-113 -715h-250l-142 375l-59 -375h-237z" />
    <glyph glyph-name="Xi" unicode="&#x39e;" horiz-adv-x="648" 
d="M678 715l-33 -209h-572l33 209h572zM590 451l-29 -184h-476l29 184h476zM24 210h584l-33 -210h-583z" />
    <glyph glyph-name="Omicron" unicode="&#x39f;" horiz-adv-x="823" 
d="M308 307c0 -63 25 -113 100 -113c100 0 135 109 135 208c0 64 -24 114 -98 117c-96 3 -137 -107 -137 -212zM387 -14c-186 0 -355 101 -355 310c0 258 170 430 421 430c195 0 367 -95 367 -314c0 -256 -168 -426 -433 -426z" />
    <glyph glyph-name="Pi" unicode="&#x3a0;" horiz-adv-x="808" 
d="M129 715h692l-113 -715h-266l79 502h-159l-79 -502h-267z" />
    <glyph glyph-name="Rho" unicode="&#x3a1;" horiz-adv-x="688" 
d="M129 715h287c192 0 288 -87 288 -214c0 -180 -111 -285 -314 -285h-73l-34 -216h-267zM376 392c48 0 77 25 77 76c0 32 -22 53 -66 53h-24l-20 -129h33z" />
    <glyph glyph-name="Sigma" unicode="&#x3a3;" horiz-adv-x="630" 
d="M340 203h252l-32 -203h-563l25 162l175 197l-114 166l30 190h547l-30 -193h-247l105 -153z" />
    <glyph glyph-name="Tau" unicode="&#x3a4;" horiz-adv-x="648" 
d="M228 511h-173l33 204h614l-33 -204h-173l-80 -511h-268z" />
    <glyph glyph-name="Upsilon" unicode="&#x3a5;" horiz-adv-x="722" 
d="M234 304l-164 411h276l59 -190l118 190h265l-287 -424l-46 -291h-268z" />
    <glyph glyph-name="Phi" unicode="&#x3a6;" horiz-adv-x="1002" 
d="M333 -30l11 70c-203 19 -309 122 -309 282c0 235 186 359 411 367l9 56h239l-10 -60c188 -19 316 -110 316 -276c0 -244 -184 -367 -418 -372l-10 -67h-239zM284 338c0 -61 30 -99 89 -113l44 278c-77 -13 -133 -69 -133 -165zM750 389c0 64 -36 99 -95 111l-43 -277
c79 13 138 74 138 166z" />
    <glyph glyph-name="Chi" unicode="&#x3a7;" horiz-adv-x="783" 
d="M239 377l-141 338h287l52 -179l104 179h275l-230 -345l155 -370h-286l-72 218l-137 -218h-278z" />
    <glyph glyph-name="Psi" unicode="&#x3a8;" horiz-adv-x="961" 
d="M956 470c-32 -203 -146 -310 -374 -319l-24 -151h-239l24 154c-160 21 -257 105 -278 226c-6 32 -6 67 0 104l36 231h251l-37 -234c-5 -35 -5 -62 6 -85c9 -21 26 -37 53 -46l58 365h239l-58 -366c60 15 95 54 107 130l36 236h238z" />
    <glyph glyph-name="uni03A9" unicode="&#x3a9;" horiz-adv-x="829" 
d="M445 519c-109 0 -136 -110 -136 -202c0 -76 25 -137 68 -182l-21 -135h-355l29 192h76c-35 36 -65 100 -65 169c0 237 204 365 409 365c210 0 373 -112 373 -308c0 -81 -41 -178 -105 -226h88l-30 -192h-347l21 135c62 59 98 156 98 250c0 92 -40 134 -103 134z" />
    <glyph glyph-name="Iotadieresis" unicode="&#x3aa;" horiz-adv-x="391" 
d="M132 715h269l-113 -715h-269zM166 742c-57 0 -102 43 -102 99s45 99 102 99s103 -43 103 -99s-46 -99 -103 -99zM399 742c-56 0 -101 43 -101 99s45 99 101 99c59 0 103 -43 103 -99s-44 -99 -103 -99z" />
    <glyph glyph-name="Upsilondieresis" unicode="&#x3ab;" horiz-adv-x="722" 
d="M234 304l-164 411h276l59 -190l118 190h265l-287 -424l-46 -291h-268zM330 742c-57 0 -102 43 -102 99s45 99 102 99s103 -43 103 -99s-46 -99 -103 -99zM563 742c-56 0 -101 43 -101 99s45 99 101 99c59 0 103 -43 103 -99s-44 -99 -103 -99z" />
    <glyph glyph-name="alphatonos" unicode="&#x3ac;" horiz-adv-x="647" 
d="M591 166c-11 -68 -15 -121 -11 -166h-227c-5 20 -5 56 -5 84c-37 -63 -85 -98 -157 -98c-107 0 -179 76 -179 220c0 220 118 333 246 333c76 0 129 -35 148 -91l12 75h229zM328 373c-47 0 -82 -54 -82 -142c0 -48 16 -77 55 -77c50 0 83 66 83 143c0 51 -19 76 -56 76z
M380 743h219l-127 -175h-163z" />
    <glyph glyph-name="epsilontonos" unicode="&#x3ad;" horiz-adv-x="587" 
d="M373 350c-4 32 -27 46 -56 46c-22 0 -53 -11 -53 -40c0 -19 10 -33 41 -33h87l-17 -109h-86c-20 0 -53 -7 -53 -38c0 -20 16 -38 61 -38c47 0 63 23 67 47h205c-19 -124 -112 -199 -293 -199c-187 0 -271 68 -271 153c0 72 52 118 124 135c-48 11 -83 48 -83 101
c0 119 134 164 265 164c168 0 262 -65 265 -189h-203zM321 743h219l-127 -175h-163z" />
    <glyph glyph-name="etatonos" unicode="&#x3ae;" horiz-adv-x="635" 
d="M49 344c12 77 18 130 21 179h225c0 -25 -2 -66 -6 -97c37 63 96 113 181 113c94 0 166 -65 142 -223l-77 -488h-229l72 459c7 47 -8 70 -43 70c-41 0 -59 -23 -67 -76l-44 -281h-229zM350 743h219l-127 -175h-163z" />
    <glyph glyph-name="iotatonos" unicode="&#x3af;" horiz-adv-x="316" 
d="M84 523h228l-82 -523h-228zM197 743h219l-127 -175h-163z" />
    <glyph glyph-name="upsilondieresistonos" unicode="&#x3b0;" horiz-adv-x="623" 
d="M250 229c-1 -8 -2 -15 -2 -22c0 -35 15 -55 48 -55c39 0 53 23 60 70l48 301h229l-47 -296c-27 -163 -117 -241 -306 -241c-176 0 -257 99 -257 227c0 17 1 33 4 52l41 258h229zM352 763h154l-102 -195h-118zM573 562c-49 0 -87 37 -87 85s38 85 87 85
c51 0 88 -37 88 -85s-37 -85 -88 -85zM193 562c-48 0 -88 37 -88 85s40 85 88 85s88 -37 88 -85s-40 -85 -88 -85z" />
    <glyph glyph-name="alpha" unicode="&#x3b1;" horiz-adv-x="647" 
d="M591 166c-11 -68 -15 -121 -11 -166h-227c-5 20 -5 56 -5 84c-37 -63 -85 -98 -157 -98c-107 0 -179 76 -179 220c0 220 118 333 246 333c76 0 129 -35 148 -91l12 75h229zM328 373c-47 0 -82 -54 -82 -142c0 -48 16 -77 55 -77c50 0 83 66 83 143c0 51 -19 76 -56 76z
" />
    <glyph glyph-name="beta" unicode="&#x3b2;" horiz-adv-x="647" 
d="M261 238c-8 -52 19 -82 55 -82c59 0 85 65 85 118c0 41 -22 64 -78 61l21 136c48 0 91 20 91 75c0 27 -20 54 -57 54c-39 0 -64 -30 -72 -82zM196 -172h-229l107 677c27 168 145 253 309 253c120 0 252 -44 252 -183c0 -77 -45 -147 -125 -172c80 -21 120 -92 120 -163
c0 -147 -93 -254 -244 -254c-58 0 -130 28 -149 95z" />
    <glyph glyph-name="gamma" unicode="&#x3b3;" horiz-adv-x="630" 
d="M449 523h226l-291 -516l-29 -179h-228l29 179l-120 516h236l40 -280z" />
    <glyph glyph-name="delta" unicode="&#x3b4;" horiz-adv-x="629" 
d="M593 573h-171l79 -82c56 -59 108 -124 108 -215c0 -177 -136 -290 -309 -290c-158 0 -283 84 -283 233c0 140 83 252 237 252c1 0 8 0 11 -1l-123 130l23 143h455zM243 219c0 -39 18 -67 62 -67c61 0 78 78 78 130c0 40 -22 70 -61 70c-60 0 -79 -74 -79 -133z" />
    <glyph glyph-name="epsilon" unicode="&#x3b5;" horiz-adv-x="587" 
d="M373 350c-4 32 -27 46 -56 46c-22 0 -53 -11 -53 -40c0 -19 10 -33 41 -33h87l-17 -109h-86c-20 0 -53 -7 -53 -38c0 -20 16 -38 61 -38c47 0 63 23 67 47h205c-19 -124 -112 -199 -293 -199c-187 0 -271 68 -271 153c0 72 52 118 124 135c-48 11 -83 48 -83 101
c0 119 134 164 265 164c168 0 262 -65 265 -189h-203z" />
    <glyph glyph-name="zeta" unicode="&#x3b6;" horiz-adv-x="525" 
d="M488 46c0 -63 -31 -130 -60 -190h-164c13 31 33 88 33 108c0 27 -13 36 -44 36h-30c-144 0 -206 73 -206 180c0 161 114 280 218 373h-137l30 190h485l-8 -46c-176 -174 -358 -354 -358 -470c0 -32 22 -48 65 -48h32c102 0 144 -60 144 -133z" />
    <glyph glyph-name="eta" unicode="&#x3b7;" horiz-adv-x="635" 
d="M49 344c12 77 18 130 21 179h225c0 -25 -2 -66 -6 -97c37 63 96 113 181 113c94 0 166 -65 142 -223l-77 -488h-229l72 459c7 47 -8 70 -43 70c-41 0 -59 -23 -67 -76l-44 -281h-229z" />
    <glyph glyph-name="theta" unicode="&#x3b8;" horiz-adv-x="642" 
d="M638 488c0 -110 -19 -251 -77 -349c-53 -91 -138 -153 -275 -153c-175 0 -256 107 -256 267c0 115 31 262 95 367c51 81 135 138 262 138c161 0 251 -99 251 -270zM369 593c-31 0 -53 -14 -70 -41s-27 -62 -35 -109h162c3 23 5 41 5 60c0 55 -15 90 -62 90zM301 147
c31 0 52 15 67 42c16 27 27 63 34 106h-162c-3 -23 -5 -44 -5 -61c0 -53 17 -87 66 -87z" />
    <glyph glyph-name="iota" unicode="&#x3b9;" horiz-adv-x="316" 
d="M84 523h228l-82 -523h-228z" />
    <glyph glyph-name="kappa" unicode="&#x3ba;" horiz-adv-x="619" 
d="M256 209l-33 -209h-228l82 523h229l-32 -199l149 199h241l-199 -249l112 -274h-244z" />
    <glyph glyph-name="lambda" unicode="&#x3bb;" horiz-adv-x="629" 
d="M193 0h-238l289 518l-3 11c-11 40 -34 57 -74 57c-23 0 -51 -5 -70 -12l26 159c35 15 90 25 141 25c80 0 151 -29 186 -181l86 -373c5 -20 15 -34 38 -34c15 0 37 3 41 4l-27 -169c-23 -9 -59 -15 -96 -15c-80 0 -135 31 -156 129l-29 138z" />
    <glyph glyph-name="uni03BC" unicode="&#x3bc;" horiz-adv-x="642" 
d="M586 166c-11 -68 -16 -121 -13 -166h-225c-3 19 -1 53 0 76c-21 -56 -45 -73 -76 -73c-16 0 -33 7 -44 26l-33 -201h-228l110 695h229l-49 -308c-7 -43 8 -65 36 -65c39 0 64 23 72 76l48 297h229z" />
    <glyph glyph-name="nu" unicode="&#x3bd;" horiz-adv-x="614" 
d="M39 523h234l31 -286l127 286h224l-276 -523h-239z" />
    <glyph glyph-name="xi" unicode="&#x3be;" horiz-adv-x="539" 
d="M85 592l24 151h475l-28 -176h-153c-45 0 -86 -22 -86 -61c0 -28 21 -42 62 -42h123l-28 -175h-151c-47 0 -85 -24 -85 -65c0 -35 35 -45 63 -45h54c102 0 144 -60 144 -133c0 -63 -31 -130 -60 -190h-164c13 31 33 88 33 108c0 27 -13 36 -44 36h-19
c-148 0 -234 60 -234 171c0 106 73 178 169 205c-51 19 -81 56 -81 101c0 63 44 99 97 115h-111z" />
    <glyph glyph-name="omicron" unicode="&#x3bf;" horiz-adv-x="629" 
d="M244 226c0 -32 8 -74 59 -74c59 0 82 66 82 152c0 35 -15 68 -56 68c-61 0 -85 -62 -85 -146zM300 -14c-140 0 -283 66 -283 242c0 180 125 311 314 311c140 0 283 -70 283 -247c0 -183 -128 -306 -314 -306z" />
    <glyph glyph-name="pi" unicode="&#x3c0;" horiz-adv-x="685" 
d="M597 166c-11 -68 -16 -121 -13 -166h-225c-3 21 -3 79 5 130l36 232h-93l-57 -362h-228l57 362h-61l26 161h671l-26 -161h-61z" />
    <glyph glyph-name="rho" unicode="&#x3c1;" horiz-adv-x="652" 
d="M320 152c60 0 82 55 82 152c0 35 -15 68 -56 68c-61 0 -85 -62 -85 -146c0 -32 8 -74 59 -74zM194 -172h-228l73 463c24 147 144 248 309 248c140 0 283 -70 283 -247c0 -179 -110 -301 -288 -301c-35 0 -83 12 -115 49z" />
    <glyph glyph-name="uni03C2" unicode="&#x3c2;" horiz-adv-x="590" 
d="M352 174c103 0 160 -55 160 -128c0 -63 -31 -130 -60 -190h-164c13 31 33 88 33 108c0 27 -13 36 -44 36h-4c-151 0 -257 85 -257 229c0 184 119 310 306 310c147 0 257 -67 262 -231h-214c-3 36 -15 56 -52 56c-59 0 -73 -68 -73 -117c0 -47 24 -73 80 -73h27z" />
    <glyph glyph-name="sigma" unicode="&#x3c3;" horiz-adv-x="660" 
d="M299 -14c-150 0 -283 79 -283 244c0 179 118 293 315 293h356l-25 -161h-102c33 -23 46 -73 46 -110c0 -161 -143 -266 -307 -266zM302 152c60 0 83 65 83 150c0 35 -15 68 -56 68c-61 0 -86 -60 -86 -144c0 -32 8 -74 59 -74z" />
    <glyph glyph-name="tau" unicode="&#x3c4;" horiz-adv-x="506" 
d="M285 -9c-109 0 -167 54 -167 162c0 17 2 37 5 57l23 152h-122l26 161h481l-26 -161h-130l-21 -133c-1 -9 -2 -16 -2 -23c0 -31 16 -41 52 -41c13 0 34 1 49 4l-27 -167c-35 -7 -72 -11 -141 -11z" />
    <glyph glyph-name="upsilon" unicode="&#x3c5;" horiz-adv-x="623" 
d="M250 229c-1 -8 -2 -15 -2 -22c0 -35 15 -55 48 -55c39 0 53 23 60 70l48 301h229l-47 -296c-27 -163 -117 -241 -306 -241c-176 0 -257 99 -257 227c0 17 1 33 4 52l41 258h229z" />
    <glyph glyph-name="phi" unicode="&#x3c6;" horiz-adv-x="863" 
d="M489 539c205 0 362 -90 362 -245c0 -189 -134 -295 -343 -300l-26 -166h-225l26 167c-153 8 -267 79 -267 229c0 179 116 294 292 310l-16 -166c-39 -18 -55 -87 -55 -130c0 -47 20 -81 71 -89l60 381c31 5 61 9 121 9zM533 149c79 3 96 79 96 155c0 33 -24 64 -60 71z
" />
    <glyph glyph-name="chi" unicode="&#x3c7;" horiz-adv-x="625" 
d="M262 21l-99 -193h-235l246 380l-48 108c-11 25 -31 38 -59 38c-11 0 -26 -2 -39 -6l26 162c41 17 78 26 112 26c75 0 121 -20 152 -103l26 -72l76 162h245l-233 -348l65 -144c11 -23 28 -30 49 -30c10 0 21 1 34 4l-26 -166c-47 -15 -85 -17 -112 -17
c-64 0 -115 30 -147 114z" />
    <glyph glyph-name="psi" unicode="&#x3c8;" horiz-adv-x="878" 
d="M255 257c-9 -53 12 -91 53 -102l59 368h225l-59 -371c49 4 73 40 84 100l44 271h227l-45 -280c-32 -203 -183 -242 -335 -247l-27 -168h-225l27 169c-149 11 -282 92 -253 276l41 250h227z" />
    <glyph glyph-name="omega" unicode="&#x3c9;" horiz-adv-x="866" 
d="M534 212c-7 -43 5 -61 36 -61c45 0 51 116 51 144c0 37 -2 66 -53 85l26 158c165 -16 257 -111 257 -243c0 -167 -91 -309 -264 -309c-108 0 -149 57 -168 106c-29 -53 -82 -106 -185 -106c-149 0 -218 105 -218 221c0 207 108 324 336 332l-26 -163
c-72 -13 -81 -102 -81 -162c0 -35 10 -63 33 -63c24 0 29 25 34 60l21 137h222z" />
    <glyph glyph-name="iotadieresis" unicode="&#x3ca;" horiz-adv-x="316" 
d="M84 523h228l-82 -523h-228zM102 552c-57 0 -102 43 -102 99s45 99 102 99s103 -43 103 -99s-46 -99 -103 -99zM327 552c-56 0 -101 43 -101 99s45 99 101 99c59 0 103 -43 103 -99s-44 -99 -103 -99z" />
    <glyph glyph-name="upsilondieresis" unicode="&#x3cb;" horiz-adv-x="623" 
d="M250 229c-1 -8 -2 -15 -2 -22c0 -35 15 -55 48 -55c39 0 53 23 60 70l48 301h229l-47 -296c-27 -163 -117 -241 -306 -241c-176 0 -257 99 -257 227c0 17 1 33 4 52l41 258h229zM250 552c-57 0 -102 43 -102 99s45 99 102 99s103 -43 103 -99s-46 -99 -103 -99zM475 552
c-56 0 -101 43 -101 99s45 99 101 99c59 0 103 -43 103 -99s-44 -99 -103 -99z" />
    <glyph glyph-name="omicrontonos" unicode="&#x3cc;" horiz-adv-x="632" 
d="M244 226c0 -32 8 -74 59 -74c59 0 82 66 82 152c0 35 -15 68 -56 68c-61 0 -85 -62 -85 -146zM300 -14c-140 0 -283 66 -283 242c0 180 125 311 314 311c140 0 283 -70 283 -247c0 -183 -128 -306 -314 -306zM352 743h219l-127 -175h-163z" />
    <glyph glyph-name="upsilontonos" unicode="&#x3cd;" horiz-adv-x="623" 
d="M250 229c-1 -8 -2 -15 -2 -22c0 -35 15 -55 48 -55c39 0 53 23 60 70l48 301h229l-47 -296c-27 -163 -117 -241 -306 -241c-176 0 -257 99 -257 227c0 17 1 33 4 52l41 258h229zM350 743h219l-127 -175h-163z" />
    <glyph glyph-name="omegatonos" unicode="&#x3ce;" horiz-adv-x="866" 
d="M534 212c-7 -43 5 -61 36 -61c45 0 51 116 51 144c0 37 -2 66 -53 85l26 158c165 -16 257 -111 257 -243c0 -167 -91 -309 -264 -309c-108 0 -149 57 -168 106c-29 -53 -82 -106 -185 -106c-149 0 -218 105 -218 221c0 207 108 324 336 332l-26 -163
c-72 -13 -81 -102 -81 -162c0 -35 10 -63 33 -63c24 0 29 25 34 60l21 137h222zM470 743h219l-127 -175h-163z" />
    <glyph glyph-name="uni0401" unicode="&#x401;" horiz-adv-x="635" 
d="M129 715h534l-32 -203h-269l-10 -61h212l-28 -182h-212l-11 -66h284l-32 -203h-549zM293 742c-57 0 -102 43 -102 99s45 99 102 99s103 -43 103 -99s-46 -99 -103 -99zM526 742c-56 0 -101 43 -101 99s45 99 101 99c59 0 103 -43 103 -99s-44 -99 -103 -99z" />
    <glyph glyph-name="uni0402" unicode="&#x402;" horiz-adv-x="868" 
d="M590 -22c-83 0 -117 15 -129 22l29 174c4 -3 16 -7 36 -7c23 0 38 16 38 47c0 28 -15 51 -55 51c-33 0 -49 -20 -56 -27l-37 -238h-268l80 511h-173l33 204h634l-33 -204h-193l-15 -96c37 20 82 36 138 36c136 0 212 -90 212 -210c0 -155 -77 -263 -241 -263z" />
    <glyph glyph-name="uni0403" unicode="&#x403;" horiz-adv-x="586" 
d="M353 908h229l-118 -155h-173zM129 715h507l-33 -204h-240l-80 -511h-267z" />
    <glyph glyph-name="uni0404" unicode="&#x404;" horiz-adv-x="775" 
d="M759 252c-37 -181 -186 -266 -363 -266c-219 0 -364 100 -364 316c0 251 150 424 410 424c192 0 312 -81 335 -248h-275c-11 27 -34 41 -67 41c-47 0 -84 -26 -104 -71h203l-27 -173h-196c1 -51 33 -79 88 -79c39 0 70 16 89 56h271z" />
    <glyph glyph-name="uni0405" unicode="&#x405;" horiz-adv-x="657" 
d="M317 -14c-200 0 -322 81 -319 246h249c1 -35 18 -61 75 -61c37 0 56 13 56 38c0 20 -22 31 -74 40c-187 32 -251 96 -251 219c0 148 111 258 311 258c184 0 295 -71 292 -237h-243c-2 35 -20 52 -55 52c-33 0 -49 -11 -49 -34s19 -32 74 -41c164 -27 256 -84 256 -215
c0 -157 -110 -262 -322 -265z" />
    <glyph glyph-name="uni0406" unicode="&#x406;" horiz-adv-x="391" 
d="M132 715h269l-113 -715h-269z" />
    <glyph glyph-name="uni0407" unicode="&#x407;" horiz-adv-x="391" 
d="M132 715h269l-113 -715h-269zM166 742c-57 0 -102 43 -102 99s45 99 102 99s103 -43 103 -99s-46 -99 -103 -99zM399 742c-56 0 -101 43 -101 99s45 99 101 99c59 0 103 -43 103 -99s-44 -99 -103 -99z" />
    <glyph glyph-name="uni0408" unicode="&#x408;" horiz-adv-x="508" 
d="M162 -9c-89 0 -140 17 -171 32l31 194c23 -8 51 -16 88 -16c41 0 77 16 85 69l71 445h267l-72 -454c-29 -185 -130 -270 -299 -270z" />
    <glyph glyph-name="uni0409" unicode="&#x409;" horiz-adv-x="1096" 
d="M416 510c-17 -81 -39 -174 -63 -257c-50 -175 -105 -265 -269 -265c-33 0 -57 3 -74 6l-25 6l31 199l12 -4c7 -2 15 -3 25 -3c40 0 58 26 82 99c19 58 44 162 63 255c11 54 23 110 34 169h581l-38 -241h18c193 0 287 -75 287 -211c0 -157 -112 -263 -313 -263h-334
l81 510h-98zM753 176c48 0 77 25 77 76c0 32 -22 53 -66 53h-16l-20 -129h25z" />
    <glyph glyph-name="uni040A" unicode="&#x40a;" horiz-adv-x="1099" 
d="M756 176c48 0 77 25 77 76c0 32 -22 53 -66 53h-16l-20 -129h25zM16 0l113 715h267l-39 -247h153l39 247h267l-38 -241h18c193 0 287 -75 287 -211c0 -157 -112 -263 -313 -263h-334l42 263h-154l-41 -263h-267z" />
    <glyph glyph-name="uni040B" unicode="&#x40b;" horiz-adv-x="888" 
d="M524 255c-43 0 -64 -19 -72 -27l-36 -228h-268l80 511h-173l33 204h634l-33 -204h-193l-15 -99c40 23 92 39 159 39c150 0 232 -101 208 -274l-26 -177h-265l24 154c8 59 0 101 -57 101z" />
    <glyph glyph-name="uni040C" unicode="&#x40c;" horiz-adv-x="782" 
d="M129 715h267l-39 -248l212 248h282l-300 -341l184 -374h-286l-123 274l-43 -274h-267zM453 908h229l-118 -155h-173z" />
    <glyph glyph-name="uni040D" unicode="&#x40d;" horiz-adv-x="812" 
d="M16 0l113 715h262l-56 -356l241 356h249l-113 -715h-261l56 355l-241 -355h-250zM318 908h227l30 -155h-168z" />
    <glyph glyph-name="uni040E" unicode="&#x40e;" horiz-adv-x="705" 
d="M423 744c-120 0 -177 63 -178 164h140c0 -20 5 -56 40 -56c33 0 37 32 42 56h142c-19 -108 -86 -164 -186 -164zM202 -12c-56 0 -91 5 -112 12l27 189c12 -4 31 -7 56 -7c31 0 55 12 72 35l-185 498h265l79 -244l116 244h255l-279 -513c-77 -143 -159 -214 -294 -214z
" />
    <glyph glyph-name="uni040F" unicode="&#x40f;" horiz-adv-x="802" 
d="M16 0l113 715h266l-81 -510h153l81 510h267l-113 -715h-232l-27 -130h-200l11 130h-238z" />
    <glyph glyph-name="uni0410" unicode="&#x410;" horiz-adv-x="784" 
d="M454 95h-202l-39 -95h-254l333 715h343l106 -715h-278zM325 273h113l-20 228z" />
    <glyph glyph-name="uni0411" unicode="&#x411;" horiz-adv-x="706" 
d="M684 247c0 -157 -110 -247 -319 -247h-349l113 715h557l-33 -204h-298l-10 -66h98c157 0 241 -75 241 -198zM353 172c45 0 74 27 74 66c0 35 -22 53 -66 53h-40l-19 -119h51z" />
    <glyph glyph-name="uni0412" unicode="&#x412;" horiz-adv-x="709" 
d="M129 715h333c180 0 239 -86 239 -179c0 -96 -65 -152 -141 -168c68 -14 124 -60 124 -147c0 -131 -111 -221 -286 -221h-382zM353 172c45 0 74 27 74 66c0 35 -22 53 -66 53h-40l-19 -119h51zM398 445c43 0 63 19 63 54c0 33 -20 45 -56 45h-44l-16 -99h53z" />
    <glyph glyph-name="uni0413" unicode="&#x413;" horiz-adv-x="586" 
d="M129 715h507l-33 -204h-240l-80 -511h-267z" />
    <glyph glyph-name="uni0414" unicode="&#x414;" horiz-adv-x="821" 
d="M356 352c-20 -61 -44 -110 -71 -147h184l49 310h-117c-15 -61 -30 -123 -45 -163zM166 -130h-226l53 335h50c35 19 57 64 88 141c13 32 37 126 58 209c12 49 25 103 38 160h584l-81 -510h81l-53 -335h-226l11 130h-347z" />
    <glyph glyph-name="uni0415" unicode="&#x415;" horiz-adv-x="635" 
d="M129 715h534l-32 -203h-269l-10 -61h212l-28 -182h-212l-11 -66h284l-32 -203h-549z" />
    <glyph glyph-name="uni0416" unicode="&#x416;" horiz-adv-x="1097" 
d="M415 294l-182 -294h-276l272 404l-143 311h250l104 -268l42 268h265l-42 -268l185 268h276l-274 -343l154 -372h-276l-90 293l-46 -293h-265z" />
    <glyph glyph-name="uni0417" unicode="&#x417;" horiz-adv-x="668" 
d="M328 -14c-193 0 -308 85 -323 248h248c0 -37 24 -62 71 -62c40 0 62 26 62 57c0 35 -20 47 -75 47h-91l24 169h113c43 0 63 19 63 54c0 30 -19 45 -58 45c-51 0 -75 -25 -84 -69h-230c32 168 155 251 327 251c217 0 285 -97 285 -190c0 -95 -66 -157 -146 -168
c72 -13 129 -64 129 -147c0 -127 -92 -235 -315 -235z" />
    <glyph glyph-name="uni0418" unicode="&#x418;" horiz-adv-x="812" 
d="M16 0l113 715h262l-56 -356l241 356h249l-113 -715h-261l56 355l-241 -355h-250z" />
    <glyph glyph-name="uni0419" unicode="&#x419;" horiz-adv-x="812" 
d="M487 744c-120 0 -177 63 -178 164h140c0 -20 5 -56 40 -56c33 0 37 32 42 56h142c-19 -108 -86 -164 -186 -164zM16 0l113 715h262l-56 -356l241 356h249l-113 -715h-261l56 355l-241 -355h-250z" />
    <glyph glyph-name="uni041A" unicode="&#x41a;" horiz-adv-x="782" 
d="M129 715h267l-39 -248l212 248h282l-300 -341l184 -374h-286l-123 274l-43 -274h-267z" />
    <glyph glyph-name="uni041B" unicode="&#x41b;" horiz-adv-x="809" 
d="M353 253c-50 -175 -105 -265 -269 -265c-33 0 -57 3 -74 6l-25 6l31 199l12 -4c7 -2 15 -3 25 -3c40 0 58 26 82 99c19 58 44 162 63 255c11 54 23 110 34 169h590l-113 -715h-266l81 510h-108c-17 -81 -39 -174 -63 -257z" />
    <glyph glyph-name="uni041C" unicode="&#x41c;" horiz-adv-x="986" 
d="M129 715h332l48 -286l143 286h346l-113 -715h-265l60 380l-202 -380h-90l-76 380l-60 -380h-236z" />
    <glyph glyph-name="uni041D" unicode="&#x41d;" horiz-adv-x="812" 
d="M129 715h267l-39 -247h163l39 247h266l-113 -715h-266l41 263h-163l-41 -263h-267z" />
    <glyph glyph-name="uni041E" unicode="&#x41e;" horiz-adv-x="823" 
d="M308 307c0 -63 25 -113 100 -113c100 0 135 109 135 208c0 64 -24 114 -98 117c-96 3 -137 -107 -137 -212zM387 -14c-186 0 -355 101 -355 310c0 258 170 430 421 430c195 0 367 -95 367 -314c0 -256 -168 -426 -433 -426z" />
    <glyph glyph-name="uni041F" unicode="&#x41f;" horiz-adv-x="802" 
d="M517 510h-153l-81 -510h-267l113 715h686l-113 -715h-266z" />
    <glyph glyph-name="uni0420" unicode="&#x420;" horiz-adv-x="688" 
d="M129 715h287c192 0 288 -87 288 -214c0 -180 -111 -285 -314 -285h-73l-34 -216h-267zM376 392c48 0 77 25 77 76c0 32 -22 53 -66 53h-24l-20 -129h33z" />
    <glyph glyph-name="uni0421" unicode="&#x421;" horiz-adv-x="779" 
d="M396 -14c-219 0 -364 100 -364 316c0 251 150 424 410 424c209 0 332 -96 339 -296h-270c-3 56 -24 89 -76 89c-87 0 -122 -98 -125 -205c0 -60 19 -118 89 -118c48 0 85 25 100 89h265c-24 -204 -182 -299 -368 -299z" />
    <glyph glyph-name="uni0422" unicode="&#x422;" horiz-adv-x="648" 
d="M228 511h-173l33 204h614l-33 -204h-173l-80 -511h-268z" />
    <glyph glyph-name="uni0423" unicode="&#x423;" horiz-adv-x="705" 
d="M202 -12c-56 0 -91 5 -112 12l27 189c12 -4 31 -7 56 -7c31 0 55 12 72 35l-185 498h265l79 -244l116 244h255l-279 -513c-77 -143 -159 -214 -294 -214z" />
    <glyph glyph-name="uni0424" unicode="&#x424;" horiz-adv-x="999" 
d="M324 -10l15 93c-145 8 -308 74 -308 261v9c0 188 167 288 396 288l15 94h261l-15 -94c144 -8 309 -72 309 -261v-7c0 -189 -166 -290 -397 -290l-15 -93h-261zM294 343c0 -59 27 -90 71 -93l36 223c-57 0 -107 -36 -107 -124v-6zM734 381c0 59 -25 88 -72 91l-36 -223
c56 0 108 38 108 125v7z" />
    <glyph glyph-name="uni0425" unicode="&#x425;" horiz-adv-x="783" 
d="M239 377l-141 338h287l52 -179l104 179h275l-230 -345l155 -370h-286l-72 218l-137 -218h-278z" />
    <glyph glyph-name="uni0426" unicode="&#x426;" horiz-adv-x="825" 
d="M534 -130l12 130h-530l113 715h266l-81 -510h153l81 510h267l-81 -510h80l-54 -335h-226z" />
    <glyph glyph-name="uni0427" unicode="&#x427;" horiz-adv-x="779" 
d="M413 0l44 280c-41 -23 -91 -40 -155 -40c-162 0 -256 99 -227 296l27 179h266l-29 -178c-9 -59 10 -101 67 -101c45 0 69 16 80 25l40 254h266l-113 -715h-266z" />
    <glyph glyph-name="uni0428" unicode="&#x428;" horiz-adv-x="1131" 
d="M129 715h256l-81 -510h123l81 510h257l-81 -510h122l81 510h257l-113 -715h-1015z" />
    <glyph glyph-name="uni0429" unicode="&#x429;" horiz-adv-x="1163" 
d="M873 -130l12 130h-869l113 715h256l-81 -510h123l81 510h257l-81 -510h122l81 510h257l-81 -510h90l-54 -335h-226z" />
    <glyph glyph-name="uni042A" unicode="&#x42a;" horiz-adv-x="809" 
d="M133 0l81 515h-159l34 200h424l-38 -241h31c193 0 287 -75 287 -211c0 -157 -112 -263 -313 -263h-347zM466 176c48 0 77 25 77 76c0 32 -22 53 -66 53h-29l-20 -129h38z" />
    <glyph glyph-name="uni042B" unicode="&#x42b;" horiz-adv-x="1022" 
d="M16 0l113 715h261l-38 -241h25c193 0 287 -75 287 -211c0 -157 -112 -263 -313 -263h-335zM768 715h267l-113 -715h-267zM337 176c48 0 77 25 77 76c0 32 -22 53 -66 53h-23l-20 -129h32z" />
    <glyph glyph-name="uni042C" unicode="&#x42c;" horiz-adv-x="690" 
d="M16 0l113 715h267l-38 -241h29c193 0 287 -75 287 -211c0 -157 -112 -263 -313 -263h-345zM347 176c48 0 77 25 77 76c0 32 -22 53 -66 53h-27l-20 -129h36z" />
    <glyph glyph-name="uni042D" unicode="&#x42d;" horiz-adv-x="753" 
d="M348 -14c-200 0 -324 89 -343 248h275c9 -25 32 -41 75 -41c47 0 83 29 95 72h-202l27 173h196c0 43 -28 78 -87 78c-39 0 -69 -17 -88 -56h-264c40 179 180 266 357 266c218 0 361 -103 361 -316c0 -251 -146 -424 -402 -424z" />
    <glyph glyph-name="uni042E" unicode="&#x42e;" horiz-adv-x="1138" 
d="M712 -14c-160 0 -305 79 -334 244l-3 22l-2 14h-48l-42 -266h-267l113 715h267l-40 -250h42c56 161 192 261 380 261c189 0 357 -95 357 -314c0 -256 -163 -426 -423 -426zM858 402c0 64 -19 117 -88 117c-86 0 -127 -105 -127 -212c0 -63 20 -113 90 -113
c96 0 125 109 125 208z" />
    <glyph glyph-name="uni042F" unicode="&#x42f;" horiz-adv-x="740" 
d="M436 394l21 134h-42c-51 0 -81 -30 -81 -74c0 -39 25 -60 72 -60h30zM232 0h-281l210 296c-44 39 -76 89 -76 169c0 144 116 250 323 250h345l-113 -715h-267l37 233h-21z" />
    <glyph glyph-name="uni0430" unicode="&#x430;" horiz-adv-x="595" 
d="M263 134c33 0 57 22 61 49l4 19h-40c-49 0 -64 -12 -64 -36c0 -19 14 -32 39 -32zM318 0c-4 19 -4 45 -4 65c-25 -38 -69 -79 -154 -79c-89 0 -164 51 -164 144c0 140 99 186 286 186h64l1 7c5 33 2 61 -41 61c-36 0 -47 -27 -50 -45h-212c27 129 114 200 273 200
c193 0 277 -82 251 -246l-20 -127c-11 -68 -15 -122 -8 -166h-222z" />
    <glyph glyph-name="uni0431" unicode="&#x431;" horiz-adv-x="639" 
d="M323 -14c-192 0 -295 118 -295 294c0 44 3 82 10 125c40 252 200 318 380 334c105 9 159 14 184 25l-27 -172c-29 -13 -65 -17 -147 -25c-125 -11 -200 -33 -224 -157h5c32 55 103 103 193 103c136 0 221 -75 221 -228c0 -192 -127 -299 -300 -299zM314 149
c59 0 81 60 81 136c0 35 -15 68 -56 68c-61 0 -84 -63 -84 -130c0 -32 8 -74 59 -74z" />
    <glyph glyph-name="uni0432" unicode="&#x432;" horiz-adv-x="605" 
d="M84 523h329c131 0 172 -63 172 -132s-46 -111 -101 -122c48 -11 89 -44 89 -108c0 -95 -81 -161 -206 -161h-365zM292 397l-11 -72h42c31 0 46 13 46 39c0 24 -14 33 -41 33h-36zM263 212l-13 -86h41c32 0 53 19 53 48c0 25 -16 38 -47 38h-34z" />
    <glyph glyph-name="uni0433" unicode="&#x433;" horiz-adv-x="468" 
d="M288 373l-58 -373h-228l82 523h399l-27 -150h-168z" />
    <glyph glyph-name="uni0434" unicode="&#x434;" horiz-adv-x="652" 
d="M370 376h-78c-9 -47 -20 -97 -28 -133c-8 -37 -20 -66 -35 -93h106zM-60 -127l45 277h35c36 15 55 58 68 118c9 41 21 103 32 158c6 31 12 64 17 97h481l-58 -373h82l-44 -277h-188l10 127h-261l-31 -127h-188z" />
    <glyph glyph-name="uni0435" unicode="&#x435;" horiz-adv-x="616" 
d="M238 215c0 -40 19 -81 74 -81c43 0 59 23 67 50h213c-23 -128 -128 -198 -285 -198c-156 0 -291 67 -291 244c0 188 136 309 316 309c182 0 290 -112 261 -304l-3 -20h-352zM329 398c-33 0 -63 -21 -79 -77h139c3 43 -13 77 -60 77z" />
    <glyph glyph-name="uni0436" unicode="&#x436;" horiz-adv-x="874" 
d="M318 221l-121 -221h-237l182 292l-82 231h220l54 -199l31 199h227l-32 -203l117 203h235l-171 -244l88 -279h-234l-50 221l-35 -221h-227z" />
    <glyph glyph-name="uni0437" unicode="&#x437;" horiz-adv-x="557" 
d="M273 -13c-155 0 -256 55 -269 198h198c-1 -39 21 -59 50 -59s43 19 44 48c0 25 -16 38 -49 38h-64l18 113h76c33 0 50 12 50 37c0 21 -13 35 -45 35c-39 0 -56 -24 -61 -47h-185c24 124 120 189 264 189c186 0 243 -79 243 -148c-1 -69 -51 -109 -110 -122
c51 -12 92 -44 92 -108c0 -95 -91 -174 -252 -174z" />
    <glyph glyph-name="uni0438" unicode="&#x438;" horiz-adv-x="657" 
d="M2 0l82 523h228l-38 -242l165 242h218l-82 -523h-228l38 241l-165 -241h-218z" />
    <glyph glyph-name="uni0439" unicode="&#x439;" horiz-adv-x="657" 
d="M376 571c-112 0 -169 69 -170 170h140c0 -21 5 -62 40 -62c33 0 37 38 42 62h142c-17 -108 -86 -170 -194 -170zM2 0l82 523h228l-38 -242l165 242h218l-82 -523h-228l38 241l-165 -241h-218z" />
    <glyph glyph-name="uni043A" unicode="&#x43a;" horiz-adv-x="609" 
d="M257 210l-33 -210h-229l82 523h229l-29 -188l134 188h241l-191 -243l111 -280h-243z" />
    <glyph glyph-name="uni043B" unicode="&#x43b;" horiz-adv-x="607" 
d="M258 211c-27 -139 -81 -221 -212 -221c-25 0 -45 2 -58 5c-7 1 -13 3 -18 5l28 185l6 -3c4 -2 11 -3 20 -3c37 0 44 30 56 89c8 41 19 103 27 158c5 31 9 64 14 97h486l-82 -523h-228l58 373h-69z" />
    <glyph glyph-name="uni043C" unicode="&#x43c;" horiz-adv-x="796" 
d="M488 0l33 222l-140 -222h-90l-70 223l-36 -223h-181l82 523h248l63 -220l134 220h263l-82 -523h-224z" />
    <glyph glyph-name="uni043D" unicode="&#x43d;" horiz-adv-x="637" 
d="M356 185h-97l-29 -185h-228l82 523h228l-29 -188h97l29 188h228l-82 -523h-228z" />
    <glyph glyph-name="uni043E" unicode="&#x43e;" horiz-adv-x="629" 
d="M244 226c0 -32 8 -74 59 -74c59 0 82 66 82 152c0 35 -15 68 -56 68c-61 0 -85 -62 -85 -146zM300 -14c-140 0 -283 66 -283 242c0 180 125 311 314 311c140 0 283 -70 283 -247c0 -183 -128 -306 -314 -306z" />
    <glyph glyph-name="uni043F" unicode="&#x43f;" horiz-adv-x="627" 
d="M375 373h-87l-58 -373h-228l82 523h543l-82 -523h-228z" />
    <glyph glyph-name="uni0440" unicode="&#x440;" horiz-adv-x="651" 
d="M315 156c51 0 88 54 88 142c0 48 -19 75 -59 75c-52 0 -86 -63 -86 -141c0 -51 19 -76 57 -76zM290 437c35 64 92 102 176 102c98 0 171 -71 171 -224c0 -217 -108 -329 -247 -329c-72 0 -136 35 -153 95l-41 -253h-229l82 516c12 77 18 130 21 179h225
c0 -23 -2 -57 -5 -86z" />
    <glyph glyph-name="uni0441" unicode="&#x441;" horiz-adv-x="592" 
d="M293 -13c-152 0 -277 76 -277 241c0 183 119 311 306 311c147 0 257 -67 262 -231h-214c-3 36 -15 56 -52 56c-61 0 -74 -78 -74 -139c0 -44 13 -76 58 -76c37 0 59 22 67 66h204c-16 -148 -111 -228 -280 -228z" />
    <glyph glyph-name="uni0442" unicode="&#x442;" horiz-adv-x="554" 
d="M404 373l-58 -373h-228l58 373h-141l27 150h507l-27 -150h-138z" />
    <glyph glyph-name="uni0443" unicode="&#x443;" horiz-adv-x="614" 
d="M168 59l-129 464h238l43 -232l110 232h225l-382 -695h-226z" />
    <glyph glyph-name="uni0444" unicode="&#x444;" horiz-adv-x="886" 
d="M266 -172l25 158c-133 11 -274 82 -274 250v10c0 190 141 287 361 292l32 205h220l-32 -205c136 -11 273 -85 273 -260v-10c0 -183 -145 -277 -360 -282l-25 -158h-220zM238 246c0 -57 20 -95 77 -102l38 238c-62 -5 -115 -49 -115 -130v-6zM650 280c0 56 -21 93 -77 100
l-38 -238c61 5 115 52 115 129v9z" />
    <glyph glyph-name="uni0445" unicode="&#x445;" horiz-adv-x="633" 
d="M169 267l-116 256h251l39 -111l72 111h239l-198 -244l132 -279h-251l-48 128l-91 -128h-238z" />
    <glyph glyph-name="uni0446" unicode="&#x446;" horiz-adv-x="660" 
d="M418 -127l10 127h-426l82 523h228l-58 -373h87l58 373h228l-58 -373h81l-44 -277h-188z" />
    <glyph glyph-name="uni0447" unicode="&#x447;" horiz-adv-x="624" 
d="M311 0l36 222c-26 -21 -79 -58 -153 -58c-115 0 -172 69 -149 209l24 150h229l-24 -148c-7 -47 7 -70 42 -70c19 0 34 2 45 5l35 213h228l-85 -523h-228z" />
    <glyph glyph-name="uni0448" unicode="&#x448;" horiz-adv-x="872" 
d="M84 523h218l-58 -373h67l58 373h218l-59 -373h68l58 373h218l-82 -523h-788z" />
    <glyph glyph-name="uni0449" unicode="&#x449;" horiz-adv-x="917" 
d="M675 -127l10 127h-683l82 523h218l-58 -373h67l58 373h218l-59 -373h68l58 373h218l-58 -373h93l-44 -277h-188z" />
    <glyph glyph-name="uni044A" unicode="&#x44a;" horiz-adv-x="664" 
d="M151 375h-126l25 148h349l-26 -163h68c141 0 210 -63 210 -162c0 -115 -82 -198 -229 -198h-330zM353 228l-15 -94h27c36 0 57 17 57 56c0 23 -16 38 -49 38h-20z" />
    <glyph glyph-name="uni044B" unicode="&#x44b;" horiz-adv-x="852" 
d="M629 523h223l-82 -523h-223zM84 523h225l-26 -163h57c141 0 210 -63 210 -162c0 -115 -82 -198 -229 -198h-319zM263 228l-15 -94h21c36 0 57 17 57 56c0 23 -16 38 -49 38h-14z" />
    <glyph glyph-name="uni044C" unicode="&#x44c;" horiz-adv-x="574" 
d="M84 523h225l-26 -163h68c141 0 210 -63 210 -162c0 -115 -82 -198 -229 -198h-330zM263 228l-15 -94h27c36 0 57 17 57 56c0 23 -16 38 -49 38h-20z" />
    <glyph glyph-name="uni044D" unicode="&#x44d;" horiz-adv-x="592" 
d="M273 -13c-134 0 -248 64 -259 204h208c7 -29 26 -40 55 -40c35 0 60 19 69 59h-149l17 110h141c0 41 -18 67 -57 67c-29 0 -50 -17 -62 -50h-200c25 139 125 202 270 202c153 0 273 -81 273 -252c0 -167 -107 -300 -306 -300z" />
    <glyph glyph-name="uni044E" unicode="&#x44e;" horiz-adv-x="890" 
d="M561 -14c-123 0 -245 54 -269 193c0 1 -1 3 -1 6v4h-35l-30 -189h-224l82 523h224l-30 -193h24c37 125 143 209 290 209c140 0 283 -70 283 -247c0 -183 -128 -306 -314 -306zM564 152c59 0 82 66 82 152c0 35 -15 68 -56 68c-61 0 -85 -62 -85 -146c0 -32 8 -74 59 -74z
" />
    <glyph glyph-name="uni044F" unicode="&#x44f;" horiz-adv-x="602" 
d="M342 302l14 87h-32c-36 0 -57 -13 -57 -48c0 -26 16 -39 49 -39h26zM199 0h-232l154 221c-23 10 -75 46 -75 130c0 94 82 172 229 172h327l-82 -523h-225l29 182h-11z" />
    <glyph glyph-name="uni0451" unicode="&#x451;" horiz-adv-x="616" 
d="M238 215c0 -40 19 -81 74 -81c43 0 59 23 67 50h213c-23 -128 -128 -198 -285 -198c-156 0 -291 67 -291 244c0 188 136 309 316 309c182 0 290 -112 261 -304l-3 -20h-352zM329 398c-33 0 -63 -21 -79 -77h139c3 43 -13 77 -60 77zM236 552c-57 0 -102 43 -102 99
s45 99 102 99s103 -43 103 -99s-46 -99 -103 -99zM461 552c-56 0 -101 43 -101 99s45 99 101 99c59 0 103 -43 103 -99s-44 -99 -103 -99z" />
    <glyph glyph-name="uni0452" unicode="&#x452;" horiz-adv-x="635" 
d="M562 0c-16 -106 -82 -197 -312 -184l24 159c36 3 55 13 62 48l42 264c7 47 -8 70 -43 70c-41 0 -59 -23 -67 -76l-44 -281h-229l90 572h-47l18 114h47l9 57h229l-9 -57h143l-18 -114h-143l-23 -143c37 63 94 110 179 110c94 0 166 -65 142 -223z" />
    <glyph glyph-name="uni0453" unicode="&#x453;" horiz-adv-x="468" 
d="M260 743h219l-127 -175h-163zM288 373l-58 -373h-228l82 523h399l-27 -150h-168z" />
    <glyph glyph-name="uni0454" unicode="&#x454;" horiz-adv-x="592" 
d="M571 189c-23 -137 -117 -202 -278 -202c-156 0 -277 81 -277 252c0 167 111 300 306 300c143 0 241 -56 257 -204h-213c-7 28 -20 39 -48 39c-33 0 -56 -19 -69 -58h149l-18 -111h-140c3 -41 24 -66 61 -66c31 0 53 15 64 50h206z" />
    <glyph glyph-name="uni0455" unicode="&#x455;" horiz-adv-x="530" 
d="M237 -15c-144 0 -252 51 -252 187h211c3 -29 12 -45 47 -45c23 0 38 8 38 27c0 17 -13 25 -81 36c-119 18 -178 61 -178 154c0 132 107 196 259 196c143 0 235 -51 243 -180h-206c-3 23 -13 43 -42 43c-27 0 -39 -11 -39 -27c0 -21 22 -26 66 -34
c147 -27 203 -63 203 -164c0 -136 -116 -193 -269 -193z" />
    <glyph glyph-name="uni0456" unicode="&#x456;" horiz-adv-x="316" 
d="M216 544c-69 0 -117 46 -117 110s49 110 118 110c68 0 118 -46 118 -110s-51 -110 -119 -110zM84 523h228l-82 -523h-228z" />
    <glyph glyph-name="uni0457" unicode="&#x457;" horiz-adv-x="316" 
d="M108 552c-57 0 -102 43 -102 99s45 99 102 99s103 -43 103 -99s-46 -99 -103 -99zM333 552c-56 0 -101 43 -101 99s45 99 101 99c59 0 103 -43 103 -99s-44 -99 -103 -99zM84 523h228l-82 -523h-228z" />
    <glyph glyph-name="uni0458" unicode="&#x458;" horiz-adv-x="316" 
d="M-59 -20c36 3 59 13 64 48l78 495h228l-82 -518c-16 -106 -81 -197 -312 -184zM215 544c-69 0 -117 46 -117 110s49 110 118 110c68 0 118 -46 118 -110s-51 -110 -119 -110z" />
    <glyph glyph-name="uni0459" unicode="&#x459;" horiz-adv-x="849" 
d="M258 211c-27 -139 -81 -221 -212 -221c-25 0 -45 2 -58 5c-7 1 -13 3 -18 5l28 185l6 -3c4 -2 11 -3 20 -3c37 0 44 30 56 89c8 41 19 103 27 158c5 31 9 64 14 97h473l-26 -163h58c141 0 210 -63 210 -162c0 -115 -82 -198 -229 -198h-320l58 373h-59zM548 228l-15 -94
h17c36 0 57 17 57 56c0 23 -16 38 -49 38h-10z" />
    <glyph glyph-name="uni045A" unicode="&#x45a;" horiz-adv-x="879" 
d="M578 228l-15 -94h17c36 0 57 17 57 56c0 23 -16 38 -49 38h-10zM346 185h-87l-29 -185h-228l82 523h228l-29 -188h87l29 188h225l-26 -163h58c141 0 210 -63 210 -162c0 -115 -82 -198 -229 -198h-320z" />
    <glyph glyph-name="uni045B" unicode="&#x45b;" horiz-adv-x="635" 
d="M56 686h47l9 57h229l-9 -57h143l-18 -114h-143l-23 -143c37 63 94 110 179 110c94 0 166 -65 142 -223l-50 -316h-229l45 287c7 47 -8 70 -43 70c-41 0 -59 -23 -67 -76l-44 -281h-229l90 572h-47z" />
    <glyph glyph-name="uni045C" unicode="&#x45c;" horiz-adv-x="609" 
d="M257 210l-33 -210h-229l82 523h229l-29 -188l134 188h241l-191 -243l111 -280h-243zM330 743h219l-127 -175h-163z" />
    <glyph glyph-name="uni045D" unicode="&#x45d;" horiz-adv-x="657" 
d="M2 0l82 523h228l-38 -242l165 242h218l-82 -523h-228l38 241l-165 -241h-218zM201 743h217l36 -175h-158z" />
    <glyph glyph-name="uni045E" unicode="&#x45e;" horiz-adv-x="614" 
d="M355 571c-112 0 -169 69 -170 170h140c0 -21 5 -62 40 -62c33 0 37 38 42 62h142c-17 -108 -86 -170 -194 -170zM168 59l-129 464h238l43 -232l110 232h225l-382 -695h-226z" />
    <glyph glyph-name="uni045F" unicode="&#x45f;" horiz-adv-x="627" 
d="M2 0l82 523h228l-58 -373h87l58 373h228l-82 -523h-172l-30 -127h-178l10 127h-173z" />
    <glyph glyph-name="uni0490" unicode="&#x490;" horiz-adv-x="586" 
d="M283 0h-267l113 715h281l30 130h216l-53 -335h-240z" />
    <glyph glyph-name="uni0491" unicode="&#x491;" horiz-adv-x="448" 
d="M288 373l-58 -373h-228l82 523h198l31 127h178l-45 -277h-158z" />
    <glyph glyph-name="Wgrave" unicode="&#x1e80;" horiz-adv-x="1027" 
d="M72 715h270l3 -393l130 393h224l20 -398l134 398h243l-279 -715h-258l-24 378l-141 -378h-269zM421 908h227l30 -155h-168z" />
    <glyph glyph-name="wgrave" unicode="&#x1e81;" horiz-adv-x="863" 
d="M39 523h231l16 -257l100 257h182l18 -257l100 257h219l-247 -523h-212l-21 240l-96 -240h-218zM298 743h217l36 -175h-158z" />
    <glyph glyph-name="Wacute" unicode="&#x1e82;" horiz-adv-x="1027" 
d="M72 715h270l3 -393l130 393h224l20 -398l134 398h243l-279 -715h-258l-24 378l-141 -378h-269zM560 908h229l-118 -155h-173z" />
    <glyph glyph-name="wacute" unicode="&#x1e83;" horiz-adv-x="863" 
d="M39 523h231l16 -257l100 257h182l18 -257l100 257h219l-247 -523h-212l-21 240l-96 -240h-218zM472 743h219l-127 -175h-163z" />
    <glyph glyph-name="Wdieresis" unicode="&#x1e84;" horiz-adv-x="1027" 
d="M72 715h270l3 -393l130 393h224l20 -398l134 398h243l-279 -715h-258l-24 378l-141 -378h-269zM478 742c-57 0 -102 43 -102 99s45 99 102 99s103 -43 103 -99s-46 -99 -103 -99zM711 742c-56 0 -101 43 -101 99s45 99 101 99c59 0 103 -43 103 -99s-44 -99 -103 -99z
" />
    <glyph glyph-name="wdieresis" unicode="&#x1e85;" horiz-adv-x="863" 
d="M39 523h231l16 -257l100 257h182l18 -257l100 257h219l-247 -523h-212l-21 240l-96 -240h-218zM369 552c-57 0 -102 43 -102 99s45 99 102 99s103 -43 103 -99s-46 -99 -103 -99zM594 552c-56 0 -101 43 -101 99s45 99 101 99c59 0 103 -43 103 -99s-44 -99 -103 -99z
" />
    <glyph glyph-name="Ygrave" unicode="&#x1ef2;" horiz-adv-x="722" 
d="M234 304l-164 411h276l59 -190l118 190h265l-287 -424l-46 -291h-268zM265 908h227l30 -155h-168z" />
    <glyph glyph-name="ygrave" unicode="&#x1ef3;" horiz-adv-x="614" 
d="M168 59l-129 464h238l43 -232l110 232h225l-382 -695h-226zM185 743h217l36 -175h-158z" />
    <glyph glyph-name="uni2009" unicode="&#x2009;" horiz-adv-x="75" 
 />
    <glyph glyph-name="endash" unicode="&#x2013;" horiz-adv-x="548" 
d="M61 362h456l-20 -123h-456z" />
    <glyph glyph-name="emdash" unicode="&#x2014;" horiz-adv-x="978" 
d="M61 362h886l-20 -123h-886z" />
    <glyph glyph-name="quoteleft" unicode="&#x2018;" horiz-adv-x="326" 
d="M53 459l171 270l123 -45l-100 -287z" />
    <glyph glyph-name="quoteright" unicode="&#x2019;" horiz-adv-x="325" 
d="M362 667l-170 -270l-123 45l99 287z" />
    <glyph glyph-name="quotesinglbase" unicode="&#x201a;" horiz-adv-x="325" 
d="M276 168l-170 -270l-123 45l99 287z" />
    <glyph glyph-name="quotedblleft" unicode="&#x201c;" horiz-adv-x="578" 
d="M53 459l171 270l123 -45l-100 -287zM306 459l170 270l123 -45l-99 -287z" />
    <glyph glyph-name="quotedblright" unicode="&#x201d;" horiz-adv-x="578" 
d="M615 667l-171 -270l-123 45l100 287zM362 667l-170 -270l-123 45l99 287z" />
    <glyph glyph-name="quotedblbase" unicode="&#x201e;" horiz-adv-x="578" 
d="M529 168l-171 -270l-123 45l100 287zM276 168l-170 -270l-123 45l99 287z" />
    <glyph glyph-name="dagger" unicode="&#x2020;" horiz-adv-x="421" 
d="M148 448h-102l25 156h102l18 111h181l-18 -111h102l-25 -156h-102l-37 -235h-181z" />
    <glyph glyph-name="daggerdbl" unicode="&#x2021;" horiz-adv-x="421" 
d="M155 491h-102l22 139h102l14 85h181l-14 -85h102l-22 -139h-102l-8 -54h102l-22 -139h-102l-14 -85h-181l14 85h-102l22 139h102z" />
    <glyph glyph-name="bullet" unicode="&#x2022;" horiz-adv-x="392" 
d="M195 139c-92 0 -156 73 -156 150c0 104 75 174 167 174c93 0 157 -71 157 -154c0 -100 -74 -170 -168 -170z" />
    <glyph glyph-name="ellipsis" unicode="&#x2026;" horiz-adv-x="938" 
d="M126 -14c-71 0 -122 53 -122 120c0 66 50 120 121 120c73 0 127 -54 127 -120c0 -67 -53 -120 -126 -120zM441 -14c-71 0 -122 53 -122 120c0 66 50 120 121 120c73 0 127 -54 127 -120c0 -67 -53 -120 -126 -120zM756 -14c-71 0 -122 53 -122 120c0 66 50 120 121 120
c73 0 127 -54 127 -120c0 -67 -53 -120 -126 -120z" />
    <glyph glyph-name="perthousand" unicode="&#x2030;" horiz-adv-x="1271" 
d="M212 524c0 -24 10 -46 39 -45c35 0 47 47 47 81c0 24 -12 43 -37 43c-35 0 -49 -38 -49 -79zM245 354c-101 0 -194 53 -194 162c0 117 85 208 215 208c99 0 192 -54 192 -162c0 -113 -85 -208 -213 -208zM687 715h109l-592 -715h-109zM590 156c0 -24 10 -46 39 -45
c35 0 47 47 47 81c0 24 -12 43 -37 43c-35 0 -49 -38 -49 -79zM623 -14c-101 0 -194 53 -194 162c0 114 85 208 215 208c99 0 192 -54 192 -162c0 -113 -85 -208 -213 -208zM1012 156c0 -24 10 -46 39 -45c35 0 47 47 47 81c0 24 -12 43 -37 43c-35 0 -49 -38 -49 -79z
M1045 -14c-101 0 -194 53 -194 162c0 114 85 208 215 208c99 0 192 -54 192 -162c0 -113 -85 -208 -213 -208z" />
    <glyph glyph-name="uni2032" unicode="&#x2032;" horiz-adv-x="269" 
d="M118 715h209l-112 -291h-161z" />
    <glyph glyph-name="uni2033" unicode="&#x2033;" horiz-adv-x="507" 
d="M118 715h209l-112 -291h-161zM356 715h209l-112 -291h-161z" />
    <glyph glyph-name="guilsinglleft" unicode="&#x2039;" horiz-adv-x="299" 
d="M15 269l149 190h146l-146 -191l80 -205h-136z" />
    <glyph glyph-name="guilsinglright" unicode="&#x203a;" horiz-adv-x="299" 
d="M280 253l-149 -190h-146l146 191l-80 205h136z" />
    <glyph glyph-name="fraction" unicode="&#x2044;" horiz-adv-x="196" 
d="M364 715h109l-618 -715h-109z" />
    <glyph glyph-name="Euro" unicode="&#x20ac;" horiz-adv-x="743" 
d="M47 452h55c45 176 170 274 350 274c183 0 303 -87 300 -278h-246c0 49 -10 79 -62 79c-43 0 -68 -28 -84 -75h113l-25 -78h-105l-6 -38h99l-26 -78h-78c4 -41 22 -69 69 -69c49 0 73 28 89 91h243c-36 -196 -151 -294 -345 -294c-192 0 -303 100 -310 272h-61l12 78h52
l6 38h-52z" />
    <glyph glyph-name="uni20B4" unicode="&#x20b4;" horiz-adv-x="687" 
d="M657 232c-30 -164 -143 -246 -339 -246c-182 3 -278 87 -273 199c1 31 9 56 22 80h-52l12 78h113c23 17 50 31 79 44h-187l12 78h352c9 10 14 22 14 36c1 27 -10 40 -32 40c-29 0 -48 -17 -56 -52h-243c27 156 135 237 323 237c173 0 266 -92 263 -199
c-1 -23 -4 -43 -11 -62h46l-12 -78h-85c-17 -16 -38 -29 -62 -44h142l-12 -78h-331c-23 -13 -36 -31 -37 -54c-1 -27 12 -40 40 -40c50 0 57 26 65 61h249z" />
    <glyph glyph-name="uni20B8" unicode="&#x20b8;" horiz-adv-x="648" 
d="M85 637l12 78h596l-12 -78h-596zM207 381h-163l33 204h594l-33 -204h-163l-59 -381h-268z" />
    <glyph glyph-name="uni20BD" unicode="&#x20bd;" horiz-adv-x="728" 
d="M416 392c48 0 77 25 77 76c0 32 -22 53 -66 53h-24l-20 -129h33zM339 100l-16 -100h-267l16 100h-85l12 78h85l6 38h-85l12 78h85l67 421h287c192 0 288 -87 288 -214c0 -180 -111 -285 -314 -285h-73l-6 -38h164l-12 -78h-164z" />
    <glyph glyph-name="uni2116" unicode="&#x2116;" horiz-adv-x="1217" 
d="M984 322c-123 0 -200 61 -200 172c0 140 112 229 243 229c133 0 199 -69 199 -177c0 -140 -117 -224 -242 -224zM996 458c32 0 48 47 48 95c0 25 -7 39 -31 39c-31 0 -50 -39 -50 -94c0 -27 11 -40 33 -40zM129 715h294l72 -317l50 317h232l-113 -715h-250l-106 375
l-59 -375h-233zM765 279h417l-17 -108h-417z" />
    <glyph glyph-name="trademark" unicode="&#x2122;" horiz-adv-x="783" 
d="M412 715h149l23 -123l66 123h162l-51 -321h-135l23 148l-79 -148h-41l-31 148l-23 -148h-114zM156 610h-76l17 105h285l-17 -105h-76l-34 -216h-133z" />
    <glyph glyph-name="Omega" unicode="&#x2126;" horiz-adv-x="829" 
d="M445 519c-109 0 -136 -110 -136 -202c0 -76 25 -137 68 -182l-21 -135h-355l29 192h76c-35 36 -65 100 -65 169c0 237 204 365 409 365c210 0 373 -112 373 -308c0 -81 -41 -178 -105 -226h88l-30 -192h-347l21 135c62 59 98 156 98 250c0 92 -40 134 -103 134z" />
    <glyph glyph-name="onethird" unicode="&#x2153;" horiz-adv-x="869" 
d="M149 553l-89 -42l21 134l119 70h142l-63 -393h-167zM667 715h109l-618 -715h-109zM641 -8c-112 0 -184 42 -185 145h146c0 -21 10 -32 31 -32c12 0 27 6 27 26c0 13 -10 21 -37 21h-30l14 88h37c24 0 36 9 36 26c0 12 -6 21 -25 21c-15 0 -29 -7 -34 -30h-144
c13 91 79 142 194 142c76 0 165 -23 165 -108c0 -51 -33 -81 -81 -94c41 -9 68 -31 68 -78c0 -91 -83 -127 -182 -127z" />
    <glyph glyph-name="twothirds" unicode="&#x2154;" horiz-adv-x="936" 
d="M19 342l149 133c34 29 91 79 91 104c0 15 -6 22 -19 22c-16 0 -29 -13 -36 -46h-152c16 115 93 166 201 166c93 0 171 -30 171 -122c0 -56 -42 -100 -106 -151l-11 -9h93l-19 -117h-366zM759 715h109l-618 -715h-109zM708 -8c-112 0 -184 42 -185 145h146
c0 -21 10 -32 31 -32c12 0 27 6 27 26c0 13 -10 21 -37 21h-30l14 88h37c24 0 36 9 36 26c0 12 -6 21 -25 21c-15 0 -29 -7 -34 -30h-144c13 91 79 142 194 142c76 0 165 -23 165 -108c0 -51 -33 -81 -81 -94c41 -9 68 -31 68 -78c0 -91 -83 -127 -182 -127z" />
    <glyph glyph-name="oneeighth" unicode="&#x215b;" horiz-adv-x="870" 
d="M149 553l-89 -42l21 134l119 70h142l-63 -393h-167zM671 715h109l-618 -715h-109zM642 -8c-93 0 -196 25 -196 113c0 61 33 88 86 105c-27 15 -46 36 -46 68c0 90 91 121 176 121c91 0 175 -31 175 -109c0 -48 -18 -80 -65 -93c40 -15 59 -45 59 -77
c0 -100 -101 -128 -189 -128zM640 100c19 0 33 11 33 31c0 15 -10 27 -29 27s-33 -11 -33 -32c0 -15 10 -26 29 -26zM657 239c17 0 31 11 31 30c0 16 -12 26 -28 26c-15 0 -30 -10 -30 -30c0 -15 10 -26 27 -26z" />
    <glyph glyph-name="threeeighths" unicode="&#x215c;" horiz-adv-x="938" 
d="M234 314c-112 0 -184 42 -185 145h146c0 -21 10 -32 31 -32c12 0 27 6 27 26c0 13 -10 21 -37 21h-30l14 88h37c24 0 36 9 36 26c0 12 -6 21 -25 21c-15 0 -29 -7 -34 -30h-144c13 91 79 142 194 142c76 0 165 -23 165 -108c0 -51 -33 -81 -81 -94c41 -9 68 -31 68 -78
c0 -91 -83 -127 -182 -127zM741 715h109l-618 -715h-109zM709 -8c-93 0 -196 25 -196 113c0 61 33 88 86 105c-27 15 -46 36 -46 68c0 90 91 121 176 121c91 0 175 -31 175 -109c0 -48 -18 -80 -65 -93c40 -15 59 -45 59 -77c0 -100 -101 -128 -189 -128zM707 100
c19 0 33 11 33 31c0 15 -10 27 -29 27s-33 -11 -33 -32c0 -15 10 -26 29 -26zM724 239c17 0 31 11 31 30c0 16 -12 26 -28 26c-15 0 -30 -10 -30 -30c0 -15 10 -26 27 -26z" />
    <glyph glyph-name="fiveeighths" unicode="&#x215d;" horiz-adv-x="912" 
d="M230 314c-91 0 -182 35 -185 137h155c1 -9 6 -18 25 -18c13 0 27 9 27 30c0 17 -9 25 -26 25c-15 0 -24 -9 -29 -21h-135l54 248h314l-18 -114h-202l-16 -73c19 27 49 56 112 56c65 0 110 -33 110 -105c0 -115 -77 -165 -186 -165zM721 715h109l-618 -715h-109zM683 -8
c-93 0 -196 25 -196 113c0 61 33 88 86 105c-27 15 -46 36 -46 68c0 90 91 121 176 121c91 0 175 -31 175 -109c0 -48 -18 -80 -65 -93c40 -15 59 -45 59 -77c0 -100 -101 -128 -189 -128zM681 100c19 0 33 11 33 31c0 15 -10 27 -29 27s-33 -11 -33 -32
c0 -15 10 -26 29 -26zM698 239c17 0 31 11 31 30c0 16 -12 26 -28 26c-15 0 -30 -10 -30 -30c0 -15 10 -26 27 -26z" />
    <glyph glyph-name="seveneighths" unicode="&#x215e;" horiz-adv-x="866" 
d="M213 586h-140l21 129h352l-3 -18l-203 -375h-169zM664 715h109l-618 -715h-109zM636 -8c-93 0 -196 25 -196 113c0 61 33 88 86 105c-27 15 -46 36 -46 68c0 90 91 121 176 121c91 0 175 -31 175 -109c0 -48 -18 -80 -65 -93c40 -15 59 -45 59 -77
c0 -100 -101 -128 -189 -128zM634 100c19 0 33 11 33 31c0 15 -10 27 -29 27s-33 -11 -33 -32c0 -15 10 -26 29 -26zM651 239c17 0 31 11 31 30c0 16 -12 26 -28 26c-15 0 -30 -10 -30 -30c0 -15 10 -26 27 -26z" />
    <glyph glyph-name="Delta" unicode="&#x2206;" horiz-adv-x="797" 
d="M-29 27l318 688h363l97 -688l-4 -27h-778zM296 201h166l-30 327z" />
    <glyph glyph-name="minus" unicode="&#x2212;" 
d="M63 425h524l-27 -172h-524z" />
    <glyph glyph-name="approxequal" unicode="&#x2248;" horiz-adv-x="620" 
d="M14 98c19 154 94 208 174 208c84 0 176 -38 224 -38c25 0 42 14 49 43h124c-13 -141 -91 -208 -173 -208c-84 0 -177 38 -225 38c-27 0 -42 -16 -49 -43h-124zM53 341c19 154 94 208 174 208c84 0 176 -38 224 -38c25 0 42 14 49 43h124c-13 -141 -91 -208 -173 -208
c-84 0 -177 38 -225 38c-27 0 -42 -16 -49 -43h-124z" />
    <glyph glyph-name="notequal" unicode="&#x2260;" horiz-adv-x="594" 
d="M75 505h253l47 93h136l-47 -93h129l-23 -148h-181l-29 -57h201l-23 -148h-253l-47 -93h-136l47 93h-129l23 148h181l29 57h-201z" />
    <glyph glyph-name="lessequal" unicode="&#x2264;" horiz-adv-x="517" 
d="M55 397l7 41l478 230l-32 -205l-126 -53l109 -57l-32 -198zM16 142h441l-22 -142h-441z" />
    <glyph glyph-name="greaterequal" unicode="&#x2265;" horiz-adv-x="517" 
d="M507 426l-7 -41l-478 -230l32 205l126 53l-109 57l32 198zM20 142h441l-22 -142h-441z" />
    <glyph glyph-name="uni24C5" unicode="&#x24c5;" horiz-adv-x="842" 
d="M279 563h175c129 0 175 -58 175 -145v-2c0 -87 -53 -137 -166 -137h-33v-123h-151v407zM444 379c29 0 43 12 43 37v2c0 22 -14 33 -42 33h-15v-72h14zM433 30c180 0 324 132 324 329c0 195 -140 326 -322 326c-185 0 -324 -133 -324 -328c0 -197 144 -327 322 -327z
M433 -25c-217 0 -392 165 -392 382c0 213 174 383 394 383c223 0 392 -168 392 -381c0 -218 -174 -384 -394 -384z" />
    <glyph glyph-name="zero.tab" unicode="&#xe44f;" 
d="M258 279c-3 -23 -6 -39 -6 -54c0 -31 11 -45 39 -45c33 0 42 26 53 94l26 161c4 24 6 43 6 57c0 29 -12 44 -37 44c-33 0 -44 -27 -55 -95zM272 -14c-150 0 -251 77 -251 237c0 22 2 46 6 71l26 163c29 179 140 269 299 269c148 0 255 -80 255 -236c0 -20 -1 -42 -5 -65
l-26 -162c-29 -183 -133 -277 -304 -277z" />
    <glyph glyph-name="one.tab" unicode="&#xe450;" 
d="M252 453l-170 -92l35 220l215 134h227l-113 -715h-266z" />
    <glyph glyph-name="two.tab" unicode="&#xe451;" 
d="M-18 34l229 256c48 53 148 152 148 213c0 21 -7 35 -30 35c-27 0 -39 -23 -52 -100h-235c27 193 124 288 316 288c132 0 250 -51 253 -198c3 -109 -64 -186 -187 -301l-34 -32h171l-30 -195h-554z" />
    <glyph glyph-name="three.tab" unicode="&#xe452;" 
d="M294 -14c-169 0 -294 57 -286 262h221c0 -48 8 -78 53 -78c37 0 56 22 56 66c0 29 -12 47 -51 47h-55l25 153h60c36 0 63 18 63 66c0 24 -12 41 -44 41s-55 -17 -64 -72h-224c31 164 128 255 300 255c124 0 260 -42 260 -191c0 -91 -49 -149 -129 -172
c61 -17 100 -65 100 -137c0 -149 -113 -240 -285 -240z" />
    <glyph glyph-name="four.tab" unicode="&#xe453;" 
d="M264 130h-279l15 92l303 493h284l-66 -417h66l-27 -168h-66l-20 -130h-230zM297 298l34 213l-123 -213h89z" />
    <glyph glyph-name="five.tab" unicode="&#xe454;" 
d="M277 -14c-179 0 -275 80 -260 255h218c-3 -37 7 -57 46 -57c41 0 55 36 55 79c0 37 -20 56 -61 56c-39 0 -67 -18 -82 -45h-155l90 441h476l-29 -184h-302l-29 -134c31 44 84 87 163 87c108 0 171 -64 171 -192c0 -187 -105 -306 -301 -306z" />
    <glyph glyph-name="six.tab" unicode="&#xe455;" 
d="M297 -14c-159 0 -274 79 -274 252c0 27 4 61 9 92l13 85c35 212 157 311 324 311c165 0 247 -69 242 -228h-212c3 31 -4 50 -39 50c-48 0 -77 -54 -92 -158c25 36 67 74 139 74c101 0 175 -64 175 -192c0 -170 -110 -286 -285 -286zM243 233c0 -32 19 -60 55 -60
c39 0 64 29 64 74c0 33 -18 58 -53 58c-36 0 -66 -27 -66 -72z" />
    <glyph glyph-name="seven.tab" unicode="&#xe456;" 
d="M297 506h-236l33 209h562l-4 -26l-347 -689h-266z" />
    <glyph glyph-name="eight.tab" unicode="&#xe457;" 
d="M287 -14c-131 0 -283 43 -283 196c0 100 50 162 141 197c-39 25 -70 64 -70 120c0 149 129 227 269 227c122 0 253 -48 253 -189c0 -89 -41 -138 -109 -173c60 -31 89 -77 89 -137c0 -165 -133 -241 -290 -241zM235 223c0 -35 21 -54 56 -54c36 0 66 28 66 73
c0 35 -20 54 -56 54c-36 -1 -66 -28 -66 -73zM278 487c0 -28 16 -53 51 -53c33 0 61 26 61 66c0 31 -19 52 -51 52c-35 0 -61 -26 -61 -65z" />
    <glyph glyph-name="nine.tab" unicode="&#xe458;" 
d="M335 727c157 0 270 -76 270 -252c0 -27 -4 -61 -9 -92l-13 -85c-37 -224 -135 -311 -328 -311c-163 0 -250 73 -246 229h214c0 -31 8 -51 43 -51c53 0 79 50 94 158c-25 -36 -67 -74 -139 -74c-101 0 -175 64 -175 192c0 157 106 286 289 286zM386 483
c0 32 -20 60 -56 60c-39 0 -65 -29 -65 -74c0 -33 19 -58 54 -58c36 0 67 27 67 72z" />
    <glyph glyph-name="cent.tab" unicode="&#xe459;" 
d="M240 -10c-124 16 -223 93 -223 229c0 181 120 314 310 319l14 91h66l-15 -94c121 -16 195 -87 199 -227h-197c0 32 -9 53 -28 62l-37 -231c36 8 54 33 63 76h189c-13 -132 -113 -226 -276 -229l-19 -121h-66zM233 222c0 -39 10 -64 31 -77l36 227
c-43 -15 -67 -62 -67 -150z" />
    <glyph glyph-name="dollar.tab" unicode="&#xe45a;" 
d="M219 -8c-124 16 -225 84 -214 238h206c-2 -34 10 -56 35 -66l15 94c-148 32 -211 94 -211 213c0 159 122 255 285 255l14 87h79l-15 -92c124 -16 204 -75 204 -224h-202c-1 25 -10 41 -29 49l-15 -94c123 -27 213 -82 213 -208c0 -168 -116 -254 -287 -257l-19 -122h-79z
M373 203c0 19 -9 30 -36 39l-13 -86c28 4 49 16 49 47zM259 509c0 -19 12 -32 35 -41l14 86c-33 -4 -49 -19 -49 -45z" />
    <glyph glyph-name="Euro.tab" unicode="&#xe45b;" 
d="M39 454h41c33 188 139 273 290 272c168 -1 260 -85 243 -254h-210c4 39 0 64 -39 64c-32 0 -47 -22 -58 -82h106l-25 -78h-93l-6 -38h87l-25 -78h-75c-5 -45 -6 -83 42 -83c31 0 47 15 54 71h207c-24 -186 -123 -262 -277 -262c-183 0 -266 105 -251 274h-41l12 78h41
l6 38h-41z" />
    <glyph glyph-name="a.alt" unicode="&#xe4c0;" horiz-adv-x="647" 
d="M591 166c-11 -68 -15 -121 -11 -166h-227c-5 20 -5 56 -5 84c-37 -63 -85 -98 -157 -98c-107 0 -179 76 -179 220c0 220 118 333 246 333c76 0 129 -35 148 -91l12 75h229zM328 373c-47 0 -82 -54 -82 -142c0 -48 16 -77 55 -77c50 0 83 66 83 143c0 51 -19 76 -56 76z
" />
    <glyph glyph-name="t.alt" unicode="&#xe4d3;" horiz-adv-x="404" 
d="M91 374h-67l23 149h67l17 104h229l-17 -104h86l-23 -149h-86l-59 -374h-229z" />
    <glyph glyph-name="f_i" unicode="&#xfb01;" horiz-adv-x="715" 
d="M108 523l8 48c24 136 123 187 245 187c53 0 78 -6 105 -15l-26 -164c-13 4 -23 7 -44 7c-35 0 -51 -16 -56 -41l-4 -22h95l-23 -149h-95l-59 -374h-228l59 374h-61l23 149h61zM615 544c-69 0 -117 46 -117 110s49 110 118 110c68 0 118 -46 118 -110s-51 -110 -119 -110z
M483 523h228l-82 -523h-228z" />
    <glyph glyph-name="f_l" unicode="&#xfb02;" horiz-adv-x="712" 
d="M108 523l8 48c24 136 123 187 245 187c53 0 78 -6 105 -15l-26 -164c-13 4 -23 7 -44 7c-35 0 -51 -16 -56 -41l-4 -22h95l-23 -149h-95l-59 -374h-228l59 374h-61l23 149h61zM517 743h227l-117 -743h-227z" />
    <glyph glyph-name="colon.tab" horiz-adv-x="300" 
d="M122 -14c-71 0 -122 53 -122 120c0 66 50 120 121 120c73 0 127 -54 127 -120c0 -67 -53 -120 -126 -120zM167 266c-71 0 -122 53 -122 120c0 66 50 120 121 120c73 0 127 -54 127 -120c0 -67 -53 -120 -126 -120z" />
    <glyph glyph-name="two.sup" horiz-adv-x="388" 
d="M21 400l149 133c34 29 91 79 91 104c0 15 -6 22 -19 22c-16 0 -29 -13 -36 -46h-152c16 115 93 166 201 166c93 0 171 -30 171 -122c0 -56 -42 -100 -106 -151l-11 -9h93l-19 -117h-366z" />
    <glyph glyph-name="three.sub" horiz-adv-x="406" 
d="M159 -145c-112 0 -184 42 -185 145h146c0 -21 10 -32 31 -32c12 0 27 6 27 26c0 13 -10 21 -37 21h-30l14 88h37c24 0 36 9 36 26c0 12 -6 21 -25 21c-15 0 -29 -7 -34 -30h-144c13 91 79 142 194 142c76 0 165 -23 165 -108c0 -51 -33 -81 -81 -94c41 -9 68 -31 68 -78
c0 -91 -83 -127 -182 -127z" />
    <glyph glyph-name="two.sub" horiz-adv-x="388" 
d="M-55 -117l149 133c34 29 91 79 91 104c0 15 -6 22 -19 22c-16 0 -29 -13 -36 -46h-152c16 115 93 166 201 166c93 0 171 -30 171 -122c0 -56 -42 -100 -106 -151l-11 -9h93l-19 -117h-366z" />
    <glyph glyph-name="one.sub" horiz-adv-x="315" 
d="M75 94l-89 -42l21 134l119 70h142l-63 -393h-167z" />
    <glyph glyph-name="zero.sub" horiz-adv-x="459" 
d="M150 31c0 -32 8 -51 39 -51c47 0 55 74 55 109c0 33 -10 50 -39 50c-47 0 -55 -76 -55 -108zM181 -145c-113 0 -196 56 -196 169c0 138 88 238 229 238c112 0 195 -56 195 -168c0 -141 -86 -239 -228 -239z" />
    <glyph glyph-name="nine.den" horiz-adv-x="428" 
d="M205 399c112 0 193 -46 193 -166c0 -15 -1 -32 -4 -49l-2 -12c-19 -116 -86 -180 -219 -180c-93 0 -168 32 -173 131h152c3 -11 7 -16 24 -16c27 0 44 23 51 70c-17 -21 -45 -39 -92 -39c-69 0 -121 32 -121 107c0 107 90 154 191 154zM231 263c0 15 -7 28 -27 28
c-19 0 -31 -13 -31 -36c0 -16 8 -28 27 -28c17 0 31 13 31 36z" />
    <glyph glyph-name="eight.den" horiz-adv-x="415" 
d="M189 -8c-93 0 -196 25 -196 113c0 61 33 88 86 105c-27 15 -46 36 -46 68c0 90 91 121 176 121c91 0 175 -31 175 -109c0 -48 -18 -80 -65 -93c40 -15 59 -45 59 -77c0 -100 -101 -128 -189 -128zM187 100c19 0 33 11 33 31c0 15 -10 27 -29 27s-33 -11 -33 -32
c0 -15 10 -26 29 -26zM204 239c17 0 31 11 31 30c0 16 -12 26 -28 26c-15 0 -30 -10 -30 -30c0 -15 10 -26 27 -26z" />
    <glyph glyph-name="seven.den" horiz-adv-x="382" 
d="M160 264h-140l21 129h352l-3 -18l-203 -375h-169z" />
    <glyph glyph-name="six.den" horiz-adv-x="428" 
d="M204 -8c-112 0 -197 46 -197 166c0 15 1 32 4 49l2 12c18 111 104 180 219 180c93 0 170 -31 173 -132h-152c-3 11 -7 17 -24 17c-28 0 -43 -30 -51 -70c17 21 45 39 92 39c69 0 121 -33 121 -105c0 -109 -86 -156 -187 -156zM174 128c0 -15 7 -28 27 -28
c19 0 31 13 31 36c0 16 -8 28 -27 28c-17 0 -31 -13 -31 -36z" />
    <glyph glyph-name="five.den" horiz-adv-x="400" 
d="M177 -8c-91 0 -182 35 -185 137h155c1 -9 6 -18 25 -18c13 0 27 9 27 30c0 17 -9 25 -26 25c-15 0 -24 -9 -29 -21h-135l54 248h314l-18 -114h-202l-16 -73c19 27 49 56 112 56c65 0 110 -33 110 -105c0 -115 -77 -165 -186 -165z" />
    <glyph glyph-name="four.den" horiz-adv-x="434" 
d="M173 70h-194l10 62l199 261h198l-34 -216h49l-17 -107h-49l-11 -70h-162zM196 177l17 106l-78 -106h61z" />
    <glyph glyph-name="three.den" horiz-adv-x="406" 
d="M181 -8c-112 0 -184 42 -185 145h146c0 -21 10 -32 31 -32c12 0 27 6 27 26c0 13 -10 21 -37 21h-30l14 88h37c24 0 36 9 36 26c0 12 -6 21 -25 21c-15 0 -29 -7 -34 -30h-144c13 91 79 142 194 142c76 0 165 -23 165 -108c0 -51 -33 -81 -81 -94c41 -9 68 -31 68 -78
c0 -91 -83 -127 -182 -127z" />
    <glyph glyph-name="two.den" horiz-adv-x="388" 
d="M-34 20l149 133c34 29 91 79 91 104c0 15 -6 22 -19 22c-16 0 -29 -13 -36 -46h-152c16 115 93 166 201 166c93 0 171 -30 171 -122c0 -56 -42 -100 -106 -151l-11 -9h93l-19 -117h-366z" />
    <glyph glyph-name="one.den" horiz-adv-x="315" 
d="M96 231l-89 -42l21 134l119 70h142l-63 -393h-167z" />
    <glyph glyph-name="f.short" horiz-adv-x="406" 
d="M108 523l8 48c24 136 123 187 245 187c53 0 78 -6 105 -15l-26 -164c-13 4 -23 7 -44 7c-35 0 -51 -16 -56 -41l-4 -22h95l-23 -149h-95l-59 -374h-228l59 374h-61l23 149h61z" />
    <glyph glyph-name="f_f.short" horiz-adv-x="761" 
d="M440 374h-127l-59 -374h-228l59 374h-61l23 149h61l6 37c21 136 123 187 240 187c49 0 76 -6 103 -15l-26 -163c-13 4 -22 6 -41 6c-32 0 -47 -12 -52 -41l-2 -11h127l8 48c21 136 124 187 245 187c53 0 78 -6 105 -15l-26 -164c-13 4 -23 7 -44 7c-35 0 -51 -16 -56 -41
l-4 -22h95l-23 -149h-95l-59 -374h-228z" />
    <glyph glyph-name="zero.den" horiz-adv-x="459" 
d="M172 168c0 -32 8 -51 39 -51c47 0 55 74 55 109c0 33 -10 50 -39 50c-47 0 -55 -76 -55 -108zM203 -8c-113 0 -196 56 -196 169c0 138 88 238 229 238c112 0 195 -56 195 -168c0 -141 -86 -239 -228 -239z" />
    <glyph glyph-name="nine.num" horiz-adv-x="428" 
d="M255 721c112 0 193 -46 193 -166c0 -15 -1 -32 -4 -49l-2 -12c-19 -116 -86 -180 -219 -180c-93 0 -168 32 -173 131h152c3 -11 7 -16 24 -16c27 0 44 23 51 70c-17 -21 -45 -39 -92 -39c-69 0 -121 32 -121 107c0 107 90 154 191 154zM281 585c0 15 -7 28 -27 28
c-19 0 -31 -13 -31 -36c0 -16 8 -28 27 -28c17 0 31 13 31 36z" />
    <glyph glyph-name="eight.num" horiz-adv-x="415" 
d="M239 314c-93 0 -196 25 -196 113c0 61 33 88 86 105c-27 15 -46 36 -46 68c0 90 91 121 176 121c91 0 175 -31 175 -109c0 -48 -18 -80 -65 -93c40 -15 59 -45 59 -77c0 -100 -101 -128 -189 -128zM237 422c19 0 33 11 33 31c0 15 -10 27 -29 27s-33 -11 -33 -32
c0 -15 10 -26 29 -26zM254 561c17 0 31 11 31 30c0 16 -12 26 -28 26c-15 0 -30 -10 -30 -30c0 -15 10 -26 27 -26z" />
    <glyph glyph-name="seven.num" horiz-adv-x="382" 
d="M210 586h-140l21 129h352l-3 -18l-203 -375h-169z" />
    <glyph glyph-name="six.num" horiz-adv-x="428" 
d="M254 314c-112 0 -197 46 -197 166c0 15 1 32 4 49l2 12c18 111 104 180 219 180c93 0 170 -31 173 -132h-152c-3 11 -7 17 -24 17c-28 0 -43 -30 -51 -70c17 21 45 39 92 39c69 0 121 -33 121 -105c0 -109 -86 -156 -187 -156zM224 450c0 -15 7 -28 27 -28
c19 0 31 13 31 36c0 16 -8 28 -27 28c-17 0 -31 -13 -31 -36z" />
    <glyph glyph-name="five.num" horiz-adv-x="400" 
d="M227 314c-91 0 -182 35 -185 137h155c1 -9 6 -18 25 -18c13 0 27 9 27 30c0 17 -9 25 -26 25c-15 0 -24 -9 -29 -21h-135l54 248h314l-18 -114h-202l-16 -73c19 27 49 56 112 56c65 0 110 -33 110 -105c0 -115 -77 -165 -186 -165z" />
    <glyph glyph-name="four.num" horiz-adv-x="434" 
d="M223 392h-194l10 62l199 261h198l-34 -216h49l-17 -107h-49l-11 -70h-162zM246 499l17 106l-78 -106h61z" />
    <glyph glyph-name="three.num" horiz-adv-x="406" 
d="M231 314c-112 0 -184 42 -185 145h146c0 -21 10 -32 31 -32c12 0 27 6 27 26c0 13 -10 21 -37 21h-30l14 88h37c24 0 36 9 36 26c0 12 -6 21 -25 21c-15 0 -29 -7 -34 -30h-144c13 91 79 142 194 142c76 0 165 -23 165 -108c0 -51 -33 -81 -81 -94c41 -9 68 -31 68 -78
c0 -91 -83 -127 -182 -127z" />
    <glyph glyph-name="two.num" horiz-adv-x="388" 
d="M16 342l149 133c34 29 91 79 91 104c0 15 -6 22 -19 22c-16 0 -29 -13 -36 -46h-152c16 115 93 166 201 166c93 0 171 -30 171 -122c0 -56 -42 -100 -106 -151l-11 -9h93l-19 -117h-366z" />
    <glyph glyph-name="one.num" horiz-adv-x="315" 
d="M146 553l-89 -42l21 134l119 70h142l-63 -393h-167z" />
    <glyph glyph-name="zero.num" horiz-adv-x="459" 
d="M222 490c0 -32 8 -51 39 -51c47 0 55 74 55 109c0 33 -10 50 -39 50c-47 0 -55 -76 -55 -108zM253 314c-113 0 -196 56 -196 169c0 138 88 238 229 238c112 0 195 -56 195 -168c0 -141 -86 -239 -228 -239z" />
    <glyph glyph-name="nine.oldtab" 
d="M317 633c161 0 270 -78 270 -258c0 -29 -3 -58 -7 -85l-13 -85c-33 -217 -134 -312 -319 -312c-140 0 -265 58 -257 234h213c-3 -31 9 -56 44 -56c51 0 79 52 98 168c-25 -39 -71 -75 -146 -75c-105 0 -172 73 -172 186c0 175 117 283 289 283zM368 395
c0 37 -21 63 -60 63c-43 0 -69 -33 -70 -80c-1 -36 20 -61 60 -61s70 31 70 78z" />
    <glyph glyph-name="eight.oldtab" 
d="M287 -14c-144 0 -285 57 -285 199c0 99 52 162 144 195c-43 27 -72 66 -72 126c0 145 128 220 270 220c124 0 252 -50 252 -191c0 -85 -37 -142 -112 -173c62 -29 93 -79 93 -148c0 -159 -135 -228 -290 -228zM232 217c0 -37 20 -56 59 -56s65 28 65 75
c0 36 -18 58 -57 58s-67 -32 -67 -77zM277 491c0 -31 19 -54 52 -54s61 24 61 67c0 31 -18 55 -53 55c-33 0 -60 -29 -60 -68z" />
    <glyph glyph-name="seven.oldtab" 
d="M280 416h-234l33 203h559l-5 -26l-344 -683h-265z" />
    <glyph glyph-name="six.oldtab" 
d="M307 -14c-160 0 -281 79 -281 271c0 23 3 47 7 74l13 85c29 197 155 310 333 310c139 0 250 -60 237 -228h-213c3 28 -4 50 -39 50c-51 0 -78 -52 -97 -168c25 39 72 75 148 75c105 0 170 -71 170 -184c0 -175 -107 -285 -278 -285zM245 227c0 -37 21 -63 60 -63
c43 0 69 33 70 80c1 36 -20 61 -60 61s-70 -31 -70 -78z" />
    <glyph glyph-name="five.oldtab" 
d="M270 -104c-172 0 -287 87 -271 247h218c-3 -40 9 -65 50 -65s58 31 58 84c0 39 -21 61 -64 61c-35 0 -62 -15 -81 -46h-154l90 442h471l-30 -184h-297l-28 -135c32 45 78 89 158 89c101 0 172 -64 172 -197c0 -173 -89 -296 -292 -296z" />
    <glyph glyph-name="four.oldtab" 
d="M249 32h-279l12 81l304 506h286l-69 -430h66l-24 -157h-66l-20 -122h-230zM279 189l37 229l-130 -229h93z" />
    <glyph glyph-name="three.oldtab" 
d="M277 -105c-184 0 -300 85 -289 257h224c-1 -48 8 -77 55 -77c36 0 55 22 56 66c1 31 -18 53 -55 53h-54l24 147h59c40 0 68 19 68 70c0 31 -15 46 -45 46c-35 0 -54 -19 -65 -74h-223c23 161 125 250 296 250c124 0 265 -41 265 -190c0 -85 -45 -150 -133 -173
c64 -19 101 -67 101 -143c0 -155 -129 -232 -284 -232z" />
    <glyph glyph-name="two.oldtab" 
d="M-18 31l234 210c56 51 135 120 135 171c0 23 -9 37 -36 37c-30 0 -50 -26 -60 -79h-222c29 179 135 263 306 263c132 0 259 -53 259 -189c0 -106 -72 -174 -151 -237l-41 -33h156l-27 -174h-558z" />
    <glyph glyph-name="one.oldtab" 
d="M250 374l-176 -97l32 205l219 137h209l-98 -619h-245z" />
    <glyph glyph-name="zero.oldtab" 
d="M253 223c0 -23 7 -43 39 -43s40 25 51 90l11 71c4 24 7 46 7 61c0 27 -9 41 -37 41c-32 0 -43 -24 -54 -91l-11 -71c-4 -23 -6 -43 -6 -58zM284 -14c-157 0 -263 76 -263 237c0 23 2 47 6 72l11 71c27 177 136 267 292 267s262 -81 262 -239c0 -20 -1 -41 -5 -64l-11 -71
c-27 -179 -124 -273 -292 -273z" />
    <glyph glyph-name="yen.oldtab" 
d="M62 388h125l-108 306h253l28 -147l74 147h221l-202 -306h134l-12 -76h-142l-6 -37h142l-12 -76h-142l-31 -199h-249l31 199h-134l12 76h134l5 37h-133z" />
    <glyph glyph-name="sterling.oldtab" 
d="M48 399h37c-3 19 -4 38 -4 61c0 157 112 244 269 244c179 0 262 -76 246 -255h-204c5 51 -11 63 -42 63c-47 0 -51 -51 -51 -95v-18h135l-19 -123h-115c-3 -27 -8 -53 -19 -78c17 -4 30 -7 45 -7c25 0 45 13 50 42h206c-20 -157 -100 -242 -228 -242
c-90 0 -127 46 -165 46c-21 0 -33 -12 -37 -37h-171c12 88 45 154 98 189c12 27 21 60 24 87h-75z" />
    <glyph glyph-name="Euro.oldtab" 
d="M45 440h40c32 183 133 265 281 264c163 -1 252 -81 236 -246h-204c4 39 -1 62 -38 62c-32 0 -45 -21 -56 -80h103l-25 -76h-90l-6 -36h85l-25 -76h-72c-5 -44 -5 -80 40 -80c31 0 46 14 53 69h201c-24 -181 -120 -255 -269 -255c-176 0 -258 102 -243 266h-41l12 76h40
l6 36h-40z" />
    <glyph glyph-name="dollar.oldtab" 
d="M221 -8c-119 16 -219 83 -206 231h200c-2 -33 9 -54 33 -64l14 91c-143 32 -204 92 -204 207c0 155 119 244 275 247l14 85h77l-14 -89c120 -16 198 -74 198 -218h-195c-1 27 -11 40 -30 48l-15 -91c121 -24 208 -79 208 -202c0 -164 -112 -247 -279 -250l-18 -118h-77z
M372 197c0 19 -9 29 -36 38l-13 -84c29 3 49 15 49 46zM261 494c0 -17 11 -30 33 -39l13 81c-31 -4 -46 -18 -46 -42z" />
    <glyph glyph-name="braceright.tab" horiz-adv-x="300" 
d="M86 776c219 -8 269 -104 202 -262l-30 -72c-17 -39 -6 -65 50 -68l-22 -136c-56 3 -71 -19 -68 -62l7 -91c13 -177 -77 -233 -285 -233l23 145c55 3 66 18 65 65l-3 102c-3 77 30 125 125 148c-87 27 -106 85 -71 173l27 70c19 48 13 69 -43 76z" />
    <glyph glyph-name="braceleft.tab" horiz-adv-x="300" 
d="M228 -148c-220 8 -269 104 -202 262l30 72c17 39 6 65 -50 68l22 136c56 -3 71 19 68 62l-7 91c-13 177 77 233 285 233l-23 -145c-55 -3 -66 -18 -65 -65l3 -102c3 -78 -30 -124 -125 -148c87 -27 107 -85 72 -173l-27 -70c-19 -48 -14 -69 42 -76z" />
    <glyph glyph-name="uni045D.bgr" horiz-adv-x="638" 
d="M582 166c-11 -68 -16 -121 -13 -166h-225c-3 21 -1 66 0 94c-39 -64 -95 -108 -179 -108c-94 0 -166 64 -142 221l50 316h229l-48 -301c-7 -47 7 -70 42 -70c40 0 58 23 66 76l47 295h229zM183 743h217l36 -175h-158z" />
    <glyph glyph-name="five.sub" horiz-adv-x="400" 
d="M155 -145c-91 0 -182 35 -185 137h155c1 -9 6 -18 25 -18c13 0 27 9 27 30c0 17 -9 25 -26 25c-15 0 -24 -9 -29 -21h-135l54 248h314l-18 -114h-202l-16 -73c19 27 49 56 112 56c65 0 110 -33 110 -105c0 -115 -77 -165 -186 -165z" />
    <glyph glyph-name="six.sub" horiz-adv-x="428" 
d="M182 -145c-112 0 -197 46 -197 166c0 15 1 32 4 49l2 12c18 111 104 180 219 180c93 0 170 -31 173 -132h-152c-3 11 -7 17 -24 17c-28 0 -43 -30 -51 -70c17 21 45 39 92 39c69 0 121 -33 121 -105c0 -109 -86 -156 -187 -156zM152 -9c0 -15 7 -28 27 -28
c19 0 31 13 31 36c0 16 -8 28 -27 28c-17 0 -31 -13 -31 -36z" />
    <glyph glyph-name="uni20B4.old" horiz-adv-x="668" 
d="M636 225c-29 -159 -132 -239 -311 -239c-189 0 -286 85 -281 193c1 29 9 55 21 78h-50l12 75h109c21 15 47 30 78 43h-183l12 76h342c9 9 13 21 13 35c1 25 -10 38 -31 38c-28 0 -46 -17 -54 -50h-236c27 148 128 230 311 230c175 0 261 -89 258 -193
c-1 -23 -4 -41 -11 -60h44l-11 -76h-83c-16 -15 -36 -30 -60 -43h138l-12 -75h-320c-24 -13 -36 -30 -37 -53c-1 -26 12 -39 39 -39c41 0 54 27 62 60h241z" />
    <glyph glyph-name="uni20B4.oldtab" 
d="M564 225c-19 -156 -130 -239 -282 -239c-173 0 -252 85 -244 193c2 30 9 56 22 78h-38l13 75h91c21 15 44 30 70 43h-156l13 76h298c7 9 12 21 13 35c1 25 -8 38 -27 38c-25 0 -41 -17 -48 -50h-210c27 151 130 230 273 230c166 0 238 -89 233 -193
c-1 -22 -5 -42 -12 -60h45l-12 -76h-80c-15 -15 -32 -30 -55 -43h129l-13 -75h-290c-23 -13 -34 -31 -35 -53c-3 -26 8 -39 33 -39c43 0 50 27 55 60h214z" />
    <glyph glyph-name="uni20B4.tab" 
d="M574 232c-29 -167 -137 -246 -312 -246c-164 3 -241 87 -236 199c2 31 9 58 22 80h-42l11 78h100c25 18 51 33 78 44h-172l12 78h311c8 11 11 23 12 36c1 27 -8 40 -27 40c-27 0 -44 -17 -52 -52h-217c27 156 130 237 298 237c154 0 231 -92 226 -199
c-1 -21 -4 -42 -11 -62h46l-11 -78h-82c-15 -15 -34 -30 -56 -44h132l-12 -78h-300c-23 -13 -34 -31 -35 -54c-2 -27 10 -40 35 -40c46 0 52 27 60 61h222z" />
    <glyph glyph-name="seven.sub" horiz-adv-x="382" 
d="M139 127h-140l21 129h352l-3 -18l-203 -375h-169z" />
    <glyph glyph-name="uni20B8.old" horiz-adv-x="638" 
d="M84 618l11 76h579l-12 -76h-578zM202 370h-158l32 197h576l-32 -197h-158l-57 -370h-260z" />
    <glyph glyph-name="uni20B8.oldtab" 
d="M88 618l11 76h539l-12 -76h-538zM186 370h-138l32 197h536l-32 -197h-138l-57 -370h-260z" />
    <glyph glyph-name="uni20B8.tab" 
d="M85 637l12 78h556l-12 -78h-556zM187 381h-143l33 204h554l-33 -204h-143l-59 -381h-268z" />
    <glyph glyph-name="eight.sub" horiz-adv-x="415" 
d="M168 -145c-93 0 -196 25 -196 113c0 61 33 88 86 105c-27 15 -46 36 -46 68c0 90 91 121 176 121c91 0 175 -31 175 -109c0 -48 -18 -80 -65 -93c40 -15 59 -45 59 -77c0 -100 -101 -128 -189 -128zM166 -37c19 0 33 11 33 31c0 15 -10 27 -29 27s-33 -11 -33 -32
c0 -15 10 -26 29 -26zM183 102c17 0 31 11 31 30c0 16 -12 26 -28 26c-15 0 -30 -10 -30 -30c0 -15 10 -26 27 -26z" />
    <glyph glyph-name="uni20BD.old" horiz-adv-x="708" 
d="M403 380c47 0 75 23 75 74c0 31 -21 51 -64 51h-23l-20 -125h32zM328 97l-15 -97h-259l15 97h-82l12 76h82l6 37h-83l12 75h83l65 409h278c186 0 279 -84 279 -208c0 -175 -108 -276 -304 -276h-71l-6 -37h159l-11 -76h-160z" />
    <glyph glyph-name="uni20BD.oldtab" 
d="M347 380c40 0 65 23 66 74c0 31 -18 51 -55 51h-19l-20 -125h28zM276 97l-15 -97h-216l15 97h-63l11 76h64l5 37h-63l11 75h64l63 409h234c161 0 243 -84 240 -208c-3 -175 -99 -276 -270 -276h-62l-6 -37h139l-11 -76h-140z" />
    <glyph glyph-name="uni20BD.tab" 
d="M342 392c43 0 68 25 69 76c1 32 -18 53 -57 53h-21l-20 -129h29zM269 100l-15 -100h-234l16 100h-59l12 78h59l6 38h-59l11 78h60l65 421h251c169 0 249 -87 249 -214c-3 -180 -103 -285 -280 -285h-64l-6 -38h142l-12 -78h-142z" />
    <glyph glyph-name="bracketright.tab" horiz-adv-x="300" 
d="M-37 -4h60l101 636h-60l22 144h261l-146 -924h-260z" />
    <glyph glyph-name="bracketleft.tab" horiz-adv-x="300" 
d="M113 776h261l-22 -144h-60l-101 -636h60l-23 -144h-261z" />
    <glyph glyph-name="parenright.tab" horiz-adv-x="300" 
d="M194 776c43 -72 99 -186 99 -344c0 -219 -77 -407 -233 -580h-155c129 191 197 391 197 602c0 158 -25 252 -51 322h143z" />
    <glyph glyph-name="parenleft.tab" horiz-adv-x="300" 
d="M120 -148c-43 73 -99 184 -99 344c0 217 77 405 233 580h155c-129 -191 -197 -391 -197 -602c0 -158 25 -252 51 -322h-143z" />
    <glyph glyph-name="semicolon.tab" horiz-adv-x="300" 
d="M168 266c-71 0 -122 53 -122 120c0 66 50 120 121 120c73 0 127 -54 127 -120c0 -67 -53 -120 -126 -120zM-64 -72l101 284l200 -70l-177 -266z" />
    <glyph glyph-name="aring.alt" horiz-adv-x="647" 
d="M591 166c-11 -68 -15 -121 -11 -166h-227c-5 20 -5 56 -5 84c-37 -63 -85 -98 -157 -98c-107 0 -179 76 -179 220c0 220 118 333 246 333c76 0 129 -35 148 -91l12 75h229zM328 373c-47 0 -82 -54 -82 -142c0 -48 16 -77 55 -77c50 0 83 66 83 143c0 51 -19 76 -56 76z
M371 641c25 0 42 19 42 46s-17 46 -42 46s-42 -19 -42 -46s17 -46 42 -46zM371 567c-68 0 -124 54 -124 120s56 120 124 120s124 -54 124 -120s-56 -120 -124 -120z" />
    <glyph glyph-name="uni021B.alt" horiz-adv-x="404" 
d="M0 -209l41 173h197l-114 -200zM91 374h-67l23 149h67l17 104h229l-17 -104h86l-23 -149h-86l-59 -374h-229z" />
    <glyph glyph-name="uni0437.bgr" horiz-adv-x="553" 
d="M229 -195c-182 0 -260 99 -260 235h200c0 -45 14 -81 57 -81c47 0 62 33 63 80c1 51 -10 73 -70 73h-47l19 150h55c45 0 67 22 72 66c7 47 -11 69 -40 69c-37 0 -59 -30 -64 -77h-196c19 137 106 219 274 219c166 0 245 -80 242 -185c-1 -92 -62 -153 -147 -169
c77 -15 129 -72 128 -145c-3 -141 -97 -235 -286 -235z" />
    <glyph glyph-name="uni0449.bgr" horiz-adv-x="957" 
d="M715 -127l10 127h-96c-3 21 -1 66 0 94c-34 -55 -98 -110 -181 -110c-67 0 -110 31 -129 98c-43 -61 -104 -98 -176 -98c-100 0 -165 67 -144 203l53 336h228l-46 -295c-7 -41 8 -61 37 -61c35 0 50 23 57 62l46 294h226l-46 -294c-7 -43 8 -62 37 -62c37 0 50 23 57 62
l46 294h229l-58 -373h82l-44 -277h-188z" />
    <glyph glyph-name="comma.tab" horiz-adv-x="300" 
d="M-51 -72l101 284l200 -70l-177 -266z" />
    <glyph glyph-name="uni044A.bgr" horiz-adv-x="664" 
d="M25 375l25 148h349l-26 -165c12 1 36 2 68 2c141 0 210 -63 210 -162c0 -115 -82 -208 -282 -208c-175 0 -268 63 -236 272l18 113h-126zM377 121c24 0 45 23 45 66c0 23 -16 46 -44 46c-11 0 -19 -1 -24 -1l-8 -49c-5 -31 0 -62 31 -62z" />
    <glyph glyph-name="period.tab" horiz-adv-x="300" 
d="M123 -14c-71 0 -122 53 -122 120c0 66 50 120 121 120c73 0 127 -54 127 -120c0 -67 -53 -120 -126 -120z" />
    <glyph glyph-name="greaterequal.tab" 
d="M548 426l-7 -41l-478 -230l32 205l126 53l-109 57l32 198zM61 142h441l-22 -142h-441z" />
    <glyph glyph-name="lessequal.tab" 
d="M96 397l7 41l478 230l-32 -205l-126 -53l109 -57l-32 -198zM57 142h441l-22 -142h-441z" />
    <glyph glyph-name="greater.tab" 
d="M544 338l-7 -43l-511 -253l33 209l194 74l-169 86l31 194z" />
    <glyph glyph-name="less.tab" 
d="M74 308l7 43l511 253l-33 -209l-194 -74l169 -86l-31 -194z" />
    <glyph glyph-name="uni0431.locl" horiz-adv-x="629" 
d="M300 -14c-140 0 -283 66 -283 242c0 112 64 184 142 211c27 9 50 13 67 14c10 1 19 1 28 0c-101 27 -156 71 -156 147c0 96 68 143 195 143h130c99 0 149 6 188 19l-25 -160c-40 -21 -88 -25 -151 -25h-131c-23 0 -34 -3 -34 -18s19 -22 50 -30
c190 -51 294 -126 294 -272c0 -177 -128 -271 -314 -271zM303 152c59 0 82 53 82 122c0 35 -15 68 -56 68c-61 0 -85 -47 -85 -116c0 -32 8 -74 59 -74z" />
    <glyph glyph-name="nine.sub" horiz-adv-x="428" 
d="M183 262c112 0 193 -46 193 -166c0 -15 -1 -32 -4 -49l-2 -12c-19 -116 -86 -180 -219 -180c-93 0 -168 32 -173 131h152c3 -11 7 -16 24 -16c27 0 44 23 51 70c-17 -21 -45 -39 -92 -39c-69 0 -121 32 -121 107c0 107 90 154 191 154zM209 126c0 15 -7 28 -27 28
c-19 0 -31 -13 -31 -36c0 -16 8 -28 27 -28c17 0 31 13 31 36z" />
    <glyph glyph-name="plus.sub" horiz-adv-x="367" 
d="M85 12h-94l18 113h94l16 96h115l-16 -96h94l-18 -113h-94l-15 -95h-115z" />
    <glyph glyph-name="approxequal.tab" 
d="M5 98c19 154 94 208 174 208c84 0 176 -38 224 -38c25 0 42 14 49 43h124c-13 -141 -91 -208 -173 -208c-84 0 -177 38 -225 38c-27 0 -42 -16 -49 -43h-124zM44 341c19 154 94 208 174 208c84 0 176 -38 224 -38c25 0 42 14 49 43h124c-13 -141 -91 -208 -173 -208
c-84 0 -177 38 -225 38c-27 0 -42 -16 -49 -43h-124z" />
    <glyph glyph-name="notequal.tab" 
d="M78 505h253l47 93h136l-47 -93h129l-23 -148h-181l-29 -57h201l-23 -148h-253l-47 -93h-136l47 93h-129l23 148h181l29 57h-201z" />
    <glyph glyph-name="equal.tab" 
d="M56 300h498l-23 -148h-498zM88 505h498l-23 -148h-498z" />
    <glyph glyph-name="divide.tab" 
d="M71 415h504l-24 -152h-504zM286 19c-64 0 -109 47 -109 107s44 107 108 107c65 0 113 -48 113 -107c0 -60 -48 -107 -112 -107zM334 445c-64 0 -109 47 -109 107s44 107 108 107c65 0 113 -48 113 -107c0 -60 -48 -107 -112 -107z" />
    <glyph glyph-name="multiply.tab" 
d="M192 339l-130 154l134 119l132 -156l174 151l103 -119l-175 -152l131 -153l-135 -119l-132 155l-173 -150l-103 119z" />
    <glyph glyph-name="plusminus.tab" 
d="M223 348h-170l25 162h170l25 156h180l-25 -156h170l-25 -162h-170l-25 -156h-180zM20 142h524l-22 -142h-524z" />
    <glyph glyph-name="minus.tab" 
d="M73 425h504l-27 -172h-504z" />
    <glyph glyph-name="uni0433.bgr" horiz-adv-x="539" 
d="M237 -15c-147 0 -236 59 -236 163c0 99 60 156 213 183c87 16 104 27 104 46c0 15 -9 26 -34 26c-29 0 -46 -14 -51 -43h-197c16 106 102 180 271 180c140 0 221 -64 221 -159c0 -105 -73 -163 -198 -182c-95 -16 -107 -28 -107 -47c0 -17 11 -25 32 -25
c35 0 51 17 58 45h206c-32 -136 -145 -187 -282 -187z" />
    <glyph glyph-name="uni0442.locl" horiz-adv-x="944" 
d="M199 712h661l-19 -119h-661zM888 166c-11 -68 -16 -121 -13 -166h-225c-3 21 -1 66 0 94c-34 -55 -98 -110 -181 -110c-67 0 -110 31 -129 98c-43 -61 -104 -98 -176 -98c-100 0 -165 67 -144 203l53 336h228l-46 -295c-7 -41 8 -61 37 -61c35 0 50 23 57 62l46 294h226
l-46 -294c-7 -43 8 -62 37 -62c37 0 50 23 57 62l46 294h229z" />
    <glyph glyph-name="uni0448.bgr" horiz-adv-x="944" 
d="M888 166c-11 -68 -16 -121 -13 -166h-225c-3 21 -1 66 0 94c-34 -55 -98 -110 -181 -110c-67 0 -110 31 -129 98c-43 -61 -104 -98 -176 -98c-100 0 -165 67 -144 203l53 336h228l-46 -295c-7 -41 8 -61 37 -61c35 0 50 23 57 62l46 294h226l-46 -294
c-7 -43 8 -62 37 -62c37 0 50 23 57 62l46 294h229z" />
    <glyph glyph-name="uni044E.bgr" horiz-adv-x="890" 
d="M561 -14c-113 0 -228 47 -262 163l-8 40h-36l-29 -189h-224l114 743h224l-63 -413h25c37 125 143 209 290 209c140 0 283 -70 283 -247c0 -183 -128 -306 -314 -306zM564 152c59 0 82 66 82 152c0 35 -15 68 -56 68c-61 0 -85 -62 -85 -146c0 -32 8 -74 59 -74z" />
    <glyph glyph-name="plus.tab" 
d="M209 258h-161l26 162h161l28 176h180l-28 -176h159l-26 -162h-159l-27 -176h-180z" />
    <glyph glyph-name="perthousand.tab" horiz-adv-x="1000" 
d="M176 525c0 -20 6 -36 26 -36c36 0 39 68 39 97c0 24 -8 36 -25 36c-35 0 -40 -69 -40 -97zM194 383c-91 0 -152 50 -152 143c0 109 66 198 182 198c85 0 150 -52 150 -143c0 -115 -67 -198 -180 -198zM589 715h105l-600 -715h-105zM439 128c0 -20 6 -36 26 -36
c36 0 39 68 39 97c0 24 -8 36 -25 36c-35 0 -40 -69 -40 -97zM457 -14c-91 0 -152 50 -152 143c0 109 66 198 182 198c85 0 150 -52 150 -143c0 -115 -67 -198 -180 -198zM787 128c0 -20 6 -36 26 -36c36 0 39 68 39 97c0 24 -8 36 -25 36c-35 0 -40 -69 -40 -97zM805 -14
c-91 0 -152 50 -152 143c0 109 66 198 182 198c85 0 150 -52 150 -143c0 -115 -67 -198 -180 -198z" />
    <glyph glyph-name="percent.tab" horiz-adv-x="800" 
d="M210 541c0 -23 7 -43 34 -42c33 0 42 41 42 73c0 23 -9 40 -33 40c-31 0 -43 -32 -43 -71zM239 383c-95 0 -179 47 -179 148c0 108 77 193 198 193c91 0 177 -50 177 -150c0 -105 -78 -191 -196 -191zM659 715h109l-592 -715h-109zM543 144c0 -23 7 -43 34 -42
c33 0 42 41 42 73c0 23 -9 40 -33 40c-31 0 -43 -32 -43 -71zM572 -14c-95 0 -179 47 -179 148c0 108 77 193 198 193c91 0 177 -50 177 -150c0 -105 -78 -191 -196 -191z" />
    <glyph glyph-name="minus.sub" horiz-adv-x="367" 
d="M9 125h303l-18 -113h-303z" />
    <glyph glyph-name="uni0434.bgr" horiz-adv-x="648" 
d="M306 191c59 0 84 57 84 117c-1 37 -18 68 -55 68c-59 0 -84 -59 -84 -112c0 -43 16 -73 55 -73zM573 32c-24 -156 -113 -227 -305 -227c-199 0 -288 88 -291 207h226c1 -23 16 -53 64 -53c59 0 72 33 77 72l15 94c-31 -49 -80 -86 -160 -86c-100 0 -183 66 -183 209
c0 179 108 291 251 291c77 0 123 -36 143 -92l12 76h229z" />
    <glyph glyph-name="zero.sup" horiz-adv-x="459" 
d="M227 548c0 -32 8 -51 39 -51c47 0 55 74 55 109c0 33 -10 50 -39 50c-47 0 -55 -76 -55 -108zM258 372c-113 0 -196 56 -196 169c0 138 88 238 229 238c112 0 195 -56 195 -168c0 -141 -86 -239 -228 -239z" />
    <glyph glyph-name="uni043D.bgr" horiz-adv-x="637" 
d="M356 185h-97l-29 -185h-228l82 523h228l-29 -188h97l29 188h228l-82 -523h-228z" />
    <glyph glyph-name="uni043F.locl" horiz-adv-x="638" 
d="M178 712h391l-19 -119h-391zM582 166c-11 -68 -16 -121 -13 -166h-225c-3 21 -1 66 0 94c-39 -64 -95 -108 -179 -108c-94 0 -166 64 -142 221l50 316h229l-48 -301c-7 -47 7 -70 42 -70c40 0 58 23 66 76l47 295h229z" />
    <glyph glyph-name="one.sup" horiz-adv-x="315" 
d="M151 611l-89 -42l21 134l119 70h142l-63 -393h-167z" />
    <glyph glyph-name="four.sub" horiz-adv-x="434" 
d="M151 -67h-194l10 62l199 261h198l-34 -216h49l-17 -107h-49l-11 -70h-162zM174 40l17 106l-78 -106h61z" />
    <glyph glyph-name="uni0446.bgr" horiz-adv-x="672" 
d="M430 -127l10 127h-96c-3 21 -1 66 0 94c-39 -64 -95 -108 -179 -108c-94 0 -166 64 -142 221l50 316h229l-48 -301c-7 -47 7 -70 42 -70c40 0 58 23 66 76l47 295h229l-58 -373h82l-44 -277h-188z" />
    <glyph glyph-name="uni044C.bgr" horiz-adv-x="563" 
d="M268 -10c-175 0 -268 63 -236 272l41 261h225l-26 -165c12 1 36 2 68 2c141 0 210 -63 210 -162c0 -115 -82 -208 -282 -208zM276 121c24 0 45 23 45 66c0 23 -16 46 -44 46c-11 0 -19 -1 -24 -1l-8 -49c-5 -31 0 -62 31 -62z" />
    <glyph glyph-name="three.sup" horiz-adv-x="406" 
d="M236 372c-112 0 -184 42 -185 145h146c0 -21 10 -32 31 -32c12 0 27 6 27 26c0 13 -10 21 -37 21h-30l14 88h37c24 0 36 9 36 26c0 12 -6 21 -25 21c-15 0 -29 -7 -34 -30h-144c13 91 79 142 194 142c76 0 165 -23 165 -108c0 -51 -33 -81 -81 -94c41 -9 68 -31 68 -78
c0 -91 -83 -127 -182 -127z" />
    <glyph glyph-name="uni0439.bgr" horiz-adv-x="638" 
d="M357 571c-112 0 -169 69 -170 170h140c0 -21 5 -62 40 -62c33 0 37 38 42 62h142c-17 -108 -86 -170 -194 -170zM582 166c-11 -68 -16 -121 -13 -166h-225c-3 21 -1 66 0 94c-39 -64 -95 -108 -179 -108c-94 0 -166 64 -142 221l50 316h229l-48 -301c-7 -47 7 -70 42 -70
c40 0 58 23 66 76l47 295h229z" />
    <glyph glyph-name="uni0414.bgr" horiz-adv-x="804" 
d="M428 501l-121 -296h148zM167 -130h-226l54 335h69l238 510h343l76 -510h70l-54 -335h-226l12 130h-325z" />
    <glyph glyph-name="uni043B.bgr" horiz-adv-x="594" 
d="M555 0h-243l-19 260l-110 -260h-224l266 523h239z" />
    <glyph glyph-name="uni041A.bgr" horiz-adv-x="782" 
d="M326 273l-43 -273h-267l113 715h267l-39 -249l212 249h282l-300 -341l184 -374h-286z" />
    <glyph glyph-name="uni0436.bgr" horiz-adv-x="874" 
d="M317 221l-120 -221h-237l182 292l-82 231h220l54 -199l65 419h227l-66 -423l117 203h235l-171 -244l88 -279h-234l-50 222l-35 -222h-227z" />
    <glyph glyph-name="four.sup" horiz-adv-x="434" 
d="M228 450h-194l10 62l199 261h198l-34 -216h49l-17 -107h-49l-11 -70h-162zM251 557l17 106l-78 -106h61z" />
    <glyph glyph-name="five.sup" horiz-adv-x="400" 
d="M232 372c-91 0 -182 35 -185 137h155c1 -9 6 -18 25 -18c13 0 27 9 27 30c0 17 -9 25 -26 25c-15 0 -24 -9 -29 -21h-135l54 248h314l-18 -114h-202l-16 -73c19 27 49 56 112 56c65 0 110 -33 110 -105c0 -115 -77 -165 -186 -165z" />
    <glyph glyph-name="uni0432.bgr" horiz-adv-x="590" 
d="M285 -14c-182 0 -289 106 -260 289l35 224c27 177 140 258 292 258c175 0 256 -80 253 -195c-5 -92 -62 -163 -143 -179c69 -11 113 -70 110 -150c-5 -147 -99 -247 -287 -247zM349 615c-31 0 -46 -33 -55 -84l-14 -74h35c43 0 68 29 75 87c7 49 -4 71 -41 71zM288 140
c43 0 60 40 64 87c4 53 -11 86 -67 86h-28l-9 -70c-9 -72 3 -103 40 -103z" />
    <glyph glyph-name="six.sup" horiz-adv-x="428" 
d="M259 372c-112 0 -197 46 -197 166c0 15 1 32 4 49l2 12c18 111 104 180 219 180c93 0 170 -31 173 -132h-152c-3 11 -7 17 -24 17c-28 0 -43 -30 -51 -70c17 21 45 39 92 39c69 0 121 -33 121 -105c0 -109 -86 -156 -187 -156zM229 508c0 -15 7 -28 27 -28
c19 0 31 13 31 36c0 16 -8 28 -27 28c-17 0 -31 -13 -31 -36z" />
    <glyph glyph-name="uni0424.bgr" horiz-adv-x="999" 
d="M327 -10l10 61c-146 16 -306 87 -306 273v9c0 223 169 335 405 343l8 49h255l-8 -49c146 -16 306 -87 306 -273v-9c0 -223 -169 -335 -405 -343l-10 -61h-255zM294 333c0 -71 28 -98 71 -102l43 267c-67 -4 -114 -48 -114 -159v-6zM734 394c0 71 -28 98 -71 102l-43 -267
c67 3 114 48 114 159v6z" />
    <glyph glyph-name="seven.sup" horiz-adv-x="382" 
d="M215 644h-140l21 129h352l-3 -18l-203 -375h-169z" />
    <glyph glyph-name="eight.sup" horiz-adv-x="415" 
d="M244 372c-93 0 -196 25 -196 113c0 61 33 88 86 105c-27 15 -46 36 -46 68c0 90 91 121 176 121c91 0 175 -31 175 -109c0 -48 -18 -80 -65 -93c40 -15 59 -45 59 -77c0 -100 -101 -128 -189 -128zM242 480c19 0 33 11 33 31c0 15 -10 27 -29 27s-33 -11 -33 -32
c0 -15 10 -26 29 -26zM259 619c17 0 31 11 31 30c0 16 -12 26 -28 26c-15 0 -30 -10 -30 -30c0 -15 10 -26 27 -26z" />
    <glyph glyph-name="florin.tab" 
d="M98 415h96l19 103c29 160 147 207 270 207c48 0 72 -3 99 -11l-27 -167c-13 3 -26 5 -49 5c-32 0 -63 -11 -72 -60l-15 -77h118l-23 -149h-122l-84 -448h-226l84 448h-91z" />
    <glyph glyph-name="uni0442.bgr" horiz-adv-x="939" 
d="M49 344c12 77 18 130 21 179h225c0 -25 -2 -63 -6 -94c34 55 98 110 181 110c67 0 110 -31 129 -98c43 61 104 98 176 98c100 0 165 -67 144 -203l-53 -336h-228l46 295c7 41 -8 61 -37 61c-35 0 -50 -23 -57 -62l-46 -294h-226l46 294c7 43 -8 62 -37 62
c-37 0 -50 -23 -57 -62l-46 -294h-229z" />
    <glyph glyph-name="nine.sup" horiz-adv-x="428" 
d="M260 779c112 0 193 -46 193 -166c0 -15 -1 -32 -4 -49l-2 -12c-19 -116 -86 -180 -219 -180c-93 0 -168 32 -173 131h152c3 -11 7 -16 24 -16c27 0 44 23 51 70c-17 -21 -45 -39 -92 -39c-69 0 -121 32 -121 107c0 107 90 154 191 154zM286 643c0 15 -7 28 -27 28
c-19 0 -31 -13 -31 -36c0 -16 8 -28 27 -28c17 0 31 13 31 36z" />
    <glyph glyph-name="yen.tab" 
d="M52 379h130l-106 336h252l26 -156l75 156h237l-213 -336h140l-13 -78h-146l-6 -38h146l-12 -78h-146l-29 -185h-257l29 185h-138l12 78h138l6 38h-138z" />
    <glyph glyph-name="sterling.tab" 
d="M38 411h39c-3 19 -5 39 -5 63c0 163 116 252 277 252c184 0 271 -80 254 -263h-210c5 51 -12 65 -43 65c-49 0 -53 -53 -53 -98v-19h139l-20 -126h-118c-3 -28 -9 -55 -19 -81c17 -4 31 -7 46 -7c27 0 46 12 51 43h213c-21 -163 -103 -249 -235 -249
c-93 0 -131 47 -171 47c-21 0 -34 -13 -38 -38h-176c13 89 46 159 102 195c12 27 21 62 24 90h-77z" />
    <glyph glyph-name="plus.sup" horiz-adv-x="367" 
d="M154 529h-94l18 113h94l15 96h115l-15 -96h94l-18 -113h-94l-15 -95h-115z" />
    <glyph glyph-name="minus.sup" horiz-adv-x="367" 
d="M78 642h303l-18 -113h-303z" />
    <glyph glyph-name="aacute.alt" horiz-adv-x="647" 
d="M591 166c-11 -68 -15 -121 -11 -166h-227c-5 20 -5 56 -5 84c-37 -63 -85 -98 -157 -98c-107 0 -179 76 -179 220c0 220 118 333 246 333c76 0 129 -35 148 -91l12 75h229zM328 373c-47 0 -82 -54 -82 -142c0 -48 16 -77 55 -77c50 0 83 66 83 143c0 51 -19 76 -56 76z
M345 743h219l-127 -175h-163z" />
    <glyph glyph-name="space.tab" horiz-adv-x="300" 
 />
    <glyph glyph-name="nine.old" horiz-adv-x="671" 
d="M354 633c193 0 302 -98 305 -283c0 -31 -3 -62 -10 -99l-6 -36c-35 -212 -169 -321 -367 -321c-146 0 -280 64 -277 233h233c2 -33 20 -49 54 -49c64 0 91 57 112 166c-24 -37 -78 -80 -168 -80c-109 0 -198 61 -198 190c0 176 138 279 322 279zM409 395
c1 35 -22 62 -61 62c-41 0 -73 -33 -73 -82c0 -36 23 -60 60 -60c43 0 73 33 74 80z" />
    <glyph glyph-name="eight.old" horiz-adv-x="683" 
d="M267 222c0 -39 24 -61 64 -61c39 0 71 26 71 75c0 39 -24 59 -63 59s-72 -24 -72 -73zM318 492c0 -31 18 -56 57 -56c35 0 65 22 65 65c0 35 -24 57 -57 57s-65 -23 -65 -66zM321 -14c-163 0 -307 62 -307 203c0 107 68 164 156 191c-48 27 -77 70 -77 126
c0 152 142 220 294 220c125 0 282 -46 282 -197c0 -76 -50 -137 -122 -165c68 -27 99 -82 99 -143c0 -160 -133 -235 -325 -235z" />
    <glyph glyph-name="seven.old" horiz-adv-x="596" 
d="M292 416h-252l33 203h577l-5 -26l-351 -683h-265z" />
    <glyph glyph-name="six.old" horiz-adv-x="671" 
d="M333 -13c-183 0 -305 91 -308 275c0 31 4 70 9 102l6 36c35 208 171 326 363 326c146 0 273 -60 270 -228h-231c-3 25 -14 44 -49 44c-56 0 -86 -57 -107 -166c25 36 78 80 168 80c107 0 198 -67 198 -195c0 -184 -143 -274 -319 -274zM275 225c-1 -35 22 -62 61 -62
c41 0 73 33 73 82c0 36 -23 60 -60 60c-43 0 -73 -33 -74 -80z" />
    <glyph glyph-name="five.old" horiz-adv-x="635" 
d="M281 -104c-156 0 -295 72 -292 247h231c2 -43 24 -64 65 -64c39 0 70 32 70 77s-29 65 -78 65c-47 0 -77 -21 -96 -45h-159l93 443h508l-30 -187h-330l-27 -128c35 41 92 80 176 80c117 0 191 -78 191 -198c0 -187 -129 -290 -322 -290z" />
    <glyph glyph-name="four.old" horiz-adv-x="696" 
d="M312 32h-343l13 83l364 504h304l-68 -428h88l-25 -159h-88l-20 -122h-245zM344 191l37 236l-157 -236h120z" />
    <glyph glyph-name="three.old" horiz-adv-x="634" 
d="M296 -104c-185 0 -308 79 -305 256h223c3 -45 20 -76 72 -76c37 1 67 22 67 65c0 35 -19 53 -70 53h-59l24 147h62c40 0 76 15 76 67c0 31 -17 49 -53 49s-65 -23 -77 -74h-225c27 149 130 250 318 250c155 0 270 -60 270 -195c0 -88 -56 -146 -136 -169
c67 -23 110 -66 110 -146c0 -148 -137 -227 -297 -227z" />
    <glyph glyph-name="two.old" horiz-adv-x="609" 
d="M-33 31l245 213c45 40 149 119 149 169c0 24 -14 36 -43 36c-31 0 -58 -27 -69 -79h-222c25 171 142 263 314 263c176 0 267 -74 267 -193c0 -92 -61 -156 -160 -233l-42 -33h168l-27 -174h-585z" />
    <glyph glyph-name="uni041B.bgr" horiz-adv-x="784" 
d="M414 471l-201 -471h-254l333 715h343l106 -715h-278z" />
    <glyph glyph-name="one.old" horiz-adv-x="460" 
d="M167 375l-129 -65l32 204l172 105h209l-98 -619h-245z" />
    <glyph glyph-name="zero.old" horiz-adv-x="690" 
d="M267 250c1 -51 19 -79 72 -79s77 38 90 121l3 19c3 23 5 41 5 58c0 48 -16 80 -72 80c-52 0 -77 -38 -90 -121l-3 -19c-4 -23 -5 -42 -5 -59zM334 -14c-172 0 -313 87 -313 274c0 20 2 41 5 64l3 19c32 197 163 290 341 290c163 0 312 -90 312 -274c0 -20 -1 -40 -5 -63
l-3 -19c-32 -206 -157 -291 -340 -291z" />
    <glyph glyph-name="yen.old" horiz-adv-x="662" 
d="M70 368h123l-122 326h273l36 -181l97 181h251l-218 -326h126l-11 -76h-155l-5 -37h153l-12 -76h-153l-28 -179h-260l28 179h-153l11 76h154l5 37h-152z" />
    <glyph glyph-name="sterling.old" horiz-adv-x="668" 
d="M48 402h39c-3 17 -4 35 -4 54c0 159 133 248 301 248c165 0 290 -60 287 -260h-237c3 49 -12 68 -47 68c-48 0 -58 -43 -58 -94v-16h163l-21 -128h-142c-3 -23 -8 -49 -19 -76c23 -5 43 -9 60 -9c29 0 47 15 52 44h232c-19 -139 -98 -242 -250 -242
c-103 0 -165 46 -208 46c-23 0 -39 -14 -43 -37h-185c13 89 53 164 121 197c11 25 17 49 18 77h-79z" />
    <glyph glyph-name="Euro.old" horiz-adv-x="721" 
d="M46 438h52c44 171 165 266 340 266c178 0 294 -84 291 -269h-238c0 47 -9 76 -60 76c-41 0 -67 -26 -82 -73h110l-24 -75h-102l-6 -37h96l-25 -76h-76c4 -40 20 -67 67 -67s71 28 86 89h236c-35 -191 -146 -286 -335 -286c-187 0 -293 97 -301 264h-59l12 76h50l3 18
l3 19h-50z" />
    <glyph glyph-name="dollar.old" horiz-adv-x="638" 
d="M237 -8c-116 16 -228 73 -233 231h221c0 -35 15 -55 39 -66l15 95c-164 32 -227 91 -227 207c0 158 137 242 298 245l14 85h85l-14 -89c120 -13 216 -70 224 -218h-216c0 27 -14 42 -35 51l-15 -95c144 -27 232 -76 232 -202c0 -169 -132 -246 -303 -249l-18 -118h-86z
M403 196c0 19 -11 29 -42 38l-13 -85c37 4 55 20 55 47zM271 497c0 -23 11 -35 40 -43l13 86c-27 -3 -53 -14 -53 -43z" />
    <glyph glyph-name="abreve.alt" horiz-adv-x="647" 
d="M591 166c-11 -68 -15 -121 -11 -166h-227c-5 20 -5 56 -5 84c-37 -63 -85 -98 -157 -98c-107 0 -179 76 -179 220c0 220 118 333 246 333c76 0 129 -35 148 -91l12 75h229zM328 373c-47 0 -82 -54 -82 -142c0 -48 16 -77 55 -77c50 0 83 66 83 143c0 51 -19 76 -56 76z
M370 570c-113 0 -178 61 -174 172h133c1 -27 16 -40 43 -40s44 15 47 40h135c-16 -115 -81 -172 -184 -172z" />
    <glyph glyph-name="acircumflex.alt" horiz-adv-x="647" 
d="M591 166c-11 -68 -15 -121 -11 -166h-227c-5 20 -5 56 -5 84c-37 -63 -85 -98 -157 -98c-107 0 -179 76 -179 220c0 220 118 333 246 333c76 0 129 -35 148 -91l12 75h229zM328 373c-47 0 -82 -54 -82 -142c0 -48 16 -77 55 -77c50 0 83 66 83 143c0 51 -19 76 -56 76z
M312 743h155l102 -172h-152l-42 46l-54 -46h-161z" />
    <glyph glyph-name="adieresis.alt" horiz-adv-x="647" 
d="M591 166c-11 -68 -15 -121 -11 -166h-227c-5 20 -5 56 -5 84c-37 -63 -85 -98 -157 -98c-107 0 -179 76 -179 220c0 220 118 333 246 333c76 0 129 -35 148 -91l12 75h229zM328 373c-47 0 -82 -54 -82 -142c0 -48 16 -77 55 -77c50 0 83 66 83 143c0 51 -19 76 -56 76z
M261 552c-57 0 -102 43 -102 99s45 99 102 99s103 -43 103 -99s-46 -99 -103 -99zM486 552c-56 0 -101 43 -101 99s45 99 101 99c59 0 103 -43 103 -99s-44 -99 -103 -99z" />
    <glyph glyph-name="agrave.alt" horiz-adv-x="647" 
d="M591 166c-11 -68 -15 -121 -11 -166h-227c-5 20 -5 56 -5 84c-37 -63 -85 -98 -157 -98c-107 0 -179 76 -179 220c0 220 118 333 246 333c76 0 129 -35 148 -91l12 75h229zM328 373c-47 0 -82 -54 -82 -142c0 -48 16 -77 55 -77c50 0 83 66 83 143c0 51 -19 76 -56 76z
M195 743h217l36 -175h-158z" />
    <glyph glyph-name="amacron.alt" horiz-adv-x="647" 
d="M591 166c-11 -68 -15 -121 -11 -166h-227c-5 20 -5 56 -5 84c-37 -63 -85 -98 -157 -98c-107 0 -179 76 -179 220c0 220 118 333 246 333c76 0 129 -35 148 -91l12 75h229zM328 373c-47 0 -82 -54 -82 -142c0 -48 16 -77 55 -77c50 0 83 66 83 143c0 51 -19 76 -56 76z
M221 712h331l-19 -119h-331z" />
    <glyph glyph-name="aogonek.alt" horiz-adv-x="647" 
d="M591 166c-11 -64 -15 -113 -12 -156c-23 -23 -44 -44 -44 -65c0 -13 8 -20 25 -20c5 0 11 1 18 2l-15 -93c-19 -8 -46 -16 -87 -16c-60 0 -120 17 -120 78c0 56 56 91 101 104h-104c-5 20 -5 56 -5 84c-37 -63 -85 -98 -157 -98c-107 0 -179 76 -179 220
c0 220 118 333 246 333c76 0 129 -35 148 -91l12 75h229zM328 373c-47 0 -82 -54 -82 -142c0 -48 16 -77 55 -77c50 0 83 66 83 143c0 51 -19 76 -56 76z" />
    <glyph glyph-name="hungarumlaut.uc" horiz-adv-x="400" 
d="M147 908h183l-93 -155h-150zM362 908h183l-93 -155h-150z" />
    <glyph glyph-name="tilde.uc" horiz-adv-x="400" 
d="M352 750c-63 0 -92 29 -123 29c-15 0 -27 -11 -30 -26h-123c19 121 81 172 149 172c58 0 92 -29 126 -29c15 0 26 9 31 26h123c-21 -122 -88 -172 -153 -172z" />
    <glyph glyph-name="ring.uc" horiz-adv-x="400" 
d="M294 812c25 0 43 19 43 47s-18 47 -43 47c-27 0 -43 -19 -43 -47s16 -47 43 -47zM294 737c-69 0 -126 54 -126 122s57 122 126 122s126 -54 126 -122s-57 -122 -126 -122z" />
    <glyph glyph-name="space_uni0326" horiz-adv-x="400" 
d="M26 -209l41 173h197l-114 -200z" />
    <glyph glyph-name="dotaccent.uc" horiz-adv-x="400" 
d="M292 742c-68 0 -116 43 -116 106s49 107 116 107s117 -44 117 -107s-50 -106 -117 -106z" />
    <glyph glyph-name="uni043F.bgr" horiz-adv-x="635" 
d="M49 344c12 77 18 130 21 179h225c0 -25 -2 -66 -6 -97c37 63 96 113 181 113c94 0 166 -65 142 -223l-50 -316h-229l45 287c7 47 -8 70 -43 70c-41 0 -59 -23 -67 -76l-44 -281h-229z" />
    <glyph glyph-name="breve.uc" horiz-adv-x="400" 
d="M292 744c-120 0 -177 63 -178 164h140c1 -21 13 -36 40 -36c23 0 38 12 42 36h142c-19 -108 -86 -164 -186 -164z" />
    <glyph glyph-name="caron.uc" horiz-adv-x="400" 
d="M370 753h-189l-93 155h159l40 -44l50 44h168z" />
    <glyph glyph-name="circumflex.uc" horiz-adv-x="400" 
d="M203 908h189l93 -155h-159l-40 44l-50 -44h-168z" />
    <glyph glyph-name="acute.uc" horiz-adv-x="400" 
d="M242 908h229l-118 -155h-173z" />
    <glyph glyph-name="macron.uc" horiz-adv-x="400" 
d="M123 893h351l-20 -129h-351z" />
    <glyph glyph-name="dieresis.uc" horiz-adv-x="400" 
d="M174 742c-57 0 -102 43 -102 99s45 99 102 99s103 -43 103 -99s-46 -99 -103 -99zM407 742c-56 0 -101 43 -101 99s45 99 101 99c59 0 103 -43 103 -99s-44 -99 -103 -99z" />
    <glyph glyph-name="idotaccent" horiz-adv-x="316" 
d="M216 544c-69 0 -117 46 -117 110s49 110 118 110c68 0 118 -46 118 -110s-51 -110 -119 -110zM84 523h228l-82 -523h-228z" />
    <glyph glyph-name="grave.uc" horiz-adv-x="400" 
d="M119 908h227l30 -155h-168z" />
    <glyph glyph-name="at.uc" horiz-adv-x="930" 
d="M479 -92c-272 0 -441 177 -441 411c0 274 224 445 467 445c232 0 416 -137 416 -363c0 -204 -113 -284 -239 -284c-85 0 -139 24 -155 79c-27 -51 -71 -79 -139 -79c-91 0 -149 68 -152 177c0 152 91 251 207 251c59 0 86 -23 101 -55l9 47h180l-46 -283
c-7 -36 2 -60 37 -60c54 0 113 59 113 211c0 172 -134 288 -334 288c-208 0 -376 -143 -376 -377c0 -196 120 -337 357 -337c120 0 222 47 268 93h98c-71 -101 -215 -164 -371 -164zM462 262c36 0 59 45 59 96c0 27 -13 46 -42 46c-32 0 -59 -38 -58 -95
c0 -28 12 -47 41 -47z" />
    <glyph glyph-name="bar.uc" horiz-adv-x="275" 
d="M73 776h155v-860h-155v860z" />
    <glyph glyph-name="backslash.uc" horiz-adv-x="460" 
d="M59 776h170l194 -860h-170z" />
    <glyph glyph-name="slash.uc" horiz-adv-x="450" 
d="M357 776h181l-422 -860h-180z" />
    <glyph glyph-name="braceright.uc" horiz-adv-x="437" 
d="M117 786c218 0 315 -89 261 -250l-18 -54c-15 -42 9 -65 74 -69l-25 -157c-69 0 -92 -19 -92 -60v-54c0 -184 -104 -240 -340 -240l26 165c67 5 84 25 87 78l4 70c4 71 45 114 124 128c-76 19 -105 69 -82 141l20 67c15 49 0 65 -65 70z" />
    <glyph glyph-name="braceleft.uc" horiz-adv-x="437" 
d="M344 -98c-218 0 -315 89 -261 250l18 54c15 42 -9 65 -74 69l25 157c69 0 92 19 92 60v54c0 184 104 240 340 240l-26 -165c-67 -5 -84 -25 -87 -78l-4 -70c-4 -71 -45 -114 -124 -128c76 -19 105 -69 82 -141l-20 -67c-15 -49 0 -65 65 -70z" />
    <glyph glyph-name="uni043A.bgr" horiz-adv-x="609" 
d="M257 209l-33 -209h-229l117 743h229l-64 -407l134 187h241l-191 -243l111 -280h-243z" />
    <glyph glyph-name="uni0438.bgr" horiz-adv-x="638" 
d="M582 166c-11 -68 -16 -121 -13 -166h-225c-3 21 -1 66 0 94c-39 -64 -95 -108 -179 -108c-94 0 -166 64 -142 221l50 316h229l-48 -301c-7 -47 7 -70 42 -70c40 0 58 23 66 76l47 295h229z" />
    <glyph glyph-name="bracketright.uc" horiz-adv-x="437" 
d="M4 66h115l88 556h-115l26 164h346l-140 -884h-346z" />
    <glyph glyph-name="bracketleft.uc" horiz-adv-x="437" 
d="M136 786h348l-26 -164h-117l-88 -556h117l-26 -164h-348z" />
    <glyph glyph-name="parenright.uc" horiz-adv-x="373" 
d="M255 786c50 -72 109 -181 109 -345c0 -215 -97 -396 -254 -539h-175c133 184 216 339 216 559c0 137 -32 248 -65 325h169z" />
    <glyph glyph-name="uni0433.locl" horiz-adv-x="316" 
d="M93 712h272l-19 -119h-272zM84 523h228l-82 -523h-228z" />
    <glyph glyph-name="uni0447.bgr" horiz-adv-x="624" 
d="M311 0l36 222c-26 -21 -79 -58 -153 -58c-115 0 -172 69 -149 209l24 150h229l-24 -148c-7 -47 7 -70 42 -70c19 0 34 2 45 5l35 213h228l-85 -523h-228z" />
    <glyph glyph-name="parenleft.uc" horiz-adv-x="373" 
d="M137 -98c-51 73 -109 180 -109 345c0 215 97 396 254 539h175c-133 -184 -216 -339 -216 -559c0 -137 32 -248 65 -325h-169z" />
    <glyph glyph-name="uni0416.bgr" horiz-adv-x="1097" 
d="M415 294l-182 -294h-276l272 404l-143 311h250l104 -268l42 268h265l-42 -268l185 268h276l-274 -343l154 -372h-276l-90 293l-46 -293h-265z" />
    <glyph glyph-name="guillemotright.uc" horiz-adv-x="470" 
d="M459 295l-138 -192h-136l137 193l-88 203h129zM276 298l-138 -195h-136l137 199l-83 197h129z" />
    <glyph glyph-name="guillemotleft.uc" horiz-adv-x="470" 
d="M20 307l138 192h136l-137 -193l88 -203h-129zM203 304l138 195h136l-137 -199l83 -197h-129z" />
    <glyph glyph-name="guilsinglright.uc" horiz-adv-x="299" 
d="M285 293l-149 -190h-146l146 191l-80 205h136z" />
    <glyph glyph-name="guilsinglleft.uc" horiz-adv-x="299" 
d="M20 309l149 190h146l-146 -191l80 -205h-136z" />
    <glyph glyph-name="emdash.uc" horiz-adv-x="978" 
d="M66 392h886l-20 -123h-886z" />
    <glyph glyph-name="endash.uc" horiz-adv-x="548" 
d="M66 392h456l-20 -123h-456z" />
    <glyph glyph-name="hyphen.uc" horiz-adv-x="426" 
d="M69 413h334l-28 -175h-334z" />
    <glyph glyph-name="exclamdown.uc" horiz-adv-x="358" 
d="M233 729c71 0 122 -51 122 -116s-54 -119 -125 -119s-124 52 -124 117c0 64 56 118 127 118zM266 0h-258l107 463h192z" />
    <glyph glyph-name="questiondown.uc" horiz-adv-x="591" 
d="M457 453c-28 -140 -198 -170 -198 -248c1 -21 13 -31 34 -31c27 0 44 19 55 66h224c-21 -172 -151 -251 -310 -251c-168 0 -253 68 -253 187c0 166 179 192 231 284l1 3h218zM376 729c71 0 122 -51 122 -116s-54 -119 -125 -119s-124 52 -124 117c0 64 56 118 127 118z
" />
    <glyph glyph-name="caron.alt" horiz-adv-x="400" 
d="M216 743h153l-77 -174h-110z" />
    <glyph glyph-name="registered.alt" horiz-adv-x="842" 
d="M260 564h178c123 0 178 -49 178 -137v-2c0 -55 -24 -86 -59 -106l83 -162h-155l-63 129h-12v-129h-150v407zM428 381c28 0 42 12 42 36v3c0 21 -14 31 -41 31h-19v-70h18zM433 30c180 0 324 132 324 329c0 195 -140 326 -322 326c-185 0 -324 -133 -324 -328
c0 -197 144 -327 322 -327zM433 -25c-217 0 -392 165 -392 382c0 213 174 383 394 383c223 0 392 -168 392 -381c0 -218 -174 -384 -394 -384z" />
    <glyph glyph-name="space_uni0326.alt" horiz-adv-x="400" 
d="M388 735l-41 -173h-197l114 200z" />
    <glyph glyph-name="uni0430.alt" horiz-adv-x="647" 
d="M591 166c-11 -68 -15 -121 -11 -166h-227c-5 20 -5 56 -5 84c-37 -63 -85 -98 -157 -98c-107 0 -179 76 -179 220c0 220 118 333 246 333c76 0 129 -35 148 -91l12 75h229zM328 373c-47 0 -82 -54 -82 -142c0 -48 16 -77 55 -77c50 0 83 66 83 143c0 51 -19 76 -56 76z
" />
    <glyph glyph-name="tcommaaccent.alt" horiz-adv-x="404" 
d="M0 -209l41 173h197l-114 -200zM91 374h-67l23 149h67l17 104h229l-17 -104h86l-23 -149h-86l-59 -374h-229z" />
    <glyph glyph-name="uni0434.locl" horiz-adv-x="648" 
d="M306 191c59 0 84 57 84 117c-1 37 -18 68 -55 68c-59 0 -84 -59 -84 -112c0 -43 16 -73 55 -73zM573 32c-24 -156 -113 -227 -305 -227c-199 0 -288 88 -291 207h226c1 -23 16 -53 64 -53c59 0 72 33 77 72l15 94c-31 -49 -80 -86 -160 -86c-100 0 -183 66 -183 209
c0 179 108 291 251 291c77 0 123 -36 143 -92l12 76h229z" />
    <glyph glyph-name="tcaron.alt" horiz-adv-x="404" 
d="M91 374h-67l23 149h67l17 104h229l-17 -104h86l-23 -149h-86l-59 -374h-229zM416 743h153l-77 -174h-110z" />
    <glyph glyph-name="tbar.alt" horiz-adv-x="404" 
d="M17 329h67l7 45h-67l23 149h67l17 104h229l-17 -104h86l-23 -149h-86l-7 -45h86l-19 -119h-86l-33 -210h-229l33 210h-67z" />
    <glyph glyph-name="germandbls.alt" horiz-adv-x="723" 
d="M483 -9c-125 0 -225 43 -220 179h178c-3 -33 11 -42 24 -42c14 0 21 9 21 27c0 24 -30 29 -75 56c-47 26 -96 66 -96 129c0 110 133 146 133 205c0 31 -21 45 -60 45c-43 0 -75 -20 -84 -77l-80 -513h-229l81 517c27 172 153 241 324 241c134 0 272 -43 272 -178
c0 -120 -142 -160 -142 -189c0 -13 9 -19 61 -50c66 -42 110 -85 110 -166c0 -121 -89 -184 -218 -184z" />
    <glyph glyph-name="atilde.alt" horiz-adv-x="647" 
d="M591 166c-11 -68 -15 -121 -11 -166h-227c-5 20 -5 56 -5 84c-37 -63 -85 -98 -157 -98c-107 0 -179 76 -179 220c0 220 118 333 246 333c76 0 129 -35 148 -91l12 75h229zM328 373c-47 0 -82 -54 -82 -142c0 -48 16 -77 55 -77c50 0 83 66 83 143c0 51 -19 76 -56 76z
M439 570c-63 0 -89 29 -120 29c-15 0 -25 -11 -29 -26h-116c19 123 71 176 139 176c60 0 88 -29 124 -29c17 0 24 10 29 26h116c-19 -122 -78 -176 -143 -176z" />
    <glyph glyph-name="aringacute.alt" horiz-adv-x="647" 
d="M591 166c-11 -68 -15 -121 -11 -166h-227c-5 20 -5 56 -5 84c-37 -63 -85 -98 -157 -98c-107 0 -179 76 -179 220c0 220 118 333 246 333c76 0 129 -35 148 -91l12 75h229zM328 373c-47 0 -82 -54 -82 -142c0 -48 16 -77 55 -77c50 0 83 66 83 143c0 51 -19 76 -56 76z
M371 641c25 0 42 19 42 46s-17 46 -42 46s-42 -19 -42 -46s17 -46 42 -46zM371 567c-68 0 -124 54 -124 120s56 120 124 120s124 -54 124 -120s-56 -120 -124 -120zM361 985h229l-118 -155h-173z" />
    <glyph glyph-name="uni02BC" unicode="&#x2bc;" horiz-adv-x="325" 
d="M362 667l-170 -270l-123 45l99 287z" />
    </font>
</defs>
</svg>
