<?xml version="1.0" standalone="no"?>
<!DOCTYPE svg PUBLIC "-//W3C//DTD SVG 1.1//EN" "http://www.w3.org/Graphics/SVG/1.1/DTD/svg11.dtd" >
<svg xmlns="http://www.w3.org/2000/svg" xmlns:xlink="http://www.w3.org/1999/xlink" version="1.1">
<metadata>
Created by FontForge 20190801 at Mon Jul  4 08:35:56 2016
 By Jimmy Wärting
LCG stand for Latin, Cyrillic and Greek.
</metadata>
<defs>
<font id="GraphikLCG-Super" horiz-adv-x="600" >
  <font-face 
    font-family="Graphik LCG"
    font-weight="900"
    font-stretch="normal"
    units-per-em="1000"
    panose-1="2 11 11 3 3 2 2 6 2 3"
    ascent="828"
    descent="-172"
    x-height="523"
    cap-height="715"
    bbox="-283 -236 1252 1150"
    underline-thickness="50"
    underline-position="-100"
    stemh="155"
    stemv="229"
    unicode-range="U+000D-FB02"
  />
<missing-glyph horiz-adv-x="529" 
 />
    <glyph glyph-name="f_f" unicode="ff" horiz-adv-x="758" 
d="M648 0h-228v374h-124v-374h-228v374h-61v149h61v20c0 143 96 204 229 204c36 0 65 -4 89 -11v-162c-12 3 -22 5 -41 5c-35 0 -49 -17 -49 -40v-16h124v26c0 143 97 204 231 204c36 0 65 -4 92 -11v-162c-12 3 -25 5 -44 5c-35 0 -51 -17 -51 -40v-22h95v-149h-95v-374z
" />
    <glyph glyph-name=".notdef" horiz-adv-x="529" 
 />
    <glyph glyph-name="NULL" horiz-adv-x="0" 
 />
    <glyph glyph-name="NULL" horiz-adv-x="0" 
 />
    <glyph glyph-name="CR" unicode="&#xd;" horiz-adv-x="162" 
 />
    <glyph glyph-name="space" unicode=" " horiz-adv-x="162" 
 />
    <glyph glyph-name="exclam" unicode="!" horiz-adv-x="358" 
d="M298 57c-20 -42 -65 -71 -119 -71c-71 0 -128 52 -128 117c0 64 57 118 128 118c72 0 129 -54 129 -118c0 -16 -3 -31 -10 -46zM275 252h-192l-33 463h258z" />
    <glyph glyph-name="quotedbl" unicode="&#x22;" horiz-adv-x="507" 
d="M215 424h-161l-24 291h209zM453 424h-161l-24 291h209z" />
    <glyph glyph-name="numbersign" unicode="#" horiz-adv-x="613" 
d="M428 99h-148l18 121h-45l-18 -121h-148l18 121h-61v178h87l7 46h-72v168h97l16 103h148l-16 -103h45l16 103h148l-16 -103h65v-168h-90l-7 -46h75v-178h-101zM324 398l7 46h-45l-7 -46h45z" />
    <glyph glyph-name="dollar" unicode="$" horiz-adv-x="657" 
d="M378 -135h-88v124c-176 12 -272 100 -277 241h225c2 -37 19 -60 52 -71v100c-198 24 -268 91 -268 232c0 130 99 223 268 234v88h88v-89c155 -12 249 -79 260 -227h-221c-3 25 -10 44 -39 55v-97c156 -21 268 -68 268 -217c0 -128 -73 -236 -268 -249v-124zM290 556
c-33 -7 -49 -22 -49 -45c0 -25 17 -38 49 -45v90zM378 156c33 7 46 24 46 47c0 19 -15 33 -46 42v-89z" />
    <glyph glyph-name="percent" unicode="%" horiz-adv-x="849" 
d="M223 479c29 0 42 24 42 63s-13 61 -42 61c-28 0 -43 -24 -43 -60c0 -40 15 -64 43 -64zM372 410c-33 -35 -85 -56 -150 -56c-135 0 -202 82 -202 188c0 103 84 182 203 182c117 0 202 -73 202 -178c0 -53 -18 -101 -53 -136zM218 0h-109l527 715h109zM627 111
c29 0 42 24 42 63s-13 61 -42 61c-28 0 -43 -24 -43 -60c0 -40 15 -64 43 -64zM776 42c-33 -35 -85 -56 -150 -56c-135 0 -202 82 -202 188c0 103 84 182 203 182c117 0 202 -73 202 -178c0 -53 -18 -101 -53 -136z" />
    <glyph glyph-name="ampersand" unicode="&#x26;" horiz-adv-x="804" 
d="M798 0h-294l-28 35c-45 -29 -96 -49 -190 -49c-164 0 -264 79 -264 226c0 81 47 155 154 204c-27 39 -34 85 -34 112c0 129 115 199 260 199c129 0 241 -56 241 -177c0 -75 -39 -130 -139 -173l59 -73l34 70h197l-114 -228zM278 277c-7 -9 -16 -23 -16 -44
c0 -39 20 -74 71 -74c16 0 27 4 35 7zM370 493c7 -9 15 -19 25 -30c35 19 52 40 52 63c0 27 -14 45 -41 45s-45 -19 -45 -46c0 -11 3 -22 9 -32z" />
    <glyph glyph-name="quotesingle" unicode="'" horiz-adv-x="279" 
d="M225 424h-171l-24 291h219z" />
    <glyph glyph-name="parenleft" unicode="(" horiz-adv-x="373" 
d="M197 -148c-70 86 -167 226 -167 462s97 376 167 462h169c-54 -97 -121 -252 -121 -462c0 -211 68 -366 121 -462h-169z" />
    <glyph glyph-name="parenright" unicode=")" horiz-adv-x="373" 
d="M7 -148c53 96 121 251 121 462c0 210 -67 365 -121 462h169c69 -85 167 -226 167 -462s-98 -377 -167 -462h-169z" />
    <glyph glyph-name="asterisk" unicode="*" horiz-adv-x="450" 
d="M406 445l-134 -95l-47 112l-47 -112l-134 95l92 79l-114 5l41 152l105 -55l-32 117h178l-32 -117l105 55l41 -152l-114 -5z" />
    <glyph glyph-name="plus" unicode="+" horiz-adv-x="596" 
d="M388 72h-180v186h-170v162h170v186h180v-186h170v-162h-170v-186z" />
    <glyph glyph-name="comma" unicode="," horiz-adv-x="319" 
d="M139 -122l-133 48l77 286l211 -70z" />
    <glyph glyph-name="hyphen" unicode="-" horiz-adv-x="406" 
d="M360 208h-314v165h314v-165z" />
    <glyph glyph-name="period" unicode="." horiz-adv-x="308" 
d="M268 59c-17 -43 -61 -73 -116 -73c-71 0 -122 53 -122 120c0 66 51 120 122 120c73 0 126 -54 126 -120c0 -17 -3 -32 -10 -47z" />
    <glyph glyph-name="slash" unicode="/" horiz-adv-x="450" 
d="M137 -148h-177l331 924h177z" />
    <glyph glyph-name="zero" unicode="0" horiz-adv-x="758" 
d="M470 369c0 113 -22 157 -91 157s-91 -45 -91 -156v-24c0 -109 20 -156 93 -156c68 0 89 48 89 156v23zM734 352c0 -236 -144 -366 -362 -366c-216 0 -348 124 -348 359v24c0 234 157 357 354 357c194 0 356 -106 356 -351v-23z" />
    <glyph glyph-name="one" unicode="1" horiz-adv-x="476" 
d="M421 0h-266v453l-124 -68v218l163 112h227v-715z" />
    <glyph glyph-name="two" unicode="2" horiz-adv-x="646" 
d="M627 0h-624v34l232 247c75 80 125 137 125 192c0 31 -13 55 -48 55s-56 -21 -63 -93h-239c5 199 124 291 317 291c196 0 294 -102 294 -239c0 -103 -55 -172 -130 -244l-50 -48h186v-195z" />
    <glyph glyph-name="three" unicode="3" horiz-adv-x="677" 
d="M257 248c4 -47 21 -74 70 -74c39 0 58 18 58 53c0 37 -22 55 -65 55h-58v155h55c49 0 74 21 74 57c0 31 -19 46 -56 46c-39 0 -56 -22 -64 -69h-234c11 156 105 255 305 255c185 0 296 -71 296 -200c0 -80 -45 -133 -125 -153c84 -15 140 -72 140 -153
c0 -139 -99 -234 -308 -234c-223 0 -316 91 -323 262h235z" />
    <glyph glyph-name="four" unicode="4" horiz-adv-x="709" 
d="M605 0h-255v130h-343v102l284 483h314v-407h88v-178h-88v-130zM357 308v207l-114 -207h114z" />
    <glyph glyph-name="five" unicode="5" horiz-adv-x="654" 
d="M584 526h-336l-7 -126c27 43 77 89 178 89c133 0 214 -85 214 -246c0 -153 -109 -257 -313 -257c-209 0 -300 111 -303 255h240c3 -35 17 -57 61 -57c40 0 49 32 49 64c0 45 -23 68 -69 68c-45 0 -76 -21 -92 -42h-169l23 441h524v-189z" />
    <glyph glyph-name="six" unicode="6" horiz-adv-x="703" 
d="M426 495c-3 19 -10 38 -46 38c-64 0 -89 -51 -93 -139c32 45 67 76 158 76c124 0 239 -67 239 -227c0 -155 -118 -257 -315 -257c-245 0 -345 146 -345 363v20c0 221 151 357 342 357c187 0 290 -78 303 -231h-243zM365 171c39 0 63 32 63 72c0 37 -23 68 -62 68
c-40 0 -63 -33 -63 -72c0 -35 22 -68 62 -68z" />
    <glyph glyph-name="seven" unicode="7" horiz-adv-x="603" 
d="M364 0h-270l175 499h-249v216h582v-26z" />
    <glyph glyph-name="eight" unicode="8" horiz-adv-x="683" 
d="M614 428c-17 -23 -41 -42 -71 -55c87 -29 124 -89 124 -165c0 -137 -113 -222 -326 -222c-215 0 -325 78 -325 215c0 76 37 139 128 171c-60 28 -97 73 -97 146c0 135 130 208 297 208c173 0 296 -72 296 -207c0 -37 -9 -67 -26 -91zM342 168c41 0 66 26 66 63
s-23 65 -66 65c-41 0 -66 -25 -66 -64s23 -64 66 -64zM386 451c13 11 19 25 19 42c0 37 -28 59 -61 59c-32 0 -60 -23 -60 -58s27 -59 59 -59c17 0 31 5 43 16z" />
    <glyph glyph-name="nine" unicode="9" horiz-adv-x="703" 
d="M679 348c0 -229 -120 -361 -341 -361c-188 0 -296 80 -308 229h242c3 -19 15 -35 50 -35c69 0 89 49 93 136c-29 -45 -62 -78 -151 -78c-136 0 -245 68 -245 229c0 153 121 259 318 259c235 0 342 -159 342 -366v-13zM332 403c40 0 64 33 64 72c0 35 -22 68 -63 68
c-39 0 -63 -33 -63 -72c0 -37 23 -68 62 -68z" />
    <glyph glyph-name="colon" unicode=":" horiz-adv-x="312" 
d="M270 59c-17 -43 -61 -73 -116 -73c-71 0 -122 53 -122 120c0 66 51 120 122 120c73 0 126 -54 126 -120c0 -17 -3 -32 -10 -47zM270 339c-17 -43 -61 -73 -116 -73c-71 0 -122 53 -122 120c0 66 51 120 122 120c73 0 126 -54 126 -120c0 -17 -3 -32 -10 -47z" />
    <glyph glyph-name="semicolon" unicode=";" horiz-adv-x="336" 
d="M137 -122l-133 48l77 286l210 -70zM300 339c-17 -43 -61 -73 -116 -73c-71 0 -122 53 -122 120c0 66 51 120 122 120c73 0 126 -54 126 -120c0 -17 -3 -32 -10 -47z" />
    <glyph glyph-name="less" unicode="&#x3c;" horiz-adv-x="517" 
d="M477 41l-441 261v41l441 261v-205l-153 -75l153 -85v-198z" />
    <glyph glyph-name="equal" unicode="=" horiz-adv-x="594" 
d="M556 152h-518v148h518v-148zM556 357h-518v148h518v-148z" />
    <glyph glyph-name="greater" unicode="&#x3e;" horiz-adv-x="517" 
d="M481 303l-441 -261v205l153 75l-153 85v198l441 -261v-41z" />
    <glyph glyph-name="question" unicode="?" horiz-adv-x="591" 
d="M164 252v3c0 73 50 123 95 162c32 31 61 56 61 85c0 28 -12 39 -37 39c-27 0 -44 -23 -51 -66h-224c3 169 125 251 295 251c164 0 268 -63 268 -200c0 -61 -24 -105 -60 -141c-53 -53 -116 -90 -129 -133h-218zM392 57c-20 -42 -64 -71 -118 -71c-73 0 -130 52 -130 117
c0 64 57 118 130 118c71 0 128 -54 128 -118c0 -16 -3 -31 -10 -46z" />
    <glyph glyph-name="at" unicode="@" horiz-adv-x="924" 
d="M832 0c-71 -101 -215 -164 -371 -164c-272 0 -441 177 -441 411c0 274 224 445 462 445c237 0 421 -137 421 -363c0 -204 -109 -284 -230 -284c-91 0 -145 24 -164 79c-24 -53 -61 -79 -126 -79c-100 0 -164 73 -164 192c0 145 89 236 198 236c59 0 88 -23 103 -55l7 47
h180l-35 -283c-5 -36 6 -60 41 -60c53 0 106 59 106 211c0 172 -134 288 -334 288c-208 0 -376 -143 -376 -377c0 -196 120 -337 357 -337c120 0 222 47 268 93h98zM446 190c35 0 56 42 56 93c0 27 -13 49 -44 49c-35 0 -55 -39 -55 -86c0 -28 11 -56 43 -56z" />
    <glyph glyph-name="A" unicode="A" horiz-adv-x="784" 
d="M783 0h-284l-24 95h-202l-24 -95h-248l220 715h343zM431 273l-56 228l-58 -228h114z" />
    <glyph glyph-name="B" unicode="B" horiz-adv-x="709" 
d="M693 199c0 -125 -78 -199 -273 -199h-362v715h373c188 0 247 -92 247 -188v-4c0 -88 -48 -138 -128 -155c80 -11 143 -64 143 -165v-4zM431 234c0 36 -18 57 -69 57h-45v-119h48c45 0 66 22 66 58v4zM428 495c0 32 -16 49 -59 49h-52v-99h52c43 0 59 14 59 46v4z" />
    <glyph glyph-name="C" unicode="C" horiz-adv-x="774" 
d="M763 285c-8 -195 -152 -299 -350 -299c-272 0 -393 148 -393 367v8c0 224 164 365 380 365c206 0 335 -91 354 -296h-276c-3 55 -30 86 -77 86c-64 0 -100 -50 -100 -154v-8c0 -101 36 -155 105 -155c49 0 84 26 91 86h266z" />
    <glyph glyph-name="D" unicode="D" horiz-adv-x="767" 
d="M346 203c89 0 124 40 124 151v8c0 121 -40 150 -126 150h-19v-309h21zM748 360c0 -239 -137 -360 -393 -360h-297v715h296c260 0 394 -113 394 -348v-7z" />
    <glyph glyph-name="E" unicode="E" horiz-adv-x="635" 
d="M607 0h-549v715h534v-203h-269v-61h212v-184h-212v-64h284v-203z" />
    <glyph glyph-name="F" unicode="F" horiz-adv-x="596" 
d="M325 0h-267v715h517v-204h-250v-100h203v-193h-203v-218z" />
    <glyph glyph-name="G" unicode="G" horiz-adv-x="797" 
d="M779 307c0 -171 -115 -321 -371 -321c-254 0 -389 151 -389 367v8c0 221 170 365 389 365c181 0 347 -82 355 -282h-263c-4 43 -30 73 -91 73c-68 0 -113 -56 -113 -161v-8c0 -85 22 -161 122 -161c72 0 96 31 104 58h-100v162h357v-100z" />
    <glyph glyph-name="H" unicode="H" horiz-adv-x="812" 
d="M754 0h-266v263h-163v-263h-267v715h267v-247h163v247h266v-715z" />
    <glyph glyph-name="I" unicode="I" horiz-adv-x="391" 
d="M330 0h-269v715h269v-715z" />
    <glyph glyph-name="J" unicode="J" horiz-adv-x="508" 
d="M462 281c0 -187 -87 -290 -286 -290c-75 0 -111 10 -146 27v194c23 -7 44 -11 83 -11c48 0 82 17 82 80v434h267v-434z" />
    <glyph glyph-name="K" unicode="K" horiz-adv-x="782" 
d="M778 0h-305l-148 257v-257h-267v715h267v-244l166 244h274l-233 -325z" />
    <glyph glyph-name="L" unicode="L" horiz-adv-x="595" 
d="M566 0h-508v715h267v-511h241v-204z" />
    <glyph glyph-name="M" unicode="M" horiz-adv-x="986" 
d="M927 0h-265v380l-142 -380h-90l-136 380v-380h-236v715h342l94 -286l97 286h336v-715z" />
    <glyph glyph-name="N" unicode="N" horiz-adv-x="805" 
d="M746 0h-253l-198 390v-390h-237v715h297l155 -332v332h236v-715z" />
    <glyph glyph-name="O" unicode="O" horiz-adv-x="823" 
d="M526 362c0 111 -48 157 -116 157s-113 -48 -113 -157v-8c0 -108 41 -160 114 -160c72 0 115 56 115 160v8zM804 360c0 -229 -157 -374 -400 -374c-240 0 -385 145 -385 367v8c0 226 175 365 391 365c221 0 394 -125 394 -358v-8z" />
    <glyph glyph-name="P" unicode="P" horiz-adv-x="688" 
d="M323 0h-265v715h308c227 0 306 -100 306 -255v-4c0 -148 -94 -240 -293 -240h-56v-216zM421 459c0 39 -24 59 -71 59h-27v-126h26c48 0 72 21 72 63v4z" />
    <glyph glyph-name="Q" unicode="Q" horiz-adv-x="823" 
d="M590 -136l-124 126c-20 -3 -41 -4 -62 -4c-240 0 -385 145 -385 367v8c0 226 175 365 391 365c221 0 394 -125 394 -358v-8c0 -125 -46 -225 -129 -290l59 -60zM502 246c15 27 24 63 24 108v8c0 111 -48 157 -116 157s-113 -48 -113 -157v-8c0 -81 22 -132 67 -151
l100 82z" />
    <glyph glyph-name="R" unicode="R" horiz-adv-x="733" 
d="M726 0h-277l-111 227h-15v-227h-265v715h314c213 0 312 -86 312 -241v-4c0 -95 -41 -150 -105 -185zM428 461c0 37 -24 56 -73 56h-32v-123h30c52 0 75 20 75 63v4z" />
    <glyph glyph-name="S" unicode="S" horiz-adv-x="663" 
d="M264 232c3 -35 20 -61 75 -61c43 0 55 15 55 38c0 25 -21 37 -81 44c-213 24 -286 81 -286 234c0 139 112 239 301 239c188 0 288 -72 300 -237h-246c-3 31 -20 52 -55 52c-32 0 -48 -11 -48 -34c0 -24 19 -36 80 -43c177 -16 290 -60 290 -226
c0 -137 -105 -252 -310 -252c-204 0 -323 73 -326 246h251z" />
    <glyph glyph-name="T" unicode="T" horiz-adv-x="648" 
d="M458 0h-268v511h-173v204h614v-204h-173v-511z" />
    <glyph glyph-name="U" unicode="U" horiz-adv-x="799" 
d="M745 304c0 -226 -139 -318 -344 -318c-221 0 -347 106 -347 319v410h266v-402c0 -76 9 -119 81 -119c70 0 76 46 76 117v404h268v-411z" />
    <glyph glyph-name="V" unicode="V" horiz-adv-x="766" 
d="M536 0h-299l-234 715h290l110 -436l111 436h249z" />
    <glyph glyph-name="W" unicode="W" horiz-adv-x="1032" 
d="M862 0h-255l-83 378l-82 -378h-272l-166 715h267l66 -393l67 393h224l83 -398l71 398h246z" />
    <glyph glyph-name="X" unicode="X" horiz-adv-x="805" 
d="M795 0h-303l-104 217l-103 -217h-275l213 368l-196 347h304l78 -178l76 178h272l-177 -336z" />
    <glyph glyph-name="Y" unicode="Y" horiz-adv-x="718" 
d="M498 0h-268v303l-230 412h288l87 -194l90 194h253l-220 -411v-304z" />
    <glyph glyph-name="Z" unicode="Z" horiz-adv-x="628" 
d="M601 0h-596v27l252 495h-211v193h575v-27l-252 -492h232v-196z" />
    <glyph glyph-name="bracketleft" unicode="[" horiz-adv-x="437" 
d="M402 -148h-348v924h348v-164h-117v-596h117v-164z" />
    <glyph glyph-name="backslash" unicode="\" horiz-adv-x="450" 
d="M490 -148h-177l-331 924h177z" />
    <glyph glyph-name="bracketright" unicode="]" horiz-adv-x="437" 
d="M382 -148h-346v164h115v596h-115v164h346v-924z" />
    <glyph glyph-name="asciicircum" unicode="^" horiz-adv-x="543" 
d="M531 386h-189l-72 145l-73 -145h-185l163 329h193z" />
    <glyph glyph-name="underscore" unicode="_" horiz-adv-x="454" 
d="M455 -162h-456v96h456v-96z" />
    <glyph glyph-name="grave" unicode="`" horiz-adv-x="400" 
d="M288 568h-163l-105 175h219z" />
    <glyph glyph-name="a" unicode="a" horiz-adv-x="598" 
d="M564 0h-220v59c-19 -32 -63 -73 -151 -73c-93 0 -178 46 -178 159c0 124 91 171 286 171h37v3c0 33 -2 65 -47 65c-37 0 -43 -29 -46 -45h-212c7 129 108 200 272 200c171 0 259 -66 259 -203v-336zM338 200h-35c-54 0 -63 -10 -63 -35c0 -19 14 -29 42 -29
c33 0 56 20 56 47v17z" />
    <glyph glyph-name="b" unicode="b" horiz-adv-x="651" 
d="M634 256c0 -189 -102 -270 -215 -270c-75 0 -129 35 -153 92v-78h-229v743h229v-293c29 49 75 89 155 89c114 0 213 -87 213 -275v-8zM402 267c0 69 -24 104 -73 104c-48 0 -69 -39 -69 -103v-8c0 -67 23 -101 69 -101c49 0 73 33 73 100v8z" />
    <glyph glyph-name="c" unicode="c" horiz-adv-x="590" 
d="M581 215c-3 -141 -92 -229 -281 -229c-161 0 -285 84 -285 268v8c0 182 130 277 292 277c137 0 263 -59 271 -231h-213c-5 31 -11 56 -52 56c-47 0 -65 -29 -65 -98v-8c0 -72 16 -108 68 -108c36 0 56 22 60 65h205z" />
    <glyph glyph-name="d" unicode="d" horiz-adv-x="650" 
d="M613 0h-229v82c-24 -56 -74 -96 -154 -96c-113 0 -213 83 -213 272v8c0 188 98 273 211 273c80 0 127 -30 156 -85v289h229v-743zM390 268c0 64 -23 103 -70 103c-48 0 -71 -31 -71 -103v-8c0 -67 21 -101 72 -101c48 0 69 34 69 101v8z" />
    <glyph glyph-name="e" unicode="e" horiz-adv-x="614" 
d="M601 184c-15 -125 -106 -198 -286 -198c-172 0 -300 93 -300 268v8c0 173 137 277 302 277c154 0 282 -86 282 -275v-49h-354c7 -52 35 -77 78 -77c48 0 62 25 67 46h211zM380 321c-1 43 -19 75 -63 75c-39 0 -64 -24 -71 -75h134z" />
    <glyph glyph-name="f" unicode="f" horiz-adv-x="406" 
d="M296 0h-228v374h-61v149h61v26c0 143 97 204 231 204c36 0 65 -4 92 -11v-162c-12 3 -25 5 -44 5c-35 0 -51 -17 -51 -40v-22h95v-149h-95v-374z" />
    <glyph glyph-name="g" unicode="g" horiz-adv-x="650" 
d="M613 48c0 -159 -102 -243 -311 -243c-189 0 -279 72 -292 207h226c5 -23 15 -53 67 -53c68 0 81 44 81 84v82c-24 -49 -74 -86 -154 -86c-115 0 -213 80 -213 244v8c0 161 98 248 211 248c80 0 127 -30 156 -85v69h229v-475zM390 289c0 48 -23 83 -70 83
c-48 0 -71 -31 -71 -84v-8c0 -51 21 -85 72 -85c48 0 69 35 69 86v8z" />
    <glyph glyph-name="h" unicode="h" horiz-adv-x="638" 
d="M604 0h-229v292c0 43 -14 65 -50 65c-41 0 -59 -23 -59 -76v-281h-229v743h229v-304c31 56 86 100 174 100c97 0 164 -64 164 -189v-350z" />
    <glyph glyph-name="i" unicode="i" horiz-adv-x="316" 
d="M272 0h-228v523h228v-523zM279 654c0 -65 -52 -112 -121 -112c-71 0 -121 47 -121 112s50 112 121 112c69 0 121 -47 121 -112z" />
    <glyph glyph-name="j" unicode="j" horiz-adv-x="316" 
d="M271 23c0 -120 -58 -204 -285 -204v161c37 3 57 13 57 52v491h228v-500zM279 654c0 -65 -52 -112 -121 -112c-71 0 -121 47 -121 112s50 112 121 112c69 0 121 -47 121 -112z" />
    <glyph glyph-name="k" unicode="k" horiz-adv-x="609" 
d="M610 0h-251l-93 191v-191h-229v743h229v-399l101 179h232l-143 -231z" />
    <glyph glyph-name="l" unicode="l" horiz-adv-x="313" 
d="M270 0h-227v743h227v-743z" />
    <glyph glyph-name="m" unicode="m" horiz-adv-x="942" 
d="M908 0h-228v303c0 33 -19 53 -44 53c-39 0 -50 -23 -50 -62v-294h-226v303c0 33 -20 53 -44 53c-39 0 -50 -23 -50 -62v-294h-229v523h229v-80c29 50 85 96 167 96c72 0 113 -30 137 -81c49 57 103 81 170 81c101 0 168 -67 168 -188v-351z" />
    <glyph glyph-name="n" unicode="n" horiz-adv-x="638" 
d="M604 0h-229v292c0 43 -14 65 -50 65c-41 0 -59 -23 -59 -76v-281h-229v523h229v-84c31 56 86 100 174 100c97 0 164 -64 164 -189v-350z" />
    <glyph glyph-name="o" unicode="o" horiz-adv-x="632" 
d="M385 267c0 72 -19 105 -68 105c-47 0 -70 -30 -70 -102v-8c0 -76 19 -110 70 -110c48 0 68 35 68 107v8zM617 261c0 -176 -134 -275 -301 -275s-301 91 -301 268v8c0 173 133 277 302 277c167 0 300 -98 300 -270v-8z" />
    <glyph glyph-name="p" unicode="p" horiz-adv-x="651" 
d="M266 -172h-229v695h229v-73c29 49 75 89 155 89c114 0 213 -87 213 -275v-8c0 -189 -102 -270 -215 -270c-75 0 -129 35 -153 86v-244zM402 267c0 69 -24 104 -73 104c-48 0 -69 -39 -69 -103v-8c0 -67 23 -101 69 -101c49 0 73 33 73 100v8z" />
    <glyph glyph-name="q" unicode="q" horiz-adv-x="650" 
d="M613 -172h-229v248c-24 -49 -74 -90 -154 -90c-113 0 -213 83 -213 272v8c0 188 98 273 211 273c80 0 127 -30 156 -85v69h229v-695zM390 268c0 64 -23 103 -70 103c-48 0 -71 -31 -71 -103v-8c0 -67 21 -101 72 -101c48 0 69 34 69 101v8z" />
    <glyph glyph-name="r" unicode="r" horiz-adv-x="455" 
d="M266 0h-229v523h229v-109c33 88 92 118 167 115v-213c-112 8 -167 -28 -167 -88v-228z" />
    <glyph glyph-name="s" unicode="s" horiz-adv-x="539" 
d="M218 172c5 -28 13 -45 48 -45c27 0 39 11 39 26c0 20 -18 29 -85 36c-142 13 -208 49 -208 166c0 125 108 184 248 184c148 0 243 -47 254 -179h-205c-5 23 -17 42 -45 42s-38 -12 -38 -27c0 -19 23 -31 70 -35c163 -16 232 -50 232 -163c0 -139 -106 -191 -261 -191
c-161 0 -255 61 -258 186h209z" />
    <glyph glyph-name="t" unicode="t" horiz-adv-x="407" 
d="M384 3c-27 -7 -66 -17 -113 -17c-131 0 -207 57 -207 201v187h-57v149h57v104h229v-104h93v-149h-93v-165c0 -29 16 -44 47 -44c16 0 28 1 44 8v-170z" />
    <glyph glyph-name="u" unicode="u" horiz-adv-x="638" 
d="M601 0h-229v80c-31 -57 -77 -94 -166 -94c-99 0 -173 65 -173 191v346h229v-304c0 -43 17 -65 50 -65c43 0 60 23 60 76v293h229v-523z" />
    <glyph glyph-name="v" unicode="v" horiz-adv-x="624" 
d="M433 0h-241l-193 523h244l84 -284l84 284h214z" />
    <glyph glyph-name="w" unicode="w" horiz-adv-x="871" 
d="M706 0h-212l-62 240l-59 -240h-218l-156 523h237l53 -257l67 257h182l56 -257l66 257h213z" />
    <glyph glyph-name="x" unicode="x" horiz-adv-x="637" 
d="M634 0h-262l-68 128l-71 -128h-231l168 264l-157 259h262l56 -111l55 111h232l-160 -241z" />
    <glyph glyph-name="y" unicode="y" horiz-adv-x="620" 
d="M345 -172h-216l81 224l-211 471h248l82 -229l77 229h215z" />
    <glyph glyph-name="z" unicode="z" horiz-adv-x="521" 
d="M498 0h-494v21l188 333h-167v169h489v-21l-201 -335h185v-167z" />
    <glyph glyph-name="braceleft" unicode="{" horiz-adv-x="437" 
d="M402 -148c-231 0 -329 76 -302 243l12 75c7 41 -21 66 -86 66v158c65 0 93 24 86 65l-12 74c-28 175 73 243 302 243v-165c-66 -5 -80 -20 -75 -69l10 -94c7 -64 -30 -114 -106 -131c77 -16 113 -67 106 -131l-10 -94c-5 -50 9 -70 75 -75v-165z" />
    <glyph glyph-name="bar" unicode="|" horiz-adv-x="275" 
d="M215 -148h-155v924h155v-924z" />
    <glyph glyph-name="braceright" unicode="}" horiz-adv-x="437" 
d="M337 95c27 -167 -71 -243 -302 -243v165c65 5 80 24 75 75l-10 94c-7 64 29 115 106 131c-76 17 -113 67 -106 131l10 94c5 48 -10 64 -75 69v165c229 0 330 -68 302 -243l-12 -74c-7 -41 21 -65 86 -65v-158c-65 0 -93 -25 -86 -66z" />
    <glyph glyph-name="asciitilde" unicode="~" horiz-adv-x="556" 
d="M536 445c-5 -156 -83 -234 -169 -234c-76 0 -123 41 -160 41c-29 0 -41 -18 -45 -42h-142c8 171 85 234 169 234c75 0 123 -41 160 -41c29 0 40 17 45 42h142z" />
    <glyph glyph-name="uni00A0" unicode="&#xa0;" horiz-adv-x="246" 
 />
    <glyph glyph-name="exclamdown" unicode="&#xa1;" horiz-adv-x="358" 
d="M308 -117h-258l33 463h192zM297 449c-20 -41 -65 -72 -118 -72c-72 0 -129 54 -129 118c0 65 57 117 129 117c71 0 128 -52 128 -117c0 -16 -3 -31 -10 -46z" />
    <glyph glyph-name="cent" unicode="&#xa2;" horiz-adv-x="610" 
d="M355 -135h-69v122c-155 11 -271 95 -271 267v8c0 166 119 262 271 275v92h69v-91c133 -8 235 -82 243 -230h-203c-4 35 -15 55 -40 64v-232c31 7 48 30 51 75h195c-3 -133 -89 -217 -246 -228v-122zM238 258c0 -68 16 -102 48 -115v229c-32 -11 -48 -42 -48 -106v-8z" />
    <glyph glyph-name="sterling" unicode="&#xa3;" horiz-adv-x="688" 
d="M678 240c-5 -141 -83 -249 -235 -249c-107 0 -161 47 -204 47c-24 0 -37 -15 -40 -38h-192c5 84 36 156 96 195c4 15 7 36 7 60c0 9 -1 18 -2 27h-81v132h43c-5 21 -8 43 -8 70c0 160 132 242 303 242c214 0 300 -107 305 -268h-240c-5 52 -23 70 -54 70
c-35 0 -52 -20 -52 -60c0 -17 -1 -35 2 -54h158v-132h-149c1 -9 1 -18 1 -27c0 -19 -2 -35 -6 -50c23 -7 39 -10 58 -10c30 0 46 15 48 45h242z" />
    <glyph glyph-name="yen" unicode="&#xa5;" horiz-adv-x="682" 
d="M480 0h-268v185h-158v78h158v38h-158v78h128l-180 336h288l67 -186l70 186h253l-172 -336h130v-78h-158v-38h158v-78h-158v-185z" />
    <glyph glyph-name="brokenbar" unicode="&#xa6;" horiz-adv-x="275" 
d="M215 -148h-155v451h155v-451zM215 375h-155v401h155v-401z" />
    <glyph glyph-name="section" unicode="&#xa7;" horiz-adv-x="641" 
d="M269 56c3 -28 16 -46 44 -46c23 0 35 8 35 24c0 20 -25 27 -89 42c-150 35 -248 78 -248 206c0 71 43 112 106 139c-25 31 -36 70 -36 110c0 124 100 195 255 195c153 0 232 -76 239 -197h-203c-3 31 -16 46 -44 46c-23 0 -35 -8 -35 -23c0 -23 21 -28 89 -44
c147 -35 248 -73 248 -204c0 -71 -45 -112 -106 -140c24 -30 36 -66 36 -109c0 -119 -100 -192 -255 -192c-153 0 -232 74 -239 193h203zM390 243c16 3 21 11 21 24c0 21 -22 27 -86 48l-72 26c-17 -3 -22 -11 -22 -24c0 -20 26 -27 86 -48z" />
    <glyph glyph-name="dieresis" unicode="&#xa8;" horiz-adv-x="400" 
d="M182 612c-16 -36 -52 -60 -95 -60c-57 0 -102 43 -102 99s45 99 102 99s103 -43 103 -99c0 -14 -3 -27 -8 -39zM415 651c0 -56 -44 -99 -103 -99c-56 0 -101 43 -101 99s45 99 101 99c59 0 103 -43 103 -99z" />
    <glyph glyph-name="copyright" unicode="&#xa9;" horiz-adv-x="842" 
d="M628 317c-5 -109 -84 -168 -197 -168c-155 0 -222 81 -222 205v8c0 126 93 204 215 204c115 0 190 -50 199 -166h-155c-3 31 -17 48 -44 48c-36 0 -57 -26 -57 -86v-7c0 -58 20 -87 60 -87c28 0 49 14 52 49h149zM546 53c117 47 198 159 198 306c0 195 -140 326 -322 326
c-185 0 -324 -133 -324 -328c0 -197 144 -327 322 -327c45 0 87 8 126 23zM783 207c-59 -138 -198 -232 -363 -232c-217 0 -392 165 -392 382c0 213 174 383 394 383c223 0 392 -168 392 -381c0 -55 -10 -105 -31 -152z" />
    <glyph glyph-name="ordfeminine" unicode="&#xaa;" horiz-adv-x="516" 
d="M476 298h-191v45c-13 -24 -46 -57 -118 -57s-141 35 -141 126c0 98 65 133 223 133h31v9c0 19 -3 36 -28 36c-23 0 -28 -21 -29 -32h-184c7 104 84 165 223 165c141 0 214 -57 214 -162v-263zM280 453h-25c-31 0 -35 -8 -35 -20c0 -13 12 -18 27 -18c20 0 33 12 33 27v11
z" />
    <glyph glyph-name="guillemotleft" unicode="&#xab;" horiz-adv-x="470" 
d="M270 63h-132l-122 198l122 198h132l-117 -198zM451 63h-132l-122 198l122 198h132l-117 -198z" />
    <glyph glyph-name="uni00AD" unicode="&#xad;" horiz-adv-x="406" 
d="M360 208h-314v165h314v-165z" />
    <glyph glyph-name="registered" unicode="&#xae;" horiz-adv-x="518" 
d="M373 396h-83l-34 70h-6v-70h-81v219h96c63 0 95 -25 95 -74v-1c0 -29 -13 -46 -32 -57zM282 537c0 11 -8 17 -23 17h-9v-37h9c15 0 23 6 23 19v1zM392 371c33 32 54 77 54 132c0 108 -78 183 -187 183s-187 -76 -187 -184c0 -109 82 -182 187 -182c53 0 100 19 133 51z
M474 415c-36 -81 -117 -135 -215 -135c-128 0 -233 97 -233 222c0 124 102 224 233 224c132 0 233 -99 233 -223c0 -31 -6 -61 -18 -88z" />
    <glyph glyph-name="macron" unicode="&#xaf;" horiz-adv-x="400" 
d="M365 593h-331v119h331v-119z" />
    <glyph glyph-name="degree" unicode="&#xb0;" horiz-adv-x="466" 
d="M234 444c53 0 91 44 91 101c0 60 -38 103 -91 103c-56 0 -93 -43 -93 -103c0 -57 37 -101 93 -101zM401 477c-28 -63 -92 -109 -167 -109c-101 0 -184 81 -184 177c0 99 83 179 184 179c100 0 182 -80 182 -179c0 -24 -5 -47 -15 -68z" />
    <glyph glyph-name="plusminus" unicode="&#xb1;" horiz-adv-x="596" 
d="M558 348h-170v-156h-180v156h-170v162h170v156h180v-156h170v-162zM562 0h-524v142h524v-142z" />
    <glyph glyph-name="twosuperior" unicode="&#xb2;" horiz-adv-x="388" 
d="M3 342l129 131c47 47 75 76 75 104c0 16 -7 24 -22 24c-17 0 -26 -15 -29 -46h-151c3 112 74 166 189 166c123 0 175 -59 175 -130c0 -56 -35 -95 -82 -138l-15 -14h98v-117h-367v20z" />
    <glyph glyph-name="threesuperior" unicode="&#xb3;" horiz-adv-x="406" 
d="M204 314c-137 0 -183 62 -188 145h145c3 -19 12 -32 33 -32c17 0 26 8 26 24c0 15 -9 23 -36 23h-33v88h33c28 0 39 9 39 26c0 14 -8 21 -25 21s-27 -10 -31 -30h-144c5 83 63 142 180 142c111 0 176 -38 176 -111c0 -45 -24 -73 -73 -84c47 -7 80 -38 80 -82
c0 -76 -57 -130 -182 -130z" />
    <glyph glyph-name="acute" unicode="&#xb4;" horiz-adv-x="400" 
d="M275 568h-163l49 175h219z" />
    <glyph glyph-name="mu" unicode="&#xb5;" horiz-adv-x="638" 
d="M37 523h229v-308c0 -43 17 -65 50 -65c43 0 60 23 60 76v297h229v-523h-225v65c-13 -44 -34 -62 -65 -62c-23 0 -38 12 -49 28v-203h-229v695z" />
    <glyph glyph-name="paragraph" unicode="&#xb6;" horiz-adv-x="532" 
d="M474 -100h-79v748h-71v-748h-78v420h-5c-136 0 -222 63 -222 194c0 136 90 201 222 201h233v-815z" />
    <glyph glyph-name="periodcentered" unicode="&#xb7;" horiz-adv-x="308" 
d="M268 279c-17 -43 -61 -73 -116 -73c-71 0 -122 53 -122 120c0 66 51 120 122 120c73 0 126 -54 126 -120c0 -17 -3 -32 -10 -47z" />
    <glyph glyph-name="cedilla" unicode="&#xb8;" horiz-adv-x="400" 
d="M161 -135c3 -12 11 -23 32 -23c19 0 28 11 28 27s-9 29 -32 29c-17 0 -27 -6 -34 -13l-42 44l50 71h82l-31 -41c64 5 119 -21 119 -89c0 -64 -48 -102 -131 -102c-80 0 -130 33 -141 97h100z" />
    <glyph glyph-name="onesuperior" unicode="&#xb9;" horiz-adv-x="315" 
d="M101 555l-83 -42v132l108 70h142v-393h-167v233z" />
    <glyph glyph-name="ordmasculine" unicode="&#xba;" horiz-adv-x="537" 
d="M310 509c0 49 -9 71 -41 71c-29 0 -42 -18 -42 -69v-6c0 -55 10 -76 42 -76s41 22 41 74v6zM511 504c0 -141 -109 -218 -243 -218c-133 0 -242 69 -242 211v6c0 140 108 220 243 220s242 -76 242 -213v-6z" />
    <glyph glyph-name="guillemotright" unicode="&#xbb;" horiz-adv-x="470" 
d="M151 63h-132l117 198l-117 198h132l122 -198zM332 63h-132l117 198l-117 198h132l122 -198z" />
    <glyph glyph-name="onequarter" unicode="&#xbc;" horiz-adv-x="856" 
d="M104 555l-83 -42v132l108 70h142v-393h-167v233zM184 0h-109l587 715h109zM623 70h-195v62l158 261h198v-216h49v-107h-49v-70h-161v70zM628 177v110l-64 -110h64z" />
    <glyph glyph-name="onehalf" unicode="&#xbd;" horiz-adv-x="874" 
d="M104 555l-83 -42v132l108 70h142v-393h-167v233zM171 0h-109l587 715h109zM486 20l129 131c47 47 75 76 75 104c0 16 -7 24 -22 24c-17 0 -26 -15 -29 -46h-151c3 112 74 166 189 166c123 0 175 -59 175 -130c0 -56 -35 -95 -82 -138l-15 -14h98v-117h-367v20z" />
    <glyph glyph-name="threequarters" unicode="&#xbe;" horiz-adv-x="900" 
d="M207 314c-137 0 -183 62 -188 145h145c3 -19 12 -32 33 -32c17 0 26 8 26 24c0 15 -9 23 -36 23h-33v88h33c28 0 39 9 39 26c0 14 -8 21 -25 21s-27 -10 -31 -30h-144c5 83 63 142 180 142c111 0 176 -38 176 -111c0 -45 -24 -73 -73 -84c47 -7 80 -38 80 -82
c0 -76 -57 -130 -182 -130zM238 0h-109l587 715h109zM667 70h-195v62l158 261h198v-216h49v-107h-49v-70h-161v70zM672 177v110l-64 -110h64z" />
    <glyph glyph-name="questiondown" unicode="&#xbf;" horiz-adv-x="591" 
d="M583 124c-5 -169 -123 -251 -295 -251c-164 0 -268 63 -268 200c0 61 24 105 60 141c52 52 116 91 129 133h218v-3c0 -74 -51 -121 -95 -162c-32 -31 -61 -56 -61 -85c0 -28 12 -39 37 -39c27 0 44 23 51 66h224zM437 450c-20 -41 -65 -72 -120 -72
c-71 0 -128 54 -128 118c0 65 57 117 128 117c73 0 130 -52 130 -117c0 -16 -3 -31 -10 -46z" />
    <glyph glyph-name="Agrave" unicode="&#xc0;" horiz-adv-x="784" 
d="M783 0h-284l-24 95h-202l-24 -95h-248l220 715h343zM431 273l-56 228l-58 -228h114zM486 753h-173l-101 155h229z" />
    <glyph glyph-name="Aacute" unicode="&#xc1;" horiz-adv-x="784" 
d="M783 0h-284l-24 95h-202l-24 -95h-248l220 715h343zM431 273l-56 228l-58 -228h114zM467 753h-173l49 155h229z" />
    <glyph glyph-name="Acircumflex" unicode="&#xc2;" horiz-adv-x="784" 
d="M783 0h-284l-24 95h-202l-24 -95h-248l220 715h343zM431 273l-56 228l-58 -228h114zM598 753h-165l-45 44l-45 -44h-162l117 155h189z" />
    <glyph glyph-name="Atilde" unicode="&#xc3;" horiz-adv-x="784" 
d="M783 0h-284l-24 95h-202l-24 -95h-248l220 715h343zM431 273l-56 228l-58 -228h114zM596 922c-8 -123 -71 -172 -136 -172c-64 0 -93 29 -125 29c-15 0 -24 -11 -27 -26h-123c5 123 65 172 133 172c59 0 93 -29 128 -29c17 0 24 10 27 26h123z" />
    <glyph glyph-name="Adieresis" unicode="&#xc4;" horiz-adv-x="784" 
d="M783 0h-284l-24 95h-202l-24 -95h-248l220 715h343zM431 273l-56 228l-58 -228h114zM368 802c-16 -36 -52 -60 -95 -60c-57 0 -102 43 -102 99s45 99 102 99s103 -43 103 -99c0 -14 -3 -27 -8 -39zM609 841c0 -56 -44 -99 -103 -99c-56 0 -101 43 -101 99s45 99 101 99
c59 0 103 -43 103 -99z" />
    <glyph glyph-name="Aring" unicode="&#xc5;" horiz-adv-x="784" 
d="M783 0h-284l-24 95h-202l-24 -95h-248l220 715h343zM431 273l-56 228l-58 -228h114zM390 812c25 0 43 19 43 47s-18 47 -43 47c-27 0 -43 -19 -43 -47s16 -47 43 -47zM506 811c-20 -43 -63 -74 -116 -74c-69 0 -126 54 -126 122s57 122 126 122s126 -54 126 -122
c0 -17 -3 -33 -10 -48z" />
    <glyph glyph-name="AE" unicode="&#xc6;" horiz-adv-x="1029" 
d="M1001 0h-539v115h-166l-44 -115h-251l297 715h688v-203h-259v-61h202v-184h-202v-64h274v-203zM462 288v224h-14l-86 -224h100z" />
    <glyph glyph-name="Ccedilla" unicode="&#xc7;" horiz-adv-x="774" 
d="M763 285c-8 -195 -152 -299 -350 -299h-2l-20 -27c64 5 119 -21 119 -89c0 -64 -48 -102 -131 -102c-80 0 -130 33 -141 97h100c3 -12 11 -23 32 -23c19 0 28 11 28 27s-9 29 -32 29c-17 0 -27 -6 -34 -13l-42 44l43 62c-216 27 -313 165 -313 362v8
c0 224 164 365 380 365c206 0 335 -91 354 -296h-276c-3 55 -30 86 -77 86c-64 0 -100 -50 -100 -154v-8c0 -101 36 -155 105 -155c49 0 84 26 91 86h266z" />
    <glyph glyph-name="Egrave" unicode="&#xc8;" horiz-adv-x="635" 
d="M607 0h-549v715h534v-203h-269v-61h212v-184h-212v-64h284v-203zM429 753h-173l-101 155h229z" />
    <glyph glyph-name="Eacute" unicode="&#xc9;" horiz-adv-x="635" 
d="M607 0h-549v715h534v-203h-269v-61h212v-184h-212v-64h284v-203zM410 753h-173l49 155h229z" />
    <glyph glyph-name="Ecircumflex" unicode="&#xca;" horiz-adv-x="635" 
d="M607 0h-549v715h534v-203h-269v-61h212v-184h-212v-64h284v-203zM541 753h-165l-45 44l-45 -44h-162l117 155h189z" />
    <glyph glyph-name="Edieresis" unicode="&#xcb;" horiz-adv-x="635" 
d="M607 0h-549v715h534v-203h-269v-61h212v-184h-212v-64h284v-203zM311 802c-16 -36 -52 -60 -95 -60c-57 0 -102 43 -102 99s45 99 102 99s103 -43 103 -99c0 -14 -3 -27 -8 -39zM552 841c0 -56 -44 -99 -103 -99c-56 0 -101 43 -101 99s45 99 101 99
c59 0 103 -43 103 -99z" />
    <glyph glyph-name="Igrave" unicode="&#xcc;" horiz-adv-x="391" 
d="M330 0h-269v715h269v-715zM291 753h-173l-101 155h229z" />
    <glyph glyph-name="Iacute" unicode="&#xcd;" horiz-adv-x="391" 
d="M330 0h-269v715h269v-715zM272 753h-173l49 155h229z" />
    <glyph glyph-name="Icircumflex" unicode="&#xce;" horiz-adv-x="391" 
d="M330 0h-269v715h269v-715zM403 753h-165l-45 44l-45 -44h-162l117 155h189z" />
    <glyph glyph-name="Idieresis" unicode="&#xcf;" horiz-adv-x="391" 
d="M330 0h-269v715h269v-715zM173 802c-16 -36 -52 -60 -95 -60c-57 0 -102 43 -102 99s45 99 102 99s103 -43 103 -99c0 -14 -3 -27 -8 -39zM414 841c0 -56 -44 -99 -103 -99c-56 0 -101 43 -101 99s45 99 101 99c59 0 103 -43 103 -99z" />
    <glyph glyph-name="Eth" unicode="&#xd0;" horiz-adv-x="804" 
d="M766 360c0 -237 -138 -360 -393 -360h-297v272h-49v175h49v268h296c259 0 394 -115 394 -348v-7zM364 203c89 0 124 40 124 151v8c0 121 -40 150 -126 150h-25v-65h75v-175h-75v-69h27z" />
    <glyph glyph-name="Ntilde" unicode="&#xd1;" horiz-adv-x="805" 
d="M746 0h-253l-198 390v-390h-237v715h297l155 -332v332h236v-715zM631 922c-8 -123 -71 -172 -136 -172c-64 0 -93 29 -125 29c-15 0 -24 -11 -27 -26h-123c5 123 65 172 133 172c59 0 93 -29 128 -29c17 0 24 10 27 26h123z" />
    <glyph glyph-name="Ograve" unicode="&#xd2;" horiz-adv-x="823" 
d="M526 362c0 111 -48 157 -116 157s-113 -48 -113 -157v-8c0 -108 41 -160 114 -160c72 0 115 56 115 160v8zM804 360c0 -229 -157 -374 -400 -374c-240 0 -385 145 -385 367v8c0 226 175 365 391 365c221 0 394 -125 394 -358v-8zM507 753h-173l-101 155h229z" />
    <glyph glyph-name="Oacute" unicode="&#xd3;" horiz-adv-x="823" 
d="M526 362c0 111 -48 157 -116 157s-113 -48 -113 -157v-8c0 -108 41 -160 114 -160c72 0 115 56 115 160v8zM804 360c0 -229 -157 -374 -400 -374c-240 0 -385 145 -385 367v8c0 226 175 365 391 365c221 0 394 -125 394 -358v-8zM488 753h-173l49 155h229z" />
    <glyph glyph-name="Ocircumflex" unicode="&#xd4;" horiz-adv-x="823" 
d="M526 362c0 111 -48 157 -116 157s-113 -48 -113 -157v-8c0 -108 41 -160 114 -160c72 0 115 56 115 160v8zM804 360c0 -229 -157 -374 -400 -374c-240 0 -385 145 -385 367v8c0 226 175 365 391 365c221 0 394 -125 394 -358v-8zM619 753h-165l-45 44l-45 -44h-162
l117 155h189z" />
    <glyph glyph-name="Otilde" unicode="&#xd5;" horiz-adv-x="823" 
d="M526 362c0 111 -48 157 -116 157s-113 -48 -113 -157v-8c0 -108 41 -160 114 -160c72 0 115 56 115 160v8zM804 360c0 -229 -157 -374 -400 -374c-240 0 -385 145 -385 367v8c0 226 175 365 391 365c221 0 394 -125 394 -358v-8zM617 922c-8 -123 -71 -172 -136 -172
c-64 0 -93 29 -125 29c-15 0 -24 -11 -27 -26h-123c5 123 65 172 133 172c59 0 93 -29 128 -29c17 0 24 10 27 26h123z" />
    <glyph glyph-name="Odieresis" unicode="&#xd6;" horiz-adv-x="823" 
d="M526 362c0 111 -48 157 -116 157s-113 -48 -113 -157v-8c0 -108 41 -160 114 -160c72 0 115 56 115 160v8zM804 360c0 -229 -157 -374 -400 -374c-240 0 -385 145 -385 367v8c0 226 175 365 391 365c221 0 394 -125 394 -358v-8zM389 802c-16 -36 -52 -60 -95 -60
c-57 0 -102 43 -102 99s45 99 102 99s103 -43 103 -99c0 -14 -3 -27 -8 -39zM630 841c0 -56 -44 -99 -103 -99c-56 0 -101 43 -101 99s45 99 101 99c59 0 103 -43 103 -99z" />
    <glyph glyph-name="multiply" unicode="&#xd7;" horiz-adv-x="623" 
d="M585 184l-120 -120l-154 156l-151 -151l-118 118l151 151l-155 154l119 120l154 -156l152 151l118 -118l-152 -151z" />
    <glyph glyph-name="Oslash" unicode="&#xd8;" horiz-adv-x="823" 
d="M804 360c0 -229 -157 -374 -400 -374c-96 0 -173 22 -236 62l-77 -82l-54 52l74 78c-61 65 -92 151 -92 257v8c0 226 175 365 391 365c91 0 170 -20 237 -61l72 77l54 -52l-67 -71c61 -60 98 -143 98 -251v-8zM529 362c0 25 -2 45 -7 62l-189 -201c19 -19 45 -29 78 -29
c72 0 118 56 118 160v8zM484 493c-21 17 -45 26 -74 26c-69 0 -117 -48 -117 -157v-8c0 -23 1 -42 5 -59z" />
    <glyph glyph-name="Ugrave" unicode="&#xd9;" horiz-adv-x="799" 
d="M745 304c0 -226 -139 -318 -344 -318c-221 0 -347 106 -347 319v410h266v-402c0 -76 9 -119 81 -119c70 0 76 46 76 117v404h268v-411zM493 753h-173l-101 155h229z" />
    <glyph glyph-name="Uacute" unicode="&#xda;" horiz-adv-x="799" 
d="M745 304c0 -226 -139 -318 -344 -318c-221 0 -347 106 -347 319v410h266v-402c0 -76 9 -119 81 -119c70 0 76 46 76 117v404h268v-411zM474 753h-173l49 155h229z" />
    <glyph glyph-name="Ucircumflex" unicode="&#xdb;" horiz-adv-x="799" 
d="M745 304c0 -226 -139 -318 -344 -318c-221 0 -347 106 -347 319v410h266v-402c0 -76 9 -119 81 -119c70 0 76 46 76 117v404h268v-411zM605 753h-165l-45 44l-45 -44h-162l117 155h189z" />
    <glyph glyph-name="Udieresis" unicode="&#xdc;" horiz-adv-x="799" 
d="M745 304c0 -226 -139 -318 -344 -318c-221 0 -347 106 -347 319v410h266v-402c0 -76 9 -119 81 -119c70 0 76 46 76 117v404h268v-411zM375 802c-16 -36 -52 -60 -95 -60c-57 0 -102 43 -102 99s45 99 102 99s103 -43 103 -99c0 -14 -3 -27 -8 -39zM616 841
c0 -56 -44 -99 -103 -99c-56 0 -101 43 -101 99s45 99 101 99c59 0 103 -43 103 -99z" />
    <glyph glyph-name="Yacute" unicode="&#xdd;" horiz-adv-x="718" 
d="M498 0h-268v303l-230 412h288l87 -194l90 194h253l-220 -411v-304zM446 753h-173l49 155h229z" />
    <glyph glyph-name="Thorn" unicode="&#xde;" horiz-adv-x="688" 
d="M323 0h-265v715h265v-109h43c227 0 306 -85 306 -242v-4c0 -148 -94 -240 -293 -240h-56v-120zM421 363c0 39 -24 59 -71 59h-27v-126h26c48 0 72 21 72 63v4z" />
    <glyph glyph-name="germandbls" unicode="&#xdf;" horiz-adv-x="659" 
d="M646 240c0 -160 -96 -250 -242 -250c-45 0 -75 4 -98 8v168c9 -3 18 -4 30 -4c44 0 78 25 78 98v5c0 99 -49 108 -110 105v145c44 1 68 27 68 56v2c0 31 -16 52 -51 52s-55 -25 -55 -72v-553h-229v533c0 178 136 236 300 236c156 0 251 -58 251 -185v-2
c0 -71 -54 -115 -118 -132c89 -19 176 -75 176 -203v-7z" />
    <glyph glyph-name="agrave" unicode="&#xe0;" horiz-adv-x="598" 
d="M564 0h-220v59c-19 -32 -63 -73 -151 -73c-93 0 -178 46 -178 159c0 124 91 171 286 171h37v3c0 33 -2 65 -47 65c-37 0 -43 -29 -46 -45h-212c7 129 108 200 272 200c171 0 259 -66 259 -203v-336zM338 200h-35c-54 0 -63 -10 -63 -35c0 -19 14 -29 42 -29
c33 0 56 20 56 47v17zM388 568h-163l-105 175h219z" />
    <glyph glyph-name="aacute" unicode="&#xe1;" horiz-adv-x="598" 
d="M564 0h-220v59c-19 -32 -63 -73 -151 -73c-93 0 -178 46 -178 159c0 124 91 171 286 171h37v3c0 33 -2 65 -47 65c-37 0 -43 -29 -46 -45h-212c7 129 108 200 272 200c171 0 259 -66 259 -203v-336zM338 200h-35c-54 0 -63 -10 -63 -35c0 -19 14 -29 42 -29
c33 0 56 20 56 47v17zM379 568h-163l49 175h219z" />
    <glyph glyph-name="acircumflex" unicode="&#xe2;" horiz-adv-x="598" 
d="M564 0h-220v59c-19 -32 -63 -73 -151 -73c-93 0 -178 46 -178 159c0 124 91 171 286 171h37v3c0 33 -2 65 -47 65c-37 0 -43 -29 -46 -45h-212c7 129 108 200 272 200c171 0 259 -66 259 -203v-336zM338 200h-35c-54 0 -63 -10 -63 -35c0 -19 14 -29 42 -29
c33 0 56 20 56 47v17zM506 571h-158l-48 46l-48 -46h-155l130 172h155z" />
    <glyph glyph-name="atilde" unicode="&#xe3;" horiz-adv-x="598" 
d="M564 0h-220v59c-19 -32 -63 -73 -151 -73c-93 0 -178 46 -178 159c0 124 91 171 286 171h37v3c0 33 -2 65 -47 65c-37 0 -43 -29 -46 -45h-212c7 129 108 200 272 200c171 0 259 -66 259 -203v-336zM338 200h-35c-54 0 -63 -10 -63 -35c0 -19 14 -29 42 -29
c33 0 56 20 56 47v17zM498 746c-8 -122 -62 -176 -127 -176c-64 0 -89 29 -121 29c-15 0 -24 -11 -27 -26h-116c7 123 55 176 123 176c59 0 90 -29 125 -29c17 0 24 10 27 26h116z" />
    <glyph glyph-name="adieresis" unicode="&#xe4;" horiz-adv-x="598" 
d="M564 0h-220v59c-19 -32 -63 -73 -151 -73c-93 0 -178 46 -178 159c0 124 91 171 286 171h37v3c0 33 -2 65 -47 65c-37 0 -43 -29 -46 -45h-212c7 129 108 200 272 200c171 0 259 -66 259 -203v-336zM338 200h-35c-54 0 -63 -10 -63 -35c0 -19 14 -29 42 -29
c33 0 56 20 56 47v17zM284 612c-16 -36 -52 -60 -95 -60c-57 0 -102 43 -102 99s45 99 102 99s103 -43 103 -99c0 -14 -3 -27 -8 -39zM517 651c0 -56 -44 -99 -103 -99c-56 0 -101 43 -101 99s45 99 101 99c59 0 103 -43 103 -99z" />
    <glyph glyph-name="aring" unicode="&#xe5;" horiz-adv-x="598" 
d="M564 0h-220v59c-19 -32 -63 -73 -151 -73c-93 0 -178 46 -178 159c0 124 91 171 286 171h37v3c0 33 -2 65 -47 65c-37 0 -43 -29 -46 -45h-212c7 129 108 200 272 200c171 0 259 -66 259 -203v-336zM338 200h-35c-54 0 -63 -10 -63 -35c0 -19 14 -29 42 -29
c33 0 56 20 56 47v17zM302 641c25 0 42 19 42 46s-17 46 -42 46s-42 -19 -42 -46s17 -46 42 -46zM416 640c-20 -42 -62 -73 -114 -73c-68 0 -124 54 -124 120s56 120 124 120s124 -54 124 -120c0 -17 -3 -32 -10 -47z" />
    <glyph glyph-name="ae" unicode="&#xe6;" horiz-adv-x="922" 
d="M908 184c-15 -125 -105 -198 -285 -198c-93 0 -163 27 -208 82c-39 -49 -95 -82 -199 -82c-111 0 -204 46 -204 159c0 124 91 173 286 173h40v2c0 35 -5 64 -49 64c-37 0 -44 -22 -47 -45h-212c7 129 109 200 273 200c76 0 128 -17 160 -49c45 33 99 49 162 49
c154 0 281 -86 281 -275v-49h-351c7 -52 33 -77 76 -77c48 0 61 25 66 46h211zM687 318c-1 47 -18 78 -62 78c-39 0 -65 -25 -69 -78h131zM338 211h-38c-48 0 -63 -13 -63 -41c0 -23 17 -34 44 -34c39 0 57 20 57 47v28z" />
    <glyph glyph-name="ccedilla" unicode="&#xe7;" horiz-adv-x="590" 
d="M238 -135c3 -12 11 -23 32 -23c19 0 28 11 28 27s-9 29 -32 29c-17 0 -27 -6 -34 -13l-42 44l44 63c-128 19 -219 106 -219 262v8c0 182 130 277 292 277c137 0 263 -59 271 -231h-213c-5 31 -11 56 -52 56c-47 0 -65 -29 -65 -98v-8c0 -72 16 -108 68 -108
c36 0 56 22 60 65h205c-3 -139 -89 -225 -270 -229l-20 -27c64 5 119 -21 119 -89c0 -64 -48 -102 -131 -102c-80 0 -130 33 -141 97h100z" />
    <glyph glyph-name="egrave" unicode="&#xe8;" horiz-adv-x="615" 
d="M601 184c-15 -125 -106 -198 -286 -198c-172 0 -300 93 -300 268v8c0 173 137 277 302 277c154 0 282 -86 282 -275v-49h-354c7 -52 35 -77 78 -77c48 0 62 25 67 46h211zM380 321c-1 43 -19 75 -63 75c-39 0 -64 -24 -71 -75h134zM397 568h-163l-105 175h219z" />
    <glyph glyph-name="eacute" unicode="&#xe9;" horiz-adv-x="615" 
d="M601 184c-15 -125 -106 -198 -286 -198c-172 0 -300 93 -300 268v8c0 173 137 277 302 277c154 0 282 -86 282 -275v-49h-354c7 -52 35 -77 78 -77c48 0 62 25 67 46h211zM380 321c-1 43 -19 75 -63 75c-39 0 -64 -24 -71 -75h134zM388 568h-163l49 175h219z" />
    <glyph glyph-name="ecircumflex" unicode="&#xea;" horiz-adv-x="615" 
d="M601 184c-15 -125 -106 -198 -286 -198c-172 0 -300 93 -300 268v8c0 173 137 277 302 277c154 0 282 -86 282 -275v-49h-354c7 -52 35 -77 78 -77c48 0 62 25 67 46h211zM380 321c-1 43 -19 75 -63 75c-39 0 -64 -24 -71 -75h134zM515 571h-158l-48 46l-48 -46h-155
l130 172h155z" />
    <glyph glyph-name="edieresis" unicode="&#xeb;" horiz-adv-x="615" 
d="M601 184c-15 -125 -106 -198 -286 -198c-172 0 -300 93 -300 268v8c0 173 137 277 302 277c154 0 282 -86 282 -275v-49h-354c7 -52 35 -77 78 -77c48 0 62 25 67 46h211zM380 321c-1 43 -19 75 -63 75c-39 0 -64 -24 -71 -75h134zM293 612c-16 -36 -52 -60 -95 -60
c-57 0 -102 43 -102 99s45 99 102 99s103 -43 103 -99c0 -14 -3 -27 -8 -39zM526 651c0 -56 -44 -99 -103 -99c-56 0 -101 43 -101 99s45 99 101 99c59 0 103 -43 103 -99z" />
    <glyph glyph-name="igrave" unicode="&#xec;" horiz-adv-x="316" 
d="M272 0h-228v523h228v-523zM244 568h-163l-105 175h219z" />
    <glyph glyph-name="iacute" unicode="&#xed;" horiz-adv-x="316" 
d="M272 0h-228v523h228v-523zM235 568h-163l49 175h219z" />
    <glyph glyph-name="icircumflex" unicode="&#xee;" horiz-adv-x="316" 
d="M272 0h-228v523h228v-523zM362 571h-158l-48 46l-48 -46h-155l130 172h155z" />
    <glyph glyph-name="idieresis" unicode="&#xef;" horiz-adv-x="316" 
d="M140 612c-16 -36 -52 -60 -95 -60c-57 0 -102 43 -102 99s45 99 102 99s103 -43 103 -99c0 -14 -3 -27 -8 -39zM373 651c0 -56 -44 -99 -103 -99c-56 0 -101 43 -101 99s45 99 101 99c59 0 103 -43 103 -99zM272 0h-228v523h228v-523z" />
    <glyph glyph-name="eth" unicode="&#xf0;" horiz-adv-x="635" 
d="M617 282c0 -184 -119 -296 -306 -296c-167 0 -296 95 -296 280v13c0 172 124 249 224 249c51 0 74 -16 101 -41c-23 39 -56 76 -95 113l-153 -44l-20 61l115 33c-44 36 -89 68 -126 93h266c19 -11 37 -21 56 -36l119 35l20 -62l-75 -22c90 -77 170 -194 170 -354v-22z
M385 267c0 72 -19 105 -68 105c-47 0 -70 -30 -70 -102v-8c0 -76 19 -110 70 -110c48 0 68 35 68 107v8z" />
    <glyph glyph-name="ntilde" unicode="&#xf1;" horiz-adv-x="638" 
d="M604 0h-229v292c0 43 -14 65 -50 65c-41 0 -59 -23 -59 -76v-281h-229v523h229v-84c31 56 86 100 174 100c97 0 164 -64 164 -189v-350zM517 746c-8 -122 -62 -176 -127 -176c-64 0 -89 29 -121 29c-15 0 -24 -11 -27 -26h-116c7 123 55 176 123 176c59 0 90 -29 125 -29
c17 0 24 10 27 26h116z" />
    <glyph glyph-name="ograve" unicode="&#xf2;" horiz-adv-x="632" 
d="M385 267c0 72 -19 105 -68 105c-47 0 -70 -30 -70 -102v-8c0 -76 19 -110 70 -110c48 0 68 35 68 107v8zM617 261c0 -176 -134 -275 -301 -275s-301 91 -301 268v8c0 173 133 277 302 277c167 0 300 -98 300 -270v-8zM402 568h-163l-105 175h219z" />
    <glyph glyph-name="oacute" unicode="&#xf3;" horiz-adv-x="632" 
d="M385 267c0 72 -19 105 -68 105c-47 0 -70 -30 -70 -102v-8c0 -76 19 -110 70 -110c48 0 68 35 68 107v8zM617 261c0 -176 -134 -275 -301 -275s-301 91 -301 268v8c0 173 133 277 302 277c167 0 300 -98 300 -270v-8zM393 568h-163l49 175h219z" />
    <glyph glyph-name="ocircumflex" unicode="&#xf4;" horiz-adv-x="632" 
d="M385 267c0 72 -19 105 -68 105c-47 0 -70 -30 -70 -102v-8c0 -76 19 -110 70 -110c48 0 68 35 68 107v8zM617 261c0 -176 -134 -275 -301 -275s-301 91 -301 268v8c0 173 133 277 302 277c167 0 300 -98 300 -270v-8zM520 571h-158l-48 46l-48 -46h-155l130 172h155z" />
    <glyph glyph-name="otilde" unicode="&#xf5;" horiz-adv-x="632" 
d="M385 267c0 72 -19 105 -68 105c-47 0 -70 -30 -70 -102v-8c0 -76 19 -110 70 -110c48 0 68 35 68 107v8zM617 261c0 -176 -134 -275 -301 -275s-301 91 -301 268v8c0 173 133 277 302 277c167 0 300 -98 300 -270v-8zM512 746c-8 -122 -62 -176 -127 -176
c-64 0 -89 29 -121 29c-15 0 -24 -11 -27 -26h-116c7 123 55 176 123 176c59 0 90 -29 125 -29c17 0 24 10 27 26h116z" />
    <glyph glyph-name="odieresis" unicode="&#xf6;" horiz-adv-x="632" 
d="M385 267c0 72 -19 105 -68 105c-47 0 -70 -30 -70 -102v-8c0 -76 19 -110 70 -110c48 0 68 35 68 107v8zM617 261c0 -176 -134 -275 -301 -275s-301 91 -301 268v8c0 173 133 277 302 277c167 0 300 -98 300 -270v-8zM298 612c-16 -36 -52 -60 -95 -60
c-57 0 -102 43 -102 99s45 99 102 99s103 -43 103 -99c0 -14 -3 -27 -8 -39zM531 651c0 -56 -44 -99 -103 -99c-56 0 -101 43 -101 99s45 99 101 99c59 0 103 -43 103 -99z" />
    <glyph glyph-name="divide" unicode="&#xf7;" 
d="M401 83c-16 -37 -55 -64 -101 -64c-61 0 -110 47 -110 107c0 59 49 107 110 107s110 -48 110 -107c0 -15 -3 -30 -9 -43zM562 263h-524v152h524v-152zM401 510c-16 -37 -55 -65 -101 -65c-61 0 -110 48 -110 107c0 60 49 107 110 107s110 -47 110 -107
c0 -15 -3 -29 -9 -42z" />
    <glyph glyph-name="oslash" unicode="&#xf8;" horiz-adv-x="632" 
d="M617 261c0 -176 -134 -275 -301 -275c-68 0 -127 14 -178 43l-66 -69l-47 44l61 65c-45 44 -71 105 -71 185v8c0 173 133 277 302 277c65 0 123 -14 173 -43l67 71l47 -44l-62 -66c47 -47 75 -108 75 -188v-8zM388 267c0 9 -1 18 -1 26l-118 -125c11 -11 27 -17 48 -17
c51 0 71 35 71 108v8zM361 359c-11 9 -26 14 -44 14c-49 0 -73 -31 -73 -103v-8c0 -9 0 -17 1 -25z" />
    <glyph glyph-name="ugrave" unicode="&#xf9;" horiz-adv-x="638" 
d="M601 0h-229v80c-31 -57 -77 -94 -166 -94c-99 0 -173 65 -173 191v346h229v-304c0 -43 17 -65 50 -65c43 0 60 23 60 76v293h229v-523zM403 568h-163l-105 175h219z" />
    <glyph glyph-name="uacute" unicode="&#xfa;" horiz-adv-x="638" 
d="M601 0h-229v80c-31 -57 -77 -94 -166 -94c-99 0 -173 65 -173 191v346h229v-304c0 -43 17 -65 50 -65c43 0 60 23 60 76v293h229v-523zM394 568h-163l49 175h219z" />
    <glyph glyph-name="ucircumflex" unicode="&#xfb;" horiz-adv-x="638" 
d="M601 0h-229v80c-31 -57 -77 -94 -166 -94c-99 0 -173 65 -173 191v346h229v-304c0 -43 17 -65 50 -65c43 0 60 23 60 76v293h229v-523zM521 571h-158l-48 46l-48 -46h-155l130 172h155z" />
    <glyph glyph-name="udieresis" unicode="&#xfc;" horiz-adv-x="638" 
d="M601 0h-229v80c-31 -57 -77 -94 -166 -94c-99 0 -173 65 -173 191v346h229v-304c0 -43 17 -65 50 -65c43 0 60 23 60 76v293h229v-523zM299 612c-16 -36 -52 -60 -95 -60c-57 0 -102 43 -102 99s45 99 102 99s103 -43 103 -99c0 -14 -3 -27 -8 -39zM532 651
c0 -56 -44 -99 -103 -99c-56 0 -101 43 -101 99s45 99 101 99c59 0 103 -43 103 -99z" />
    <glyph glyph-name="yacute" unicode="&#xfd;" horiz-adv-x="620" 
d="M345 -172h-216l81 224l-211 471h248l82 -229l77 229h215zM399 568h-163l49 175h219z" />
    <glyph glyph-name="thorn" unicode="&#xfe;" horiz-adv-x="651" 
d="M266 -172h-229v915h229v-293c29 49 75 89 155 89c114 0 213 -87 213 -275v-8c0 -189 -102 -270 -215 -270c-75 0 -129 35 -153 86v-244zM402 267c0 69 -24 104 -73 104c-48 0 -69 -39 -69 -103v-8c0 -67 23 -101 69 -101c49 0 73 33 73 100v8z" />
    <glyph glyph-name="ydieresis" unicode="&#xff;" horiz-adv-x="620" 
d="M345 -172h-216l81 224l-211 471h248l82 -229l77 229h215zM304 612c-16 -36 -52 -60 -95 -60c-57 0 -102 43 -102 99s45 99 102 99s103 -43 103 -99c0 -14 -3 -27 -8 -39zM537 651c0 -56 -44 -99 -103 -99c-56 0 -101 43 -101 99s45 99 101 99c59 0 103 -43 103 -99z" />
    <glyph glyph-name="Amacron" unicode="&#x100;" horiz-adv-x="784" 
d="M783 0h-284l-24 95h-202l-24 -95h-248l220 715h343zM431 273l-56 228l-58 -228h114zM565 764h-351v129h351v-129z" />
    <glyph glyph-name="amacron" unicode="&#x101;" horiz-adv-x="598" 
d="M564 0h-220v59c-19 -32 -63 -73 -151 -73c-93 0 -178 46 -178 159c0 124 91 171 286 171h37v3c0 33 -2 65 -47 65c-37 0 -43 -29 -46 -45h-212c7 129 108 200 272 200c171 0 259 -66 259 -203v-336zM338 200h-35c-54 0 -63 -10 -63 -35c0 -19 14 -29 42 -29
c33 0 56 20 56 47v17zM467 593h-331v119h331v-119z" />
    <glyph glyph-name="Abreve" unicode="&#x102;" horiz-adv-x="784" 
d="M783 0h-284l-24 95h-202l-24 -95h-248l220 715h343zM431 273l-56 228l-58 -228h114zM572 908c-9 -105 -74 -164 -182 -164c-113 0 -175 59 -182 164h141c1 -23 17 -36 41 -36c23 0 38 15 41 36h141z" />
    <glyph glyph-name="abreve" unicode="&#x103;" horiz-adv-x="598" 
d="M564 0h-220v59c-19 -32 -63 -73 -151 -73c-93 0 -178 46 -178 159c0 124 91 171 286 171h37v3c0 33 -2 65 -47 65c-37 0 -43 -29 -46 -45h-212c7 129 108 200 272 200c171 0 259 -66 259 -203v-336zM338 200h-35c-54 0 -63 -10 -63 -35c0 -19 14 -29 42 -29
c33 0 56 20 56 47v17zM481 742c-7 -115 -75 -172 -179 -172c-108 0 -174 57 -179 172h134c1 -27 16 -40 45 -40c27 0 44 16 45 40h134z" />
    <glyph glyph-name="Aogonek" unicode="&#x104;" horiz-adv-x="784" 
d="M663 -182c-85 0 -134 33 -134 82c0 51 48 78 89 100h-119l-24 95h-202l-24 -95h-248l220 715h343l213 -696c-33 -19 -54 -49 -54 -65c0 -14 8 -21 25 -21c9 0 13 1 18 2v-99c-19 -9 -54 -18 -103 -18zM317 273h114l-56 228z" />
    <glyph glyph-name="aogonek" unicode="&#x105;" horiz-adv-x="598" 
d="M462 -182c-76 0 -123 31 -123 82c0 55 48 79 90 100h-85v59c-19 -32 -63 -73 -151 -73c-93 0 -178 46 -178 159c0 124 91 171 286 171h37v3c0 33 -2 65 -47 65c-37 0 -43 -29 -46 -45h-212c7 129 108 200 272 200c168 0 259 -67 259 -203v-321c-35 -29 -45 -49 -45 -66
c0 -16 11 -24 27 -24c9 0 13 1 18 2v-91c-19 -9 -50 -18 -102 -18zM282 136c33 0 56 20 56 47v17h-35c-54 0 -63 -10 -63 -35c0 -19 15 -29 42 -29z" />
    <glyph glyph-name="Cacute" unicode="&#x106;" horiz-adv-x="774" 
d="M763 285c-8 -195 -152 -299 -350 -299c-272 0 -393 148 -393 367v8c0 224 164 365 380 365c206 0 335 -91 354 -296h-276c-3 55 -30 86 -77 86c-64 0 -100 -50 -100 -154v-8c0 -101 36 -155 105 -155c49 0 84 26 91 86h266zM474 753h-173l49 155h229z" />
    <glyph glyph-name="cacute" unicode="&#x107;" horiz-adv-x="590" 
d="M581 215c-3 -141 -92 -229 -281 -229c-161 0 -285 84 -285 268v8c0 182 130 277 292 277c137 0 263 -59 271 -231h-213c-5 31 -11 56 -52 56c-47 0 -65 -29 -65 -98v-8c0 -72 16 -108 68 -108c36 0 56 22 60 65h205zM377 568h-163l49 175h219z" />
    <glyph glyph-name="Ccircumflex" unicode="&#x108;" horiz-adv-x="774" 
d="M763 285c-8 -195 -152 -299 -350 -299c-272 0 -393 148 -393 367v8c0 224 164 365 380 365c206 0 335 -91 354 -296h-276c-3 55 -30 86 -77 86c-64 0 -100 -50 -100 -154v-8c0 -101 36 -155 105 -155c49 0 84 26 91 86h266zM605 753h-165l-45 44l-45 -44h-162l117 155
h189z" />
    <glyph glyph-name="ccircumflex" unicode="&#x109;" horiz-adv-x="590" 
d="M581 215c-3 -141 -92 -229 -281 -229c-161 0 -285 84 -285 268v8c0 182 130 277 292 277c137 0 263 -59 271 -231h-213c-5 31 -11 56 -52 56c-47 0 -65 -29 -65 -98v-8c0 -72 16 -108 68 -108c36 0 56 22 60 65h205zM505 571h-158l-48 46l-48 -46h-155l130 172h155z" />
    <glyph glyph-name="Cdotaccent" unicode="&#x10a;" horiz-adv-x="774" 
d="M763 285c-8 -195 -152 -299 -350 -299c-272 0 -393 148 -393 367v8c0 224 164 365 380 365c206 0 335 -91 354 -296h-276c-3 55 -30 86 -77 86c-64 0 -100 -50 -100 -154v-8c0 -101 36 -155 105 -155c49 0 84 26 91 86h266zM513 849c0 -63 -48 -107 -115 -107
c-68 0 -116 44 -116 107s48 107 116 107c67 0 115 -44 115 -107z" />
    <glyph glyph-name="cdotaccent" unicode="&#x10b;" horiz-adv-x="590" 
d="M581 215c-3 -141 -92 -229 -281 -229c-161 0 -285 84 -285 268v8c0 182 130 277 292 277c137 0 263 -59 271 -231h-213c-5 31 -11 56 -52 56c-47 0 -65 -29 -65 -98v-8c0 -72 16 -108 68 -108c36 0 56 22 60 65h205zM421 659c0 -63 -49 -107 -116 -107
c-68 0 -117 44 -117 107s49 107 117 107c67 0 116 -44 116 -107z" />
    <glyph glyph-name="Ccaron" unicode="&#x10c;" horiz-adv-x="774" 
d="M763 285c-8 -195 -152 -299 -350 -299c-272 0 -393 148 -393 367v8c0 224 164 365 380 365c206 0 335 -91 354 -296h-276c-3 55 -30 86 -77 86c-64 0 -100 -50 -100 -154v-8c0 -101 36 -155 105 -155c49 0 84 26 91 86h266zM487 753h-189l-111 155h165l45 -44l45 44h162z
" />
    <glyph glyph-name="ccaron" unicode="&#x10d;" horiz-adv-x="590" 
d="M581 215c-3 -141 -92 -229 -281 -229c-161 0 -285 84 -285 268v8c0 182 130 277 292 277c137 0 263 -59 271 -231h-213c-5 31 -11 56 -52 56c-47 0 -65 -29 -65 -98v-8c0 -72 16 -108 68 -108c36 0 56 22 60 65h205zM375 571h-155l-124 172h158l48 -46l48 46h155z" />
    <glyph glyph-name="Dcaron" unicode="&#x10e;" horiz-adv-x="767" 
d="M346 203c89 0 124 40 124 151v8c0 121 -40 150 -126 150h-19v-309h21zM748 360c0 -239 -137 -360 -393 -360h-297v715h296c260 0 394 -113 394 -348v-7zM438 753h-189l-111 155h165l45 -44l45 44h162z" />
    <glyph glyph-name="dcaron" unicode="&#x10f;" horiz-adv-x="650" 
d="M613 0h-229v82c-24 -56 -74 -96 -154 -96c-113 0 -213 83 -213 272v8c0 188 98 273 211 273c80 0 127 -30 156 -85v289h229v-743zM390 268c0 64 -23 103 -70 103c-48 0 -71 -31 -71 -103v-8c0 -67 21 -101 72 -101c48 0 69 34 69 101v8zM754 569h-110l7 174h153z" />
    <glyph glyph-name="Dcroat" unicode="&#x110;" horiz-adv-x="804" 
d="M27 447h49v268h296c259 0 394 -115 394 -348v-7c0 -237 -138 -360 -393 -360h-297v272h-49v175zM364 203c89 0 124 40 124 151v8c0 121 -40 150 -126 150h-25v-65h75v-175h-75v-69h27z" />
    <glyph glyph-name="dcroat" unicode="&#x111;" horiz-adv-x="650" 
d="M241 686h143v57h229v-57h47v-114h-47v-572h-229v82c-24 -56 -74 -96 -154 -96c-113 0 -213 83 -213 272v8c0 188 98 273 211 273c80 0 127 -30 156 -85v118h-143v114zM321 159c48 0 69 34 69 101v8c0 64 -23 103 -70 103c-48 0 -71 -31 -71 -103v-8
c0 -67 21 -101 72 -101z" />
    <glyph glyph-name="Emacron" unicode="&#x112;" horiz-adv-x="635" 
d="M607 0h-549v715h534v-203h-269v-61h212v-184h-212v-64h284v-203zM508 764h-351v129h351v-129z" />
    <glyph glyph-name="emacron" unicode="&#x113;" horiz-adv-x="614" 
d="M601 184c-15 -125 -106 -198 -286 -198c-172 0 -300 93 -300 268v8c0 173 137 277 302 277c154 0 282 -86 282 -275v-49h-354c7 -52 35 -77 78 -77c48 0 62 25 67 46h211zM380 321c-1 43 -19 75 -63 75c-39 0 -64 -24 -71 -75h134zM476 593h-331v119h331v-119z" />
    <glyph glyph-name="Ebreve" unicode="&#x114;" horiz-adv-x="635" 
d="M607 0h-549v715h534v-203h-269v-61h212v-184h-212v-64h284v-203zM511 908c-9 -105 -74 -164 -182 -164c-113 0 -175 59 -182 164h141c1 -23 17 -36 41 -36c23 0 38 15 41 36h141z" />
    <glyph glyph-name="ebreve" unicode="&#x115;" horiz-adv-x="614" 
d="M601 184c-15 -125 -106 -198 -286 -198c-172 0 -300 93 -300 268v8c0 173 137 277 302 277c154 0 282 -86 282 -275v-49h-354c7 -52 35 -77 78 -77c48 0 62 25 67 46h211zM380 321c-1 43 -19 75 -63 75c-39 0 -64 -24 -71 -75h134zM486 742c-7 -115 -75 -172 -179 -172
c-108 0 -174 57 -179 172h134c1 -27 16 -40 45 -40c27 0 44 16 45 40h134z" />
    <glyph glyph-name="Edotaccent" unicode="&#x116;" horiz-adv-x="635" 
d="M607 0h-549v715h534v-203h-269v-61h212v-184h-212v-64h284v-203zM449 849c0 -63 -48 -107 -115 -107c-68 0 -116 44 -116 107s48 107 116 107c67 0 115 -44 115 -107z" />
    <glyph glyph-name="edotaccent" unicode="&#x117;" horiz-adv-x="614" 
d="M601 184c-15 -125 -106 -198 -286 -198c-172 0 -300 93 -300 268v8c0 173 137 277 302 277c154 0 282 -86 282 -275v-49h-354c7 -52 35 -77 78 -77c48 0 62 25 67 46h211zM380 321c-1 43 -19 75 -63 75c-39 0 -64 -24 -71 -75h134zM428 659c0 -63 -49 -107 -116 -107
c-68 0 -117 44 -117 107s49 107 117 107c67 0 116 -44 116 -107z" />
    <glyph glyph-name="Eogonek" unicode="&#x118;" horiz-adv-x="635" 
d="M474 -182c-83 0 -131 33 -131 82c0 51 48 78 89 100h-374v715h534v-203h-269v-61h212v-184h-212v-64h284v-203h-43c-19 -19 -27 -30 -27 -46c0 -14 8 -21 25 -21c9 0 13 1 18 2v-99c-19 -9 -54 -18 -106 -18z" />
    <glyph glyph-name="eogonek" unicode="&#x119;" horiz-adv-x="614" 
d="M414 -182c-76 0 -126 28 -126 79c0 42 48 69 89 94c-17 -3 -45 -5 -62 -5c-172 0 -300 93 -300 268v8c0 173 137 277 302 277c154 0 282 -86 282 -275v-49h-354c7 -52 35 -77 78 -77c48 0 62 25 67 46h211c-7 -60 -32 -101 -61 -132c-44 -47 -72 -72 -72 -103
c0 -16 11 -24 27 -24c9 0 13 1 18 2v-91c-19 -9 -43 -18 -99 -18zM380 321c-1 43 -19 75 -63 75c-39 0 -64 -24 -71 -75h134z" />
    <glyph glyph-name="Ecaron" unicode="&#x11a;" horiz-adv-x="635" 
d="M607 0h-549v715h534v-203h-269v-61h212v-184h-212v-64h284v-203zM423 753h-189l-111 155h165l45 -44l45 44h162z" />
    <glyph glyph-name="ecaron" unicode="&#x11b;" horiz-adv-x="614" 
d="M601 184c-15 -125 -106 -198 -286 -198c-172 0 -300 93 -300 268v8c0 173 137 277 302 277c154 0 282 -86 282 -275v-49h-354c7 -52 35 -77 78 -77c48 0 62 25 67 46h211zM380 321c-1 43 -19 75 -63 75c-39 0 -64 -24 -71 -75h134zM385 571h-155l-124 172h158l48 -46
l48 46h155z" />
    <glyph glyph-name="Gcircumflex" unicode="&#x11c;" horiz-adv-x="797" 
d="M779 307c0 -171 -115 -321 -371 -321c-254 0 -389 151 -389 367v8c0 221 170 365 389 365c181 0 347 -82 355 -282h-263c-4 43 -30 73 -91 73c-68 0 -113 -56 -113 -161v-8c0 -85 22 -161 122 -161c72 0 96 31 104 58h-100v162h357v-100zM616 753h-165l-45 44l-45 -44
h-162l117 155h189z" />
    <glyph glyph-name="gcircumflex" unicode="&#x11d;" horiz-adv-x="650" 
d="M613 48c0 -159 -102 -243 -311 -243c-189 0 -279 72 -292 207h226c5 -23 15 -53 67 -53c68 0 81 44 81 84v82c-24 -49 -74 -86 -154 -86c-115 0 -213 80 -213 244v8c0 161 98 248 211 248c80 0 127 -30 156 -85v69h229v-475zM390 289c0 48 -23 83 -70 83
c-48 0 -71 -31 -71 -84v-8c0 -51 21 -85 72 -85c48 0 69 35 69 86v8zM515 571h-158l-48 46l-48 -46h-155l130 172h155z" />
    <glyph glyph-name="Gbreve" unicode="&#x11e;" horiz-adv-x="797" 
d="M779 307c0 -171 -115 -321 -371 -321c-254 0 -389 151 -389 367v8c0 221 170 365 389 365c181 0 347 -82 355 -282h-263c-4 43 -30 73 -91 73c-68 0 -113 -56 -113 -161v-8c0 -85 22 -161 122 -161c72 0 96 31 104 58h-100v162h357v-100zM590 908
c-9 -105 -74 -164 -182 -164c-113 0 -175 59 -182 164h141c1 -23 17 -36 41 -36c23 0 38 15 41 36h141z" />
    <glyph glyph-name="gbreve" unicode="&#x11f;" horiz-adv-x="650" 
d="M613 48c0 -159 -102 -243 -311 -243c-189 0 -279 72 -292 207h226c5 -23 15 -53 67 -53c68 0 81 44 81 84v82c-24 -49 -74 -86 -154 -86c-115 0 -213 80 -213 244v8c0 161 98 248 211 248c80 0 127 -30 156 -85v69h229v-475zM390 289c0 48 -23 83 -70 83
c-48 0 -71 -31 -71 -84v-8c0 -51 21 -85 72 -85c48 0 69 35 69 86v8zM490 742c-7 -115 -75 -172 -179 -172c-108 0 -174 57 -179 172h134c1 -27 16 -40 45 -40c27 0 44 16 45 40h134z" />
    <glyph glyph-name="Gdotaccent" unicode="&#x120;" horiz-adv-x="797" 
d="M779 307c0 -171 -115 -321 -371 -321c-254 0 -389 151 -389 367v8c0 221 170 365 389 365c181 0 347 -82 355 -282h-263c-4 43 -30 73 -91 73c-68 0 -113 -56 -113 -161v-8c0 -85 22 -161 122 -161c72 0 96 31 104 58h-100v162h357v-100zM524 849
c0 -63 -48 -107 -115 -107c-68 0 -116 44 -116 107s48 107 116 107c67 0 115 -44 115 -107z" />
    <glyph glyph-name="gdotaccent" unicode="&#x121;" horiz-adv-x="650" 
d="M613 48c0 -159 -102 -243 -311 -243c-189 0 -279 72 -292 207h226c5 -23 15 -53 67 -53c68 0 81 44 81 84v82c-24 -49 -74 -86 -154 -86c-115 0 -213 80 -213 244v8c0 161 98 248 211 248c80 0 127 -30 156 -85v69h229v-475zM390 289c0 48 -23 83 -70 83
c-48 0 -71 -31 -71 -84v-8c0 -51 21 -85 72 -85c48 0 69 35 69 86v8zM428 659c0 -63 -49 -107 -116 -107c-68 0 -117 44 -117 107s49 107 117 107c67 0 116 -44 116 -107z" />
    <glyph glyph-name="uni0122" unicode="&#x122;" horiz-adv-x="797" 
d="M779 307c0 -171 -115 -321 -371 -321c-254 0 -389 151 -389 367v8c0 221 170 365 389 365c181 0 347 -82 355 -282h-263c-4 43 -30 73 -91 73c-68 0 -113 -56 -113 -161v-8c0 -85 22 -161 122 -161c72 0 96 31 104 58h-100v162h357v-100zM401 -236l-126 27l33 173h197z
" />
    <glyph glyph-name="uni0123" unicode="&#x123;" horiz-adv-x="650" 
d="M613 48c0 -159 -102 -243 -311 -243c-189 0 -279 72 -292 207h226c5 -23 15 -53 67 -53c68 0 81 44 81 84v82c-24 -49 -74 -86 -154 -86c-115 0 -213 80 -213 244v8c0 161 98 248 211 248c80 0 127 -30 156 -85v69h229v-475zM390 289c0 48 -23 83 -70 83
c-48 0 -71 -31 -71 -84v-8c0 -51 21 -85 72 -85c48 0 69 35 69 86v8zM420 562h-197l104 200l126 -27z" />
    <glyph glyph-name="Hcircumflex" unicode="&#x124;" horiz-adv-x="812" 
d="M754 0h-266v263h-163v-263h-267v715h267v-247h163v247h266v-715zM614 753h-165l-45 44l-45 -44h-162l117 155h189z" />
    <glyph glyph-name="hcircumflex" unicode="&#x125;" horiz-adv-x="638" 
d="M604 0h-229v292c0 43 -14 65 -50 65c-41 0 -59 -23 -59 -76v-281h-229v743h229v-304c31 56 86 100 174 100c97 0 164 -64 164 -189v-350zM524 771h-158l-48 46l-48 -46h-155l130 172h155z" />
    <glyph glyph-name="Hbar" unicode="&#x126;" horiz-adv-x="812" 
d="M3 646h55v69h267v-69h163v69h266v-69h55v-111h-55v-535h-266v263h-163v-263h-267v535h-55v111zM488 468v67h-163v-67h163z" />
    <glyph glyph-name="hbar" unicode="&#x127;" horiz-adv-x="638" 
d="M-10 686h47v57h229v-57h143v-114h-143v-133c31 56 86 100 174 100c97 0 164 -64 164 -189v-350h-229v292c0 43 -14 65 -50 65c-41 0 -59 -23 -59 -76v-281h-229v572h-47v114z" />
    <glyph glyph-name="Itilde" unicode="&#x128;" horiz-adv-x="391" 
d="M330 0h-269v715h269v-715zM401 922c-8 -123 -71 -172 -136 -172c-64 0 -93 29 -125 29c-15 0 -24 -11 -27 -26h-123c5 123 65 172 133 172c59 0 93 -29 128 -29c17 0 24 10 27 26h123z" />
    <glyph glyph-name="itilde" unicode="&#x129;" horiz-adv-x="316" 
d="M272 0h-228v523h228v-523zM354 746c-8 -122 -62 -176 -127 -176c-64 0 -89 29 -121 29c-15 0 -24 -11 -27 -26h-116c7 123 55 176 123 176c59 0 90 -29 125 -29c17 0 24 10 27 26h116z" />
    <glyph glyph-name="Imacron" unicode="&#x12a;" horiz-adv-x="391" 
d="M330 0h-269v715h269v-715zM370 764h-351v129h351v-129z" />
    <glyph glyph-name="imacron" unicode="&#x12b;" horiz-adv-x="316" 
d="M22 712h272v-119h-272v119zM44 523h228v-523h-228v523z" />
    <glyph glyph-name="Ibreve" unicode="&#x12c;" horiz-adv-x="391" 
d="M330 0h-269v715h269v-715zM377 908c-9 -105 -74 -164 -182 -164c-113 0 -175 59 -182 164h141c1 -23 17 -36 41 -36c23 0 38 15 41 36h141z" />
    <glyph glyph-name="ibreve" unicode="&#x12d;" horiz-adv-x="316" 
d="M272 0h-228v523h228v-523zM337 742c-7 -115 -75 -172 -179 -172c-108 0 -174 57 -179 172h134c1 -27 16 -40 45 -40c27 0 44 16 45 40h134z" />
    <glyph glyph-name="Iogonek" unicode="&#x12e;" horiz-adv-x="391" 
d="M226 -182c-84 0 -133 33 -133 82c0 51 48 78 89 100h-121v715h269v-699c-25 -21 -43 -43 -43 -62c0 -14 8 -21 25 -21c9 0 13 1 18 2v-99c-19 -9 -53 -18 -104 -18z" />
    <glyph glyph-name="iogonek" unicode="&#x12f;" horiz-adv-x="316" 
d="M172 -182c-76 0 -123 31 -123 82c0 55 48 79 90 100h-95v523h228v-511c-35 -28 -43 -46 -43 -63c0 -16 11 -24 27 -24c9 0 13 1 18 2v-91c-19 -9 -46 -18 -102 -18zM158 542c-71 0 -121 47 -121 112s50 112 121 112c69 0 121 -47 121 -112s-52 -112 -121 -112z" />
    <glyph glyph-name="Idotaccent" unicode="&#x130;" horiz-adv-x="391" 
d="M330 0h-269v715h269v-715zM311 849c0 -63 -48 -107 -115 -107c-68 0 -116 44 -116 107s48 107 116 107c67 0 115 -44 115 -107z" />
    <glyph glyph-name="dotlessi" unicode="&#x131;" horiz-adv-x="316" 
d="M272 0h-228v523h228v-523z" />
    <glyph glyph-name="IJ" unicode="&#x132;" horiz-adv-x="879" 
d="M330 0h-269v715h269v-715zM833 281c0 -187 -87 -290 -286 -290c-75 0 -111 10 -146 27v194c23 -7 44 -11 83 -11c48 0 82 17 82 80v434h267v-434z" />
    <glyph glyph-name="ij" unicode="&#x133;" horiz-adv-x="316" 
d="M272 0h-228v523h228v-523zM279 654c0 -65 -52 -112 -121 -112c-71 0 -121 47 -121 112s50 112 121 112c69 0 121 -47 121 -112zM587 23c0 -120 -58 -204 -285 -204v161c37 3 57 13 57 52v491h228v-500zM595 654c0 -65 -52 -112 -121 -112c-71 0 -121 47 -121 112
s50 112 121 112c69 0 121 -47 121 -112z" />
    <glyph glyph-name="Jcircumflex" unicode="&#x134;" horiz-adv-x="508" 
d="M462 281c0 -187 -87 -290 -286 -290c-75 0 -111 10 -146 27v194c23 -7 44 -11 83 -11c48 0 82 17 82 80v434h267v-434zM536 753h-165l-45 44l-45 -44h-162l117 155h189z" />
    <glyph glyph-name="jcircumflex" unicode="&#x135;" horiz-adv-x="316" 
d="M-14 -20c37 3 57 13 57 52v491h228v-500c0 -120 -58 -204 -285 -204v161zM361 571h-158l-48 46l-48 -46h-155l130 172h155z" />
    <glyph glyph-name="uni0136" unicode="&#x136;" horiz-adv-x="782" 
d="M778 0h-305l-148 257v-257h-267v715h267v-244l166 244h274l-233 -325zM393 -236l-126 27l33 173h197z" />
    <glyph glyph-name="uni0137" unicode="&#x137;" horiz-adv-x="609" 
d="M610 0h-251l-93 191v-191h-229v743h229v-399l101 179h232l-143 -231zM311 -236l-126 27l33 173h197z" />
    <glyph glyph-name="Lacute" unicode="&#x139;" horiz-adv-x="595" 
d="M566 0h-508v715h267v-511h241v-204zM272 753h-173l49 155h229z" />
    <glyph glyph-name="lacute" unicode="&#x13a;" horiz-adv-x="313" 
d="M270 0h-227v743h227v-743zM234 768h-163l49 175h219z" />
    <glyph glyph-name="uni013B" unicode="&#x13b;" horiz-adv-x="595" 
d="M566 0h-508v715h267v-511h241v-204zM301 -236l-126 27l33 173h197z" />
    <glyph glyph-name="uni013C" unicode="&#x13c;" horiz-adv-x="313" 
d="M270 0h-227v743h227v-743zM150 -236l-126 27l33 173h197z" />
    <glyph glyph-name="Lcaron" unicode="&#x13d;" horiz-adv-x="595" 
d="M383 715h176l-62 -186h-127zM58 715h267v-511h241v-204h-508v715z" />
    <glyph glyph-name="lcaron" unicode="&#x13e;" horiz-adv-x="313" 
d="M270 0h-227v743h227v-743zM411 569h-110l7 174h153z" />
    <glyph glyph-name="Ldot" unicode="&#x13f;" horiz-adv-x="635" 
d="M566 0h-508v715h267v-511h241v-204zM629 363c-17 -43 -61 -73 -116 -73c-71 0 -122 53 -122 120c0 66 51 120 122 120c73 0 126 -54 126 -120c0 -17 -3 -32 -10 -47z" />
    <glyph glyph-name="ldot" unicode="&#x140;" horiz-adv-x="521" 
d="M270 0h-227v743h227v-743zM531 309c-17 -43 -61 -73 -116 -73c-71 0 -122 53 -122 120c0 66 51 120 122 120c73 0 126 -54 126 -120c0 -17 -3 -32 -10 -47z" />
    <glyph glyph-name="Lslash" unicode="&#x141;" horiz-adv-x="613" 
d="M584 0h-508v237l-60 -20v129l60 20v349h267v-258l170 58v-130l-170 -58v-123h241v-204z" />
    <glyph glyph-name="lslash" unicode="&#x142;" horiz-adv-x="363" 
d="M295 0h-227v259l-53 -24v139l53 24v345h227v-243l56 25v-139l-56 -25v-361z" />
    <glyph glyph-name="Nacute" unicode="&#x143;" horiz-adv-x="805" 
d="M746 0h-253l-198 390v-390h-237v715h297l155 -332v332h236v-715zM502 753h-173l49 155h229z" />
    <glyph glyph-name="nacute" unicode="&#x144;" horiz-adv-x="638" 
d="M604 0h-229v292c0 43 -14 65 -50 65c-41 0 -59 -23 -59 -76v-281h-229v523h229v-84c31 56 86 100 174 100c97 0 164 -64 164 -189v-350zM398 568h-163l49 175h219z" />
    <glyph glyph-name="uni0145" unicode="&#x145;" horiz-adv-x="805" 
d="M746 0h-253l-198 390v-390h-237v715h297l155 -332v332h236v-715zM396 -236l-126 27l33 173h197z" />
    <glyph glyph-name="uni0146" unicode="&#x146;" horiz-adv-x="638" 
d="M604 0h-229v292c0 43 -14 65 -50 65c-41 0 -59 -23 -59 -76v-281h-229v523h229v-84c31 56 86 100 174 100c97 0 164 -64 164 -189v-350zM314 -236l-126 27l33 173h197z" />
    <glyph glyph-name="Ncaron" unicode="&#x147;" horiz-adv-x="805" 
d="M746 0h-253l-198 390v-390h-237v715h297l155 -332v332h236v-715zM515 753h-189l-111 155h165l45 -44l45 44h162z" />
    <glyph glyph-name="ncaron" unicode="&#x148;" horiz-adv-x="638" 
d="M604 0h-229v292c0 43 -14 65 -50 65c-41 0 -59 -23 -59 -76v-281h-229v523h229v-84c31 56 86 100 174 100c97 0 164 -64 164 -189v-350zM395 571h-155l-124 172h158l48 -46l48 46h155z" />
    <glyph glyph-name="napostrophe" unicode="&#x149;" horiz-adv-x="817" 
d="M783 0h-229v292c0 43 -14 65 -50 65c-41 0 -59 -23 -59 -76v-281h-229v523h229v-84c31 56 86 100 174 100c97 0 164 -64 164 -189v-350zM101 397l-126 46l75 286l198 -61z" />
    <glyph glyph-name="Eng" unicode="&#x14a;" horiz-adv-x="805" 
d="M483 -192c-68 0 -102 10 -135 25v183c23 -7 36 -11 69 -11c29 0 52 5 63 20l-185 365v-390h-237v715h297l155 -332v332h236v-685c0 -123 -78 -222 -263 -222z" />
    <glyph glyph-name="eng" unicode="&#x14b;" horiz-adv-x="638" 
d="M319 -20c37 3 56 13 56 52v260c0 43 -14 65 -50 65c-41 0 -59 -23 -59 -76v-281h-229v523h229v-84c31 56 86 100 174 100c97 0 164 -64 164 -189v-327c0 -120 -58 -204 -285 -204v161z" />
    <glyph glyph-name="Omacron" unicode="&#x14c;" horiz-adv-x="823" 
d="M526 362c0 111 -48 157 -116 157s-113 -48 -113 -157v-8c0 -108 41 -160 114 -160c72 0 115 56 115 160v8zM804 360c0 -229 -157 -374 -400 -374c-240 0 -385 145 -385 367v8c0 226 175 365 391 365c221 0 394 -125 394 -358v-8zM586 764h-351v129h351v-129z" />
    <glyph glyph-name="omacron" unicode="&#x14d;" horiz-adv-x="632" 
d="M385 267c0 72 -19 105 -68 105c-47 0 -70 -30 -70 -102v-8c0 -76 19 -110 70 -110c48 0 68 35 68 107v8zM617 261c0 -176 -134 -275 -301 -275s-301 91 -301 268v8c0 173 133 277 302 277c167 0 300 -98 300 -270v-8zM481 593h-331v119h331v-119z" />
    <glyph glyph-name="Obreve" unicode="&#x14e;" horiz-adv-x="823" 
d="M526 362c0 111 -48 157 -116 157s-113 -48 -113 -157v-8c0 -108 41 -160 114 -160c72 0 115 56 115 160v8zM804 360c0 -229 -157 -374 -400 -374c-240 0 -385 145 -385 367v8c0 226 175 365 391 365c221 0 394 -125 394 -358v-8zM593 908c-9 -105 -74 -164 -182 -164
c-113 0 -175 59 -182 164h141c1 -23 17 -36 41 -36c23 0 38 15 41 36h141z" />
    <glyph glyph-name="obreve" unicode="&#x14f;" horiz-adv-x="632" 
d="M385 267c0 72 -19 105 -68 105c-47 0 -70 -30 -70 -102v-8c0 -76 19 -110 70 -110c48 0 68 35 68 107v8zM617 261c0 -176 -134 -275 -301 -275s-301 91 -301 268v8c0 173 133 277 302 277c167 0 300 -98 300 -270v-8zM495 742c-7 -115 -75 -172 -179 -172
c-108 0 -174 57 -179 172h134c1 -27 16 -40 45 -40c27 0 44 16 45 40h134z" />
    <glyph glyph-name="Ohungarumlaut" unicode="&#x150;" horiz-adv-x="823" 
d="M526 362c0 111 -48 157 -116 157s-113 -48 -113 -157v-8c0 -108 41 -160 114 -160c72 0 115 56 115 160v8zM804 360c0 -229 -157 -374 -400 -374c-240 0 -385 145 -385 367v8c0 226 175 365 391 365c221 0 394 -125 394 -358v-8zM363 753h-150l43 155h183zM578 753h-150
l43 155h183z" />
    <glyph glyph-name="ohungarumlaut" unicode="&#x151;" horiz-adv-x="632" 
d="M385 267c0 72 -19 105 -68 105c-47 0 -70 -30 -70 -102v-8c0 -76 19 -110 70 -110c48 0 68 35 68 107v8zM617 261c0 -176 -134 -275 -301 -275s-301 91 -301 268v8c0 173 133 277 302 277c167 0 300 -98 300 -270v-8zM271 568h-130l45 175h163zM460 568h-130l45 175h163z
" />
    <glyph glyph-name="OE" unicode="&#x152;" horiz-adv-x="991" 
d="M963 0h-552c-255 0 -392 113 -392 348v7c0 236 142 360 391 360h538v-203h-255v-61h198v-184h-198v-64h270v-203zM430 203v309h-11c-90 0 -122 -40 -122 -151v-8c0 -121 39 -150 124 -150h9z" />
    <glyph glyph-name="oe" unicode="&#x153;" horiz-adv-x="982" 
d="M968 184c-15 -125 -106 -198 -286 -198c-76 0 -139 20 -186 60c-47 -40 -108 -60 -180 -60c-167 0 -301 91 -301 268v8c0 173 133 277 302 277c75 0 137 -21 184 -63c47 41 111 63 183 63c154 0 282 -86 282 -275v-49h-354c7 -52 35 -77 78 -77c48 0 62 25 67 46h211z
M385 267c0 72 -19 105 -68 105c-47 0 -70 -30 -70 -102v-8c0 -76 19 -110 70 -110c48 0 68 35 68 107v8zM747 321c-1 43 -19 75 -63 75c-39 0 -64 -24 -71 -75h134z" />
    <glyph glyph-name="Racute" unicode="&#x154;" horiz-adv-x="733" 
d="M726 0h-277l-111 227h-15v-227h-265v715h314c213 0 312 -86 312 -241v-4c0 -95 -41 -150 -105 -185zM428 461c0 37 -24 56 -73 56h-32v-123h30c52 0 75 20 75 63v4zM429 753h-173l49 155h229z" />
    <glyph glyph-name="racute" unicode="&#x155;" horiz-adv-x="455" 
d="M266 0h-229v523h229v-109c33 88 92 118 167 115v-213c-112 8 -167 -28 -167 -88v-228zM327 568h-163l49 175h219z" />
    <glyph glyph-name="uni0156" unicode="&#x156;" horiz-adv-x="733" 
d="M726 0h-277l-111 227h-15v-227h-265v715h314c213 0 312 -86 312 -241v-4c0 -95 -41 -150 -105 -185zM428 461c0 37 -24 56 -73 56h-32v-123h30c52 0 75 20 75 63v4zM389 -236l-126 27l33 173h197z" />
    <glyph glyph-name="uni0157" unicode="&#x157;" horiz-adv-x="455" 
d="M266 0h-229v523h229v-109c33 88 92 118 167 115v-213c-112 8 -167 -28 -167 -88v-228zM150 -236l-126 27l33 173h197z" />
    <glyph glyph-name="Rcaron" unicode="&#x158;" horiz-adv-x="733" 
d="M726 0h-277l-111 227h-15v-227h-265v715h314c213 0 312 -86 312 -241v-4c0 -95 -41 -150 -105 -185zM428 461c0 37 -24 56 -73 56h-32v-123h30c52 0 75 20 75 63v4zM442 753h-189l-111 155h165l45 -44l45 44h162z" />
    <glyph glyph-name="rcaron" unicode="&#x159;" horiz-adv-x="455" 
d="M266 0h-229v523h229v-109c33 88 92 118 167 115v-213c-112 8 -167 -28 -167 -88v-228zM324 571h-155l-124 172h158l48 -46l48 46h155z" />
    <glyph glyph-name="Sacute" unicode="&#x15a;" horiz-adv-x="663" 
d="M264 232c3 -35 20 -61 75 -61c43 0 55 15 55 38c0 25 -21 37 -81 44c-213 24 -286 81 -286 234c0 139 112 239 301 239c188 0 288 -72 300 -237h-246c-3 31 -20 52 -55 52c-32 0 -48 -11 -48 -34c0 -24 19 -36 80 -43c177 -16 290 -60 290 -226
c0 -137 -105 -252 -310 -252c-204 0 -323 73 -326 246h251zM408 753h-173l49 155h229z" />
    <glyph glyph-name="sacute" unicode="&#x15b;" horiz-adv-x="539" 
d="M218 172c5 -28 13 -45 48 -45c27 0 39 11 39 26c0 20 -18 29 -85 36c-142 13 -208 49 -208 166c0 125 108 184 248 184c148 0 243 -47 254 -179h-205c-5 23 -17 42 -45 42s-38 -12 -38 -27c0 -19 23 -31 70 -35c163 -16 232 -50 232 -163c0 -139 -106 -191 -261 -191
c-161 0 -255 61 -258 186h209zM343 568h-163l49 175h219z" />
    <glyph glyph-name="Scircumflex" unicode="&#x15c;" horiz-adv-x="663" 
d="M264 232c3 -35 20 -61 75 -61c43 0 55 15 55 38c0 25 -21 37 -81 44c-213 24 -286 81 -286 234c0 139 112 239 301 239c188 0 288 -72 300 -237h-246c-3 31 -20 52 -55 52c-32 0 -48 -11 -48 -34c0 -24 19 -36 80 -43c177 -16 290 -60 290 -226
c0 -137 -105 -252 -310 -252c-204 0 -323 73 -326 246h251zM539 753h-165l-45 44l-45 -44h-162l117 155h189z" />
    <glyph glyph-name="scircumflex" unicode="&#x15d;" horiz-adv-x="539" 
d="M218 172c5 -28 13 -45 48 -45c27 0 39 11 39 26c0 20 -18 29 -85 36c-142 13 -208 49 -208 166c0 125 108 184 248 184c148 0 243 -47 254 -179h-205c-5 23 -17 42 -45 42s-38 -12 -38 -27c0 -19 23 -31 70 -35c163 -16 232 -50 232 -163c0 -139 -106 -191 -261 -191
c-161 0 -255 61 -258 186h209zM467 571h-158l-48 46l-48 -46h-155l130 172h155z" />
    <glyph glyph-name="uni015E" unicode="&#x15e;" horiz-adv-x="663" 
d="M313 -232c-80 0 -130 33 -141 97h100c3 -12 11 -23 32 -23c19 0 28 11 28 27s-9 29 -32 29c-17 0 -27 -6 -34 -13l-42 44l42 61c-160 16 -252 90 -253 242h251c3 -35 20 -61 75 -61c43 0 55 15 55 38c0 25 -21 37 -81 44c-213 24 -286 81 -286 234c0 139 112 239 301 239
c188 0 288 -72 300 -237h-246c-3 31 -20 52 -55 52c-32 0 -48 -11 -48 -34c0 -24 19 -36 80 -43c177 -16 290 -60 290 -226c0 -135 -101 -249 -304 -252l-20 -27c64 5 119 -21 119 -89c0 -64 -48 -102 -131 -102z" />
    <glyph glyph-name="uni015F" unicode="&#x15f;" horiz-adv-x="539" 
d="M248 -232c-80 0 -130 33 -141 97h100c3 -12 11 -23 32 -23c19 0 28 11 28 27s-9 29 -32 29c-17 0 -27 -6 -34 -13l-42 44l43 61c-121 15 -190 75 -193 182h209c5 -28 13 -45 48 -45c27 0 39 11 39 26c0 20 -18 30 -85 37c-142 13 -208 47 -208 165c0 125 108 184 248 184
c148 0 243 -47 254 -179h-205c-5 23 -17 42 -45 42s-38 -12 -38 -27c0 -20 23 -31 70 -34c164 -16 232 -52 232 -164c0 -135 -101 -188 -248 -191l-20 -27c64 5 119 -21 119 -89c0 -64 -48 -102 -131 -102z" />
    <glyph glyph-name="Scaron" unicode="&#x160;" horiz-adv-x="663" 
d="M264 232c3 -35 20 -61 75 -61c43 0 55 15 55 38c0 25 -21 37 -81 44c-213 24 -286 81 -286 234c0 139 112 239 301 239c188 0 288 -72 300 -237h-246c-3 31 -20 52 -55 52c-32 0 -48 -11 -48 -34c0 -24 19 -36 80 -43c177 -16 290 -60 290 -226
c0 -137 -105 -252 -310 -252c-204 0 -323 73 -326 246h251zM421 753h-189l-111 155h165l45 -44l45 44h162z" />
    <glyph glyph-name="scaron" unicode="&#x161;" horiz-adv-x="539" 
d="M218 172c5 -28 13 -45 48 -45c27 0 39 11 39 26c0 20 -18 29 -85 36c-142 13 -208 49 -208 166c0 125 108 184 248 184c148 0 243 -47 254 -179h-205c-5 23 -17 42 -45 42s-38 -12 -38 -27c0 -19 23 -31 70 -35c163 -16 232 -50 232 -163c0 -139 -106 -191 -261 -191
c-161 0 -255 61 -258 186h209zM333 571h-155l-124 172h158l48 -46l48 46h155z" />
    <glyph glyph-name="Tcommaaccent" unicode="&#x162;" horiz-adv-x="648" 
d="M458 0h-268v511h-173v204h614v-204h-173v-511zM316 -236l-126 27l33 173h197z" />
    <glyph glyph-name="tcommaaccent" unicode="&#x163;" horiz-adv-x="407" 
d="M384 3c-27 -7 -66 -17 -113 -17c-131 0 -207 57 -207 201v187h-57v149h57v104h229v-104h93v-149h-93v-165c0 -29 16 -44 47 -44c16 0 28 1 44 8v-170zM212 -236l-126 27l33 173h197z" />
    <glyph glyph-name="Tcaron" unicode="&#x164;" horiz-adv-x="648" 
d="M458 0h-268v511h-173v204h614v-204h-173v-511zM413 753h-189l-111 155h165l45 -44l45 44h162z" />
    <glyph glyph-name="tcaron" unicode="&#x165;" horiz-adv-x="407" 
d="M384 3c-27 -7 -66 -17 -113 -17c-131 0 -207 57 -207 201v187h-57v149h57v104h229v-104h93v-149h-93v-165c0 -29 16 -44 47 -44c16 0 28 1 44 8v-170zM435 569h-110l7 174h153z" />
    <glyph glyph-name="Tbar" unicode="&#x166;" horiz-adv-x="648" 
d="M74 409h116v102h-173v204h614v-204h-173v-102h116v-161h-116v-248h-268v248h-116v161z" />
    <glyph glyph-name="tbar" unicode="&#x167;" horiz-adv-x="407" 
d="M7 329h57v45h-57v149h57v104h229v-104h93v-149h-93v-45h93v-89h-93v-31c0 -29 16 -44 47 -44c16 0 28 1 44 8v-170c-27 -7 -66 -17 -113 -17c-131 0 -207 57 -207 201v53h-57v89z" />
    <glyph glyph-name="Utilde" unicode="&#x168;" horiz-adv-x="799" 
d="M745 304c0 -226 -139 -318 -344 -318c-221 0 -347 106 -347 319v410h266v-402c0 -76 9 -119 81 -119c70 0 76 46 76 117v404h268v-411zM603 922c-8 -123 -71 -172 -136 -172c-64 0 -93 29 -125 29c-15 0 -24 -11 -27 -26h-123c5 123 65 172 133 172c59 0 93 -29 128 -29
c17 0 24 10 27 26h123z" />
    <glyph glyph-name="utilde" unicode="&#x169;" horiz-adv-x="638" 
d="M601 0h-229v80c-31 -57 -77 -94 -166 -94c-99 0 -173 65 -173 191v346h229v-304c0 -43 17 -65 50 -65c43 0 60 23 60 76v293h229v-523zM513 746c-8 -122 -62 -176 -127 -176c-64 0 -89 29 -121 29c-15 0 -24 -11 -27 -26h-116c7 123 55 176 123 176c59 0 90 -29 125 -29
c17 0 24 10 27 26h116z" />
    <glyph glyph-name="Umacron" unicode="&#x16a;" horiz-adv-x="799" 
d="M745 304c0 -226 -139 -318 -344 -318c-221 0 -347 106 -347 319v410h266v-402c0 -76 9 -119 81 -119c70 0 76 46 76 117v404h268v-411zM572 764h-351v129h351v-129z" />
    <glyph glyph-name="umacron" unicode="&#x16b;" horiz-adv-x="638" 
d="M601 0h-229v80c-31 -57 -77 -94 -166 -94c-99 0 -173 65 -173 191v346h229v-304c0 -43 17 -65 50 -65c43 0 60 23 60 76v293h229v-523zM482 593h-331v119h331v-119z" />
    <glyph glyph-name="Ubreve" unicode="&#x16c;" horiz-adv-x="799" 
d="M745 304c0 -226 -139 -318 -344 -318c-221 0 -347 106 -347 319v410h266v-402c0 -76 9 -119 81 -119c70 0 76 46 76 117v404h268v-411zM579 908c-9 -105 -74 -164 -182 -164c-113 0 -175 59 -182 164h141c1 -23 17 -36 41 -36c23 0 38 15 41 36h141z" />
    <glyph glyph-name="ubreve" unicode="&#x16d;" horiz-adv-x="638" 
d="M601 0h-229v80c-31 -57 -77 -94 -166 -94c-99 0 -173 65 -173 191v346h229v-304c0 -43 17 -65 50 -65c43 0 60 23 60 76v293h229v-523zM496 742c-7 -115 -75 -172 -179 -172c-108 0 -174 57 -179 172h134c1 -27 16 -40 45 -40c27 0 44 16 45 40h134z" />
    <glyph glyph-name="Uring" unicode="&#x16e;" horiz-adv-x="799" 
d="M745 304c0 -226 -139 -318 -344 -318c-221 0 -347 106 -347 319v410h266v-402c0 -76 9 -119 81 -119c70 0 76 46 76 117v404h268v-411zM397 792c25 0 43 19 43 47s-18 47 -43 47c-27 0 -43 -19 -43 -47s16 -47 43 -47zM513 791c-20 -43 -63 -74 -116 -74
c-69 0 -126 54 -126 122s57 122 126 122s126 -54 126 -122c0 -17 -3 -33 -10 -48z" />
    <glyph glyph-name="uring" unicode="&#x16f;" horiz-adv-x="638" 
d="M601 0h-229v80c-31 -57 -77 -94 -166 -94c-99 0 -173 65 -173 191v346h229v-304c0 -43 17 -65 50 -65c43 0 60 23 60 76v293h229v-523zM317 621c25 0 42 19 42 46s-17 46 -42 46s-42 -19 -42 -46s17 -46 42 -46zM431 620c-20 -42 -62 -73 -114 -73
c-68 0 -124 54 -124 120s56 120 124 120s124 -54 124 -120c0 -17 -3 -32 -10 -47z" />
    <glyph glyph-name="Uhungarumlaut" unicode="&#x170;" horiz-adv-x="799" 
d="M745 304c0 -226 -139 -318 -344 -318c-221 0 -347 106 -347 319v410h266v-402c0 -76 9 -119 81 -119c70 0 76 46 76 117v404h268v-411zM349 753h-150l43 155h183zM564 753h-150l43 155h183z" />
    <glyph glyph-name="uhungarumlaut" unicode="&#x171;" horiz-adv-x="638" 
d="M601 0h-229v80c-31 -57 -77 -94 -166 -94c-99 0 -173 65 -173 191v346h229v-304c0 -43 17 -65 50 -65c43 0 60 23 60 76v293h229v-523zM272 568h-130l45 175h163zM461 568h-130l45 175h163z" />
    <glyph glyph-name="Uogonek" unicode="&#x172;" horiz-adv-x="799" 
d="M438 -182c-80 0 -128 31 -128 80c0 41 29 69 64 89c-205 9 -320 113 -320 318v410h266v-402c0 -76 9 -119 81 -119c70 0 76 46 76 117v404h268v-411c0 -152 -62 -240 -165 -287c-38 -16 -78 -32 -78 -62c0 -15 11 -22 27 -22c9 0 13 1 18 2v-99c-19 -9 -53 -18 -109 -18z
" />
    <glyph glyph-name="uogonek" unicode="&#x173;" horiz-adv-x="638" 
d="M499 -182c-76 0 -123 31 -123 82c0 55 48 79 90 100h-94v80c-31 -57 -77 -94 -166 -94c-99 0 -173 65 -173 191v346h229v-304c0 -43 17 -65 50 -65c43 0 60 23 60 76v293h229v-508c-35 -29 -45 -49 -45 -66c0 -16 11 -24 27 -24c9 0 13 1 18 2v-91
c-19 -9 -50 -18 -102 -18z" />
    <glyph glyph-name="Wcircumflex" unicode="&#x174;" horiz-adv-x="1032" 
d="M862 0h-255l-83 378l-82 -378h-272l-166 715h267l66 -393l67 393h224l83 -398l71 398h246zM724 753h-165l-45 44l-45 -44h-162l117 155h189z" />
    <glyph glyph-name="wcircumflex" unicode="&#x175;" horiz-adv-x="871" 
d="M706 0h-212l-62 240l-59 -240h-218l-156 523h237l53 -257l67 257h182l56 -257l66 257h213zM639 571h-158l-48 46l-48 -46h-155l130 172h155z" />
    <glyph glyph-name="Ycircumflex" unicode="&#x176;" horiz-adv-x="718" 
d="M498 0h-268v303l-230 412h288l87 -194l90 194h253l-220 -411v-304zM577 753h-165l-45 44l-45 -44h-162l117 155h189z" />
    <glyph glyph-name="ycircumflex" unicode="&#x177;" horiz-adv-x="620" 
d="M345 -172h-216l81 224l-211 471h248l82 -229l77 229h215zM526 571h-158l-48 46l-48 -46h-155l130 172h155z" />
    <glyph glyph-name="Ydieresis" unicode="&#x178;" horiz-adv-x="718" 
d="M498 0h-268v303l-230 412h288l87 -194l90 194h253l-220 -411v-304zM347 802c-16 -36 -52 -60 -95 -60c-57 0 -102 43 -102 99s45 99 102 99s103 -43 103 -99c0 -14 -3 -27 -8 -39zM588 841c0 -56 -44 -99 -103 -99c-56 0 -101 43 -101 99s45 99 101 99
c59 0 103 -43 103 -99z" />
    <glyph glyph-name="Zacute" unicode="&#x179;" horiz-adv-x="628" 
d="M601 0h-596v27l252 495h-211v193h575v-27l-252 -492h232v-196zM396 753h-173l49 155h229z" />
    <glyph glyph-name="zacute" unicode="&#x17a;" horiz-adv-x="521" 
d="M498 0h-494v21l188 333h-167v169h489v-21l-201 -335h185v-167zM344 568h-163l49 175h219z" />
    <glyph glyph-name="Zdotaccent" unicode="&#x17b;" horiz-adv-x="628" 
d="M601 0h-596v27l252 495h-211v193h575v-27l-252 -492h232v-196zM435 849c0 -63 -48 -107 -115 -107c-68 0 -116 44 -116 107s48 107 116 107c67 0 115 -44 115 -107z" />
    <glyph glyph-name="zdotaccent" unicode="&#x17c;" horiz-adv-x="521" 
d="M498 0h-494v21l188 333h-167v169h489v-21l-201 -335h185v-167zM384 659c0 -63 -49 -107 -116 -107c-68 0 -117 44 -117 107s49 107 117 107c67 0 116 -44 116 -107z" />
    <glyph glyph-name="Zcaron" unicode="&#x17d;" horiz-adv-x="628" 
d="M601 0h-596v27l252 495h-211v193h575v-27l-252 -492h232v-196zM409 753h-189l-111 155h165l45 -44l45 44h162z" />
    <glyph glyph-name="zcaron" unicode="&#x17e;" horiz-adv-x="521" 
d="M498 0h-494v21l188 333h-167v169h489v-21l-201 -335h185v-167zM341 571h-155l-124 172h158l48 -46l48 46h155z" />
    <glyph glyph-name="uni0192" unicode="&#x192;" horiz-adv-x="473" 
d="M20 415h87l15 110c19 148 116 200 247 200c35 0 56 -3 84 -11v-167c-15 4 -25 5 -44 5c-35 0 -57 -12 -62 -47l-12 -90h104v-149h-125l-61 -448h-227l61 448h-67v149z" />
    <glyph glyph-name="Aringacute" unicode="&#x1fa;" horiz-adv-x="784" 
d="M783 0h-284l-24 95h-202l-24 -95h-248l220 715h343zM431 273l-56 228l-58 -228h114zM392 812c25 0 43 19 43 47s-18 47 -43 47c-27 0 -43 -19 -43 -47s16 -47 43 -47zM508 811c-20 -43 -63 -74 -116 -74c-69 0 -126 54 -126 122s57 122 126 122s126 -54 126 -122
c0 -17 -3 -33 -10 -48zM478 995h-173l49 155h229z" />
    <glyph glyph-name="aringacute" unicode="&#x1fb;" horiz-adv-x="598" 
d="M564 0h-220v59c-19 -32 -63 -73 -151 -73c-93 0 -178 46 -178 159c0 124 91 171 286 171h37v3c0 33 -2 65 -47 65c-37 0 -43 -29 -46 -45h-212c7 129 108 200 272 200c171 0 259 -66 259 -203v-336zM338 200h-35c-54 0 -63 -10 -63 -35c0 -19 14 -29 42 -29
c33 0 56 20 56 47v17zM302 641c25 0 42 19 42 46s-17 46 -42 46s-42 -19 -42 -46s17 -46 42 -46zM416 640c-20 -42 -62 -73 -114 -73c-68 0 -124 54 -124 120s56 120 124 120s124 -54 124 -120c0 -17 -3 -32 -10 -47zM393 830h-173l49 155h229z" />
    <glyph glyph-name="AEacute" unicode="&#x1fc;" horiz-adv-x="1029" 
d="M1001 0h-539v115h-166l-44 -115h-251l297 715h688v-203h-259v-61h202v-184h-202v-64h274v-203zM462 288v224h-14l-86 -224h100zM693 753h-173l49 155h229z" />
    <glyph glyph-name="aeacute" unicode="&#x1fd;" horiz-adv-x="922" 
d="M908 184c-15 -125 -105 -198 -285 -198c-93 0 -163 27 -208 82c-39 -49 -95 -82 -199 -82c-111 0 -204 46 -204 159c0 124 91 173 286 173h40v2c0 35 -5 64 -49 64c-37 0 -44 -22 -47 -45h-212c7 129 109 200 273 200c76 0 128 -17 160 -49c45 33 99 49 162 49
c154 0 281 -86 281 -275v-49h-351c7 -52 33 -77 76 -77c48 0 61 25 66 46h211zM687 318c-1 47 -18 78 -62 78c-39 0 -65 -25 -69 -78h131zM338 211h-38c-48 0 -63 -13 -63 -41c0 -23 17 -34 44 -34c39 0 57 20 57 47v28zM559 568h-163l49 175h219z" />
    <glyph glyph-name="Oslashacute" unicode="&#x1fe;" horiz-adv-x="823" 
d="M804 360c0 -229 -157 -374 -400 -374c-96 0 -173 22 -236 62l-77 -82l-54 52l74 78c-61 65 -92 151 -92 257v8c0 226 175 365 391 365c91 0 170 -20 237 -61l72 77l54 -52l-67 -71c61 -60 98 -143 98 -251v-8zM529 362c0 25 -2 45 -7 62l-189 -201c19 -19 45 -29 78 -29
c72 0 118 56 118 160v8zM484 493c-21 17 -45 26 -74 26c-69 0 -117 -48 -117 -157v-8c0 -23 1 -42 5 -59zM488 753h-173l49 155h229z" />
    <glyph glyph-name="oslashacute" unicode="&#x1ff;" horiz-adv-x="632" 
d="M617 261c0 -176 -134 -275 -301 -275c-68 0 -127 14 -178 43l-66 -69l-47 44l61 65c-45 44 -71 105 -71 185v8c0 173 133 277 302 277c65 0 123 -14 173 -43l67 71l47 -44l-62 -66c47 -47 75 -108 75 -188v-8zM388 267c0 9 -1 18 -1 26l-118 -125c11 -11 27 -17 48 -17
c51 0 71 35 71 108v8zM361 359c-11 9 -26 14 -44 14c-49 0 -73 -31 -73 -103v-8c0 -9 0 -17 1 -25zM393 568h-163l49 175h219z" />
    <glyph glyph-name="uni0218" unicode="&#x218;" horiz-adv-x="663" 
d="M264 232c3 -35 20 -61 75 -61c43 0 55 15 55 38c0 25 -21 37 -81 44c-213 24 -286 81 -286 234c0 139 112 239 301 239c188 0 288 -72 300 -237h-246c-3 31 -20 52 -55 52c-32 0 -48 -11 -48 -34c0 -24 19 -36 80 -43c177 -16 290 -60 290 -226
c0 -137 -105 -252 -310 -252c-204 0 -323 73 -326 246h251zM324 -236l-126 27l33 173h197z" />
    <glyph glyph-name="uni0219" unicode="&#x219;" horiz-adv-x="533" 
d="M215 172c5 -28 13 -45 48 -45c27 0 39 11 39 26c0 20 -18 29 -85 36c-142 13 -208 49 -208 166c0 125 108 184 248 184c148 0 243 -47 254 -179h-205c-5 23 -17 42 -45 42s-38 -12 -38 -27c0 -19 23 -31 70 -35c163 -16 232 -50 232 -163c0 -139 -106 -191 -261 -191
c-161 0 -255 61 -258 186h209zM256 -236l-126 27l33 173h197z" />
    <glyph glyph-name="uni021A" unicode="&#x21a;" horiz-adv-x="648" 
d="M458 0h-268v511h-173v204h614v-204h-173v-511zM316 -236l-126 27l33 173h197z" />
    <glyph glyph-name="uni021B" unicode="&#x21b;" horiz-adv-x="407" 
d="M384 3c-27 -7 -66 -17 -113 -17c-131 0 -207 57 -207 201v187h-57v149h57v104h229v-104h93v-149h-93v-165c0 -29 16 -44 47 -44c16 0 28 1 44 8v-170zM212 -236l-126 27l33 173h197z" />
    <glyph glyph-name="uni0237" unicode="&#x237;" horiz-adv-x="316" 
d="M-14 -20c37 3 57 13 57 52v491h228v-500c0 -120 -58 -204 -285 -204v161z" />
    <glyph glyph-name="circumflex" unicode="&#x2c6;" horiz-adv-x="400" 
d="M404 571h-158l-48 46l-48 -46h-155l130 172h155z" />
    <glyph glyph-name="caron" unicode="&#x2c7;" horiz-adv-x="400" 
d="M274 571h-155l-124 172h158l48 -46l48 46h155z" />
    <glyph glyph-name="breve" unicode="&#x2d8;" horiz-adv-x="400" 
d="M379 742c-7 -115 -75 -172 -179 -172c-108 0 -174 57 -179 172h134c1 -27 16 -40 45 -40c27 0 44 16 45 40h134z" />
    <glyph glyph-name="dotaccent" unicode="&#x2d9;" horiz-adv-x="400" 
d="M316 659c0 -63 -49 -107 -116 -107c-68 0 -117 44 -117 107s49 107 117 107c67 0 116 -44 116 -107z" />
    <glyph glyph-name="ring" unicode="&#x2da;" horiz-adv-x="400" 
d="M200 641c25 0 42 19 42 46s-17 46 -42 46s-42 -19 -42 -46s17 -46 42 -46zM314 640c-20 -42 -62 -73 -114 -73c-68 0 -124 54 -124 120s56 120 124 120s124 -54 124 -120c0 -17 -3 -32 -10 -47z" />
    <glyph glyph-name="ogonek" unicode="&#x2db;" horiz-adv-x="400" 
d="M288 -164c-19 -9 -55 -18 -102 -18c-66 0 -123 27 -123 78c0 54 47 83 90 104h119c-19 -18 -29 -35 -29 -51s11 -24 27 -24c9 0 13 1 18 2v-91z" />
    <glyph glyph-name="tilde" unicode="&#x2dc;" horiz-adv-x="400" 
d="M396 746c-8 -122 -62 -176 -127 -176c-64 0 -89 29 -121 29c-15 0 -24 -11 -27 -26h-116c7 123 55 176 123 176c59 0 90 -29 125 -29c17 0 24 10 27 26h116z" />
    <glyph glyph-name="hungarumlaut" unicode="&#x2dd;" horiz-adv-x="400" 
d="M163 568h-130l45 175h163zM352 568h-130l45 175h163z" />
    <glyph glyph-name="uni037E" unicode="&#x37e;" horiz-adv-x="336" 
d="M137 -122l-133 48l77 286l210 -70zM300 339c-17 -43 -61 -73 -116 -73c-71 0 -122 53 -122 120c0 66 51 120 122 120c73 0 126 -54 126 -120c0 -17 -3 -32 -10 -47z" />
    <glyph glyph-name="tonos" unicode="&#x384;" horiz-adv-x="400" 
d="M275 568h-163l49 175h219z" />
    <glyph glyph-name="dieresistonos" unicode="&#x385;" horiz-adv-x="520" 
d="M221 763h154l-85 -195h-118zM447 562c-49 0 -87 37 -87 85s38 85 87 85c51 0 88 -37 88 -85s-37 -85 -88 -85zM73 562c-48 0 -88 37 -88 85s40 85 88 85s88 -37 88 -85s-40 -85 -88 -85z" />
    <glyph glyph-name="Alphatonos" unicode="&#x386;" horiz-adv-x="784" 
d="M783 0h-284l-24 95h-202l-24 -95h-248l220 715h343zM431 273l-56 228l-58 -228h114zM75 540h-163l49 175h219z" />
    <glyph glyph-name="anoteleia" unicode="&#x387;" horiz-adv-x="308" 
d="M268 279c-17 -43 -61 -73 -116 -73c-71 0 -122 53 -122 120c0 66 51 120 122 120c73 0 126 -54 126 -120c0 -17 -3 -32 -10 -47z" />
    <glyph glyph-name="Epsilontonos" unicode="&#x388;" horiz-adv-x="635" 
d="M607 0h-549v715h534v-203h-269v-61h212v-184h-212v-64h284v-203zM-70 540h-163l49 175h219z" />
    <glyph glyph-name="Etatonos" unicode="&#x389;" horiz-adv-x="812" 
d="M754 0h-266v263h-163v-263h-267v715h267v-247h163v247h266v-715zM-70 540h-163l49 175h219z" />
    <glyph glyph-name="Iotatonos" unicode="&#x38a;" horiz-adv-x="391" 
d="M330 0h-269v715h269v-715zM-70 540h-163l49 175h219z" />
    <glyph glyph-name="Omicrontonos" unicode="&#x38c;" horiz-adv-x="823" 
d="M526 362c0 111 -48 157 -116 157s-113 -48 -113 -157v-8c0 -108 41 -160 114 -160c72 0 115 56 115 160v8zM804 360c0 -229 -157 -374 -400 -374c-240 0 -385 145 -385 367v8c0 226 175 365 391 365c221 0 394 -125 394 -358v-8zM-10 540h-163l49 175h219z" />
    <glyph glyph-name="Upsilontonos" unicode="&#x38e;" horiz-adv-x="718" 
d="M498 0h-268v303l-230 412h288l87 -194l90 194h253l-220 -411v-304zM-120 540h-163l49 175h219z" />
    <glyph glyph-name="Omegatonos" unicode="&#x38f;" horiz-adv-x="829" 
d="M298 348c0 -96 27 -160 80 -212v-136h-352v192h84c-52 39 -86 117 -86 183v5c0 211 169 346 389 346c222 0 392 -122 392 -339v-5c0 -73 -36 -150 -86 -190h84v-192h-352v136c53 52 80 120 80 212v8c0 120 -50 163 -118 163c-67 0 -115 -43 -115 -163v-8zM-10 540h-163
l49 175h219z" />
    <glyph glyph-name="iotadieresistonos" unicode="&#x390;" horiz-adv-x="316" 
d="M44 523h228v-523h-228v523zM141 763h154l-85 -195h-118zM367 562c-49 0 -87 37 -87 85s38 85 87 85c51 0 88 -37 88 -85s-37 -85 -88 -85zM-7 562c-48 0 -88 37 -88 85s40 85 88 85s88 -37 88 -85s-40 -85 -88 -85z" />
    <glyph glyph-name="Alpha" unicode="&#x391;" horiz-adv-x="784" 
d="M783 0h-284l-24 95h-202l-24 -95h-248l220 715h343zM431 273l-56 228l-58 -228h114z" />
    <glyph glyph-name="Beta" unicode="&#x392;" horiz-adv-x="709" 
d="M693 199c0 -125 -78 -199 -273 -199h-362v715h373c188 0 247 -92 247 -188v-4c0 -88 -48 -138 -128 -155c80 -11 143 -64 143 -165v-4zM431 234c0 36 -18 57 -69 57h-45v-119h48c45 0 66 22 66 58v4zM428 495c0 32 -16 49 -59 49h-52v-99h52c43 0 59 14 59 46v4z" />
    <glyph glyph-name="Gamma" unicode="&#x393;" horiz-adv-x="587" 
d="M58 715h512v-204h-245v-511h-267v715z" />
    <glyph glyph-name="uni0394" unicode="&#x394;" horiz-adv-x="797" 
d="M9 27l208 688h365l206 -688v-27h-779v27zM300 201h166l-82 327z" />
    <glyph glyph-name="Epsilon" unicode="&#x395;" horiz-adv-x="635" 
d="M607 0h-549v715h534v-203h-269v-61h212v-184h-212v-64h284v-203z" />
    <glyph glyph-name="Zeta" unicode="&#x396;" horiz-adv-x="628" 
d="M601 0h-596v27l252 495h-211v193h575v-27l-252 -492h232v-196z" />
    <glyph glyph-name="Eta" unicode="&#x397;" horiz-adv-x="812" 
d="M754 0h-266v263h-163v-263h-267v715h267v-247h163v247h266v-715z" />
    <glyph glyph-name="Theta" unicode="&#x398;" horiz-adv-x="847" 
d="M416 -14c-252 0 -397 135 -397 367v8c0 236 176 365 403 365c232 0 406 -115 406 -358v-8c0 -239 -160 -374 -412 -374zM423 188c80 0 131 62 131 166v8c0 111 -53 163 -132 163c-77 0 -129 -54 -129 -163v-8c0 -108 46 -166 130 -166zM352 433h143v-147h-143v147z" />
    <glyph glyph-name="Iota" unicode="&#x399;" horiz-adv-x="391" 
d="M330 0h-269v715h269v-715z" />
    <glyph glyph-name="Kappa" unicode="&#x39a;" horiz-adv-x="782" 
d="M778 0h-305l-148 257v-257h-267v715h267v-244l166 244h274l-233 -325z" />
    <glyph glyph-name="Lambda" unicode="&#x39b;" horiz-adv-x="762" 
d="M761 0h-290l-110 426l-111 -426h-249l225 715h307z" />
    <glyph glyph-name="Mu" unicode="&#x39c;" horiz-adv-x="986" 
d="M927 0h-265v380l-142 -380h-90l-136 380v-380h-236v715h342l94 -286l97 286h336v-715z" />
    <glyph glyph-name="Nu" unicode="&#x39d;" horiz-adv-x="805" 
d="M746 0h-253l-198 390v-390h-237v715h297l155 -332v332h236v-715z" />
    <glyph glyph-name="Xi" unicode="&#x39e;" horiz-adv-x="648" 
d="M612 715v-209h-576v209h576zM566 451v-184h-484v184h484zM30 209h588v-209h-588v209z" />
    <glyph glyph-name="Omicron" unicode="&#x39f;" horiz-adv-x="823" 
d="M526 362c0 111 -48 157 -116 157s-113 -48 -113 -157v-8c0 -108 41 -160 114 -160c72 0 115 56 115 160v8zM804 360c0 -229 -157 -374 -400 -374c-240 0 -385 145 -385 367v8c0 226 175 365 391 365c221 0 394 -125 394 -358v-8z" />
    <glyph glyph-name="Pi" unicode="&#x3a0;" horiz-adv-x="808" 
d="M58 715h692v-715h-266v502h-159v-502h-267v715z" />
    <glyph glyph-name="Rho" unicode="&#x3a1;" horiz-adv-x="688" 
d="M323 0h-265v715h308c227 0 306 -100 306 -255v-4c0 -148 -94 -240 -293 -240h-56v-216zM421 459c0 39 -24 59 -71 59h-27v-126h26c48 0 72 21 72 63v4z" />
    <glyph glyph-name="Sigma" unicode="&#x3a3;" horiz-adv-x="630" 
d="M42 525v190h547v-193h-240l132 -151l-131 -168h252v-203h-564v162l148 196z" />
    <glyph glyph-name="Tau" unicode="&#x3a4;" horiz-adv-x="648" 
d="M458 0h-268v511h-173v204h614v-204h-173v-511z" />
    <glyph glyph-name="Upsilon" unicode="&#x3a5;" horiz-adv-x="718" 
d="M498 0h-268v303l-230 412h288l87 -194l90 194h253l-220 -411v-304z" />
    <glyph glyph-name="Phi" unicode="&#x3a6;" horiz-adv-x="1002" 
d="M380 38c-235 13 -361 142 -361 322v7c0 180 152 304 361 320v58h239v-58c213 -13 364 -126 364 -313v-7c0 -185 -133 -313 -364 -329v-68h-239v68zM270 361c0 -76 38 -124 110 -137v278c-68 -13 -110 -58 -110 -134v-7zM732 368c0 76 -45 121 -113 134v-278
c71 15 113 64 113 137v7z" />
    <glyph glyph-name="Chi" unicode="&#x3a7;" horiz-adv-x="805" 
d="M795 0h-303l-104 217l-103 -217h-275l213 368l-196 347h304l78 -178l76 178h272l-177 -336z" />
    <glyph glyph-name="Psi" unicode="&#x3a8;" horiz-adv-x="961" 
d="M365 152c-223 13 -331 137 -331 312v251h251v-234c0 -73 20 -117 80 -132v366h239v-362c55 17 85 60 85 132v230h238v-234c0 -184 -107 -304 -323 -327v-154h-239v152z" />
    <glyph glyph-name="uni03A9" unicode="&#x3a9;" horiz-adv-x="829" 
d="M298 348c0 -96 27 -160 80 -212v-136h-352v192h84c-52 39 -86 117 -86 183v5c0 211 169 346 389 346c222 0 392 -122 392 -339v-5c0 -73 -36 -150 -86 -190h84v-192h-352v136c53 52 80 120 80 212v8c0 120 -50 163 -118 163c-67 0 -115 -43 -115 -163v-8z" />
    <glyph glyph-name="Iotadieresis" unicode="&#x3aa;" horiz-adv-x="391" 
d="M330 0h-269v715h269v-715zM173 802c-16 -36 -52 -60 -95 -60c-57 0 -102 43 -102 99s45 99 102 99s103 -43 103 -99c0 -14 -3 -27 -8 -39zM414 841c0 -56 -44 -99 -103 -99c-56 0 -101 43 -101 99s45 99 101 99c59 0 103 -43 103 -99z" />
    <glyph glyph-name="Upsilondieresis" unicode="&#x3ab;" horiz-adv-x="718" 
d="M498 0h-268v303l-230 412h288l87 -194l90 194h253l-220 -411v-304zM347 802c-16 -36 -52 -60 -95 -60c-57 0 -102 43 -102 99s45 99 102 99s103 -43 103 -99c0 -14 -3 -27 -8 -39zM588 841c0 -56 -44 -99 -103 -99c-56 0 -101 43 -101 99s45 99 101 99
c59 0 103 -43 103 -99z" />
    <glyph glyph-name="alphatonos" unicode="&#x3ac;" horiz-adv-x="650" 
d="M321 159c48 0 69 34 69 101v8c0 64 -23 103 -70 103c-48 0 -71 -31 -71 -103v-8c0 -67 21 -101 72 -101zM230 -14c-113 0 -213 83 -213 272v8c0 188 98 273 211 273c80 0 127 -30 156 -85v69h229v-523h-229v76c-24 -49 -74 -90 -154 -90zM425 568h-163l49 175h219z" />
    <glyph glyph-name="epsilontonos" unicode="&#x3ad;" horiz-adv-x="591" 
d="M126 274c-52 10 -99 56 -99 115c0 82 71 150 269 150c133 0 260 -40 281 -187h-213c0 18 -9 44 -53 44c-31 0 -51 -11 -51 -38c0 -15 8 -35 39 -35h87v-109h-85c-37 0 -53 -14 -53 -35s17 -40 65 -40c47 0 59 22 62 46h207c-11 -127 -98 -199 -283 -199
c-197 0 -284 61 -284 164c0 60 38 109 111 124zM395 568h-163l49 175h219z" />
    <glyph glyph-name="etatonos" unicode="&#x3ae;" horiz-adv-x="638" 
d="M37 523h229v-84c31 56 86 100 174 100c97 0 164 -64 164 -189v-522h-229v464c0 43 -14 65 -50 65c-41 0 -59 -23 -59 -76v-281h-229v523zM395 568h-163l49 175h219z" />
    <glyph glyph-name="iotatonos" unicode="&#x3af;" horiz-adv-x="316" 
d="M44 523h228v-523h-228v523zM242 568h-163l49 175h219z" />
    <glyph glyph-name="upsilondieresistonos" unicode="&#x3b0;" horiz-adv-x="628" 
d="M314 -14c-199 0 -284 109 -284 261v276h229v-294c0 -49 15 -75 55 -75c39 0 55 25 55 72v297h229v-271c0 -157 -85 -266 -284 -266zM281 763h154l-85 -195h-118zM507 562c-49 0 -87 37 -87 85s38 85 87 85c51 0 88 -37 88 -85s-37 -85 -88 -85zM133 562
c-48 0 -88 37 -88 85s40 85 88 85s88 -37 88 -85s-40 -85 -88 -85z" />
    <glyph glyph-name="alpha" unicode="&#x3b1;" horiz-adv-x="650" 
d="M321 159c48 0 69 34 69 101v8c0 64 -23 103 -70 103c-48 0 -71 -31 -71 -103v-8c0 -67 21 -101 72 -101zM230 -14c-113 0 -213 83 -213 272v8c0 188 98 273 211 273c80 0 127 -30 156 -85v69h229v-523h-229v76c-24 -49 -74 -90 -154 -90z" />
    <glyph glyph-name="beta" unicode="&#x3b2;" horiz-adv-x="649" 
d="M312 471c59 -3 83 26 83 66v5c0 31 -25 57 -66 57c-39 0 -63 -29 -63 -81v-276c0 -52 30 -82 66 -82c39 0 70 25 70 85v5c0 56 -23 88 -90 85v136zM490 414c96 -25 144 -101 144 -189v-7c0 -132 -92 -224 -224 -224c-59 0 -115 26 -144 82v-248h-229v677
c0 179 124 248 288 248c156 0 273 -64 273 -191v-4c0 -63 -44 -125 -108 -144z" />
    <glyph glyph-name="gamma" unicode="&#x3b3;" horiz-adv-x="647" 
d="M432 523h216l-210 -516v-179h-228v179l-211 516h246l93 -279z" />
    <glyph glyph-name="delta" unicode="&#x3b4;" horiz-adv-x="632" 
d="M103 743h455v-170h-164l88 -82c88 -80 135 -145 135 -237v-8c0 -154 -134 -260 -301 -260s-301 92 -301 257v8c0 120 78 217 214 217c4 0 10 0 17 -1l-143 133v143zM385 257c0 60 -25 95 -68 95c-47 0 -70 -32 -70 -92v-8c0 -64 19 -100 70 -100c48 0 68 37 68 97v8z" />
    <glyph glyph-name="epsilon" unicode="&#x3b5;" horiz-adv-x="591" 
d="M126 274c-52 10 -99 56 -99 115c0 82 71 150 269 150c133 0 260 -40 281 -187h-213c0 18 -9 44 -53 44c-31 0 -51 -11 -51 -38c0 -15 8 -35 39 -35h87v-109h-85c-37 0 -53 -14 -53 -35s17 -40 65 -40c47 0 59 22 62 46h207c-11 -127 -98 -199 -283 -199
c-197 0 -284 61 -284 164c0 60 38 109 111 124z" />
    <glyph glyph-name="zeta" unicode="&#x3b6;" horiz-adv-x="525" 
d="M256 0c-164 0 -241 80 -241 215c0 110 77 245 170 338h-134v190h482v-46c-140 -148 -283 -367 -283 -458c0 -47 22 -60 74 -60h27c117 0 171 -67 171 -159c0 -59 -22 -129 -33 -164h-172c8 20 21 70 21 88c0 37 -17 56 -52 56h-30z" />
    <glyph glyph-name="eta" unicode="&#x3b7;" horiz-adv-x="638" 
d="M37 523h229v-84c31 56 86 100 174 100c97 0 164 -64 164 -189v-522h-229v464c0 43 -14 65 -50 65c-41 0 -59 -23 -59 -76v-281h-229v523z" />
    <glyph glyph-name="theta" unicode="&#x3b8;" horiz-adv-x="648" 
d="M622 365c0 -226 -90 -379 -298 -379c-206 0 -298 148 -298 372v24c0 224 112 371 298 371c184 0 298 -129 298 -365v-23zM405 441c-3 93 -18 147 -81 147s-80 -56 -81 -147h162zM326 150c60 0 76 55 79 142h-162c1 -88 18 -142 83 -142z" />
    <glyph glyph-name="iota" unicode="&#x3b9;" horiz-adv-x="316" 
d="M44 523h228v-523h-228v523z" />
    <glyph glyph-name="kappa" unicode="&#x3ba;" horiz-adv-x="615" 
d="M266 191v-191h-229v523h229v-190l113 190h233l-152 -240l156 -283h-252z" />
    <glyph glyph-name="lambda" unicode="&#x3bb;" horiz-adv-x="630" 
d="M189 529c-17 41 -36 53 -76 53c-23 0 -49 -4 -68 -11v162c33 11 87 20 138 20c80 0 155 -24 214 -176l145 -373c8 -20 20 -34 43 -34c15 0 37 3 41 4v-169c-25 -11 -71 -15 -110 -15c-84 0 -134 43 -166 131l-50 136l-74 -257h-237l207 512z" />
    <glyph glyph-name="uni03BC" unicode="&#x3bc;" horiz-adv-x="638" 
d="M37 523h229v-308c0 -43 17 -65 50 -65c43 0 60 23 60 76v297h229v-523h-225v65c-13 -44 -34 -62 -65 -62c-23 0 -38 12 -49 28v-203h-229v695z" />
    <glyph glyph-name="nu" unicode="&#x3bd;" horiz-adv-x="624" 
d="M433 0h-241l-193 523h244l84 -284l84 284h214z" />
    <glyph glyph-name="xi" unicode="&#x3be;" horiz-adv-x="534" 
d="M367 179c117 0 166 -67 166 -159c0 -59 -22 -129 -33 -164h-172c8 20 21 70 21 88c0 37 -17 56 -52 56h-23c-164 0 -259 74 -259 209c0 88 62 151 145 167c-69 21 -103 58 -103 113c0 51 34 87 85 103h-111v151h481v-176h-152c-49 0 -78 -13 -78 -52c0 -31 27 -51 78 -51
h108v-175h-136c-55 0 -84 -14 -84 -57c0 -41 33 -53 76 -53h43z" />
    <glyph glyph-name="omicron" unicode="&#x3bf;" horiz-adv-x="632" 
d="M385 267c0 72 -19 105 -68 105c-47 0 -70 -30 -70 -102v-8c0 -76 19 -110 70 -110c48 0 68 35 68 107v8zM617 261c0 -176 -134 -275 -301 -275s-301 91 -301 268v8c0 173 133 277 302 277c167 0 300 -98 300 -270v-8z" />
    <glyph glyph-name="pi" unicode="&#x3c0;" horiz-adv-x="685" 
d="M389 362h-93v-362h-228v362h-61v161h671v-161h-61v-362h-228v362z" />
    <glyph glyph-name="rho" unicode="&#x3c1;" horiz-adv-x="637" 
d="M322 152c48 0 68 35 68 107v8c0 72 -19 105 -68 105c-47 0 -70 -30 -70 -102v-8c0 -76 19 -110 70 -110zM378 -3c-43 0 -100 24 -124 73v-242h-229v434c0 173 128 277 297 277c167 0 300 -98 300 -270v-8c0 -172 -112 -264 -244 -264z" />
    <glyph glyph-name="uni03C2" unicode="&#x3c2;" horiz-adv-x="590" 
d="M248 266c0 -57 27 -92 88 -92h14c119 0 183 -62 183 -154c0 -59 -22 -129 -33 -164h-172c5 22 21 67 21 92c0 39 -16 52 -52 52h-4c-160 0 -278 97 -278 254v8c0 182 130 277 292 277c137 0 263 -59 271 -231h-214c-7 31 -18 56 -57 56c-43 0 -59 -28 -59 -88v-10z" />
    <glyph glyph-name="sigma" unicode="&#x3c3;" horiz-adv-x="665" 
d="M316 -14c-167 0 -301 91 -301 268v8c0 173 127 261 296 261h347v-161h-104c39 -24 56 -74 56 -113v-6c0 -165 -127 -257 -294 -257zM317 152c48 0 68 35 68 107v10c0 72 -19 105 -68 105c-47 0 -70 -30 -70 -102v-10c0 -76 19 -110 70 -110z" />
    <glyph glyph-name="tau" unicode="&#x3c4;" horiz-adv-x="503" 
d="M327 -9c-132 0 -198 67 -198 212v159h-122v161h481v-161h-130v-133c0 -49 16 -64 60 -64c13 0 33 1 48 4v-167c-35 -7 -70 -11 -139 -11z" />
    <glyph glyph-name="upsilon" unicode="&#x3c5;" horiz-adv-x="628" 
d="M314 -14c-199 0 -284 109 -284 261v276h229v-294c0 -49 15 -75 55 -75c39 0 55 25 55 72v297h229v-271c0 -157 -85 -266 -284 -266z" />
    <glyph glyph-name="phi" unicode="&#x3c6;" horiz-adv-x="867" 
d="M852 261c0 -180 -133 -264 -306 -267v-166h-225v166c-173 3 -306 77 -306 267v8c0 142 83 242 263 263v-166c-32 -15 -39 -43 -39 -102v-8c0 -69 18 -102 82 -107v381c32 5 98 9 162 9c221 0 369 -98 369 -270v-8zM628 267c0 64 -13 109 -82 109v-227c69 0 82 46 82 110
v8z" />
    <glyph glyph-name="chi" unicode="&#x3c7;" horiz-adv-x="625" 
d="M175 201l-69 116c-16 27 -34 37 -61 37c-11 0 -26 -2 -38 -6v162c39 19 81 26 116 26c75 0 128 -18 168 -95l42 -81l63 163h228l-178 -341l92 -151c15 -23 29 -30 50 -30c11 0 22 1 33 4v-166c-43 -15 -90 -17 -117 -17c-64 0 -120 25 -165 108l-51 94l-82 -196h-218z
" />
    <glyph glyph-name="psi" unicode="&#x3c8;" horiz-adv-x="883" 
d="M257 257c0 -60 21 -101 72 -105v371h225v-371c49 4 72 45 72 105v266h227v-262c0 -190 -148 -262 -299 -265v-168h-225v168c-158 0 -299 66 -299 261v266h227v-266z" />
    <glyph glyph-name="omega" unicode="&#x3c9;" horiz-adv-x="866" 
d="M545 220c0 -43 3 -69 34 -69c27 0 40 33 40 98v8c0 71 -12 104 -64 119v163c193 -7 296 -109 296 -284v-8c0 -155 -87 -261 -242 -261c-108 0 -152 57 -176 106c-24 -49 -77 -106 -175 -106c-163 0 -243 106 -243 261v8c0 175 103 277 296 284v-163
c-51 -15 -64 -47 -64 -118v-8c0 -64 13 -99 40 -99c31 0 34 26 34 69v128h224v-128z" />
    <glyph glyph-name="iotadieresis" unicode="&#x3ca;" horiz-adv-x="316" 
d="M44 523h228v-523h-228v523zM140 612c-16 -36 -52 -60 -95 -60c-57 0 -102 43 -102 99s45 99 102 99s103 -43 103 -99c0 -14 -3 -27 -8 -39zM373 651c0 -56 -44 -99 -103 -99c-56 0 -101 43 -101 99s45 99 101 99c59 0 103 -43 103 -99z" />
    <glyph glyph-name="upsilondieresis" unicode="&#x3cb;" horiz-adv-x="628" 
d="M314 -14c-199 0 -284 109 -284 261v276h229v-294c0 -49 15 -75 55 -75c39 0 55 25 55 72v297h229v-271c0 -157 -85 -266 -284 -266zM296 612c-16 -36 -52 -60 -95 -60c-57 0 -102 43 -102 99s45 99 102 99s103 -43 103 -99c0 -14 -3 -27 -8 -39zM529 651
c0 -56 -44 -99 -103 -99c-56 0 -101 43 -101 99s45 99 101 99c59 0 103 -43 103 -99z" />
    <glyph glyph-name="omicrontonos" unicode="&#x3cc;" horiz-adv-x="632" 
d="M385 267c0 72 -19 105 -68 105c-47 0 -70 -30 -70 -102v-8c0 -76 19 -110 70 -110c48 0 68 35 68 107v8zM617 261c0 -176 -134 -275 -301 -275s-301 91 -301 268v8c0 173 133 277 302 277c167 0 300 -98 300 -270v-8zM397 568h-163l49 175h219z" />
    <glyph glyph-name="upsilontonos" unicode="&#x3cd;" horiz-adv-x="628" 
d="M314 -14c-199 0 -284 109 -284 261v276h229v-294c0 -49 15 -75 55 -75c39 0 55 25 55 72v297h229v-271c0 -157 -85 -266 -284 -266zM395 568h-163l49 175h219z" />
    <glyph glyph-name="omegatonos" unicode="&#x3ce;" horiz-adv-x="866" 
d="M545 220c0 -43 3 -69 34 -69c27 0 40 33 40 98v8c0 71 -12 104 -64 119v163c193 -7 296 -109 296 -284v-8c0 -155 -87 -261 -242 -261c-108 0 -152 57 -176 106c-24 -49 -77 -106 -175 -106c-163 0 -243 106 -243 261v8c0 175 103 277 296 284v-163
c-51 -15 -64 -47 -64 -118v-8c0 -64 13 -99 40 -99c31 0 34 26 34 69v128h224v-128zM515 568h-163l49 175h219z" />
    <glyph glyph-name="uni0401" unicode="&#x401;" horiz-adv-x="635" 
d="M607 0h-549v715h534v-203h-269v-61h212v-184h-212v-64h284v-203zM311 802c-16 -36 -52 -60 -95 -60c-57 0 -102 43 -102 99s45 99 102 99s103 -43 103 -99c0 -14 -3 -27 -8 -39zM552 841c0 -56 -44 -99 -103 -99c-56 0 -101 43 -101 99s45 99 101 99
c59 0 103 -43 103 -99z" />
    <glyph glyph-name="uni0402" unicode="&#x402;" horiz-adv-x="898" 
d="M458 422c10 6 23 11 38 16c25 8 64 16 116 16c146 0 262 -84 262 -240c0 -139 -82 -243 -246 -243c-43 0 -74 7 -95 14c-12 4 -22 9 -31 14v160l16 -6c11 -3 23 -5 36 -5c31 0 56 16 56 61c0 43 -24 57 -67 57c-29 0 -49 -6 -64 -13c-8 -3 -15 -7 -21 -12v-241h-268v511
h-173v204h614v-204h-173v-89z" />
    <glyph glyph-name="uni0403" unicode="&#x403;" horiz-adv-x="584" 
d="M58 715h507v-204h-240v-511h-267v715zM390 753h-173l49 155h229z" />
    <glyph glyph-name="uni0404" unicode="&#x404;" horiz-adv-x="774" 
d="M760 247c-28 -173 -160 -261 -353 -261c-267 0 -387 148 -387 367v8c0 224 164 365 380 365c192 0 314 -76 349 -253h-275c-11 31 -38 48 -73 48c-44 0 -76 -22 -91 -73h191v-174h-194c12 -53 48 -80 99 -80c39 0 73 16 88 53h266z" />
    <glyph glyph-name="uni0405" unicode="&#x405;" horiz-adv-x="663" 
d="M264 232c3 -35 20 -61 75 -61c43 0 55 15 55 38c0 25 -21 37 -81 44c-213 24 -286 81 -286 234c0 139 112 239 301 239c188 0 288 -72 300 -237h-246c-3 31 -20 52 -55 52c-32 0 -48 -11 -48 -34c0 -24 19 -36 80 -43c177 -16 290 -60 290 -226
c0 -137 -105 -252 -310 -252c-204 0 -323 73 -326 246h251z" />
    <glyph glyph-name="uni0406" unicode="&#x406;" horiz-adv-x="391" 
d="M330 0h-269v715h269v-715z" />
    <glyph glyph-name="uni0407" unicode="&#x407;" horiz-adv-x="391" 
d="M330 0h-269v715h269v-715zM173 802c-16 -36 -52 -60 -95 -60c-57 0 -102 43 -102 99s45 99 102 99s103 -43 103 -99c0 -14 -3 -27 -8 -39zM414 841c0 -56 -44 -99 -103 -99c-56 0 -101 43 -101 99s45 99 101 99c59 0 103 -43 103 -99z" />
    <glyph glyph-name="uni0408" unicode="&#x408;" horiz-adv-x="508" 
d="M462 281c0 -187 -87 -290 -286 -290c-75 0 -111 10 -146 27v194c23 -7 44 -11 83 -11c48 0 82 17 82 80v434h267v-434z" />
    <glyph glyph-name="uni0409" unicode="&#x409;" horiz-adv-x="1061" 
d="M436 512h-92c-3 -84 -5 -176 -13 -249c-16 -165 -75 -277 -220 -277c-29 0 -53 3 -70 7c-10 2 -19 4 -26 7v195l8 -4c5 -2 13 -3 24 -3c44 0 60 48 69 143c5 51 8 149 11 231c1 49 2 100 2 153h574v-216h49c199 0 293 -92 293 -240v-4c0 -155 -79 -255 -306 -255h-303
v512zM723 191c47 0 71 20 71 59v4c0 42 -24 63 -72 63h-19v-126h20z" />
    <glyph glyph-name="uni040A" unicode="&#x40a;" horiz-adv-x="1101" 
d="M763 191c47 0 71 20 71 59v4c0 42 -24 63 -72 63h-19v-126h20zM476 263h-151v-263h-267v715h267v-247h151v247h267v-216h49c199 0 293 -92 293 -240v-4c0 -155 -79 -255 -306 -255h-303v263z" />
    <glyph glyph-name="uni040B" unicode="&#x40b;" horiz-adv-x="908" 
d="M458 422c10 6 23 11 38 16c25 8 64 16 116 16c175 0 263 -90 263 -285v-169h-266v178c0 64 -24 88 -80 88c-24 0 -41 -6 -53 -13c-7 -3 -13 -7 -18 -12v-241h-268v511h-173v204h614v-204h-173v-89z" />
    <glyph glyph-name="uni040C" unicode="&#x40c;" horiz-adv-x="782" 
d="M473 753h-173l49 155h229zM778 0h-305l-148 257v-257h-267v715h267v-244l166 244h274l-233 -325z" />
    <glyph glyph-name="uni040D" unicode="&#x40d;" horiz-adv-x="827" 
d="M58 0v715h267v-351l185 351h259v-715h-266v351l-185 -351h-260zM511 753h-173l-101 155h229z" />
    <glyph glyph-name="uni040E" unicode="&#x40e;" horiz-adv-x="711" 
d="M374 744c-113 0 -178 59 -185 164h146c0 -22 5 -46 39 -46c32 0 36 25 39 46h146c-9 -105 -77 -164 -185 -164zM237 -14c-72 1 -125 17 -125 18v199c3 -2 8 -4 15 -5c11 -3 28 -4 56 -4c19 0 34 2 46 7l-226 514h273l100 -260l96 260h239l-189 -470
c-72 -179 -131 -259 -285 -259z" />
    <glyph glyph-name="uni040F" unicode="&#x40f;" horiz-adv-x="802" 
d="M58 0v715h267v-512h153v512h266v-715h-235l-10 -130h-206l-10 130h-225z" />
    <glyph glyph-name="uni0410" unicode="&#x410;" horiz-adv-x="784" 
d="M783 0h-284l-24 95h-202l-24 -95h-248l220 715h343zM431 273l-56 228l-58 -228h114z" />
    <glyph glyph-name="uni0411" unicode="&#x411;" horiz-adv-x="709" 
d="M693 237c0 -159 -78 -237 -273 -237h-362v715h557v-203h-298v-58h102c195 0 274 -90 274 -213v-4zM365 172c45 0 66 27 66 63v4c0 36 -18 61 -69 61h-45v-128h48z" />
    <glyph glyph-name="uni0412" unicode="&#x412;" horiz-adv-x="709" 
d="M693 199c0 -125 -78 -199 -273 -199h-362v715h373c188 0 247 -92 247 -188v-4c0 -88 -48 -138 -128 -155c80 -11 143 -64 143 -165v-4zM431 234c0 36 -18 57 -69 57h-45v-119h48c45 0 66 22 66 58v4zM428 495c0 32 -16 49 -59 49h-52v-99h52c43 0 59 14 59 46v4z" />
    <glyph glyph-name="uni0413" unicode="&#x413;" horiz-adv-x="584" 
d="M58 715h507v-204h-240v-511h-267v715z" />
    <glyph glyph-name="uni0414" unicode="&#x414;" horiz-adv-x="796" 
d="M323 288c-4 -33 -11 -62 -24 -85h155v312h-118c-3 -80 -6 -164 -13 -227zM222 -130h-226v333h50c35 13 54 56 63 128c5 42 7 137 10 223l3 161h594v-512h80v-333h-226l-10 130h-328z" />
    <glyph glyph-name="uni0415" unicode="&#x415;" horiz-adv-x="635" 
d="M607 0h-549v715h534v-203h-269v-61h212v-184h-212v-64h284v-203z" />
    <glyph glyph-name="uni0416" unicode="&#x416;" horiz-adv-x="1078" 
d="M406 279l-129 -279h-270l189 374l-187 341h261l136 -267v267h258v-267l136 267h258l-185 -324l198 -391h-289l-118 280v-280h-258v279z" />
    <glyph glyph-name="uni0417" unicode="&#x417;" horiz-adv-x="660" 
d="M329 -13c-196 0 -303 87 -324 251h251c3 -35 19 -66 68 -66c40 0 58 22 58 57s-17 51 -61 51h-68v167h75c35 0 51 17 51 48c0 30 -18 45 -55 45c-51 0 -66 -31 -69 -66h-233c19 148 119 251 319 251c183 0 288 -87 288 -202c0 -88 -48 -138 -128 -155
c80 -11 143 -66 143 -167c0 -124 -130 -214 -315 -214z" />
    <glyph glyph-name="uni0418" unicode="&#x418;" horiz-adv-x="827" 
d="M58 0v715h267v-351l185 351h259v-715h-266v351l-185 -351h-260z" />
    <glyph glyph-name="uni0419" unicode="&#x419;" horiz-adv-x="827" 
d="M404 744c-113 0 -178 59 -185 164h146c0 -22 5 -46 39 -46c32 0 36 25 39 46h146c-9 -105 -77 -164 -185 -164zM58 0v715h267v-351l185 351h259v-715h-266v351l-185 -351h-260z" />
    <glyph glyph-name="uni041A" unicode="&#x41a;" horiz-adv-x="782" 
d="M778 0h-305l-148 257v-257h-267v715h267v-244l166 244h274l-233 -325z" />
    <glyph glyph-name="uni041B" unicode="&#x41b;" horiz-adv-x="770" 
d="M331 263c-16 -165 -75 -277 -220 -277c-29 0 -53 3 -70 7c-10 2 -19 4 -26 7v195l8 -4c5 -2 13 -3 24 -3c44 0 60 48 69 143c5 51 8 149 11 231c1 49 2 100 2 153h583v-715h-266v512h-102c-3 -84 -5 -176 -13 -249z" />
    <glyph glyph-name="uni041C" unicode="&#x41c;" horiz-adv-x="986" 
d="M927 0h-265v380l-142 -380h-90l-136 380v-380h-236v715h342l94 -286l97 286h336v-715z" />
    <glyph glyph-name="uni041D" unicode="&#x41d;" horiz-adv-x="812" 
d="M754 0h-266v263h-163v-263h-267v715h267v-247h163v247h266v-715z" />
    <glyph glyph-name="uni041E" unicode="&#x41e;" horiz-adv-x="823" 
d="M526 362c0 111 -48 157 -116 157s-113 -48 -113 -157v-8c0 -108 41 -160 114 -160c72 0 115 56 115 160v8zM804 360c0 -229 -157 -374 -400 -374c-240 0 -385 145 -385 367v8c0 226 175 365 391 365c221 0 394 -125 394 -358v-8z" />
    <glyph glyph-name="uni041F" unicode="&#x41f;" horiz-adv-x="802" 
d="M478 510h-153v-510h-267v715h686v-715h-266v510z" />
    <glyph glyph-name="uni0420" unicode="&#x420;" horiz-adv-x="688" 
d="M323 0h-265v715h308c227 0 306 -100 306 -255v-4c0 -148 -94 -240 -293 -240h-56v-216zM421 459c0 39 -24 59 -71 59h-27v-126h26c48 0 72 21 72 63v4z" />
    <glyph glyph-name="uni0421" unicode="&#x421;" horiz-adv-x="774" 
d="M763 285c-8 -195 -152 -299 -350 -299c-272 0 -393 148 -393 367v8c0 224 164 365 380 365c206 0 335 -91 354 -296h-276c-3 55 -30 86 -77 86c-64 0 -100 -50 -100 -154v-8c0 -101 36 -155 105 -155c49 0 84 26 91 86h266z" />
    <glyph glyph-name="uni0422" unicode="&#x422;" horiz-adv-x="648" 
d="M458 0h-268v511h-173v204h614v-204h-173v-511z" />
    <glyph glyph-name="uni0423" unicode="&#x423;" horiz-adv-x="711" 
d="M237 -14c-72 1 -125 17 -125 18v199c3 -2 8 -4 15 -5c11 -3 28 -4 56 -4c19 0 34 2 46 7l-226 514h273l100 -260l96 260h239l-189 -470c-72 -179 -131 -259 -285 -259z" />
    <glyph glyph-name="uni0424" unicode="&#x424;" horiz-adv-x="949" 
d="M606 644c209 -4 327 -103 327 -282v-8c0 -179 -144 -276 -327 -279v-85h-263v85c-209 4 -327 103 -327 282v8c0 180 144 274 327 279v91h263v-91zM343 472c-45 0 -83 -29 -83 -106v-8c0 -79 35 -110 83 -110v224zM606 247c45 0 83 28 83 106v8c0 79 -35 110 -83 110v-224
z" />
    <glyph glyph-name="uni0425" unicode="&#x425;" horiz-adv-x="805" 
d="M795 0h-303l-104 217l-103 -217h-275l213 368l-196 347h304l78 -178l76 178h272l-177 -336z" />
    <glyph glyph-name="uni0426" unicode="&#x426;" horiz-adv-x="824" 
d="M597 -130l-9 130h-530v715h267v-512h153v512h266v-512h80l-1 -333h-226z" />
    <glyph glyph-name="uni0427" unicode="&#x427;" horiz-adv-x="776" 
d="M452 0v250c-35 -15 -72 -24 -119 -24c-199 0 -301 91 -301 302v187h266v-203c0 -64 23 -98 90 -98c31 0 51 9 64 20v281h266v-715h-266z" />
    <glyph glyph-name="uni0428" unicode="&#x428;" horiz-adv-x="1092" 
d="M58 715h257v-512h103v512h257v-512h103v512h256v-715h-976v715z" />
    <glyph glyph-name="uni0429" unicode="&#x429;" horiz-adv-x="1124" 
d="M897 -130l-9 130h-830v715h257v-512h103v512h257v-512h103v512h256v-512h90l-1 -333h-226z" />
    <glyph glyph-name="uni042A" unicode="&#x42a;" horiz-adv-x="792" 
d="M162 512h-150v203h417v-216h54c199 0 293 -92 293 -240v-4c0 -155 -79 -255 -306 -255h-308v512zM454 191c47 0 71 20 71 59v4c0 42 -24 63 -72 63h-24v-126h25z" />
    <glyph glyph-name="uni042B" unicode="&#x42b;" horiz-adv-x="1006" 
d="M948 0h-262v715h262v-715zM58 715h262v-216h51c199 0 289 -92 289 -240v-4c0 -155 -76 -255 -302 -255h-300v715zM342 191c47 0 71 20 71 59v4c0 42 -24 63 -72 63h-21v-126h22z" />
    <glyph glyph-name="uni042C" unicode="&#x42c;" horiz-adv-x="688" 
d="M58 715h267v-216h54c199 0 293 -92 293 -240v-4c0 -155 -79 -255 -306 -255h-308v715zM350 191c47 0 71 20 71 59v4c0 42 -24 63 -72 63h-24v-126h25z" />
    <glyph glyph-name="uni042D" unicode="&#x42d;" horiz-adv-x="771" 
d="M366 -14c-183 0 -328 88 -355 261h266c15 -37 51 -53 90 -53c51 0 82 29 97 80h-194v174h195c-15 51 -43 73 -91 73c-35 0 -64 -17 -75 -48h-271c31 168 154 253 347 253c216 0 376 -135 376 -359v-8c0 -219 -119 -373 -385 -373z" />
    <glyph glyph-name="uni042E" unicode="&#x42e;" horiz-adv-x="1123" 
d="M714 -14c-203 0 -327 109 -356 283h-34v-269h-266v715h266v-258h38c40 168 178 269 358 269c217 0 384 -125 384 -358v-8c0 -229 -153 -374 -390 -374zM720 194c65 0 106 56 106 160v8c0 111 -43 157 -107 157c-63 0 -104 -48 -104 -157v-8c0 -108 37 -160 105 -160z" />
    <glyph glyph-name="uni042F" unicode="&#x42f;" horiz-adv-x="735" 
d="M380 525c-43 0 -71 -19 -71 -60v-4c0 -42 24 -63 72 -63h34v127h-35zM276 0h-270l172 292c-68 24 -120 94 -120 177v4c0 155 83 242 306 242h313v-715h-262v238h-14z" />
    <glyph glyph-name="uni0430" unicode="&#x430;" horiz-adv-x="598" 
d="M564 0h-220v59c-19 -32 -63 -73 -151 -73c-93 0 -178 46 -178 159c0 124 91 171 286 171h37v3c0 33 -2 65 -47 65c-37 0 -43 -29 -46 -45h-212c7 129 108 200 272 200c171 0 259 -66 259 -203v-336zM338 200h-35c-54 0 -63 -10 -63 -35c0 -19 14 -29 42 -29
c33 0 56 20 56 47v17z" />
    <glyph glyph-name="uni0431" unicode="&#x431;" horiz-adv-x="632" 
d="M317 -14c-165 0 -299 87 -299 330v11c0 269 119 397 330 410l48 3c85 5 138 16 165 24v-171c-47 -20 -109 -27 -169 -30l-36 -2c-111 -7 -158 -49 -175 -140h5c31 52 98 91 185 91c145 0 246 -93 246 -257v-7c0 -168 -134 -262 -300 -262zM318 144c48 0 67 33 67 102v7
c0 68 -18 100 -67 100c-47 0 -70 -29 -70 -97v-7c0 -72 19 -105 70 -105z" />
    <glyph glyph-name="uni0432" unicode="&#x432;" horiz-adv-x="594" 
d="M37 523h346c136 0 180 -67 180 -138v-3c0 -64 -36 -101 -93 -113c57 -8 104 -46 104 -121v-3c0 -91 -58 -145 -199 -145h-338v523zM259 399v-75h40c31 0 43 11 43 35v3c0 23 -11 37 -43 37h-40zM259 214v-89h37c33 0 49 16 49 43v3c0 27 -14 43 -51 43h-35z" />
    <glyph glyph-name="uni0433" unicode="&#x433;" horiz-adv-x="477" 
d="M265 359v-359h-228v523h422v-164h-194z" />
    <glyph glyph-name="uni0434" unicode="&#x434;" horiz-adv-x="645" 
d="M261 266c-4 -40 -10 -74 -21 -102h103v200h-77c-1 -35 -2 -70 -5 -98zM202 -127h-192v291h30c27 13 36 48 43 124c3 45 6 103 7 151c1 27 1 55 1 84h475v-359h69v-291h-192l-6 127h-229z" />
    <glyph glyph-name="uni0435" unicode="&#x435;" horiz-adv-x="614" 
d="M601 184c-15 -125 -106 -198 -286 -198c-172 0 -300 93 -300 268v8c0 173 137 277 302 277c154 0 282 -86 282 -275v-49h-354c7 -52 35 -77 78 -77c48 0 62 25 67 46h211zM380 321c-1 43 -19 75 -63 75c-39 0 -64 -24 -71 -75h134z" />
    <glyph glyph-name="uni0436" unicode="&#x436;" horiz-adv-x="841" 
d="M312 194l-72 -194h-230l125 276l-118 247h219l76 -196v196h215v-196l75 196h218l-118 -238l129 -285h-237l-67 194v-194h-215v194z" />
    <glyph glyph-name="uni0437" unicode="&#x437;" horiz-adv-x="557" 
d="M524 387c0 -69 -40 -106 -100 -115c59 -8 113 -42 113 -122v-3c0 -89 -69 -161 -265 -161c-164 0 -249 75 -262 202h200c5 -37 21 -62 53 -62c31 0 45 15 45 42v3c0 27 -14 40 -51 40h-46v112h44c35 0 49 13 49 36v3c0 21 -11 32 -34 32c-31 0 -48 -17 -51 -52h-197
c15 129 113 198 266 198c176 0 236 -75 236 -150v-3z" />
    <glyph glyph-name="uni0438" unicode="&#x438;" horiz-adv-x="636" 
d="M37 0v523h225v-245l120 245h217v-523h-225v241l-120 -241h-217z" />
    <glyph glyph-name="uni0439" unicode="&#x439;" horiz-adv-x="636" 
d="M321 570c-113 0 -175 68 -182 173h143c0 -29 5 -58 39 -58c33 0 36 30 39 58h143c-9 -105 -74 -173 -182 -173zM37 0v523h225v-245l120 245h217v-523h-225v241l-120 -241h-217z" />
    <glyph glyph-name="uni043A" unicode="&#x43a;" horiz-adv-x="609" 
d="M266 184v-184h-229v523h229v-186l101 186h232l-143 -238l154 -285h-251z" />
    <glyph glyph-name="uni043B" unicode="&#x43b;" horiz-adv-x="606" 
d="M277 247c-8 -177 -49 -256 -187 -256c-23 0 -41 2 -54 5l-19 6v148l6 -3c5 -1 12 -2 19 -2c33 0 42 34 46 105c3 55 5 121 6 177l2 96h473v-523h-228v359h-60c-1 -41 -1 -81 -4 -112z" />
    <glyph glyph-name="uni043C" unicode="&#x43c;" horiz-adv-x="788" 
d="M221 286v-286h-182v523h283l72 -213l74 213h281v-523h-226v286l-110 -286h-87z" />
    <glyph glyph-name="uni043D" unicode="&#x43d;" horiz-adv-x="632" 
d="M367 180h-102v-180h-228v523h228v-179h102v179h228v-523h-228v180z" />
    <glyph glyph-name="uni043E" unicode="&#x43e;" horiz-adv-x="632" 
d="M385 267c0 72 -19 105 -68 105c-47 0 -70 -30 -70 -102v-8c0 -76 19 -110 70 -110c48 0 68 35 68 107v8zM617 261c0 -176 -134 -275 -301 -275s-301 91 -301 268v8c0 173 133 277 302 277c167 0 300 -98 300 -270v-8z" />
    <glyph glyph-name="uni043F" unicode="&#x43f;" horiz-adv-x="622" 
d="M357 359h-92v-359h-228v523h548v-523h-228v359z" />
    <glyph glyph-name="uni0440" unicode="&#x440;" horiz-adv-x="651" 
d="M266 -172h-229v695h229v-73c29 49 75 89 155 89c114 0 213 -87 213 -275v-8c0 -189 -102 -270 -215 -270c-75 0 -129 35 -153 86v-244zM402 267c0 69 -24 104 -73 104c-48 0 -69 -39 -69 -103v-8c0 -67 23 -101 69 -101c49 0 73 33 73 100v8z" />
    <glyph glyph-name="uni0441" unicode="&#x441;" horiz-adv-x="590" 
d="M581 215c-3 -141 -92 -229 -281 -229c-161 0 -285 84 -285 268v8c0 182 130 277 292 277c137 0 263 -59 271 -231h-213c-5 31 -11 56 -52 56c-47 0 -65 -29 -65 -98v-8c0 -72 16 -108 68 -108c36 0 56 22 60 65h205z" />
    <glyph glyph-name="uni0442" unicode="&#x442;" horiz-adv-x="528" 
d="M512 359h-134v-359h-228v359h-134v164h496v-164z" />
    <glyph glyph-name="uni0443" unicode="&#x443;" horiz-adv-x="620" 
d="M345 -172h-216l81 224l-211 471h248l82 -229l77 229h215z" />
    <glyph glyph-name="uni0444" unicode="&#x444;" horiz-adv-x="847" 
d="M534 539c167 -8 298 -90 298 -268v-8c0 -174 -130 -269 -298 -277v-158h-221v158c-167 8 -298 90 -298 268v8c0 174 130 269 298 277v204h221v-204zM534 141c47 5 82 42 82 114v8c0 76 -31 117 -82 122v-244zM313 384c-47 -5 -82 -42 -82 -114v-8c0 -76 31 -117 82 -122
v244z" />
    <glyph glyph-name="uni0445" unicode="&#x445;" horiz-adv-x="637" 
d="M634 0h-262l-68 128l-71 -128h-231l168 264l-157 259h262l56 -111l55 111h232l-160 -241z" />
    <glyph glyph-name="uni0446" unicode="&#x446;" horiz-adv-x="664" 
d="M462 -127l-6 127h-419v523h228v-359h92v359h228v-359h69v-291h-192z" />
    <glyph glyph-name="uni0447" unicode="&#x447;" horiz-adv-x="614" 
d="M349 0v214c-27 -27 -77 -62 -157 -62c-103 0 -162 64 -162 191v180h229v-142c0 -39 10 -61 45 -61c27 0 41 12 45 15v188h228v-523h-228z" />
    <glyph glyph-name="uni0448" unicode="&#x448;" horiz-adv-x="887" 
d="M37 523h223v-359h72v359h223v-359h72v359h223v-523h-813v523z" />
    <glyph glyph-name="uni0449" unicode="&#x449;" horiz-adv-x="934" 
d="M732 -127l-6 127h-689v523h223v-359h72v359h223v-359h72v359h223v-359h74v-291h-192z" />
    <glyph glyph-name="uni044A" unicode="&#x44a;" horiz-adv-x="678" 
d="M140 364h-124v159h349v-150h59c156 0 235 -71 235 -179v-3c0 -112 -80 -191 -235 -191h-284v364zM393 131c40 0 55 24 55 55v3c0 31 -16 53 -55 53h-28v-111h28z" />
    <glyph glyph-name="uni044B" unicode="&#x44b;" horiz-adv-x="839" 
d="M579 523h223v-523h-223v523zM37 523h225v-150h59c156 0 232 -71 232 -179v-3c0 -112 -77 -191 -232 -191h-284v523zM290 130c40 0 56 25 56 56v3c0 31 -17 54 -56 54h-28v-113h28z" />
    <glyph glyph-name="uni044C" unicode="&#x44c;" horiz-adv-x="575" 
d="M37 523h225v-150h59c156 0 235 -71 235 -179v-3c0 -112 -80 -191 -235 -191h-284v523zM290 131c40 0 55 24 55 55v3c0 31 -16 53 -55 53h-28v-111h28z" />
    <glyph glyph-name="uni044D" unicode="&#x44d;" horiz-adv-x="590" 
d="M290 -14c-180 0 -268 77 -280 205h206c9 -33 28 -51 63 -51c36 0 53 28 60 65h-128v111h129c-5 36 -22 58 -58 58c-35 0 -48 -21 -52 -42h-216c19 155 138 207 269 207c162 0 292 -87 292 -268v-8c0 -183 -124 -277 -285 -277z" />
    <glyph glyph-name="uni044E" unicode="&#x44e;" horiz-adv-x="895" 
d="M584 -14c-136 0 -245 62 -279 178c-3 7 -4 14 -5 19h-38v-183h-225v523h225v-182h40c32 124 142 198 283 198c168 0 295 -98 295 -270v-8c0 -176 -129 -275 -296 -275zM584 152c48 0 64 35 64 107v8c0 72 -15 105 -64 105c-47 0 -66 -30 -66 -102v-8
c0 -76 15 -110 66 -110z" />
    <glyph glyph-name="uni044F" unicode="&#x44f;" horiz-adv-x="594" 
d="M297 384c-37 0 -55 -15 -55 -46v-3c0 -30 18 -45 55 -45h36v94h-36zM227 0h-220l113 205c-57 23 -93 76 -93 140v3c0 112 89 175 223 175h307v-523h-224v161h-29z" />
    <glyph glyph-name="uni0451" unicode="&#x451;" horiz-adv-x="614" 
d="M601 184c-15 -125 -106 -198 -286 -198c-172 0 -300 93 -300 268v8c0 173 137 277 302 277c154 0 282 -86 282 -275v-49h-354c7 -52 35 -77 78 -77c48 0 62 25 67 46h211zM380 321c-1 43 -19 75 -63 75c-39 0 -64 -24 -71 -75h134zM293 612c-16 -36 -52 -60 -95 -60
c-57 0 -102 43 -102 99s45 99 102 99s103 -43 103 -99c0 -14 -3 -27 -8 -39zM526 651c0 -56 -44 -99 -103 -99c-56 0 -101 43 -101 99s45 99 101 99c59 0 103 -43 103 -99z" />
    <glyph glyph-name="uni0452" unicode="&#x452;" horiz-adv-x="638" 
d="M375 292c0 43 -14 65 -50 65c-41 0 -59 -23 -59 -76v-281h-229v572h-47v114h47v57h229v-57h143v-114h-143v-133c31 56 86 100 174 100c97 0 164 -64 164 -189v-327c0 -120 -58 -204 -285 -204v161c37 3 56 13 56 52v260z" />
    <glyph glyph-name="uni0453" unicode="&#x453;" horiz-adv-x="477" 
d="M331 568h-163l49 175h219zM265 359v-359h-228v523h422v-164h-194z" />
    <glyph glyph-name="uni0454" unicode="&#x454;" horiz-adv-x="590" 
d="M580 191c-12 -128 -100 -205 -280 -205c-161 0 -285 84 -285 268v8c0 182 130 277 292 277c131 0 250 -52 269 -207h-216c-4 21 -17 42 -52 42s-50 -23 -57 -58h128v-111h-128c7 -39 23 -65 60 -65c35 0 54 18 63 51h206z" />
    <glyph glyph-name="uni0455" unicode="&#x455;" horiz-adv-x="539" 
d="M218 172c5 -28 13 -45 48 -45c27 0 39 11 39 26c0 20 -18 29 -85 36c-142 13 -208 49 -208 166c0 125 108 184 248 184c148 0 243 -47 254 -179h-205c-5 23 -17 42 -45 42s-38 -12 -38 -27c0 -19 23 -31 70 -35c163 -16 232 -50 232 -163c0 -139 -106 -191 -261 -191
c-161 0 -255 61 -258 186h209z" />
    <glyph glyph-name="uni0456" unicode="&#x456;" horiz-adv-x="316" 
d="M272 0h-228v523h228v-523zM279 654c0 -65 -52 -112 -121 -112c-71 0 -121 47 -121 112s50 112 121 112c69 0 121 -47 121 -112z" />
    <glyph glyph-name="uni0457" unicode="&#x457;" horiz-adv-x="316" 
d="M140 612c-16 -36 -52 -60 -95 -60c-57 0 -102 43 -102 99s45 99 102 99s103 -43 103 -99c0 -14 -3 -27 -8 -39zM373 651c0 -56 -44 -99 -103 -99c-56 0 -101 43 -101 99s45 99 101 99c59 0 103 -43 103 -99zM272 0h-228v523h228v-523z" />
    <glyph glyph-name="uni0458" unicode="&#x458;" horiz-adv-x="316" 
d="M271 23c0 -120 -58 -204 -285 -204v161c37 3 57 13 57 52v491h228v-500zM279 654c0 -65 -52 -112 -121 -112c-71 0 -121 47 -121 112s50 112 121 112c69 0 121 -47 121 -112z" />
    <glyph glyph-name="uni0459" unicode="&#x459;" horiz-adv-x="859" 
d="M331 359h-50c-1 -41 -1 -81 -4 -112c-8 -177 -49 -256 -187 -256c-23 0 -41 2 -54 5l-19 6v148l6 -3c5 -1 12 -2 19 -2c33 0 42 34 46 105c3 55 5 121 6 177l2 96h460v-150h49c156 0 235 -71 235 -179v-3c0 -112 -80 -191 -235 -191h-274v359zM574 131c40 0 55 24 55 55
v3c0 31 -16 53 -55 53h-18v-111h18z" />
    <glyph glyph-name="uni045A" unicode="&#x45a;" horiz-adv-x="885" 
d="M600 131c40 0 55 24 55 55v3c0 31 -16 53 -55 53h-18v-111h18zM357 180h-92v-180h-228v523h228v-179h92v179h225v-150h49c156 0 235 -71 235 -179v-3c0 -112 -80 -191 -235 -191h-274v180z" />
    <glyph glyph-name="uni045B" unicode="&#x45b;" horiz-adv-x="638" 
d="M-10 686h47v57h229v-57h143v-114h-143v-133c31 56 86 100 174 100c97 0 164 -64 164 -189v-350h-229v292c0 43 -14 65 -50 65c-41 0 -59 -23 -59 -76v-281h-229v572h-47v114z" />
    <glyph glyph-name="uni045C" unicode="&#x45c;" horiz-adv-x="609" 
d="M266 184v-184h-229v523h229v-186l101 186h232l-143 -238l154 -285h-251zM395 568h-163l49 175h219z" />
    <glyph glyph-name="uni045D" unicode="&#x45d;" horiz-adv-x="636" 
d="M37 0v523h225v-245l120 245h217v-523h-225v241l-120 -241h-217zM402 568h-163l-105 175h219z" />
    <glyph glyph-name="uni045E" unicode="&#x45e;" horiz-adv-x="620" 
d="M330 570c-113 0 -175 68 -182 173h143c0 -29 5 -58 39 -58c33 0 36 30 39 58h143c-9 -105 -74 -173 -182 -173zM345 -172h-216l81 224l-211 471h248l82 -229l77 229h215z" />
    <glyph glyph-name="uni045F" unicode="&#x45f;" horiz-adv-x="622" 
d="M37 0v523h228v-359h92v359h228v-523h-177l-2 -127h-188l-3 127h-178z" />
    <glyph glyph-name="uni0490" unicode="&#x490;" horiz-adv-x="596" 
d="M325 511v-511h-267v715h271l10 134h226v-338h-240z" />
    <glyph glyph-name="uni0491" unicode="&#x491;" horiz-adv-x="479" 
d="M265 359v-359h-228v523h224l6 134h192v-298h-194z" />
    <glyph glyph-name="Wgrave" unicode="&#x1e80;" horiz-adv-x="1032" 
d="M862 0h-255l-83 378l-82 -378h-272l-166 715h267l66 -393l67 393h224l83 -398l71 398h246zM613 753h-173l-101 155h229z" />
    <glyph glyph-name="wgrave" unicode="&#x1e81;" horiz-adv-x="871" 
d="M706 0h-212l-62 240l-59 -240h-218l-156 523h237l53 -257l67 257h182l56 -257l66 257h213zM530 568h-163l-105 175h219z" />
    <glyph glyph-name="Wacute" unicode="&#x1e82;" horiz-adv-x="1032" 
d="M862 0h-255l-83 378l-82 -378h-272l-166 715h267l66 -393l67 393h224l83 -398l71 398h246zM596 753h-173l49 155h229z" />
    <glyph glyph-name="wacute" unicode="&#x1e83;" horiz-adv-x="871" 
d="M706 0h-212l-62 240l-59 -240h-218l-156 523h237l53 -257l67 257h182l56 -257l66 257h213zM530 568h-163l49 175h219z" />
    <glyph glyph-name="Wdieresis" unicode="&#x1e84;" horiz-adv-x="1032" 
d="M862 0h-255l-83 378l-82 -378h-272l-166 715h267l66 -393l67 393h224l83 -398l71 398h246zM496 802c-16 -36 -52 -60 -95 -60c-57 0 -102 43 -102 99s45 99 102 99s103 -43 103 -99c0 -14 -3 -27 -8 -39zM737 841c0 -56 -44 -99 -103 -99c-56 0 -101 43 -101 99
s45 99 101 99c59 0 103 -43 103 -99z" />
    <glyph glyph-name="wdieresis" unicode="&#x1e85;" horiz-adv-x="871" 
d="M706 0h-212l-62 240l-59 -240h-218l-156 523h237l53 -257l67 257h182l56 -257l66 257h213zM428 612c-16 -36 -52 -60 -95 -60c-57 0 -102 43 -102 99s45 99 102 99s103 -43 103 -99c0 -14 -3 -27 -8 -39zM661 651c0 -56 -44 -99 -103 -99c-56 0 -101 43 -101 99
s45 99 101 99c59 0 103 -43 103 -99z" />
    <glyph glyph-name="Ygrave" unicode="&#x1ef2;" horiz-adv-x="718" 
d="M498 0h-268v303l-230 412h288l87 -194l90 194h253l-220 -411v-304zM463 753h-173l-101 155h229z" />
    <glyph glyph-name="ygrave" unicode="&#x1ef3;" horiz-adv-x="620" 
d="M345 -172h-216l81 224l-211 471h248l82 -229l77 229h215zM410 568h-163l-105 175h219z" />
    <glyph glyph-name="uni2009" unicode="&#x2009;" horiz-adv-x="75" 
 />
    <glyph glyph-name="endash" unicode="&#x2013;" horiz-adv-x="548" 
d="M502 239h-456v123h456v-123z" />
    <glyph glyph-name="emdash" unicode="&#x2014;" horiz-adv-x="978" 
d="M932 239h-886v123h886v-123z" />
    <glyph glyph-name="quoteleft" unicode="&#x2018;" horiz-adv-x="339" 
d="M224 397l-199 62l147 270l127 -45z" />
    <glyph glyph-name="quoteright" unicode="&#x2019;" horiz-adv-x="339" 
d="M166 397l-126 46l75 286l198 -61z" />
    <glyph glyph-name="quotesinglbase" unicode="&#x201a;" horiz-adv-x="337" 
d="M161 -102l-126 46l75 286l198 -61z" />
    <glyph glyph-name="quotedblleft" unicode="&#x201c;" horiz-adv-x="590" 
d="M224 397l-199 62l147 270l127 -45zM476 397l-198 62l147 270l126 -45z" />
    <glyph glyph-name="quotedblright" unicode="&#x201d;" horiz-adv-x="590" 
d="M166 397l-126 46l75 286l198 -61zM418 397l-126 46l75 286l199 -61z" />
    <glyph glyph-name="quotedblbase" unicode="&#x201e;" horiz-adv-x="590" 
d="M161 -102l-126 46l75 286l198 -61zM413 -102l-126 46l75 286l199 -61z" />
    <glyph glyph-name="dagger" unicode="&#x2020;" horiz-adv-x="421" 
d="M301 213h-181v235h-102v156h102v111h181v-111h102v-156h-102v-235z" />
    <glyph glyph-name="daggerdbl" unicode="&#x2021;" horiz-adv-x="421" 
d="M403 298h-102v-85h-181v85h-102v139h102v54h-102v139h102v85h181v-85h102v-139h-102v-54h102v-139z" />
    <glyph glyph-name="bullet" unicode="&#x2022;" horiz-adv-x="392" 
d="M312 186c-28 -29 -69 -47 -116 -47c-92 0 -162 71 -162 162s70 162 162 162c94 0 162 -71 162 -162c0 -45 -17 -86 -46 -115z" />
    <glyph glyph-name="ellipsis" unicode="&#x2026;" horiz-adv-x="938" 
d="M268 59c-17 -43 -61 -73 -116 -73c-71 0 -122 53 -122 120c0 66 51 120 122 120c73 0 126 -54 126 -120c0 -17 -3 -32 -10 -47zM583 59c-17 -43 -61 -73 -116 -73c-71 0 -122 53 -122 120c0 66 51 120 122 120c73 0 126 -54 126 -120c0 -17 -3 -32 -10 -47zM898 59
c-17 -43 -61 -73 -116 -73c-71 0 -122 53 -122 120c0 66 51 120 122 120c73 0 126 -54 126 -120c0 -17 -3 -32 -10 -47z" />
    <glyph glyph-name="perthousand" unicode="&#x2030;" horiz-adv-x="1272" 
d="M223 479c29 0 42 24 42 63s-13 61 -42 61c-28 0 -43 -24 -43 -60c0 -40 15 -64 43 -64zM372 410c-33 -35 -85 -56 -150 -56c-135 0 -202 82 -202 188c0 103 84 182 203 182c117 0 202 -73 202 -178c0 -53 -18 -101 -53 -136zM218 0h-109l527 715h109zM627 111
c29 0 42 24 42 63s-13 61 -42 61c-28 0 -43 -24 -43 -60c0 -40 15 -64 43 -64zM776 42c-33 -35 -85 -56 -150 -56c-135 0 -202 82 -202 188c0 103 84 182 203 182c117 0 202 -73 202 -178c0 -53 -18 -101 -53 -136zM1050 111c29 0 42 24 42 63s-13 61 -42 61
c-28 0 -43 -24 -43 -60c0 -40 15 -64 43 -64zM1199 42c-33 -35 -85 -56 -150 -56c-135 0 -202 82 -202 188c0 103 84 182 203 182c117 0 202 -73 202 -178c0 -53 -18 -101 -53 -136z" />
    <glyph glyph-name="uni2032" unicode="&#x2032;" horiz-adv-x="269" 
d="M47 715h209l-66 -291h-161z" />
    <glyph glyph-name="uni2033" unicode="&#x2033;" horiz-adv-x="507" 
d="M47 715h209l-66 -291h-161zM285 715h209l-66 -291h-161z" />
    <glyph glyph-name="guilsinglleft" unicode="&#x2039;" horiz-adv-x="299" 
d="M280 63h-142l-122 198l122 198h142l-117 -198z" />
    <glyph glyph-name="guilsinglright" unicode="&#x203a;" horiz-adv-x="299" 
d="M161 63h-142l117 198l-117 198h142l122 -198z" />
    <glyph glyph-name="fraction" unicode="&#x2044;" horiz-adv-x="196" 
d="M-141 0h-109l587 715h109z" />
    <glyph glyph-name="Euro" unicode="&#x20ac;" horiz-adv-x="743" 
d="M727 280c-21 -185 -120 -294 -328 -294c-196 0 -300 112 -324 272h-57v78h52v38h-52v78h58c29 163 156 274 333 274c192 0 299 -91 314 -278h-244c-7 53 -26 79 -73 79c-43 0 -65 -28 -74 -75h112l-13 -78h-104v-38h98l-13 -78h-80c8 -45 30 -69 75 -69c55 0 70 30 77 91
h243z" />
    <glyph glyph-name="uni20B4" unicode="&#x20b4;" horiz-adv-x="675" 
d="M339 -14c-200 0 -302 86 -302 210c0 25 4 48 12 68h-39v78h106c19 13 41 25 68 38h-174v78h362c14 10 21 24 21 41c0 31 -15 42 -46 42c-32 0 -52 -21 -55 -52h-246c15 156 112 237 300 237c184 0 289 -78 289 -192c0 -27 -4 -52 -12 -76h42v-78h-98
c-15 -13 -32 -26 -55 -38h153v-78h-355c-19 -12 -28 -28 -28 -49c0 -23 10 -44 53 -44c54 0 62 26 65 61h248c-12 -160 -105 -246 -309 -246z" />
    <glyph glyph-name="uni20B8" unicode="&#x20b8;" horiz-adv-x="628" 
d="M17 637v78h594v-78h-594zM180 391h-163v204h594v-204h-163v-391h-268v391z" />
    <glyph glyph-name="uni20BD" unicode="&#x20bd;" horiz-adv-x="710" 
d="M371 392c48 0 72 21 72 63v4c0 39 -24 59 -71 59h-27v-126h26zM345 100v-100h-265v100h-80v78h80v38h-80v78h80v421h308c227 0 306 -100 306 -255v-4c0 -148 -94 -240 -293 -240h-56v-38h205v-78h-205z" />
    <glyph glyph-name="uni2116" unicode="&#x2116;" horiz-adv-x="1214" 
d="M969 322c-123 0 -222 63 -222 194v5c0 129 99 202 223 202c123 0 222 -69 222 -196v-5c0 -129 -100 -200 -223 -200zM970 455c29 0 37 19 37 66v5c0 45 -8 63 -37 63c-25 0 -38 -17 -38 -61v-5c0 -49 9 -68 38 -68zM58 715h297l119 -312v312h232v-715h-253l-162 370v-370
h-233v715zM761 279h417v-108h-417v108z" />
    <glyph glyph-name="trademark" unicode="&#x2122;" horiz-adv-x="783" 
d="M741 394h-135v148l-56 -148h-41l-54 148v-148h-114v321h154l43 -123l46 123h157v-321zM235 394h-133v216h-76v105h285v-105h-76v-216z" />
    <glyph glyph-name="Omega" unicode="&#x2126;" horiz-adv-x="829" 
d="M298 348c0 -96 27 -160 80 -212v-136h-352v192h84c-52 39 -86 117 -86 183v5c0 211 169 346 389 346c222 0 392 -122 392 -339v-5c0 -73 -36 -150 -86 -190h84v-192h-352v136c53 52 80 120 80 212v8c0 120 -50 163 -118 163c-67 0 -115 -43 -115 -163v-8z" />
    <glyph glyph-name="onethird" unicode="&#x2153;" horiz-adv-x="859" 
d="M104 555l-83 -42v132l108 70h142v-393h-167v233zM174 0h-109l587 715h109zM654 -8c-137 0 -183 62 -188 145h145c3 -19 12 -32 33 -32c17 0 26 8 26 24c0 15 -9 23 -36 23h-33v88h33c28 0 39 9 39 26c0 14 -8 21 -25 21s-27 -10 -31 -30h-144c5 83 63 142 180 142
c111 0 176 -38 176 -111c0 -45 -24 -73 -73 -84c47 -7 80 -38 80 -82c0 -76 -57 -130 -182 -130z" />
    <glyph glyph-name="twothirds" unicode="&#x2154;" horiz-adv-x="912" 
d="M6 342l129 131c47 47 75 76 75 104c0 16 -7 24 -22 24c-17 0 -26 -15 -29 -46h-151c3 112 74 166 189 166c123 0 175 -59 175 -130c0 -56 -35 -95 -82 -138l-15 -14h98v-117h-367v20zM243 0h-109l587 715h109zM707 -8c-137 0 -183 62 -188 145h145c3 -19 12 -32 33 -32
c17 0 26 8 26 24c0 15 -9 23 -36 23h-33v88h33c28 0 39 9 39 26c0 14 -8 21 -25 21s-27 -10 -31 -30h-144c5 83 63 142 180 142c111 0 176 -38 176 -111c0 -45 -24 -73 -73 -84c47 -7 80 -38 80 -82c0 -76 -57 -130 -182 -130z" />
    <glyph glyph-name="oneeighth" unicode="&#x215b;" horiz-adv-x="855" 
d="M104 555l-83 -42v132l108 70h142v-393h-167v233zM162 0h-109l587 715h109zM645 -8c-132 0 -193 42 -193 118c0 39 20 77 72 93c-33 15 -54 37 -54 80c0 75 76 116 176 116c105 0 176 -39 176 -116c0 -43 -21 -66 -54 -79c51 -15 69 -50 69 -89c0 -76 -63 -123 -192 -123z
M645 100c19 0 31 13 31 29s-12 29 -31 29s-31 -12 -31 -29s12 -29 31 -29zM646 239c15 0 29 12 29 28c0 17 -13 28 -29 28c-15 0 -29 -12 -29 -28s14 -28 29 -28z" />
    <glyph glyph-name="threeeighths" unicode="&#x215c;" horiz-adv-x="900" 
d="M207 314c-137 0 -183 62 -188 145h145c3 -19 12 -32 33 -32c17 0 26 8 26 24c0 15 -9 23 -36 23h-33v88h33c28 0 39 9 39 26c0 14 -8 21 -25 21s-27 -10 -31 -30h-144c5 83 63 142 180 142c111 0 176 -38 176 -111c0 -45 -24 -73 -73 -84c47 -7 80 -38 80 -82
c0 -76 -57 -130 -182 -130zM218 0h-109l587 715h109zM690 -8c-132 0 -193 42 -193 118c0 39 20 77 72 93c-33 15 -54 37 -54 80c0 75 76 116 176 116c105 0 176 -39 176 -116c0 -43 -21 -66 -54 -79c51 -15 69 -50 69 -89c0 -76 -63 -123 -192 -123zM690 100
c19 0 31 13 31 29s-12 29 -31 29s-31 -12 -31 -29s12 -29 31 -29zM691 239c15 0 29 12 29 28c0 17 -13 28 -29 28c-15 0 -29 -12 -29 -28s14 -28 29 -28z" />
    <glyph glyph-name="fiveeighths" unicode="&#x215d;" horiz-adv-x="882" 
d="M200 314c-124 0 -179 60 -179 137h150c3 -11 9 -18 25 -18c15 0 24 12 24 28c0 18 -9 27 -28 27c-16 0 -24 -10 -25 -21h-136l14 248h317v-114h-205l-4 -74c16 28 43 57 110 57c73 0 122 -39 122 -119c0 -93 -64 -151 -185 -151zM199 0h-109l587 715h109zM672 -8
c-132 0 -193 42 -193 118c0 39 20 77 72 93c-33 15 -54 37 -54 80c0 75 76 116 176 116c105 0 176 -39 176 -116c0 -43 -21 -66 -54 -79c51 -15 69 -50 69 -89c0 -76 -63 -123 -192 -123zM672 100c19 0 31 13 31 29s-12 29 -31 29s-31 -12 -31 -29s12 -29 31 -29zM673 239
c15 0 29 12 29 28c0 17 -13 28 -29 28c-15 0 -29 -12 -29 -28s14 -28 29 -28z" />
    <glyph glyph-name="seveneighths" unicode="&#x215e;" horiz-adv-x="850" 
d="M167 586h-144v129h352v-16l-143 -377h-165zM147 0h-109l587 715h109zM641 -8c-132 0 -193 42 -193 118c0 39 20 77 72 93c-33 15 -54 37 -54 80c0 75 76 116 176 116c105 0 176 -39 176 -116c0 -43 -21 -66 -54 -79c51 -15 69 -50 69 -89c0 -76 -63 -123 -192 -123z
M641 100c19 0 31 13 31 29s-12 29 -31 29s-31 -12 -31 -29s12 -29 31 -29zM642 239c15 0 29 12 29 28c0 17 -13 28 -29 28c-15 0 -29 -12 -29 -28s14 -28 29 -28z" />
    <glyph glyph-name="Delta" unicode="&#x2206;" horiz-adv-x="797" 
d="M9 27l208 688h365l206 -688v-27h-779v27zM300 201h166l-82 327z" />
    <glyph glyph-name="minus" unicode="&#x2212;" 
d="M562 253h-524v172h524v-172z" />
    <glyph glyph-name="approxequal" unicode="&#x2248;" horiz-adv-x="620" 
d="M586 311c-5 -139 -75 -208 -155 -208c-84 0 -180 38 -228 38c-27 0 -41 -16 -45 -43h-124c8 149 79 208 156 208c84 0 179 -38 227 -38c26 0 41 14 45 43h124zM586 553c-5 -139 -75 -207 -155 -207c-84 0 -180 38 -228 38c-27 0 -41 -18 -45 -43h-124
c8 149 79 207 156 207c84 0 179 -37 227 -37c27 0 41 15 45 42h124z" />
    <glyph glyph-name="notequal" unicode="&#x2260;" horiz-adv-x="594" 
d="M556 152h-259l-36 -93h-136l36 93h-123v148h180l22 57h-202v148h259l36 93h136l-36 -93h123v-148h-180l-22 -57h202v-148z" />
    <glyph glyph-name="lessequal" unicode="&#x2264;" horiz-adv-x="517" 
d="M477 155l-441 236v41l441 236v-200l-118 -55l118 -55v-203zM477 0h-441v142h441v-142z" />
    <glyph glyph-name="greaterequal" unicode="&#x2265;" horiz-adv-x="517" 
d="M481 391l-441 -236v203l118 55l-118 55v200l441 -236v-41zM481 0h-441v142h441v-142z" />
    <glyph glyph-name="uni24C5" unicode="&#x24c5;" horiz-adv-x="842" 
d="M266 563h175c129 0 175 -58 175 -145v-2c0 -87 -53 -137 -166 -137h-33v-123h-151v407zM431 379c29 0 43 12 43 37v2c0 22 -14 33 -42 33h-15v-72h14zM420 30c180 0 324 132 324 329c0 195 -140 326 -322 326c-185 0 -324 -133 -324 -328c0 -197 144 -327 322 -327z
M420 -25c-217 0 -392 165 -392 382c0 213 174 383 394 383c223 0 392 -168 392 -381c0 -218 -174 -384 -394 -384z" />
    <glyph glyph-name="zero.tab" unicode="&#xe44f;" 
d="M257 276c0 -71 6 -96 45 -96c35 0 41 27 41 96v163c0 73 -7 97 -43 97s-43 -25 -43 -96v-164zM577 281c0 -188 -108 -295 -283 -295c-173 0 -271 102 -271 290v164c0 187 119 286 276 286c156 0 278 -86 278 -282v-163z" />
    <glyph glyph-name="one.tab" unicode="&#xe450;" 
d="M488 0h-266v455l-155 -92v218l194 134h227v-715z" />
    <glyph glyph-name="two.tab" unicode="&#xe451;" 
d="M575 0h-560v34l194 247c74 95 117 150 117 207c0 32 -9 50 -33 50c-31 0 -37 -23 -38 -100h-233c3 175 75 288 284 288c188 0 273 -89 273 -219c0 -105 -68 -179 -143 -267l-39 -45h178v-195z" />
    <glyph glyph-name="three.tab" unicode="&#xe452;" 
d="M233 248c3 -53 16 -78 61 -78c35 0 50 22 50 57c0 36 -16 56 -57 56h-58v153h56c44 0 64 22 64 58c0 33 -16 49 -48 49c-35 0 -53 -20 -56 -72h-221c8 163 102 255 283 255c168 0 267 -71 267 -200c0 -80 -41 -133 -113 -153c75 -15 126 -72 126 -153
c0 -139 -89 -234 -277 -234c-205 0 -294 86 -299 262h222z" />
    <glyph glyph-name="four.tab" unicode="&#xe453;" 
d="M516 0h-230v130h-279v92l226 493h283v-417h66v-168h-66v-130zM292 298v217l-92 -217h92z" />
    <glyph glyph-name="five.tab" unicode="&#xe454;" 
d="M533 531h-302l-7 -136c27 45 74 89 158 89c131 0 195 -87 195 -231c0 -163 -93 -267 -282 -267c-187 0 -268 84 -272 255h216c1 -43 15 -57 55 -57c36 0 44 28 44 69c0 44 -22 66 -65 66c-41 0 -67 -21 -80 -45h-156l20 441h476v-184z" />
    <glyph glyph-name="six.tab" unicode="&#xe455;" 
d="M366 498c-1 28 -9 50 -40 50c-55 0 -77 -47 -77 -160c23 39 57 76 134 76c105 0 200 -60 200 -221c0 -155 -98 -257 -267 -257c-199 0 -294 119 -294 324v86c0 211 122 330 302 330c156 0 250 -68 253 -228h-211zM309 173c35 0 58 27 58 66c0 43 -23 66 -58 66
s-61 -23 -61 -66c0 -39 26 -66 61 -66z" />
    <glyph glyph-name="seven.tab" unicode="&#xe456;" 
d="M347 0h-264l178 506h-238v209h562v-26z" />
    <glyph glyph-name="eight.tab" unicode="&#xe457;" 
d="M538 428c-15 -23 -36 -42 -62 -55c76 -29 110 -89 110 -165c0 -137 -98 -222 -286 -222s-286 78 -286 215c0 76 35 139 115 171c-53 28 -88 73 -88 146c0 135 115 208 262 208c152 0 259 -72 259 -207c0 -37 -8 -67 -24 -91zM301 169c37 0 60 25 60 62s-20 65 -60 65
c-37 0 -60 -25 -60 -64s21 -63 60 -63zM302 434c31 0 56 24 56 59c0 37 -24 59 -55 59c-29 0 -55 -23 -55 -58s25 -60 54 -60z" />
    <glyph glyph-name="nine.tab" unicode="&#xe458;" 
d="M578 317c0 -211 -109 -330 -293 -330c-164 0 -259 69 -262 229h211c1 -28 13 -51 44 -51c60 0 73 47 73 160c-23 -39 -57 -76 -134 -76c-105 0 -200 58 -200 219c0 154 101 259 269 259c195 0 292 -117 292 -324v-86zM334 428c12 11 18 28 18 49c0 39 -26 66 -61 66
s-58 -27 -58 -66c0 -43 23 -66 58 -66c17 0 32 6 43 17z" />
    <glyph glyph-name="cent.tab" unicode="&#xe459;" 
d="M350 -135h-66v122c-149 11 -260 95 -260 267v8c0 166 113 262 260 275v92h66v-91c129 -8 225 -82 233 -230h-194c-4 34 -17 55 -39 64v-232c27 8 46 31 49 75h187c-3 -133 -84 -217 -236 -228v-122zM238 258c0 -72 15 -102 46 -115v229c-31 -11 -46 -38 -46 -106v-8z" />
    <glyph glyph-name="dollar.tab" unicode="&#xe45a;" 
d="M343 -135h-79v124c-159 11 -246 90 -249 241h204c1 -36 16 -59 45 -69v95c-172 27 -244 88 -244 235c0 130 88 223 244 234v88h79v-89c141 -13 227 -82 234 -227h-201c-3 23 -10 39 -33 50v-91c136 -21 244 -73 244 -222c0 -123 -64 -234 -244 -245v-124zM264 552
c-29 -5 -44 -18 -44 -41s12 -36 44 -44v85zM343 158c27 7 40 22 40 47c0 20 -13 31 -40 39v-86z" />
    <glyph glyph-name="Euro.tab" unicode="&#xe45b;" 
d="M579 248c0 -187 -90 -262 -265 -262c-160 0 -258 95 -263 274h-41v78h41v38h-41v78h41c5 178 124 272 272 272c154 0 253 -67 256 -254h-209c-1 51 -11 64 -46 64c-31 0 -46 -21 -47 -82h106l-13 -78h-93v-38h87l-13 -78h-74c1 -60 12 -83 48 -83c35 0 50 15 49 71h205z
" />
    <glyph glyph-name="a.alt" unicode="&#xe4c0;" horiz-adv-x="644" 
d="M606 0h-228v82c-25 -55 -70 -96 -149 -96c-111 0 -212 83 -212 272v8c0 188 101 273 209 273c80 0 123 -30 152 -85v69h228v-523zM384 268c0 69 -22 103 -67 103s-68 -31 -68 -103v-8c0 -67 23 -101 68 -101s67 34 67 101v8z" />
    <glyph glyph-name="t.alt" unicode="&#xe4d3;" horiz-adv-x="400" 
d="M303 0h-229v374h-67v149h67v104h229v-104h86v-149h-86v-374z" />
    <glyph glyph-name="f_i" unicode="&#xfb01;" horiz-adv-x="715" 
d="M296 0h-228v374h-61v149h61v26c0 143 97 204 231 204c36 0 64 -4 91 -11v-162c-12 3 -24 5 -43 5c-35 0 -51 -17 -51 -40v-22h94v-149h-94v-374zM671 0h-228v523h228v-523zM678 654c0 -65 -52 -112 -121 -112c-71 0 -121 47 -121 112s50 112 121 112
c69 0 121 -47 121 -112z" />
    <glyph glyph-name="f_l" unicode="&#xfb02;" horiz-adv-x="712" 
d="M296 0h-228v374h-61v149h61v26c0 143 97 204 231 204c36 0 64 -4 91 -11v-162c-12 3 -24 5 -43 5c-35 0 -51 -17 -51 -40v-22h94v-149h-94v-374zM669 0h-227v743h227v-743z" />
    <glyph glyph-name="florin.tab" 
d="M317 -182h-227l61 448h-77v149h97l15 110c19 148 116 200 247 200c35 0 56 -3 84 -11v-167c-15 4 -25 5 -44 5c-35 0 -57 -12 -62 -47l-12 -90h114v-149h-135z" />
    <glyph glyph-name="four.sub" horiz-adv-x="434" 
d="M204 -67h-195v62l158 261h198v-216h49v-107h-49v-70h-161v70zM209 40v110l-64 -110h64z" />
    <glyph glyph-name="uni20B4.oldtab" 
d="M306 -14c-181 0 -268 86 -268 218c0 19 1 36 8 52h-31v75h88c17 13 37 25 61 37h-149v76h314c12 9 18 23 18 40c0 29 -20 40 -48 40c-29 0 -49 -19 -50 -50h-203c11 147 99 230 260 230c160 0 251 -78 251 -205c0 -19 -1 -36 -8 -55h34v-76h-82c-14 -13 -31 -26 -50 -37
h132v-75h-307c-17 -11 -25 -27 -25 -48c0 -23 11 -43 52 -43c43 0 56 27 59 60h206c-1 -167 -95 -239 -262 -239z" />
    <glyph glyph-name="uni20BD.tab" 
d="M298 100v-100h-228v100h-60v78h60v38h-60v78h60v421h258c196 0 265 -100 265 -255v-4c0 -145 -79 -236 -243 -240h-52v-38h192v-78h-192zM313 392c43 0 64 21 64 63v4c0 39 -21 59 -63 59h-16v-126h15z" />
    <glyph glyph-name="uni044E.bgr" horiz-adv-x="895" 
d="M584 -14c-136 0 -245 62 -279 178c-3 7 -4 14 -5 19h-38v-183h-225v743h225v-402h40c32 124 142 198 283 198c168 0 295 -98 295 -270v-8c0 -176 -129 -275 -296 -275zM584 152c48 0 64 35 64 107v8c0 72 -15 105 -64 105c-47 0 -66 -30 -66 -102v-8
c0 -76 15 -110 66 -110z" />
    <glyph glyph-name="uni0448.bgr" horiz-adv-x="942" 
d="M908 0h-229v80c-29 -50 -85 -96 -167 -96c-72 0 -113 30 -137 81c-49 -57 -103 -81 -170 -81c-101 0 -168 67 -168 188v351h228v-303c0 -33 19 -53 44 -53c39 0 50 23 50 62v294h226v-303c0 -33 20 -53 44 -53c39 0 50 23 50 62v294h229v-523z" />
    <glyph glyph-name="uni0442.locl" horiz-adv-x="528" 
d="M512 359h-134v-359h-228v359h-134v164h496v-164z" />
    <glyph glyph-name="uni0438.bgr" horiz-adv-x="638" 
d="M206 -14c-99 0 -173 65 -173 191v346h229v-304c0 -43 17 -65 50 -65c43 0 60 23 60 76v293h229v-523h-229v80c-31 -57 -77 -94 -166 -94z" />
    <glyph glyph-name="uni0433.bgr" horiz-adv-x="539" 
d="M273 -14c-157 0 -264 54 -264 173c0 112 91 145 231 171c47 9 71 15 71 39c0 16 -10 27 -33 27c-33 0 -47 -19 -50 -40h-205c23 125 117 183 261 183c136 0 241 -53 241 -169c0 -99 -62 -143 -210 -167c-67 -11 -83 -23 -83 -43c0 -16 12 -28 39 -28c35 0 43 17 48 45
h209c-11 -109 -97 -191 -255 -191z" />
    <glyph glyph-name="uni0431.locl" horiz-adv-x="632" 
d="M316 -14c-164 0 -301 79 -301 253v5c0 128 65 198 164 221c13 3 26 4 35 5c5 1 10 1 15 1c-106 24 -177 59 -177 145c0 80 66 127 179 127h160c101 0 148 8 179 16v-157c-23 -15 -91 -25 -195 -25h-115c-19 0 -31 -3 -31 -15s14 -15 49 -22c156 -28 339 -76 339 -279v-10
c0 -176 -134 -265 -301 -265zM317 152c48 0 68 25 68 97v5c0 75 -20 98 -68 98c-47 0 -70 -21 -70 -100v-6c0 -71 21 -94 70 -94z" />
    <glyph glyph-name="uni043F.locl" horiz-adv-x="622" 
d="M357 359h-92v-359h-228v523h548v-523h-228v359z" />
    <glyph glyph-name="uni044A.bgr" horiz-adv-x="677" 
d="M16 364v159h339v-153c12 1 36 3 63 3c156 0 240 -66 240 -179v-3c0 -112 -95 -205 -263 -205c-197 0 -265 93 -265 229v149h-114zM400 113c37 0 47 29 47 73v3c0 31 -15 56 -52 56c-17 0 -31 -2 -40 -3v-56c0 -47 10 -73 45 -73z" />
    <glyph glyph-name="uni20BD.old" horiz-adv-x="710" 
d="M380 380c47 0 70 20 70 61v4c0 40 -22 57 -69 57h-26v-122h25zM355 97v-97h-257v97h-78v76h78v37h-78v75h78v409h298c220 0 297 -98 297 -248v-4c0 -143 -91 -232 -284 -232h-54v-37h199v-76h-199z" />
    <glyph glyph-name="uni0449.bgr" horiz-adv-x="986" 
d="M784 -127l-6 127h-99v80c-29 -50 -85 -96 -167 -96c-72 0 -113 30 -137 81c-49 -57 -103 -81 -170 -81c-101 0 -168 67 -168 188v351h228v-303c0 -33 19 -53 44 -53c39 0 50 23 50 62v294h226v-303c0 -33 20 -53 44 -53c39 0 50 23 50 62v294h229v-359h68v-291h-192z" />
    <glyph glyph-name="uni0446.bgr" horiz-adv-x="679" 
d="M477 -127l-6 127h-99v80c-31 -57 -77 -94 -166 -94c-99 0 -173 65 -173 191v346h229v-304c0 -43 17 -65 50 -65c43 0 60 23 60 76v293h229v-359h68v-291h-192z" />
    <glyph glyph-name="uni044C.bgr" horiz-adv-x="584" 
d="M302 -14c-197 0 -265 93 -265 229v308h225v-153c12 1 36 3 63 3c156 0 240 -66 240 -179v-3c0 -112 -95 -205 -263 -205zM307 113c37 0 47 29 47 73v3c0 31 -15 56 -52 56c-17 0 -31 -2 -40 -3v-56c0 -47 10 -73 45 -73z" />
    <glyph glyph-name="uni0437.bgr" horiz-adv-x="569" 
d="M552 34c0 -147 -99 -229 -274 -229c-168 0 -254 78 -269 217h216c3 -36 17 -63 50 -63c41 0 58 31 58 70v4c0 48 -26 71 -69 71h-53v149h29c51 0 72 23 72 68v5c0 43 -15 58 -40 58c-33 0 -44 -26 -47 -69h-207c13 151 121 225 272 225c163 0 242 -97 242 -191v-5
c0 -90 -55 -136 -108 -152c67 -13 128 -65 128 -153v-5z" />
    <glyph glyph-name="uni0439.bgr" horiz-adv-x="638" 
d="M316 570c-113 0 -175 68 -182 173h143c0 -29 5 -58 39 -58c33 0 36 30 39 58h143c-9 -105 -74 -173 -182 -173zM206 -14c-99 0 -173 65 -173 191v346h229v-304c0 -43 17 -65 50 -65c43 0 60 23 60 76v293h229v-523h-229v80c-31 -57 -77 -94 -166 -94z" />
    <glyph glyph-name="uni021B.alt" horiz-adv-x="400" 
d="M184 -236l-126 27l33 173h197zM303 0h-229v374h-67v149h67v104h229v-104h86v-149h-86v-374z" />
    <glyph glyph-name="f_f.short" horiz-adv-x="751" 
d="M68 374h-61v149h61v20c0 143 96 204 229 204c36 0 65 -4 89 -11v-162c-12 3 -22 5 -41 5c-35 0 -49 -17 -49 -40v-16h124v26c0 143 97 204 231 204c36 0 64 -4 91 -11v-162c-12 3 -24 5 -43 5c-35 0 -51 -17 -51 -40v-22h94v-149h-94v-374h-228v374h-124v-374h-228v374z
" />
    <glyph glyph-name="uni0414.bgr" horiz-adv-x="819" 
d="M317 203h149l-74 298zM236 -130h-226v333h70l158 512h343l157 -512h71v-333h-226l-10 130h-327z" />
    <glyph glyph-name="uni043B.bgr" horiz-adv-x="604" 
d="M605 0h-244l-74 279l-74 -279h-214l182 523h241z" />
    <glyph glyph-name="f.short" horiz-adv-x="399" 
d="M68 374h-61v149h61v26c0 143 97 204 231 204c36 0 64 -4 91 -11v-162c-12 3 -24 5 -43 5c-35 0 -51 -17 -51 -40v-22h94v-149h-94v-374h-228v374z" />
    <glyph glyph-name="uni041A.bgr" horiz-adv-x="782" 
d="M325 257v-257h-267v715h267v-244l166 244h274l-233 -325l246 -390h-305z" />
    <glyph glyph-name="uni0436.bgr" horiz-adv-x="841" 
d="M312 194l-72 -194h-230l125 276l-118 247h219l76 -196v416h215v-416l75 196h218l-118 -238l129 -285h-237l-67 194v-194h-215v194z" />
    <glyph glyph-name="hungarumlaut.uc" horiz-adv-x="400" 
d="M160 753h-150l43 155h183zM375 753h-150l43 155h183z" />
    <glyph glyph-name="tilde.uc" horiz-adv-x="400" 
d="M406 922c-8 -123 -71 -172 -136 -172c-64 0 -93 29 -125 29c-15 0 -24 -11 -27 -26h-123c5 123 65 172 133 172c59 0 93 -29 128 -29c17 0 24 10 27 26h123z" />
    <glyph glyph-name="uni20B8.old" horiz-adv-x="610" 
d="M17 618v76h576v-76h-576zM175 379h-158v198h576v-198h-158v-379h-260v379z" />
    <glyph glyph-name="uni0432.bgr" horiz-adv-x="581" 
d="M31 475c0 164 80 279 268 279c165 0 245 -85 245 -197v-8c0 -94 -60 -142 -120 -161c73 -14 140 -64 140 -160v-3c0 -144 -97 -239 -272 -239c-197 0 -261 127 -261 248v241zM240 448h14c51 0 72 28 72 77v9c0 52 -15 67 -40 67c-40 0 -46 -49 -46 -105v-48zM293 137
c40 0 54 40 54 85v9c0 50 -23 75 -69 75h-38v-74c0 -56 10 -95 53 -95z" />
    <glyph glyph-name="ring.uc" horiz-adv-x="400" 
d="M200 812c25 0 43 19 43 47s-18 47 -43 47c-27 0 -43 -19 -43 -47s16 -47 43 -47zM316 811c-20 -43 -63 -74 -116 -74c-69 0 -126 54 -126 122s57 122 126 122s126 -54 126 -122c0 -17 -3 -33 -10 -48z" />
    <glyph glyph-name="dotaccent.uc" horiz-adv-x="400" 
d="M315 849c0 -63 -48 -107 -115 -107c-68 0 -116 44 -116 107s48 107 116 107c67 0 115 -44 115 -107z" />
    <glyph glyph-name="breve.uc" horiz-adv-x="400" 
d="M382 908c-9 -105 -74 -164 -182 -164c-113 0 -175 59 -182 164h141c1 -23 17 -36 41 -36c23 0 38 15 41 36h141z" />
    <glyph glyph-name="caron.uc" horiz-adv-x="400" 
d="M290 753h-189l-111 155h165l45 -44l45 44h162z" />
    <glyph glyph-name="circumflex.uc" horiz-adv-x="400" 
d="M408 753h-165l-45 44l-45 -44h-162l117 155h189z" />
    <glyph glyph-name="acute.uc" horiz-adv-x="400" 
d="M275 753h-173l49 155h229z" />
    <glyph glyph-name="macron.uc" horiz-adv-x="400" 
d="M375 764h-351v129h351v-129z" />
    <glyph glyph-name="dieresis.uc" horiz-adv-x="400" 
d="M178 802c-16 -36 -52 -60 -95 -60c-57 0 -102 43 -102 99s45 99 102 99s103 -43 103 -99c0 -14 -3 -27 -8 -39zM419 841c0 -56 -44 -99 -103 -99c-56 0 -101 43 -101 99s45 99 101 99c59 0 103 -43 103 -99z" />
    <glyph glyph-name="uni0442.bgr" horiz-adv-x="942" 
d="M37 523h229v-80c29 50 85 96 167 96c72 0 113 -30 137 -81c49 57 103 81 170 81c101 0 168 -67 168 -188v-351h-228v303c0 33 -19 53 -44 53c-39 0 -50 -23 -50 -62v-294h-226v303c0 33 -20 53 -44 53c-39 0 -50 -23 -50 -62v-294h-229v523z" />
    <glyph glyph-name="grave.uc" horiz-adv-x="400" 
d="M298 753h-173l-101 155h229z" />
    <glyph glyph-name="at.uc" horiz-adv-x="924" 
d="M461 -92c-272 0 -441 177 -441 411c0 274 224 445 462 445c237 0 421 -137 421 -363c0 -204 -109 -284 -230 -284c-91 0 -145 24 -164 79c-24 -53 -61 -79 -126 -79c-100 0 -164 73 -164 192c0 145 89 236 198 236c59 0 88 -23 103 -55l7 47h180l-35 -283
c-5 -36 6 -60 41 -60c53 0 106 59 106 211c0 172 -134 288 -334 288c-208 0 -376 -143 -376 -377c0 -196 120 -337 357 -337c120 0 222 47 268 93h98c-71 -101 -215 -164 -371 -164zM446 262c35 0 56 42 56 93c0 27 -13 49 -44 49c-35 0 -55 -39 -55 -86
c0 -28 11 -56 43 -56z" />
    <glyph glyph-name="bar.uc" horiz-adv-x="275" 
d="M60 776h155v-860h-155v860z" />
    <glyph glyph-name="backslash.uc" horiz-adv-x="450" 
d="M-18 776h177l309 -860h-177z" />
    <glyph glyph-name="slash.uc" horiz-adv-x="450" 
d="M291 776h177l-309 -860h-177z" />
    <glyph glyph-name="braceright.uc" horiz-adv-x="437" 
d="M35 67c65 5 77 24 72 75l-7 74c-7 64 29 115 106 131c-76 17 -113 67 -106 131l7 74c5 48 -7 64 -72 69v165c229 0 328 -68 299 -243l-9 -54c-7 -41 21 -65 86 -65v-158c-65 0 -93 -25 -86 -66l9 -55c27 -167 -68 -243 -299 -243v165z" />
    <glyph glyph-name="braceleft.uc" horiz-adv-x="437" 
d="M402 -98c-231 0 -326 76 -299 243l9 55c7 41 -21 66 -86 66v158c65 0 93 24 86 65l-9 54c-29 175 70 243 299 243v-165c-66 -5 -77 -20 -72 -69l7 -74c7 -64 -30 -114 -106 -131c77 -16 113 -67 106 -131l-7 -74c-5 -50 6 -70 72 -75v-165z" />
    <glyph glyph-name="bracketright.uc" horiz-adv-x="437" 
d="M36 66h115v556h-115v164h346v-884h-346v164z" />
    <glyph glyph-name="bracketleft.uc" horiz-adv-x="437" 
d="M54 786h348v-164h-117v-556h117v-164h-348v884z" />
    <glyph glyph-name="parenright.uc" horiz-adv-x="373" 
d="M7 -98c54 96 121 244 121 442s-67 346 -121 442h169c69 -86 167 -220 167 -442s-98 -356 -167 -442h-169z" />
    <glyph glyph-name="parenleft.uc" horiz-adv-x="373" 
d="M197 -98c-70 86 -167 220 -167 442s97 356 167 442h169c-54 -96 -121 -244 -121 -442s67 -346 121 -442h-169z" />
    <glyph glyph-name="guillemotright.uc" horiz-adv-x="470" 
d="M136 301l-117 198h132l122 -198l-122 -198h-132zM317 301l-117 198h132l122 -198l-122 -198h-132z" />
    <glyph glyph-name="guillemotleft.uc" horiz-adv-x="470" 
d="M16 301l122 198h132l-117 -198l117 -198h-132zM197 301l122 198h132l-117 -198l117 -198h-132z" />
    <glyph glyph-name="guilsinglright.uc" horiz-adv-x="299" 
d="M136 301l-117 198h142l122 -198l-122 -198h-142z" />
    <glyph glyph-name="guilsinglleft.uc" horiz-adv-x="299" 
d="M16 301l122 198h142l-117 -198l117 -198h-142z" />
    <glyph glyph-name="emdash.uc" horiz-adv-x="978" 
d="M46 392h886v-123h-886v123z" />
    <glyph glyph-name="endash.uc" horiz-adv-x="548" 
d="M46 392h456v-123h-456v123z" />
    <glyph glyph-name="hyphen.uc" horiz-adv-x="426" 
d="M46 413h334v-175h-334v175z" />
    <glyph glyph-name="exclamdown.uc" horiz-adv-x="358" 
d="M83 463h192l33 -463h-258zM179 494c-72 0 -129 54 -129 118c0 65 57 117 129 117c71 0 128 -52 128 -117c0 -64 -57 -118 -128 -118z" />
    <glyph glyph-name="questiondown.uc" horiz-adv-x="591" 
d="M427 460c0 -74 -51 -121 -95 -162c-32 -31 -61 -56 -61 -85c0 -28 12 -39 37 -39c27 0 44 23 51 66h224c-5 -169 -123 -251 -295 -251c-164 0 -268 63 -268 200c0 61 24 105 60 141c52 52 116 91 129 133h218v-3zM317 729c73 0 130 -52 130 -117
c0 -64 -57 -118 -130 -118c-71 0 -128 54 -128 118c0 65 57 117 128 117z" />
    <glyph glyph-name="caron.alt" horiz-adv-x="400" 
d="M244 569h-110l7 174h153z" />
    <glyph glyph-name="registered.alt" horiz-adv-x="842" 
d="M247 564h178c123 0 178 -49 178 -137v-2c0 -55 -24 -86 -59 -106l83 -162h-155l-63 129h-12v-129h-150v407zM415 381c28 0 42 12 42 36v3c0 21 -14 31 -41 31h-19v-70h18zM420 30c180 0 324 132 324 329c0 195 -140 326 -322 326c-185 0 -324 -133 -324 -328
c0 -197 144 -327 322 -327zM420 -25c-217 0 -392 165 -392 382c0 213 174 383 394 383c223 0 392 -168 392 -381c0 -218 -174 -384 -394 -384z" />
    <glyph glyph-name="uni20B4.old" horiz-adv-x="665" 
d="M330 -14c-193 0 -289 86 -289 194c0 29 4 55 13 76h-39v75h102c17 12 39 24 66 37h-168v76h351c14 9 21 23 21 40c0 29 -19 40 -50 40c-33 0 -52 -19 -53 -50h-234c13 151 108 230 291 230c179 0 280 -79 280 -192c0 -24 -3 -47 -11 -68h40v-76h-93
c-15 -13 -33 -25 -55 -37h148v-75h-344c-18 -11 -27 -27 -27 -48c0 -23 16 -43 56 -43c53 0 60 27 63 60h234c-11 -157 -103 -239 -302 -239z" />
    <glyph glyph-name="space_uni0326.alt" horiz-adv-x="400" 
d="M298 562h-197l104 200l126 -27z" />
    <glyph glyph-name="tcommaaccent.alt" horiz-adv-x="400" 
d="M184 -236l-126 27l33 173h197zM303 0h-229v374h-67v149h67v104h229v-104h86v-149h-86v-374z" />
    <glyph glyph-name="tcaron.alt" horiz-adv-x="400" 
d="M303 0h-229v374h-67v149h67v104h229v-104h86v-149h-86v-374zM444 569h-110l7 174h153z" />
    <glyph glyph-name="tbar.alt" horiz-adv-x="400" 
d="M7 329h67v45h-67v149h67v104h229v-104h86v-149h-86v-45h86v-119h-86v-210h-229v210h-67v119z" />
    <glyph glyph-name="germandbls.alt" horiz-adv-x="731" 
d="M500 -9c-157 0 -217 69 -220 179h179c1 -33 16 -42 29 -42c11 0 20 6 20 23c0 29 -30 31 -86 55s-122 58 -122 138c0 94 103 149 103 196c0 35 -25 50 -66 50c-43 0 -71 -21 -71 -66v-524h-229v522c0 155 125 236 305 236c165 0 287 -62 287 -179
c0 -116 -111 -156 -111 -183c0 -15 17 -24 84 -56c60 -29 118 -73 118 -162c0 -126 -96 -187 -220 -187z" />
    <glyph glyph-name="atilde.alt" horiz-adv-x="644" 
d="M606 0h-228v82c-25 -55 -70 -96 -149 -96c-111 0 -212 83 -212 272v8c0 188 101 273 209 273c80 0 123 -30 152 -85v69h228v-523zM384 268c0 69 -22 103 -67 103s-68 -31 -68 -103v-8c0 -67 23 -101 68 -101s67 34 67 101v8zM530 746c-8 -122 -62 -176 -127 -176
c-64 0 -89 29 -121 29c-15 0 -24 -11 -27 -26h-116c7 123 55 176 123 176c59 0 90 -29 125 -29c17 0 24 10 27 26h116z" />
    <glyph glyph-name="aringacute.alt" horiz-adv-x="644" 
d="M606 0h-228v82c-25 -55 -70 -96 -149 -96c-111 0 -212 83 -212 272v8c0 188 101 273 209 273c80 0 123 -30 152 -85v69h228v-523zM384 268c0 69 -22 103 -67 103s-68 -31 -68 -103v-8c0 -67 23 -101 68 -101s67 34 67 101v8zM334 641c25 0 42 19 42 46s-17 46 -42 46
s-42 -19 -42 -46s17 -46 42 -46zM448 640c-20 -42 -62 -73 -114 -73c-68 0 -124 54 -124 120s56 120 124 120s124 -54 124 -120c0 -17 -3 -32 -10 -47zM425 830h-173l49 155h229z" />
    <glyph glyph-name="uni20BD.oldtab" 
d="M319 380c40 0 60 20 60 61v4c0 40 -20 57 -59 57h-22v-122h21zM298 97v-97h-221v97h-67v76h67v37h-67v75h67v409h256c188 0 255 -98 255 -248v-4c0 -143 -79 -232 -244 -232h-46v-37h170v-76h-170z" />
    <glyph glyph-name="aring.alt" horiz-adv-x="644" 
d="M606 0h-228v82c-25 -55 -70 -96 -149 -96c-111 0 -212 83 -212 272v8c0 188 101 273 209 273c80 0 123 -30 152 -85v69h228v-523zM384 268c0 69 -22 103 -67 103s-68 -31 -68 -103v-8c0 -67 23 -101 68 -101s67 34 67 101v8zM334 641c25 0 42 19 42 46s-17 46 -42 46
s-42 -19 -42 -46s17 -46 42 -46zM448 640c-20 -42 -62 -73 -114 -73c-68 0 -124 54 -124 120s56 120 124 120s124 -54 124 -120c0 -17 -3 -32 -10 -47z" />
    <glyph glyph-name="uni041B.bgr" horiz-adv-x="762" 
d="M361 436l-111 -436h-249l227 715h299l234 -715h-290z" />
    <glyph glyph-name="aogonek.alt" horiz-adv-x="644" 
d="M504 -182c-76 0 -123 31 -123 82c0 55 48 79 90 100h-93v82c-25 -55 -70 -96 -149 -96c-111 0 -212 83 -212 272v8c0 188 101 273 209 273c80 0 123 -30 152 -85v69h228v-508c-35 -29 -45 -49 -45 -66c0 -16 11 -24 27 -24c9 0 13 1 18 2v-91c-19 -9 -50 -18 -102 -18z
M317 159c45 0 67 34 67 101v8c0 69 -22 103 -67 103s-68 -31 -68 -103v-8c0 -67 23 -101 68 -101z" />
    <glyph glyph-name="amacron.alt" horiz-adv-x="644" 
d="M606 0h-228v82c-25 -55 -70 -96 -149 -96c-111 0 -212 83 -212 272v8c0 188 101 273 209 273c80 0 123 -30 152 -85v69h228v-523zM384 268c0 69 -22 103 -67 103s-68 -31 -68 -103v-8c0 -67 23 -101 68 -101s67 34 67 101v8zM499 593h-331v119h331v-119z" />
    <glyph glyph-name="agrave.alt" horiz-adv-x="644" 
d="M606 0h-228v82c-25 -55 -70 -96 -149 -96c-111 0 -212 83 -212 272v8c0 188 101 273 209 273c80 0 123 -30 152 -85v69h228v-523zM384 268c0 69 -22 103 -67 103s-68 -31 -68 -103v-8c0 -67 23 -101 68 -101s67 34 67 101v8zM420 568h-163l-105 175h219z" />
    <glyph glyph-name="adieresis.alt" horiz-adv-x="644" 
d="M606 0h-228v82c-25 -55 -70 -96 -149 -96c-111 0 -212 83 -212 272v8c0 188 101 273 209 273c80 0 123 -30 152 -85v69h228v-523zM384 268c0 69 -22 103 -67 103s-68 -31 -68 -103v-8c0 -67 23 -101 68 -101s67 34 67 101v8zM316 612c-16 -36 -52 -60 -95 -60
c-57 0 -102 43 -102 99s45 99 102 99s103 -43 103 -99c0 -14 -3 -27 -8 -39zM549 651c0 -56 -44 -99 -103 -99c-56 0 -101 43 -101 99s45 99 101 99c59 0 103 -43 103 -99z" />
    <glyph glyph-name="acircumflex.alt" horiz-adv-x="644" 
d="M606 0h-228v82c-25 -55 -70 -96 -149 -96c-111 0 -212 83 -212 272v8c0 188 101 273 209 273c80 0 123 -30 152 -85v69h228v-523zM384 268c0 69 -22 103 -67 103s-68 -31 -68 -103v-8c0 -67 23 -101 68 -101s67 34 67 101v8zM538 571h-158l-48 46l-48 -46h-155l130 172
h155z" />
    <glyph glyph-name="abreve.alt" horiz-adv-x="644" 
d="M606 0h-228v82c-25 -55 -70 -96 -149 -96c-111 0 -212 83 -212 272v8c0 188 101 273 209 273c80 0 123 -30 152 -85v69h228v-523zM384 268c0 69 -22 103 -67 103s-68 -31 -68 -103v-8c0 -67 23 -101 68 -101s67 34 67 101v8zM513 742c-7 -115 -75 -172 -179 -172
c-108 0 -174 57 -179 172h134c1 -27 16 -40 45 -40c27 0 44 16 45 40h134z" />
    <glyph glyph-name="aacute.alt" horiz-adv-x="644" 
d="M606 0h-228v82c-25 -55 -70 -96 -149 -96c-111 0 -212 83 -212 272v8c0 188 101 273 209 273c80 0 123 -30 152 -85v69h228v-523zM384 268c0 69 -22 103 -67 103s-68 -31 -68 -103v-8c0 -67 23 -101 68 -101s67 34 67 101v8zM411 568h-163l49 175h219z" />
    <glyph glyph-name="minus.sup" horiz-adv-x="367" 
d="M32 642h303v-113h-303v113z" />
    <glyph glyph-name="plus.sup" horiz-adv-x="367" 
d="M126 529h-94v113h94v96h115v-96h94v-113h-94v-95h-115v95z" />
    <glyph glyph-name="nine.sup" horiz-adv-x="428" 
d="M204 372c-109 0 -173 47 -180 131h152c1 -8 5 -16 24 -16c32 0 40 29 41 68c-15 -21 -32 -37 -83 -37c-78 0 -141 27 -141 119c0 85 69 142 185 142c143 0 206 -87 206 -202v-6c0 -125 -69 -199 -204 -199zM202 607c19 0 29 13 29 32c0 17 -9 32 -29 32
c-19 0 -29 -14 -29 -33c0 -17 10 -31 29 -31z" />
    <glyph glyph-name="eight.sup" horiz-adv-x="415" 
d="M208 372c-132 0 -193 42 -193 118c0 39 20 77 72 93c-33 15 -54 37 -54 80c0 75 76 116 176 116c105 0 176 -39 176 -116c0 -43 -21 -66 -54 -79c51 -15 69 -50 69 -89c0 -76 -63 -123 -192 -123zM208 480c19 0 31 13 31 29s-12 29 -31 29s-31 -12 -31 -29s12 -29 31 -29
zM209 619c15 0 29 12 29 28c0 17 -13 28 -29 28c-15 0 -29 -12 -29 -28s14 -28 29 -28z" />
    <glyph glyph-name="seven.sup" horiz-adv-x="382" 
d="M164 644h-144v129h352v-16l-143 -377h-165z" />
    <glyph glyph-name="six.sup" horiz-adv-x="428" 
d="M225 372c-144 0 -205 80 -205 202v12c0 118 87 193 204 193c113 0 172 -48 179 -132h-151c-1 7 -6 17 -23 17c-31 0 -40 -31 -43 -70c17 23 39 39 91 39c70 0 134 -26 134 -118c0 -87 -69 -143 -186 -143zM223 480c19 0 29 14 29 33s-12 31 -29 31c-19 0 -28 -16 -28 -33
s9 -31 28 -31z" />
    <glyph glyph-name="five.sup" horiz-adv-x="400" 
d="M197 372c-124 0 -179 60 -179 137h150c3 -11 9 -18 25 -18c15 0 24 12 24 28c0 18 -9 27 -28 27c-16 0 -24 -10 -25 -21h-136l14 248h317v-114h-205l-4 -74c16 28 43 57 110 57c73 0 122 -39 122 -119c0 -93 -64 -151 -185 -151z" />
    <glyph glyph-name="four.sup" horiz-adv-x="434" 
d="M204 450h-195v62l158 261h198v-216h49v-107h-49v-70h-161v70zM209 557v110l-64 -110h64z" />
    <glyph glyph-name="three.sup" horiz-adv-x="406" 
d="M204 372c-137 0 -183 62 -188 145h145c3 -19 12 -32 33 -32c17 0 26 8 26 24c0 15 -9 23 -36 23h-33v88h33c28 0 39 9 39 26c0 14 -8 21 -25 21s-27 -10 -31 -30h-144c5 83 63 142 180 142c111 0 176 -38 176 -111c0 -45 -24 -73 -73 -84c47 -7 80 -38 80 -82
c0 -76 -57 -130 -182 -130z" />
    <glyph glyph-name="two.sup" horiz-adv-x="388" 
d="M3 400l129 131c47 47 75 76 75 104c0 16 -7 24 -22 24c-17 0 -26 -15 -29 -46h-151c3 112 74 166 189 166c123 0 175 -59 175 -130c0 -56 -35 -95 -82 -138l-15 -14h98v-117h-367v20z" />
    <glyph glyph-name="one.sup" horiz-adv-x="315" 
d="M101 613l-83 -42v132l108 70h142v-393h-167v233z" />
    <glyph glyph-name="zero.sup" horiz-adv-x="459" 
d="M229 497c32 0 43 23 43 78v4c0 60 -11 77 -44 77c-32 0 -41 -20 -41 -77v-4c0 -56 7 -78 42 -78zM225 372c-133 0 -205 70 -205 203v4c0 131 91 200 209 200c116 0 210 -56 210 -197v-3c0 -133 -81 -207 -214 -207z" />
    <glyph glyph-name="minus.sub" horiz-adv-x="367" 
d="M32 125h303v-113h-303v113z" />
    <glyph glyph-name="plus.sub" horiz-adv-x="367" 
d="M126 12h-94v113h94v96h115v-96h94v-113h-94v-95h-115v95z" />
    <glyph glyph-name="nine.sub" horiz-adv-x="428" 
d="M204 -145c-109 0 -173 47 -180 131h152c1 -8 5 -16 24 -16c32 0 40 29 41 68c-15 -21 -32 -37 -83 -37c-78 0 -141 27 -141 119c0 85 69 142 185 142c143 0 206 -87 206 -202v-6c0 -125 -69 -199 -204 -199zM202 90c19 0 29 13 29 32c0 17 -9 32 -29 32
c-19 0 -29 -14 -29 -33c0 -17 10 -31 29 -31z" />
    <glyph glyph-name="eight.sub" horiz-adv-x="415" 
d="M208 -145c-132 0 -193 42 -193 118c0 39 20 77 72 93c-33 15 -54 37 -54 80c0 75 76 116 176 116c105 0 176 -39 176 -116c0 -43 -21 -66 -54 -79c51 -15 69 -50 69 -89c0 -76 -63 -123 -192 -123zM208 -37c19 0 31 13 31 29s-12 29 -31 29s-31 -12 -31 -29
s12 -29 31 -29zM209 102c15 0 29 12 29 28c0 17 -13 28 -29 28c-15 0 -29 -12 -29 -28s14 -28 29 -28z" />
    <glyph glyph-name="seven.sub" horiz-adv-x="382" 
d="M164 127h-144v129h352v-16l-143 -377h-165z" />
    <glyph glyph-name="six.sub" horiz-adv-x="428" 
d="M225 -145c-144 0 -205 80 -205 202v12c0 118 87 193 204 193c113 0 172 -48 179 -132h-151c-1 7 -6 17 -23 17c-31 0 -40 -31 -43 -70c17 23 39 39 91 39c70 0 134 -26 134 -118c0 -87 -69 -143 -186 -143zM223 -37c19 0 29 14 29 33s-12 31 -29 31
c-19 0 -28 -16 -28 -33s9 -31 28 -31z" />
    <glyph glyph-name="five.sub" horiz-adv-x="400" 
d="M197 -145c-124 0 -179 60 -179 137h150c3 -11 9 -18 25 -18c15 0 24 12 24 28c0 18 -9 27 -28 27c-16 0 -24 -10 -25 -21h-136l14 248h317v-114h-205l-4 -74c16 28 43 57 110 57c73 0 122 -39 122 -119c0 -93 -64 -151 -185 -151z" />
    <glyph glyph-name="uni0434.bgr" horiz-adv-x="650" 
d="M321 195c48 0 69 35 69 86v8c0 48 -23 83 -70 83c-48 0 -71 -31 -71 -84v-8c0 -51 21 -85 72 -85zM302 -195c-189 0 -279 72 -292 207h226c5 -23 15 -53 67 -53c68 0 81 44 81 84v82c-24 -49 -74 -86 -154 -86c-115 0 -213 80 -213 244v8c0 161 98 248 211 248
c80 0 127 -30 156 -85v69h229v-475c0 -159 -102 -243 -311 -243z" />
    <glyph glyph-name="three.sub" horiz-adv-x="406" 
d="M204 -145c-137 0 -183 62 -188 145h145c3 -19 12 -32 33 -32c17 0 26 8 26 24c0 15 -9 23 -36 23h-33v88h33c28 0 39 9 39 26c0 14 -8 21 -25 21s-27 -10 -31 -30h-144c5 83 63 142 180 142c111 0 176 -38 176 -111c0 -45 -24 -73 -73 -84c47 -7 80 -38 80 -82
c0 -76 -57 -130 -182 -130z" />
    <glyph glyph-name="two.sub" horiz-adv-x="388" 
d="M3 -117l129 131c47 47 75 76 75 104c0 16 -7 24 -22 24c-17 0 -26 -15 -29 -46h-151c3 112 74 166 189 166c123 0 175 -59 175 -130c0 -56 -35 -95 -82 -138l-15 -14h98v-117h-367v20z" />
    <glyph glyph-name="one.sub" horiz-adv-x="315" 
d="M101 96l-83 -42v132l108 70h142v-393h-167v233z" />
    <glyph glyph-name="uni043F.bgr" horiz-adv-x="638" 
d="M37 523h229v-84c31 56 86 100 174 100c97 0 164 -64 164 -189v-350h-229v292c0 43 -14 65 -50 65c-41 0 -59 -23 -59 -76v-281h-229v523z" />
    <glyph glyph-name="zero.sub" horiz-adv-x="459" 
d="M229 -20c32 0 43 23 43 78v4c0 60 -11 77 -44 77c-32 0 -41 -20 -41 -77v-4c0 -56 7 -78 42 -78zM225 -145c-133 0 -205 70 -205 203v4c0 131 91 200 209 200c116 0 210 -56 210 -197v-3c0 -133 -81 -207 -214 -207z" />
    <glyph glyph-name="nine.den" horiz-adv-x="428" 
d="M204 -8c-109 0 -173 47 -180 131h152c1 -8 5 -16 24 -16c32 0 40 29 41 68c-15 -21 -32 -37 -83 -37c-78 0 -141 27 -141 119c0 85 69 142 185 142c143 0 206 -87 206 -202v-6c0 -125 -69 -199 -204 -199zM202 227c19 0 29 13 29 32c0 17 -9 32 -29 32
c-19 0 -29 -14 -29 -33c0 -17 10 -31 29 -31z" />
    <glyph glyph-name="eight.den" horiz-adv-x="415" 
d="M208 -8c-132 0 -193 42 -193 118c0 39 20 77 72 93c-33 15 -54 37 -54 80c0 75 76 116 176 116c105 0 176 -39 176 -116c0 -43 -21 -66 -54 -79c51 -15 69 -50 69 -89c0 -76 -63 -123 -192 -123zM208 100c19 0 31 13 31 29s-12 29 -31 29s-31 -12 -31 -29s12 -29 31 -29z
M209 239c15 0 29 12 29 28c0 17 -13 28 -29 28c-15 0 -29 -12 -29 -28s14 -28 29 -28z" />
    <glyph glyph-name="seven.den" horiz-adv-x="382" 
d="M164 264h-144v129h352v-16l-143 -377h-165z" />
    <glyph glyph-name="six.den" horiz-adv-x="428" 
d="M225 -8c-144 0 -205 80 -205 202v12c0 118 87 193 204 193c113 0 172 -48 179 -132h-151c-1 7 -6 17 -23 17c-31 0 -40 -31 -43 -70c17 23 39 39 91 39c70 0 134 -26 134 -118c0 -87 -69 -143 -186 -143zM223 100c19 0 29 14 29 33s-12 31 -29 31c-19 0 -28 -16 -28 -33
s9 -31 28 -31z" />
    <glyph glyph-name="five.den" horiz-adv-x="400" 
d="M197 -8c-124 0 -179 60 -179 137h150c3 -11 9 -18 25 -18c15 0 24 12 24 28c0 18 -9 27 -28 27c-16 0 -24 -10 -25 -21h-136l14 248h317v-114h-205l-4 -74c16 28 43 57 110 57c73 0 122 -39 122 -119c0 -93 -64 -151 -185 -151z" />
    <glyph glyph-name="four.den" horiz-adv-x="434" 
d="M204 70h-195v62l158 261h198v-216h49v-107h-49v-70h-161v70zM209 177v110l-64 -110h64z" />
    <glyph glyph-name="three.den" horiz-adv-x="406" 
d="M204 -8c-137 0 -183 62 -188 145h145c3 -19 12 -32 33 -32c17 0 26 8 26 24c0 15 -9 23 -36 23h-33v88h33c28 0 39 9 39 26c0 14 -8 21 -25 21s-27 -10 -31 -30h-144c5 83 63 142 180 142c111 0 176 -38 176 -111c0 -45 -24 -73 -73 -84c47 -7 80 -38 80 -82
c0 -76 -57 -130 -182 -130z" />
    <glyph glyph-name="two.den" horiz-adv-x="388" 
d="M3 20l129 131c47 47 75 76 75 104c0 16 -7 24 -22 24c-17 0 -26 -15 -29 -46h-151c3 112 74 166 189 166c123 0 175 -59 175 -130c0 -56 -35 -95 -82 -138l-15 -14h98v-117h-367v20z" />
    <glyph glyph-name="one.den" horiz-adv-x="315" 
d="M101 233l-83 -42v132l108 70h142v-393h-167v233z" />
    <glyph glyph-name="zero.den" horiz-adv-x="459" 
d="M229 117c32 0 43 23 43 78v4c0 60 -11 77 -44 77c-32 0 -41 -20 -41 -77v-4c0 -56 7 -78 42 -78zM225 -8c-133 0 -205 70 -205 203v4c0 131 91 200 209 200c116 0 210 -56 210 -197v-3c0 -133 -81 -207 -214 -207z" />
    <glyph glyph-name="uni045D.bgr" horiz-adv-x="638" 
d="M601 0h-229v80c-31 -57 -77 -94 -166 -94c-99 0 -173 65 -173 191v346h229v-304c0 -43 17 -65 50 -65c43 0 60 23 60 76v293h229v-523zM403 568h-163l-105 175h219z" />
    <glyph glyph-name="nine.num" horiz-adv-x="428" 
d="M204 314c-109 0 -173 47 -180 131h152c1 -8 5 -16 24 -16c32 0 40 29 41 68c-15 -21 -32 -37 -83 -37c-78 0 -141 27 -141 119c0 85 69 142 185 142c143 0 206 -87 206 -202v-6c0 -125 -69 -199 -204 -199zM202 549c19 0 29 13 29 32c0 17 -9 32 -29 32
c-19 0 -29 -14 -29 -33c0 -17 10 -31 29 -31z" />
    <glyph glyph-name="eight.num" horiz-adv-x="415" 
d="M208 314c-132 0 -193 42 -193 118c0 39 20 77 72 93c-33 15 -54 37 -54 80c0 75 76 116 176 116c105 0 176 -39 176 -116c0 -43 -21 -66 -54 -79c51 -15 69 -50 69 -89c0 -76 -63 -123 -192 -123zM208 422c19 0 31 13 31 29s-12 29 -31 29s-31 -12 -31 -29s12 -29 31 -29
zM209 561c15 0 29 12 29 28c0 17 -13 28 -29 28c-15 0 -29 -12 -29 -28s14 -28 29 -28z" />
    <glyph glyph-name="seven.num" horiz-adv-x="382" 
d="M164 586h-144v129h352v-16l-143 -377h-165z" />
    <glyph glyph-name="six.num" horiz-adv-x="428" 
d="M225 314c-144 0 -205 80 -205 202v12c0 118 87 193 204 193c113 0 172 -48 179 -132h-151c-1 7 -6 17 -23 17c-31 0 -40 -31 -43 -70c17 23 39 39 91 39c70 0 134 -26 134 -118c0 -87 -69 -143 -186 -143zM223 422c19 0 29 14 29 33s-12 31 -29 31c-19 0 -28 -16 -28 -33
s9 -31 28 -31z" />
    <glyph glyph-name="five.num" horiz-adv-x="400" 
d="M197 314c-124 0 -179 60 -179 137h150c3 -11 9 -18 25 -18c15 0 24 12 24 28c0 18 -9 27 -28 27c-16 0 -24 -10 -25 -21h-136l14 248h317v-114h-205l-4 -74c16 28 43 57 110 57c73 0 122 -39 122 -119c0 -93 -64 -151 -185 -151z" />
    <glyph glyph-name="four.num" horiz-adv-x="434" 
d="M204 392h-195v62l158 261h198v-216h49v-107h-49v-70h-161v70zM209 499v110l-64 -110h64z" />
    <glyph glyph-name="three.num" horiz-adv-x="406" 
d="M204 314c-137 0 -183 62 -188 145h145c3 -19 12 -32 33 -32c17 0 26 8 26 24c0 15 -9 23 -36 23h-33v88h33c28 0 39 9 39 26c0 14 -8 21 -25 21s-27 -10 -31 -30h-144c5 83 63 142 180 142c111 0 176 -38 176 -111c0 -45 -24 -73 -73 -84c47 -7 80 -38 80 -82
c0 -76 -57 -130 -182 -130z" />
    <glyph glyph-name="uni20B8.tab" 
d="M33 637v78h534v-78h-534zM166 391h-133v204h534v-204h-133v-391h-268v391z" />
    <glyph glyph-name="two.num" horiz-adv-x="388" 
d="M3 342l129 131c47 47 75 76 75 104c0 16 -7 24 -22 24c-17 0 -26 -15 -29 -46h-151c3 112 74 166 189 166c123 0 175 -59 175 -130c0 -56 -35 -95 -82 -138l-15 -14h98v-117h-367v20z" />
    <glyph glyph-name="one.num" horiz-adv-x="315" 
d="M101 555l-83 -42v132l108 70h142v-393h-167v233z" />
    <glyph glyph-name="zero.num" horiz-adv-x="459" 
d="M229 439c32 0 43 23 43 78v4c0 60 -11 77 -44 77c-32 0 -41 -20 -41 -77v-4c0 -56 7 -78 42 -78zM225 314c-133 0 -205 70 -205 203v4c0 131 91 200 209 200c116 0 210 -56 210 -197v-3c0 -133 -81 -207 -214 -207z" />
    <glyph glyph-name="nine.oldtab" 
d="M284 -107c-164 0 -261 74 -264 234h207c1 -31 18 -54 53 -54c55 0 70 45 70 158c-24 -39 -61 -67 -136 -67c-105 0 -201 49 -201 210c0 154 103 259 272 259c195 0 292 -117 292 -324v-86c0 -211 -109 -330 -293 -330zM287 317c36 0 65 24 65 71c0 41 -28 70 -65 70
c-36 0 -63 -29 -63 -70c0 -47 27 -71 63 -71z" />
    <glyph glyph-name="eight.oldtab" 
d="M300 -14c-188 0 -286 78 -286 215c0 76 40 139 120 171c-57 28 -93 73 -93 146c0 135 115 208 262 208c152 0 259 -72 259 -207c0 -73 -35 -119 -91 -146c76 -29 115 -89 115 -165c0 -137 -98 -222 -286 -222zM301 161c39 0 62 26 62 65s-19 68 -62 68
c-39 0 -62 -26 -62 -67c0 -40 22 -66 62 -66zM302 437c31 0 58 25 58 61c0 39 -26 61 -57 61s-57 -24 -57 -60s25 -62 56 -62z" />
    <glyph glyph-name="seven.oldtab" 
d="M258 416h-235v203h559v-26l-236 -683h-264z" />
    <glyph glyph-name="six.oldtab" 
d="M317 -14c-199 0 -294 119 -294 324v86c0 211 122 330 302 330c156 0 250 -68 253 -228h-211c-1 28 -9 50 -40 50c-55 0 -77 -49 -77 -170c24 34 63 77 140 77c105 0 197 -51 197 -212c0 -155 -101 -257 -270 -257zM316 164c36 0 63 29 63 70c0 47 -27 71 -63 71
s-65 -24 -65 -71c0 -41 28 -70 65 -70z" />
    <glyph glyph-name="five.oldtab" 
d="M293 -104c-187 0 -272 91 -272 247h216c1 -40 14 -65 55 -65c39 0 51 30 51 74c0 47 -23 71 -69 71c-33 0 -62 -19 -78 -46h-156l20 442h471v-184h-297l-7 -137c27 45 71 90 157 90c125 0 191 -86 191 -223c0 -167 -93 -269 -282 -269z" />
    <glyph glyph-name="uni043A.bgr" horiz-adv-x="609" 
d="M266 184v-184h-229v743h229v-406l101 186h232l-143 -238l154 -285h-251z" />
    <glyph glyph-name="four.oldtab" 
d="M286 32h-279v81l226 506h283v-430h66v-157h-66v-122h-230v122zM292 189v233l-97 -233h97z" />
    <glyph glyph-name="three.oldtab" 
d="M300 -105c-204 0 -289 100 -292 257h222c3 -49 19 -77 62 -77c35 0 52 23 52 59s-19 60 -60 60h-58v147h56c44 0 67 27 67 63c0 31 -17 53 -50 53c-35 0 -54 -22 -57 -74h-221c8 145 107 250 287 250c168 0 263 -69 263 -200c0 -80 -41 -133 -113 -153
c75 -15 126 -72 126 -153c0 -140 -96 -232 -284 -232z" />
    <glyph glyph-name="uni043D.bgr" horiz-adv-x="632" 
d="M367 180h-102v-180h-228v523h228v-179h102v179h228v-523h-228v180z" />
    <glyph glyph-name="two.oldtab" 
d="M11 31l214 209c75 72 103 120 103 163c0 28 -8 46 -37 46c-32 0 -44 -28 -51 -79h-221c9 168 112 263 291 263c172 0 263 -84 263 -204c0 -83 -44 -145 -117 -214l-45 -41h166v-174h-566v31z" />
    <glyph glyph-name="one.oldtab" 
d="M233 377l-161 -97v202l197 137h209v-619h-245v377z" />
    <glyph glyph-name="zero.oldtab" 
d="M302 180c35 0 41 27 41 96v70c0 73 -7 97 -43 97s-43 -25 -43 -96v-71c0 -71 6 -96 45 -96zM294 -14c-173 0 -271 102 -271 290v71c0 187 119 286 276 286c156 0 278 -86 278 -282v-70c0 -188 -108 -295 -283 -295z" />
    <glyph glyph-name="yen.oldtab" 
d="M43 388h126l-157 306h253l51 -147l51 147h221l-155 -306h135v-76h-142v-37h142v-76h-142v-199h-249v199h-134v76h134v37h-134v76z" />
    <glyph glyph-name="sterling.oldtab" 
d="M29 399h35c-5 21 -8 43 -8 70c0 161 114 235 259 235c180 0 254 -85 257 -255h-202c-3 53 -19 63 -44 63c-29 0 -46 -11 -46 -58c0 -18 1 -36 3 -55h132v-123h-122c1 -11 1 -20 1 -29c0 -19 -2 -34 -5 -49c15 -4 27 -7 42 -7c25 0 42 13 45 42h206
c-4 -153 -73 -242 -201 -242c-91 0 -126 46 -163 46c-20 0 -31 -12 -33 -37h-172c4 81 29 150 80 187c3 15 6 35 6 60c0 11 -1 18 -2 29h-68v123z" />
    <glyph glyph-name="Euro.oldtab" 
d="M19 440h39c5 172 119 264 264 264c149 0 246 -66 249 -246h-203c-1 48 -10 62 -45 62c-31 0 -44 -20 -45 -80h103l-13 -75h-90v-37h84l-13 -76h-71c1 -59 11 -80 46 -80c33 0 49 14 48 69h199c0 -182 -88 -255 -257 -255c-156 0 -251 93 -256 266h-39v76h39v37h-39v75z
" />
    <glyph glyph-name="uni0433.locl" horiz-adv-x="477" 
d="M265 359v-359h-228v523h422v-164h-194z" />
    <glyph glyph-name="dollar.oldtab" 
d="M265 -11c-155 11 -240 89 -241 234h197c1 -36 15 -58 44 -67v92c-168 27 -237 85 -237 228c0 127 85 216 237 227v86h77v-87c137 -12 220 -80 227 -220h-195c-3 21 -9 37 -32 48v-88c133 -19 236 -72 236 -215c0 -119 -63 -227 -236 -238v-120h-77v120zM222 496
c0 -23 12 -35 43 -43v83c-29 -5 -43 -18 -43 -40zM381 199c0 17 -13 30 -39 37v-83c26 7 39 22 39 46z" />
    <glyph glyph-name="braceright.tab" horiz-adv-x="300" 
d="M6 -3c56 5 66 26 55 75l-17 89c-15 77 6 129 101 156c-93 28 -116 78 -101 155l17 90c9 47 1 64 -55 69v145c219 0 286 -74 246 -249l-18 -78c-9 -41 1 -65 57 -65v-138c-55 0 -66 -25 -57 -66l18 -79c38 -166 -27 -249 -246 -249v145z" />
    <glyph glyph-name="braceleft.tab" horiz-adv-x="300" 
d="M294 -148c-219 0 -284 83 -246 249l18 79c9 41 -2 66 -57 66v138c56 0 66 24 57 65l-18 78c-40 175 27 249 246 249v-145c-56 -5 -64 -22 -55 -69l17 -90c15 -77 -8 -127 -101 -155c93 -27 117 -78 101 -156l-17 -89c-11 -49 -1 -70 55 -75v-145z" />
    <glyph glyph-name="uni0447.bgr" horiz-adv-x="614" 
d="M349 0v214c-27 -27 -77 -62 -157 -62c-103 0 -162 64 -162 191v180h229v-142c0 -39 10 -61 45 -61c27 0 41 12 45 15v188h228v-523h-228z" />
    <glyph glyph-name="bracketright.tab" horiz-adv-x="300" 
d="M6 -4h60v636h-60v144h261v-924h-261v144z" />
    <glyph glyph-name="bracketleft.tab" horiz-adv-x="300" 
d="M33 776h261v-144h-60v-636h60v-144h-261v924z" />
    <glyph glyph-name="parenright.tab" horiz-adv-x="300" 
d="M-22 -148c48 95 103 252 103 462s-55 366 -103 462h149c59 -86 149 -226 149 -462s-90 -376 -149 -462h-149z" />
    <glyph glyph-name="parenleft.tab" horiz-adv-x="300" 
d="M173 -148c-61 84 -149 227 -149 462s88 378 149 462h149c-48 -96 -103 -252 -103 -462s55 -367 103 -462h-149z" />
    <glyph glyph-name="semicolon.tab" horiz-adv-x="300" 
d="M-23 -74l77 286l210 -70l-154 -264zM148 266c-71 0 -122 53 -122 120c0 66 51 120 122 120c73 0 126 -54 126 -120c0 -67 -53 -120 -126 -120z" />
    <glyph glyph-name="uni0416.bgr" horiz-adv-x="1078" 
d="M406 279l-129 -279h-270l189 374l-187 341h261l136 -267v267h258v-267l136 267h258l-185 -324l198 -391h-289l-118 280v-280h-258v279z" />
    <glyph glyph-name="colon.tab" horiz-adv-x="300" 
d="M148 -14c-71 0 -122 53 -122 120c0 66 51 120 122 120c73 0 126 -54 126 -120c0 -67 -53 -120 -126 -120zM148 266c-71 0 -122 53 -122 120c0 66 51 120 122 120c73 0 126 -54 126 -120c0 -67 -53 -120 -126 -120z" />
    <glyph glyph-name="comma.tab" horiz-adv-x="300" 
d="M-8 -74l77 286l211 -70l-155 -264z" />
    <glyph glyph-name="period.tab" horiz-adv-x="300" 
d="M148 -14c-71 0 -122 53 -122 120c0 66 51 120 122 120c73 0 126 -54 126 -120c0 -67 -53 -120 -126 -120z" />
    <glyph glyph-name="greaterequal.tab" 
d="M522 391l-441 -236v203l118 55l-118 55v200l441 -236v-41zM522 0h-441v142h441v-142z" />
    <glyph glyph-name="lessequal.tab" 
d="M519 155l-441 236v41l441 236v-200l-118 -55l118 -55v-203zM519 0h-441v142h441v-142z" />
    <glyph glyph-name="greater.tab" 
d="M533 303l-471 -261v205l173 75l-173 85v198l471 -261v-41z" />
    <glyph glyph-name="less.tab" 
d="M539 41l-471 261v41l471 261v-205l-173 -75l173 -85v-198z" />
    <glyph glyph-name="approxequal.tab" 
d="M572 311c-5 -139 -75 -208 -155 -208c-85 0 -171 38 -220 38c-27 0 -41 -16 -45 -43h-124c8 149 79 208 156 208c83 0 172 -38 219 -38c26 0 41 14 45 43h124zM572 553c-5 -139 -75 -207 -155 -207c-85 0 -171 38 -220 38c-27 0 -41 -18 -45 -43h-124
c8 149 79 207 156 207c83 0 172 -37 219 -37c27 0 41 15 45 42h124z" />
    <glyph glyph-name="notequal.tab" 
d="M559 152h-259l-36 -93h-136l36 93h-123v148h180l22 57h-202v148h259l36 93h136l-36 -93h123v-148h-180l-22 -57h202v-148z" />
    <glyph glyph-name="equal.tab" 
d="M549 152h-498v148h498v-148zM549 357h-498v148h498v-148z" />
    <glyph glyph-name="divide.tab" 
d="M401 83c-16 -37 -54 -64 -101 -64c-61 0 -110 47 -110 107c0 59 49 107 110 107s110 -48 110 -107c0 -16 -3 -30 -9 -43zM562 263h-524v152h524v-152zM401 510c-16 -37 -54 -65 -101 -65c-61 0 -110 48 -110 107c0 60 49 107 110 107s110 -47 110 -107
c0 -15 -3 -29 -9 -42z" />
    <glyph glyph-name="multiply.tab" 
d="M574 184l-120 -120l-154 156l-151 -151l-118 118l151 151l-155 154l119 120l154 -156l152 151l118 -118l-152 -151z" />
    <glyph glyph-name="plusminus.tab" 
d="M560 348h-170v-156h-180v156h-170v162h170v156h180v-156h170v-162zM564 0h-524v142h524v-142z" />
    <glyph glyph-name="minus.tab" 
d="M552 253h-504v172h504v-172z" />
    <glyph glyph-name="plus.tab" 
d="M390 82h-180v176h-160v162h160v176h180v-176h160v-162h-160v-176z" />
    <glyph glyph-name="perthousand.tab" horiz-adv-x="1000" 
d="M175 489c21 0 28 14 28 67s-7 66 -28 66c-20 0 -29 -13 -29 -65c0 -55 9 -68 29 -68zM296 432c-28 -31 -70 -49 -122 -49c-108 0 -164 69 -164 173c0 100 69 168 165 168c93 0 164 -63 164 -164c0 -53 -14 -95 -43 -128zM129 0h-105l507 715h105zM479 92
c21 0 28 14 28 67s-7 66 -28 66c-20 0 -29 -13 -29 -65c0 -55 9 -68 29 -68zM600 35c-28 -31 -70 -49 -122 -49c-108 0 -164 69 -164 173c0 100 69 168 165 168c93 0 164 -63 164 -164c0 -53 -14 -95 -43 -128zM826 92c21 0 28 14 28 67s-7 66 -28 66c-20 0 -29 -13 -29 -65
c0 -55 9 -68 29 -68zM947 35c-28 -31 -70 -49 -122 -49c-108 0 -164 69 -164 173c0 100 69 168 165 168c93 0 164 -63 164 -164c0 -53 -14 -95 -43 -128z" />
    <glyph glyph-name="uni20B4.tab" 
d="M308 -14c-187 0 -274 89 -274 225c0 21 2 38 7 53h-31v78h89c16 13 36 25 61 38h-150v78h316c13 10 19 24 19 41c0 31 -12 42 -40 42c-31 0 -46 -21 -49 -52h-214c12 156 99 237 266 237c163 0 256 -80 256 -212c0 -21 -2 -39 -7 -56h33v-78h-81c-13 -13 -29 -25 -49 -38
h130v-78h-310c-17 -12 -25 -28 -25 -49c0 -23 10 -44 47 -44c47 0 54 26 54 61h219c-5 -163 -95 -246 -267 -246z" />
    <glyph glyph-name="percent.tab" horiz-adv-x="800" 
d="M215 499c24 0 35 22 35 57s-11 56 -35 56c-23 0 -36 -22 -36 -55c0 -36 13 -58 36 -58zM389 490c-24 -64 -84 -107 -175 -107c-124 0 -186 76 -186 173c0 95 77 168 187 168c108 0 186 -67 186 -164c0 -25 -4 -48 -12 -70zM204 0h-109l507 715h109zM586 102
c24 0 35 22 35 57s-11 56 -35 56c-23 0 -36 -22 -36 -55c0 -36 13 -58 36 -58zM760 93c-24 -64 -84 -107 -175 -107c-124 0 -186 76 -186 173c0 95 77 168 187 168c108 0 186 -67 186 -164c0 -25 -4 -48 -12 -70z" />
    <glyph glyph-name="yen.tab" 
d="M429 0h-257v185h-138v78h138v38h-138v78h130l-159 336h261l49 -156l52 156h228l-159 -336h139v-78h-146v-38h146v-78h-146v-185z" />
    <glyph glyph-name="uni0424.bgr" horiz-adv-x="975" 
d="M619 681c215 -9 337 -116 337 -313v-8c0 -199 -148 -302 -337 -310v-60h-263v60c-215 9 -337 116 -337 313v8c0 199 148 302 337 310v54h263v-54zM356 503c-51 0 -93 -32 -93 -131v-8c0 -97 38 -134 93 -134v273zM619 229c50 0 93 33 93 130v8c0 98 -40 135 -93 135v-273
z" />
    <glyph glyph-name="sterling.tab" 
d="M591 240c-4 -157 -76 -249 -208 -249c-93 0 -128 47 -168 47c-21 0 -32 -13 -34 -38h-177c4 84 31 154 82 193c4 16 7 37 7 62c0 11 -1 19 -2 30h-70v126h35c-5 23 -8 48 -8 73c0 165 119 242 267 242c187 0 262 -88 265 -263h-208c-3 56 -18 65 -45 65
c-31 0 -48 -13 -48 -60c0 -18 1 -37 3 -57h137v-126h-126c1 -11 1 -21 1 -30c0 -17 -2 -34 -5 -51c15 -4 28 -7 43 -7c27 0 43 12 46 43h213z" />
    <glyph glyph-name="space.tab" horiz-adv-x="300" 
 />
    <glyph glyph-name="uni0430.alt" horiz-adv-x="644" 
d="M606 0h-228v82c-25 -55 -70 -96 -149 -96c-111 0 -212 83 -212 272v8c0 188 101 273 209 273c80 0 123 -30 152 -85v69h228v-523zM384 268c0 69 -22 103 -67 103s-68 -31 -68 -103v-8c0 -67 23 -101 68 -101s67 34 67 101v8z" />
    <glyph glyph-name="nine.old" horiz-adv-x="671" 
d="M316 -106c-179 0 -280 84 -292 233h232c3 -23 21 -49 58 -49c60 0 83 35 88 167c-29 -43 -69 -81 -155 -81c-120 0 -231 65 -231 214c0 155 115 255 307 255c236 0 327 -141 327 -361v-31c0 -208 -119 -347 -334 -347zM323 315c43 0 67 34 67 74c0 35 -23 68 -66 68
s-67 -33 -67 -72s23 -70 66 -70z" />
    <glyph glyph-name="uni20B8.oldtab" 
d="M27 618v76h536v-76h-536zM165 379h-138v198h536v-198h-138v-379h-260v379z" />
    <glyph glyph-name="eight.old" horiz-adv-x="661" 
d="M330 -14c-205 0 -314 78 -314 215c0 76 45 139 133 171c-59 28 -102 73 -102 146c0 135 126 208 286 208c166 0 285 -72 285 -207c0 -73 -45 -119 -102 -146c83 -29 129 -89 129 -165c0 -137 -110 -222 -315 -222zM331 161c43 0 69 27 69 66s-24 68 -69 68
c-43 0 -69 -26 -69 -67c0 -40 25 -67 69 -67zM332 437c35 0 63 24 63 60c0 39 -27 61 -62 61c-33 0 -62 -24 -62 -60s28 -61 61 -61z" />
    <glyph glyph-name="seven.old" horiz-adv-x="596" 
d="M270 416h-253v203h577v-26l-245 -683h-264z" />
    <glyph glyph-name="six.old" horiz-adv-x="671" 
d="M348 -13c-232 0 -327 141 -327 351v36c0 220 141 352 333 352c179 0 275 -79 287 -228h-232c-3 23 -15 44 -52 44c-60 0 -84 -52 -88 -167c29 43 69 81 155 81c120 0 231 -64 231 -221c0 -148 -115 -248 -307 -248zM347 163c43 0 67 33 67 72s-23 70 -66 70
s-67 -34 -67 -74c0 -35 23 -68 66 -68z" />
    <glyph glyph-name="uni0434.locl" horiz-adv-x="645" 
d="M261 266c-4 -40 -10 -74 -21 -102h103v200h-77c-1 -35 -2 -70 -5 -98zM202 -127h-192v291h30c27 13 36 48 43 124c3 45 6 103 7 151c1 27 1 55 1 84h475v-359h69v-291h-192l-6 127h-229z" />
    <glyph glyph-name="five.old" horiz-adv-x="635" 
d="M312 -104c-201 0 -296 108 -299 247h229c3 -35 18 -64 68 -64c41 0 64 37 64 72c0 45 -31 70 -82 70c-45 0 -76 -22 -92 -45h-163l22 443h514v-187h-336l-7 -134c32 48 86 86 178 86c125 0 210 -78 210 -231c0 -156 -104 -257 -306 -257z" />
    <glyph glyph-name="four.old" horiz-adv-x="696" 
d="M349 32h-343v83l284 504h304v-428h88v-159h-88v-122h-245v122zM356 191v243l-124 -243h124z" />
    <glyph glyph-name="three.old" horiz-adv-x="634" 
d="M326 -104c-216 0 -305 96 -313 256h223c4 -48 25 -76 74 -76c41 0 63 24 63 60c0 39 -25 58 -75 58h-62v147h58c59 0 80 26 80 61c0 36 -22 55 -54 55c-39 0 -64 -27 -71 -74h-223c11 144 102 250 303 250c173 0 276 -74 276 -199c0 -80 -43 -128 -122 -155
c83 -20 134 -68 134 -161c0 -125 -90 -222 -291 -222z" />
    <glyph glyph-name="two.old" horiz-adv-x="609" 
d="M5 31l214 209c75 72 119 119 119 166c0 25 -12 43 -44 43c-33 0 -55 -28 -60 -79h-221c5 168 116 263 299 263c177 0 271 -84 271 -204c0 -83 -47 -145 -122 -214l-45 -41h173v-174h-584v31z" />
    <glyph glyph-name="one.old" horiz-adv-x="460" 
d="M150 377l-119 -65v202l155 105h209v-619h-245v377z" />
    <glyph glyph-name="zero.old" horiz-adv-x="690" 
d="M346 171c59 0 79 44 79 132v15c0 89 -20 131 -80 131c-59 0 -80 -41 -80 -129v-16c0 -89 20 -133 81 -133zM341 -14c-191 0 -324 108 -324 314v16c0 204 145 317 328 317c180 0 328 -102 328 -311v-15c0 -206 -139 -321 -332 -321z" />
    <glyph glyph-name="yen.old" horiz-adv-x="662" 
d="M52 368h124l-174 326h279l65 -181l68 181h246l-167 -326h126v-76h-153v-37h153v-76h-153v-179h-260v179h-154v76h154v37h-154v76z" />
    <glyph glyph-name="sterling.old" horiz-adv-x="668" 
d="M26 402h42c-5 21 -8 44 -8 67c0 156 128 235 294 235c208 0 291 -104 296 -260h-233c-5 51 -23 68 -52 68c-34 0 -51 -19 -51 -58c0 -16 -1 -33 2 -52h153v-128h-144c1 -9 1 -18 1 -27c0 -17 -2 -33 -6 -48c21 -7 39 -10 56 -10c29 0 45 15 47 44h235
c-5 -138 -82 -242 -228 -242c-105 0 -155 46 -198 46c-23 0 -36 -14 -39 -37h-186c5 81 34 152 93 189c4 15 7 34 7 58c0 9 -1 18 -2 27h-79v128z" />
    <glyph glyph-name="Euro.old" horiz-adv-x="721" 
d="M17 438h57c27 160 151 266 323 266c187 0 289 -88 304 -269h-236c-7 51 -27 76 -71 76c-43 0 -63 -28 -72 -73h110l-14 -75h-101v-37h95l-12 -75h-78c8 -44 29 -68 73 -68c52 0 69 29 74 89h236c-21 -180 -114 -286 -318 -286c-189 0 -290 109 -314 265h-56v75h51v37h-51
v75z" />
    <glyph glyph-name="dollar.old" horiz-adv-x="638" 
d="M281 -11c-171 12 -264 97 -268 234h218c2 -35 19 -58 50 -69v97c-192 24 -260 88 -260 225c0 125 96 217 260 228v85h86v-87c151 -12 241 -77 252 -220h-215c-1 24 -9 42 -37 53v-94c151 -19 260 -66 260 -210c0 -123 -72 -231 -260 -242v-120h-86v120zM234 496
c0 -24 16 -37 47 -44v87c-31 -6 -47 -20 -47 -43zM411 197c0 19 -15 32 -44 41v-87c32 7 44 23 44 46z" />
    <glyph glyph-name="space_uni0326" horiz-adv-x="400" 
d="M205 -236l-126 27l33 173h197z" />
    <glyph glyph-name="idotaccent" horiz-adv-x="316" 
d="M158 542c-71 0 -121 47 -121 112s50 112 121 112c69 0 121 -47 121 -112s-52 -112 -121 -112zM44 523h228v-523h-228v523z" />
    <glyph glyph-name="uni02BC" unicode="&#x2bc;" horiz-adv-x="339" 
d="M166 397l-126 46l75 286l198 -61z" />
    </font>
</defs>
</svg>
