<?xml version="1.0" standalone="no"?>
<!DOCTYPE svg PUBLIC "-//W3C//DTD SVG 1.1//EN" "http://www.w3.org/Graphics/SVG/1.1/DTD/svg11.dtd" >
<svg xmlns="http://www.w3.org/2000/svg" xmlns:xlink="http://www.w3.org/1999/xlink" version="1.1">
<metadata>
Created by FontForge 20190801 at Mon Jul  4 10:25:35 2016
 By Jimmy Wärting
LCG stand for Latin, Cyrillic and Greek.
</metadata>
<defs>
<font id="GraphikLCG-SemiboldItalic" horiz-adv-x="612" >
  <font-face 
    font-family="Graphik LCG"
    font-weight="600"
    font-style="italic"
    font-stretch="normal"
    units-per-em="1000"
    panose-1="2 11 7 3 3 2 2 13 2 3"
    ascent="822"
    descent="-178"
    x-height="523"
    cap-height="715"
    bbox="-253 -228 1156 1128"
    underline-thickness="50"
    underline-position="-100"
    slope="-8"
    stemh="110"
    stemv="147"
    unicode-range="U+000D-FB02"
  />
<missing-glyph horiz-adv-x="512" 
 />
    <glyph glyph-name="f_f" unicode="ff" horiz-adv-x="691" 
d="M428 420h-170l-66 -420h-144l66 420h-68l16 103h68l11 69c19 115 99 166 200 166c41 0 63 -5 83 -14l-17 -107c-13 7 -26 9 -49 9c-44 0 -67 -23 -74 -66l-9 -57h169l13 79c19 115 100 166 202 166c43 0 64 -5 84 -13l-17 -108c-13 7 -27 9 -50 9c-47 0 -69 -25 -76 -66
l-11 -67h114l-16 -103h-114l-67 -420h-144z" />
    <glyph glyph-name=".notdef" horiz-adv-x="512" 
 />
    <glyph glyph-name="NULL" horiz-adv-x="0" 
 />
    <glyph glyph-name="NULL" horiz-adv-x="0" 
 />
    <glyph glyph-name="CR" unicode="&#xd;" horiz-adv-x="222" 
 />
    <glyph glyph-name="space" unicode=" " horiz-adv-x="222" 
 />
    <glyph glyph-name="exclam" unicode="!" horiz-adv-x="328" 
d="M155 715h162l-101 -492h-118zM136 -9c-51 0 -88 38 -88 86s38 87 89 87s90 -38 90 -86s-40 -87 -91 -87z" />
    <glyph glyph-name="quotedbl" unicode="&#x22;" horiz-adv-x="442" 
d="M124 715h140l-58 -264h-103zM319 715h140l-59 -264h-102z" />
    <glyph glyph-name="numbersign" unicode="#" horiz-adv-x="557" 
d="M301 256h-75l-37 -157h-102l37 157h-81l19 115h89l23 96h-82l17 111h91l33 137h101l-33 -137h76l33 137h101l-33 -137h83l-17 -111h-92l-23 -96h85l-19 -115h-93l-37 -157h-101zM253 371h75l23 96h-76z" />
    <glyph glyph-name="dollar" unicode="$" horiz-adv-x="646" 
d="M315 -11l-19 -124h-71l20 130c-129 20 -216 99 -219 228h148c1 -56 29 -98 89 -114l31 196c-135 34 -202 90 -202 199c0 130 116 218 269 221l14 88h71l-15 -93c113 -16 195 -79 200 -206h-143c-5 52 -32 80 -75 91l-29 -183c133 -35 213 -87 213 -199
c0 -147 -115 -234 -280 -234h-2zM449 203c0 40 -21 61 -86 84l-30 -185c76 4 116 40 116 101zM235 522c0 -39 17 -60 81 -81l27 171c-65 -4 -108 -37 -108 -90z" />
    <glyph glyph-name="percent" unicode="%" horiz-adv-x="823" 
d="M181 530c0 -35 15 -70 63 -70c49 1 75 48 75 103c0 36 -16 71 -61 71c-52 0 -77 -48 -77 -104zM241 371c-97 0 -171 61 -171 158c0 106 79 193 192 193c95 0 168 -64 168 -160c0 -103 -79 -191 -189 -191zM667 715h92l-566 -715h-91zM540 149c0 -36 14 -70 63 -70
c48 1 74 47 74 103c0 35 -16 71 -61 71c-52 0 -76 -48 -76 -104zM599 -11c-96 0 -171 62 -171 159c0 104 79 193 192 193c96 0 169 -64 169 -160c0 -103 -80 -192 -190 -192z" />
    <glyph glyph-name="ampersand" unicode="&#x26;" horiz-adv-x="744" 
d="M493 0l-44 65c-44 -39 -111 -74 -196 -74c-111 0 -222 50 -222 190c0 123 93 189 194 229c-23 39 -36 81 -36 120c0 122 98 192 216 192c95 0 188 -49 188 -157c0 -104 -81 -151 -170 -189l88 -136l85 131h132l-151 -232l89 -139h-173zM186 200c0 -57 36 -92 97 -92
c39 0 78 17 106 48l-111 167c-47 -21 -92 -54 -92 -123zM402 618c-43 0 -73 -30 -73 -81c0 -27 12 -56 35 -88c49 22 100 46 100 106c0 35 -21 63 -62 63z" />
    <glyph glyph-name="quotesingle" unicode="'" horiz-adv-x="252" 
d="M124 715h145l-59 -264h-107z" />
    <glyph glyph-name="parenleft" unicode="(" horiz-adv-x="355" 
d="M152 -148c-58 87 -106 200 -106 355c0 229 99 424 250 567h126c-143 -167 -236 -342 -236 -575c0 -139 32 -254 83 -347h-117z" />
    <glyph glyph-name="parenright" unicode=")" horiz-adv-x="355" 
d="M217 774c58 -87 106 -200 106 -355c0 -231 -98 -422 -250 -567h-126c143 167 236 342 236 575c0 139 -32 254 -83 347h117z" />
    <glyph glyph-name="asterisk" unicode="*" horiz-adv-x="446" 
d="M101 458l101 91l-116 27l47 100l104 -58l3 125h117l-38 -129l120 43l14 -104l-123 -11l72 -102l-99 -58l-44 120l-79 -112z" />
    <glyph glyph-name="plus" unicode="+" horiz-adv-x="563" 
d="M225 286h-180l18 109h180l30 195h118l-30 -195h179l-17 -109h-180l-30 -195h-118z" />
    <glyph glyph-name="comma" unicode="," horiz-adv-x="310" 
d="M-11 -85l110 246l128 -51l-157 -233z" />
    <glyph glyph-name="hyphen" unicode="-" horiz-adv-x="377" 
d="M71 339h256l-18 -115h-256z" />
    <glyph glyph-name="period" unicode="." horiz-adv-x="305" 
d="M122 -9c-51 0 -89 39 -89 88c0 48 37 87 88 87s91 -39 91 -87s-39 -88 -90 -88z" />
    <glyph glyph-name="slash" unicode="/" horiz-adv-x="435" 
d="M374 776h122l-445 -924h-120z" />
    <glyph glyph-name="zero" unicode="0" horiz-adv-x="725" 
d="M343 -11c-183 0 -285 114 -285 285c0 27 3 57 7 85l5 32c35 213 164 334 344 334c178 0 281 -114 281 -288c0 -27 -2 -55 -7 -82l-5 -33c-33 -212 -155 -333 -340 -333zM350 116c96 0 150 74 173 218l5 31c4 27 7 53 7 77c0 83 -28 158 -127 158
c-95 0 -154 -74 -177 -218l-5 -32c-4 -27 -7 -53 -7 -80c0 -79 28 -154 131 -154z" />
    <glyph glyph-name="one" unicode="1" horiz-adv-x="443" 
d="M228 555l-160 -97l23 142l183 115h142l-113 -715h-162z" />
    <glyph glyph-name="two" unicode="2" horiz-adv-x="605" 
d="M-26 26l312 276c74 64 141 131 141 212c0 48 -29 87 -85 87c-60 1 -107 -31 -130 -131h-148c24 173 138 255 291 255c132 0 234 -69 234 -200c0 -116 -80 -196 -175 -275l-152 -127h273l-19 -123h-546z" />
    <glyph glyph-name="three" unicode="3" horiz-adv-x="647" 
d="M304 -11c-165 0 -274 81 -274 238h148c0 -68 34 -119 122 -119c76 0 124 39 124 116c0 56 -33 90 -106 90h-48l17 108h63c63 0 108 28 108 99c1 56 -35 85 -91 85c-68 0 -114 -36 -130 -108h-143c19 136 127 227 283 227c120 0 236 -54 236 -186
c0 -83 -49 -147 -137 -170c71 -20 111 -75 111 -148c0 -152 -131 -232 -283 -232z" />
    <glyph glyph-name="four" unicode="4" horiz-adv-x="668" 
d="M363 142h-351l10 59l390 514h199l-73 -457h95l-19 -116h-95l-21 -142h-157zM385 258l51 328l-241 -328h190z" />
    <glyph glyph-name="five" unicode="5" horiz-adv-x="627" 
d="M285 -11c-140 0 -254 67 -257 224h152c3 -61 34 -100 106 -100c80 0 126 56 126 144c1 67 -36 109 -111 109c-63 0 -105 -25 -136 -58h-87l72 407h452l-19 -123h-332l-30 -175c32 33 84 62 157 62c118 0 198 -77 198 -209c0 -167 -115 -281 -291 -281z" />
    <glyph glyph-name="six" unicode="6" horiz-adv-x="666" 
d="M328 -11c-171 0 -272 91 -271 266c0 31 3 62 8 95l4 27c29 187 141 348 341 348c133 0 229 -62 234 -198h-150c-4 47 -28 76 -89 76c-109 0 -155 -106 -176 -221c39 49 94 85 174 85c115 0 214 -75 214 -206c0 -164 -125 -272 -289 -272zM216 220c0 -62 37 -114 113 -114
c77 0 128 64 128 146c0 59 -34 108 -110 108c-75 0 -131 -61 -131 -140z" />
    <glyph glyph-name="seven" unicode="7" horiz-adv-x="570" 
d="M391 584h-310l21 131h517l-3 -18l-371 -697h-167z" />
    <glyph glyph-name="eight" unicode="8" horiz-adv-x="651" 
d="M308 -11c-138 0 -271 64 -271 198c0 105 65 172 161 201c-52 25 -84 74 -84 130c0 132 121 207 262 207c116 0 242 -58 242 -186c0 -84 -51 -137 -128 -164c69 -27 108 -87 108 -156c0 -152 -127 -230 -290 -230zM200 209c0 -64 47 -102 115 -102c72 0 124 43 124 120
c0 63 -45 100 -109 100c-73 0 -130 -39 -130 -118zM263 513c0 -49 38 -87 98 -87c53 0 106 29 106 98c0 51 -38 88 -97 88c-56 0 -107 -32 -107 -99z" />
    <glyph glyph-name="nine" unicode="9" horiz-adv-x="667" 
d="M287 -10c-130 0 -241 56 -249 203h152c8 -60 44 -80 104 -80c91 0 145 74 170 215c-37 -49 -92 -81 -172 -81c-112 0 -215 66 -215 204c0 164 124 275 293 275s266 -94 267 -269c0 -29 -1 -60 -8 -93l-5 -31c-39 -232 -150 -343 -337 -343zM235 463
c0 -64 34 -108 101 -108c77 0 140 49 140 140c0 60 -34 114 -110 114s-131 -60 -131 -146z" />
    <glyph glyph-name="colon" unicode=":" horiz-adv-x="312" 
d="M125 -9c-51 0 -89 39 -89 88c0 48 37 87 88 87s91 -39 91 -87s-39 -88 -90 -88zM171 281c-51 0 -88 39 -88 88c0 48 36 87 87 87c52 0 92 -39 92 -87s-40 -88 -91 -88z" />
    <glyph glyph-name="semicolon" unicode=";" horiz-adv-x="322" 
d="M-20 -85l111 246l127 -51l-157 -233zM189 281c-51 0 -89 39 -89 88c0 48 37 87 88 87s91 -39 91 -87s-39 -88 -90 -88z" />
    <glyph glyph-name="less" unicode="&#x3c;" horiz-adv-x="521" 
d="M58 312l5 30l445 230l-21 -135l-236 -115l198 -123l-20 -127z" />
    <glyph glyph-name="equal" unicode="=" horiz-adv-x="542" 
d="M47 281h452l-16 -103h-452zM77 472h452l-16 -104h-452z" />
    <glyph glyph-name="greater" unicode="&#x3e;" horiz-adv-x="521" 
d="M480 333l-5 -30l-444 -230l21 136l236 115l-199 123l20 126z" />
    <glyph glyph-name="question" unicode="?" horiz-adv-x="544" 
d="M176 255c13 88 75 134 128 173c48 36 85 62 85 114c-1 40 -27 65 -75 65c-52 0 -92 -34 -104 -103h-140c19 147 120 221 254 221c143 0 218 -76 218 -174c0 -89 -52 -138 -112 -181c-50 -37 -113 -70 -124 -141l-1 -6h-134zM218 -9c-51 0 -89 38 -89 86c0 49 38 87 89 87
s90 -38 90 -86s-39 -87 -90 -87z" />
    <glyph glyph-name="at" unicode="@" horiz-adv-x="929" 
d="M655 196c-6 -47 9 -71 44 -71c55 0 117 59 117 200c0 177 -126 297 -330 297s-361 -147 -361 -368c0 -187 118 -340 346 -340c113 0 193 35 249 86h86c-61 -92 -186 -154 -337 -154c-269 0 -426 187 -426 409c0 256 208 435 444 435c235 0 406 -152 406 -365
c0 -195 -113 -267 -213 -267c-80 0 -121 32 -133 83c-27 -52 -72 -87 -143 -87c-95 0 -156 65 -157 173c0 141 90 242 205 242c67 0 99 -28 112 -63l9 55h124zM444 152c53 0 102 56 102 139c0 52 -29 80 -74 80c-55 0 -98 -51 -98 -139c0 -51 27 -80 70 -80z" />
    <glyph glyph-name="A" unicode="A" horiz-adv-x="718" 
d="M466 159h-259l-73 -159h-156l348 715h211l119 -715h-166zM261 274h188l-45 309z" />
    <glyph glyph-name="B" unicode="B" horiz-adv-x="671" 
d="M154 715h258c152 0 222 -65 221 -172c0 -92 -50 -150 -137 -173c76 -17 122 -65 123 -152c0 -132 -105 -218 -267 -218h-311zM333 112c85 0 128 46 128 114c0 60 -32 91 -116 91h-96l-33 -205h117zM363 421c83 0 120 36 120 104c0 56 -29 79 -97 79h-92l-29 -183h98z" />
    <glyph glyph-name="C" unicode="C" horiz-adv-x="761" 
d="M396 -11c-206 0 -337 114 -337 314c0 241 152 423 392 423c172 0 289 -88 297 -260h-161c-11 87 -53 133 -141 133c-140 0 -218 -132 -218 -291c0 -115 51 -190 170 -190c88 0 147 51 172 139h159c-32 -173 -167 -268 -333 -268z" />
    <glyph glyph-name="D" unicode="D" horiz-adv-x="742" 
d="M154 715h210c240 0 353 -121 353 -305c0 -248 -158 -410 -415 -410h-261zM301 126c159 0 248 100 248 279c0 112 -56 185 -189 185h-64l-73 -464h78z" />
    <glyph glyph-name="E" unicode="E" horiz-adv-x="610" 
d="M154 715h463l-20 -126h-302l-26 -167h243l-18 -118h-243l-29 -178h321l-20 -126h-482z" />
    <glyph glyph-name="F" unicode="F" horiz-adv-x="585" 
d="M154 715h459l-21 -127h-297l-29 -189h235l-20 -122h-235l-43 -277h-162z" />
    <glyph glyph-name="G" unicode="G" horiz-adv-x="793" 
d="M404 -11c-214 0 -344 124 -344 321c0 233 164 415 393 415c159 0 297 -74 305 -249h-161c-8 81 -61 121 -149 121c-140 0 -221 -131 -221 -286c0 -121 60 -197 181 -197c109 0 164 64 180 151h-161l19 118h321c-19 -268 -139 -394 -363 -394z" />
    <glyph glyph-name="H" unicode="H" horiz-adv-x="776" 
d="M154 715h162l-46 -292h286l47 292h162l-113 -715h-162l46 295h-287l-46 -295h-162z" />
    <glyph glyph-name="I" unicode="I" horiz-adv-x="338" 
d="M158 715h163l-113 -715h-163z" />
    <glyph glyph-name="J" unicode="J" horiz-adv-x="469" 
d="M140 -9c-77 0 -115 16 -139 29l19 122c25 -11 53 -22 96 -22c60 0 98 29 109 102l78 493h163l-80 -501c-24 -155 -115 -223 -246 -223z" />
    <glyph glyph-name="K" unicode="K" horiz-adv-x="698" 
d="M154 715h162l-49 -307l301 307h177l-342 -343l235 -372h-177l-206 331l-52 -331h-162z" />
    <glyph glyph-name="L" unicode="L" horiz-adv-x="572" 
d="M154 715h162l-93 -588h291l-20 -127h-453z" />
    <glyph glyph-name="M" unicode="M" horiz-adv-x="922" 
d="M154 715h207l98 -444l235 444h216l-113 -715h-161l80 504l-278 -504h-53l-119 504l-80 -504h-145z" />
    <glyph glyph-name="N" unicode="N" horiz-adv-x="770" 
d="M154 715h189l194 -471l75 471h146l-113 -715h-163l-215 509l-80 -509h-146z" />
    <glyph glyph-name="O" unicode="O" horiz-adv-x="828" 
d="M799 406c0 -244 -168 -417 -401 -417c-192 0 -339 121 -339 316c0 241 168 420 399 420c201 0 341 -124 341 -319zM630 402c0 107 -57 195 -176 195c-144 0 -227 -134 -227 -287c0 -117 67 -193 180 -193c141 0 223 131 223 285z" />
    <glyph glyph-name="P" unicode="P" horiz-adv-x="638" 
d="M154 715h236c157 0 248 -71 248 -198c0 -176 -125 -257 -290 -257h-104l-41 -260h-162zM345 373c91 0 138 46 138 130c0 60 -37 90 -111 90h-76l-35 -220h84z" />
    <glyph glyph-name="Q" unicode="Q" horiz-adv-x="828" 
d="M398 -11c-192 0 -339 121 -339 316c0 241 168 420 400 420c200 0 340 -124 340 -319c0 -140 -55 -253 -144 -328l67 -83l-106 -88l-83 103c-43 -13 -87 -21 -135 -21zM406 114c15 0 29 1 40 4l-60 74l107 87l71 -89c43 52 66 128 66 212c0 107 -57 195 -176 195
c-145 0 -227 -134 -227 -287c0 -116 68 -196 179 -196z" />
    <glyph glyph-name="R" unicode="R" horiz-adv-x="684" 
d="M154 715h249c157 0 248 -70 247 -195c0 -124 -79 -196 -180 -217l150 -303h-167l-136 276h-72l-43 -276h-161zM358 386c87 0 133 37 133 118c1 60 -36 87 -107 87h-88l-33 -205h95z" />
    <glyph glyph-name="S" unicode="S" horiz-adv-x="652" 
d="M315 -11c-190 0 -288 97 -288 235h154c3 -61 38 -117 139 -117c79 -1 121 37 121 98c0 45 -28 69 -120 92c-160 37 -227 89 -227 205c0 124 101 223 270 223c157 0 256 -70 256 -214h-148c-5 69 -47 95 -115 95c-73 0 -107 -36 -107 -87c0 -41 26 -61 121 -85
c155 -37 229 -89 229 -206c0 -139 -104 -239 -285 -239z" />
    <glyph glyph-name="T" unicode="T" horiz-adv-x="609" 
d="M273 589h-193l21 126h549l-21 -126h-193l-92 -589h-163z" />
    <glyph glyph-name="U" unicode="U" horiz-adv-x="751" 
d="M359 -11c-204 0 -309 105 -277 310l66 416h163l-67 -420c-20 -125 18 -177 118 -177c91 0 132 49 151 161l69 436h163l-72 -452c-28 -179 -126 -274 -314 -274z" />
    <glyph glyph-name="V" unicode="V" horiz-adv-x="701" 
d="M90 715h166l83 -549l257 549h157l-351 -715h-186z" />
    <glyph glyph-name="W" unicode="W" horiz-adv-x="963" 
d="M90 715h164l32 -501l202 501h130l54 -504l193 504h150l-289 -715h-157l-52 481l-202 -481h-160z" />
    <glyph glyph-name="X" unicode="X" horiz-adv-x="693" 
d="M265 375l-154 340h173l101 -240l170 240h167l-255 -351l165 -364h-175l-114 267l-192 -267h-169z" />
    <glyph glyph-name="Y" unicode="Y" horiz-adv-x="659" 
d="M259 309l-171 406h170l105 -272l184 272h163l-289 -416l-48 -299h-163z" />
    <glyph glyph-name="Z" unicode="Z" horiz-adv-x="626" 
d="M-15 20l428 570h-301l20 125h534l-3 -19l-423 -570h318l-20 -126h-556z" />
    <glyph glyph-name="bracketleft" unicode="[" horiz-adv-x="402" 
d="M160 776h276l-17 -107h-131l-112 -710h131l-17 -107h-276z" />
    <glyph glyph-name="backslash" unicode="\" horiz-adv-x="435" 
d="M92 776h114l174 -924h-114z" />
    <glyph glyph-name="bracketright" unicode="]" horiz-adv-x="470" 
d="M-2 -41h130l112 710h-130l17 107h275l-146 -924h-275z" />
    <glyph glyph-name="asciicircum" unicode="^" horiz-adv-x="534" 
d="M270 715h130l118 -316h-124l-75 198l-133 -198h-129z" />
    <glyph glyph-name="underscore" unicode="_" horiz-adv-x="431" 
d="M-49 -81h420l-13 -79h-420z" />
    <glyph glyph-name="grave" unicode="`" horiz-adv-x="412" 
d="M125 753h150l42 -159h-102z" />
    <glyph glyph-name="a" unicode="a" horiz-adv-x="575" 
d="M188 -11c-100 0 -167 55 -167 147c0 133 110 177 267 177h86l3 22c9 61 -7 95 -74 95c-56 0 -82 -27 -93 -74h-138c26 127 122 179 238 179c149 0 232 -67 208 -216l-25 -159c-11 -68 -14 -116 -9 -160h-138c-4 24 -4 49 -3 72c-33 -49 -83 -83 -155 -83zM237 89
c60 0 107 34 116 97l7 41h-68c-88 0 -128 -20 -128 -76c0 -35 24 -62 73 -62z" />
    <glyph glyph-name="b" unicode="b" horiz-adv-x="649" 
d="M358 -11c-92 0 -149 47 -172 100l-14 -89h-144l120 760h144l-50 -316c36 56 96 91 176 91c112 0 196 -82 196 -227c0 -188 -104 -319 -256 -319zM324 100c88 0 140 82 140 198c0 83 -37 128 -105 128c-88 0 -153 -80 -153 -200c0 -80 43 -126 118 -126z" />
    <glyph glyph-name="c" unicode="c" horiz-adv-x="582" 
d="M293 -10c-155 0 -258 89 -258 239c0 189 125 305 286 305c127 0 228 -62 233 -203h-136c-7 68 -42 90 -101 90c-85 0 -137 -78 -137 -193c0 -83 37 -131 118 -131c59 0 104 34 116 101h131c-20 -133 -113 -208 -252 -208z" />
    <glyph glyph-name="d" unicode="d" horiz-adv-x="646" 
d="M238 -11c-118 0 -203 82 -203 229c0 188 107 317 264 317c88 0 138 -40 163 -92l50 317h145l-94 -600c-11 -69 -15 -116 -11 -160h-142c-3 27 -3 54 0 85c-39 -63 -93 -96 -172 -96zM291 99c85 0 150 74 150 201c0 80 -45 125 -113 125c-89 0 -144 -81 -144 -197
c0 -81 38 -129 107 -129z" />
    <glyph glyph-name="e" unicode="e" horiz-adv-x="592" 
d="M177 214c0 -73 32 -122 115 -122c60 0 97 26 112 73h137c-29 -116 -124 -176 -253 -176c-148 0 -254 82 -254 232c0 187 124 314 289 314c162 0 258 -101 231 -283l-4 -23h-373v-15zM322 435c-56 0 -109 -33 -133 -117h230c7 76 -22 117 -97 117z" />
    <glyph glyph-name="f" unicode="f" horiz-adv-x="377" 
d="M62 523h68l13 79c19 115 100 166 202 166c43 0 64 -5 84 -13l-17 -108c-13 7 -27 9 -50 9c-47 0 -69 -25 -76 -66l-11 -67h114l-16 -103h-114l-67 -420h-144l66 420h-68z" />
    <glyph glyph-name="g" unicode="g" horiz-adv-x="646" 
d="M292 131c86 0 149 71 149 179c0 72 -45 116 -113 116c-91 0 -140 -84 -140 -172c0 -73 35 -123 104 -123zM540 29c-24 -149 -106 -222 -277 -222c-185 0 -251 90 -259 182h144c7 -40 37 -76 112 -76c89 0 124 46 136 119l12 74c-36 -55 -88 -83 -163 -83
c-120 0 -206 82 -206 222c0 165 108 290 258 290c88 0 139 -40 164 -92l13 80h144z" />
    <glyph glyph-name="h" unicode="h" horiz-adv-x="623" 
d="M148 760h144l-50 -324c35 56 89 99 174 99c102 0 173 -64 149 -221l-50 -314h-144l49 313c12 69 -11 104 -70 104c-68 0 -119 -43 -131 -123l-47 -294h-144z" />
    <glyph glyph-name="i" unicode="i" horiz-adv-x="293" 
d="M208 595c-47 0 -81 33 -81 78c0 44 35 78 82 78s81 -33 81 -77c0 -45 -35 -79 -82 -79zM115 523h144l-83 -523h-144z" />
    <glyph glyph-name="j" unicode="j" horiz-adv-x="293" 
d="M-49 -79c51 3 72 24 79 67l85 535h143l-86 -548c-16 -97 -72 -165 -237 -160zM208 595c-47 0 -81 33 -81 78c0 44 35 78 82 78s81 -33 81 -77c0 -45 -35 -79 -82 -79z" />
    <glyph glyph-name="k" unicode="k" horiz-adv-x="564" 
d="M148 760h144l-72 -456l202 219h161l-233 -241l160 -282h-158l-139 255l-40 -255h-145z" />
    <glyph glyph-name="l" unicode="l" horiz-adv-x="292" 
d="M152 760h144l-120 -760h-144z" />
    <glyph glyph-name="m" unicode="m" horiz-adv-x="928" 
d="M84 357c12 75 15 119 18 166h139c0 -27 -1 -58 -5 -91c36 60 96 103 172 103c71 0 120 -32 137 -103c51 76 115 103 179 103c100 0 171 -62 147 -213l-50 -322h-145l50 312c11 72 -11 105 -66 105s-104 -37 -116 -114l-48 -303h-143l49 315c11 68 -11 102 -66 102
c-57 0 -104 -39 -116 -114l-48 -303h-144z" />
    <glyph glyph-name="n" unicode="n" horiz-adv-x="623" 
d="M84 357c12 75 15 119 18 166h139c0 -27 -1 -62 -5 -94c37 60 95 106 180 106c102 0 173 -64 149 -221l-50 -314h-144l49 313c12 69 -11 104 -70 104c-68 0 -119 -43 -131 -123l-47 -294h-144z" />
    <glyph glyph-name="o" unicode="o" horiz-adv-x="618" 
d="M289 -11c-142 0 -254 86 -254 237c0 177 123 308 293 308c144 0 255 -84 255 -237c0 -180 -121 -308 -294 -308zM293 99c92 0 143 87 143 202c0 72 -35 124 -111 124c-91 0 -145 -85 -145 -200c0 -72 33 -126 113 -126z" />
    <glyph glyph-name="p" unicode="p" horiz-adv-x="649" 
d="M418 535c112 0 196 -82 196 -227c0 -188 -103 -319 -256 -319c-92 0 -149 47 -172 100l-42 -267h-144l84 535c12 75 15 119 18 166h139c0 -27 -1 -58 -4 -89c39 64 101 101 181 101zM324 100c88 0 140 82 140 198c0 83 -37 128 -105 128c-88 0 -153 -80 -153 -200
c0 -80 43 -126 118 -126z" />
    <glyph glyph-name="q" unicode="q" horiz-adv-x="649" 
d="M405 75c-36 -53 -88 -86 -167 -86c-118 0 -203 82 -203 229c0 188 107 317 264 317c88 0 138 -40 163 -92l13 80h144l-110 -701h-145zM291 99c85 0 150 74 150 201c0 80 -45 125 -113 125c-89 0 -144 -81 -144 -197c0 -81 38 -129 107 -129z" />
    <glyph glyph-name="r" unicode="r" horiz-adv-x="421" 
d="M84 357c12 75 16 119 17 166h140c0 -27 -2 -67 -7 -110c43 77 96 118 191 118l-21 -135c-108 1 -175 -37 -192 -150l-40 -246h-144z" />
    <glyph glyph-name="s" unicode="s" horiz-adv-x="513" 
d="M236 -12c-141 0 -222 67 -223 176h135c3 -43 25 -74 93 -74c51 0 77 19 77 58c0 32 -20 47 -95 63c-119 25 -167 67 -167 154c0 113 97 170 216 170s201 -46 209 -162h-132c-3 36 -32 63 -81 63s-76 -19 -76 -54c0 -31 24 -44 91 -59c122 -26 177 -62 177 -162
c0 -112 -92 -173 -224 -173z" />
    <glyph glyph-name="t" unicode="t" horiz-adv-x="382" 
d="M223 -10c-116 0 -169 60 -150 179l40 251h-67l16 103h67l18 113h145l-19 -113h109l-16 -103h-109l-39 -248c-8 -51 10 -66 50 -66c17 0 36 3 55 10l-18 -112c-20 -8 -47 -14 -82 -14z" />
    <glyph glyph-name="u" unicode="u" horiz-adv-x="621" 
d="M533 160c-11 -69 -15 -116 -12 -160h-140c-3 27 -2 56 2 88c-39 -57 -89 -99 -172 -99c-108 0 -179 65 -155 220l50 314h144l-50 -319c-11 -68 12 -104 68 -104c68 0 118 43 130 123l48 300h144z" />
    <glyph glyph-name="v" unicode="v" horiz-adv-x="568" 
d="M57 523h150l60 -377l180 377h145l-271 -523h-162z" />
    <glyph glyph-name="w" unicode="w" horiz-adv-x="819" 
d="M60 523h148l34 -355l153 355h119l36 -355l149 355h142l-243 -523h-142l-35 331l-146 -331h-144z" />
    <glyph glyph-name="x" unicode="x" horiz-adv-x="563" 
d="M192 272l-126 251h159l74 -155l119 155h154l-205 -251l139 -272h-160l-82 175l-138 -175h-154z" />
    <glyph glyph-name="y" unicode="y" horiz-adv-x="563" 
d="M183 59l-126 464h149l73 -315l162 315h146l-390 -701h-146z" />
    <glyph glyph-name="z" unicode="z" horiz-adv-x="506" 
d="M-20 16l312 396h-225l17 111h438l-3 -18l-312 -393h242l-17 -112h-454z" />
    <glyph glyph-name="braceleft" unicode="{" horiz-adv-x="417" 
d="M304 -148c-179 4 -254 85 -203 234l29 84c20 57 -1 96 -88 100l15 101c88 -1 121 29 118 93l-1 92c-3 168 88 221 277 221l-17 -106c-92 -3 -120 -30 -120 -119l-1 -98c-1 -81 -46 -124 -121 -140c73 -19 100 -71 75 -151l-27 -86c-28 -85 -6 -115 81 -120z" />
    <glyph glyph-name="bar" unicode="|" horiz-adv-x="274" 
d="M99 776h104v-924h-104v924z" />
    <glyph glyph-name="braceright" unicode="}" horiz-adv-x="417" 
d="M127 777c179 -5 252 -86 203 -235l-29 -84c-19 -56 2 -96 89 -103l-15 -101c-89 4 -119 -25 -119 -89l2 -93c0 -167 -88 -223 -278 -220l17 105c92 3 120 31 120 119l1 102c1 84 49 123 121 135c-72 21 -100 76 -76 149l28 89c28 85 6 113 -81 120z" />
    <glyph glyph-name="asciitilde" unicode="~" horiz-adv-x="504" 
d="M35 218c19 123 81 172 145 172c70 0 116 -47 150 -47c25 0 44 17 51 49h98c-16 -119 -81 -173 -144 -173c-73 0 -118 47 -152 47c-25 0 -43 -17 -50 -48h-98z" />
    <glyph glyph-name="uni00A0" unicode="&#xa0;" horiz-adv-x="266" 
 />
    <glyph glyph-name="exclamdown" unicode="&#xa1;" horiz-adv-x="329" 
d="M183 -117h-162l101 492h118zM202 606c51 0 88 -37 88 -85s-38 -87 -89 -87s-90 38 -90 86c0 49 40 86 91 86z" />
    <glyph glyph-name="cent" unicode="&#xa2;" horiz-adv-x="594" 
d="M232 -5c-117 21 -198 103 -198 229c0 184 123 302 284 310l15 95h71l-16 -100c104 -16 173 -78 180 -199h-132c-3 52 -28 79 -65 90l-52 -327c56 5 97 34 112 105h127c-19 -136 -122 -206 -256 -209l-19 -124h-71zM175 225c0 -67 25 -108 74 -125l51 324
c-73 -13 -125 -80 -125 -199z" />
    <glyph glyph-name="sterling" unicode="&#xa3;" horiz-adv-x="647" 
d="M67 396h56c-3 24 -4 47 -4 74c0 149 103 255 271 255c140 0 241 -62 241 -222h-152c-3 61 -24 98 -91 98c-87 0 -113 -69 -113 -148v-29c0 -9 0 -19 1 -28h194l-16 -99h-174v-29c0 -41 -7 -80 -27 -117c49 -15 92 -32 127 -32c40 0 68 18 77 69h143
c-16 -115 -82 -197 -207 -197c-94 0 -170 56 -221 56c-33 0 -51 -22 -56 -47h-122c11 71 51 135 120 158c15 31 23 65 23 102c0 12 -1 24 -2 37h-84z" />
    <glyph glyph-name="yen" unicode="&#xa5;" horiz-adv-x="633" 
d="M91 356h144l-141 359h171l87 -266l169 266h159l-245 -359h145l-10 -67h-164l-10 -61h163l-10 -66h-163l-26 -162h-161l25 162h-164l10 66h164l10 61h-163z" />
    <glyph glyph-name="brokenbar" unicode="&#xa6;" horiz-adv-x="274" 
d="M99 300h104v-448h-104v448zM99 776h104v-406h-104v406z" />
    <glyph glyph-name="section" unicode="&#xa7;" horiz-adv-x="594" 
d="M250 -137c-112 0 -211 52 -208 176h135c1 -47 24 -74 80 -74c41 0 76 21 76 64c0 33 -28 54 -113 83c-110 38 -183 82 -183 177c0 85 58 129 133 151c-23 25 -35 54 -35 94c0 124 103 191 223 191c112 0 197 -49 200 -174h-137c-1 47 -20 69 -71 70
c-43 0 -77 -18 -77 -65c0 -33 25 -53 105 -80c111 -37 186 -83 186 -182c0 -83 -54 -123 -131 -147c24 -24 39 -58 39 -95c0 -128 -103 -189 -222 -189zM353 206c33 8 68 20 68 63c0 35 -30 54 -90 78l-81 32c-32 -4 -69 -23 -69 -64c0 -32 26 -51 89 -76z" />
    <glyph glyph-name="dieresis" unicode="&#xa8;" horiz-adv-x="412" 
d="M168 600c-41 0 -74 31 -74 71s34 73 75 73c40 0 73 -32 73 -72c0 -39 -33 -72 -74 -72zM371 600c-40 0 -73 31 -73 71s33 73 74 73s73 -32 73 -72c0 -39 -31 -72 -74 -72z" />
    <glyph glyph-name="copyright" unicode="&#xa9;" horiz-adv-x="855" 
d="M444 152c-136 0 -204 80 -204 201v8c0 122 85 202 201 202c101 0 173 -47 182 -150h-109c-6 43 -30 65 -73 65c-56 0 -89 -41 -89 -117v-7c0 -76 31 -116 91 -116c43 0 73 22 80 69h104c-8 -101 -81 -155 -183 -155zM438 32c176 0 322 131 322 327
c0 192 -143 324 -320 324c-179 0 -321 -134 -321 -326c0 -195 148 -325 319 -325zM438 -16c-208 0 -376 162 -376 373c0 208 167 374 378 374c216 0 377 -165 377 -372c0 -212 -167 -375 -379 -375z" />
    <glyph glyph-name="ordfeminine" unicode="&#xaa;" horiz-adv-x="472" 
d="M189 288c-76 0 -130 43 -130 115c0 108 90 142 223 142h56l3 18c7 43 -5 69 -53 69c-40 0 -60 -21 -68 -54h-122c19 101 101 146 199 146c127 0 188 -53 167 -182l-18 -116c-9 -53 -10 -93 -6 -128h-123c-3 19 -3 37 -3 53c-27 -37 -65 -63 -125 -63zM237 377
c45 0 77 20 85 67l5 31h-50c-64 0 -91 -17 -91 -56c0 -25 16 -42 51 -42z" />
    <glyph glyph-name="guillemotleft" unicode="&#xab;" horiz-adv-x="499" 
d="M46 264l150 183h106l-148 -186l92 -186h-101zM226 263l150 184h106l-148 -188l90 -184h-101z" />
    <glyph glyph-name="uni00AD" unicode="&#xad;" horiz-adv-x="377" 
d="M71 339h256l-18 -115h-256z" />
    <glyph glyph-name="registered" unicode="&#xae;" horiz-adv-x="528" 
d="M217 615h85c57 0 89 -22 89 -69v-1c0 -32 -17 -48 -40 -59l53 -90h-64l-45 79h-16v-79h-62v219zM299 515c21 0 32 9 32 27v1c0 17 -11 25 -32 25h-20v-53h20zM299 319c104 0 184 75 184 184s-76 184 -184 184s-184 -76 -184 -185c0 -110 81 -183 184 -183zM299 281
c-125 0 -227 96 -227 221c0 123 101 223 227 223c128 0 227 -99 227 -222c0 -125 -100 -222 -227 -222z" />
    <glyph glyph-name="macron" unicode="&#xaf;" horiz-adv-x="412" 
d="M130 712h291l-13 -87h-291z" />
    <glyph glyph-name="degree" unicode="&#xb0;" horiz-adv-x="455" 
d="M271 456c53 0 91 41 91 102c0 57 -36 100 -88 100c-56 0 -94 -41 -94 -104c0 -56 38 -98 91 -98zM270 390c-93 0 -170 74 -170 163c0 95 76 171 175 171c94 0 169 -73 169 -165s-77 -169 -174 -169z" />
    <glyph glyph-name="plusminus" unicode="&#xb1;" horiz-adv-x="563" 
d="M233 336h-179l16 108h180l28 172h118l-28 -172h180l-17 -108h-180l-27 -171h-118zM16 100h480l-16 -100h-479z" />
    <glyph glyph-name="twosuperior" unicode="&#xb2;" horiz-adv-x="341" 
d="M28 367l148 132c43 37 80 70 80 105c0 24 -14 35 -34 35c-27 0 -45 -16 -54 -57h-100c13 92 77 138 161 138c72 0 135 -30 135 -107c0 -55 -37 -89 -101 -144l-45 -39h119l-12 -78h-300z" />
    <glyph glyph-name="threesuperior" unicode="&#xb3;" horiz-adv-x="363" 
d="M209 345c-84 0 -152 35 -152 126h98c1 -31 15 -49 50 -49c24 0 50 13 50 45c0 25 -16 37 -48 37h-26l10 64h31c31 0 50 13 50 40c0 23 -11 36 -39 36c-29 0 -47 -15 -54 -45h-95c11 76 70 121 157 121c67 0 134 -23 134 -98c0 -43 -29 -73 -73 -86c35 -7 61 -31 61 -76
c0 -77 -71 -115 -154 -115z" />
    <glyph glyph-name="acute" unicode="&#xb4;" horiz-adv-x="412" 
d="M273 753h154l-123 -159h-107z" />
    <glyph glyph-name="mu" unicode="&#xb5;" horiz-adv-x="613" 
d="M531 160c-11 -69 -15 -117 -12 -160h-140c-3 25 0 58 3 89c-31 -59 -75 -91 -134 -91c-28 0 -57 9 -76 37l-35 -213h-143l111 701h144l-52 -323c-11 -68 16 -101 69 -101c65 0 118 45 130 122l48 302h144z" />
    <glyph glyph-name="paragraph" unicode="&#xb6;" horiz-adv-x="576" 
d="M280 335h-3c-115 0 -199 56 -199 168c0 140 107 212 242 212h243l-129 -815h-74l120 754h-77l-119 -754h-73z" />
    <glyph glyph-name="periodcentered" unicode="&#xb7;" horiz-adv-x="305" 
d="M161 239c-51 0 -89 39 -89 88c0 48 37 87 88 87s91 -39 91 -87s-39 -88 -90 -88z" />
    <glyph glyph-name="cedilla" unicode="&#xb8;" horiz-adv-x="412" 
d="M146 -222c-60 0 -111 27 -116 90h75c3 -16 13 -31 37 -31c19 0 36 10 36 35c0 19 -13 29 -33 29c-15 0 -21 -4 -28 -9l-32 35l58 73h65l-38 -48c48 4 92 -22 92 -77c0 -64 -49 -97 -116 -97z" />
    <glyph glyph-name="onesuperior" unicode="&#xb9;" horiz-adv-x="278" 
d="M163 608l-89 -49l14 91l107 65h95l-58 -363h-109z" />
    <glyph glyph-name="ordmasculine" unicode="&#xba;" horiz-adv-x="523" 
d="M276 288c-124 0 -201 75 -201 187c0 146 109 249 243 249c128 0 201 -77 201 -189c0 -148 -109 -247 -243 -247zM285 385c68 0 105 68 105 151c0 56 -24 91 -80 91c-65 0 -106 -66 -106 -152c0 -56 25 -90 81 -90z" />
    <glyph glyph-name="guillemotright" unicode="&#xbb;" horiz-adv-x="499" 
d="M452 258l-150 -183h-106l148 186l-92 186h100zM272 259l-150 -184h-106l148 188l-90 184h100z" />
    <glyph glyph-name="onequarter" unicode="&#xbc;" horiz-adv-x="771" 
d="M166 608l-89 -49l14 91l107 65h95l-58 -363h-109zM653 715h85l-605 -715h-86zM559 70h-181l6 40l195 254h132l-35 -221h47l-12 -73h-46l-11 -69h-106zM574 143l22 143l-105 -143h83z" />
    <glyph glyph-name="onehalf" unicode="&#xbd;" horiz-adv-x="783" 
d="M166 608l-89 -49l14 91l107 65h95l-58 -363h-109zM640 715h85l-605 -715h-86zM412 16l148 132c43 37 80 70 80 105c0 24 -14 35 -34 35c-27 0 -45 -16 -54 -57h-100c13 92 77 138 161 138c72 0 135 -30 135 -107c0 -55 -37 -89 -101 -144l-45 -39h119l-12 -78h-300z" />
    <glyph glyph-name="threequarters" unicode="&#xbe;" horiz-adv-x="806" 
d="M212 345c-84 0 -152 35 -152 126h98c1 -31 15 -49 50 -49c24 0 50 13 50 45c0 25 -16 37 -48 37h-26l10 64h31c31 0 50 13 50 40c0 23 -11 36 -39 36c-29 0 -47 -15 -54 -45h-95c11 76 70 121 157 121c67 0 134 -23 134 -98c0 -43 -29 -73 -73 -86c35 -7 61 -31 61 -76
c0 -77 -71 -115 -154 -115zM702 715h85l-605 -715h-86zM594 69h-181l6 40l195 254h132l-35 -221h47l-12 -73h-46l-11 -69h-106zM609 142l22 143l-105 -143h83z" />
    <glyph glyph-name="questiondown" unicode="&#xbf;" horiz-adv-x="544" 
d="M375 343c-13 -88 -75 -134 -128 -173c-48 -36 -85 -62 -85 -114c1 -40 27 -65 75 -65c52 0 92 34 104 103h140c-19 -147 -120 -221 -254 -221c-143 0 -218 76 -218 174c0 89 52 138 112 181c50 37 113 70 124 141l1 6h134zM333 606c51 0 89 -37 89 -85
c0 -49 -38 -87 -89 -87s-90 38 -90 86c0 49 39 86 90 86z" />
    <glyph glyph-name="Agrave" unicode="&#xc0;" horiz-adv-x="718" 
d="M466 159h-259l-73 -159h-156l348 715h211l119 -715h-166zM261 274h188l-45 309zM306 902h154l35 -139h-105z" />
    <glyph glyph-name="Aacute" unicode="&#xc1;" horiz-adv-x="718" 
d="M466 159h-259l-73 -159h-156l348 715h211l119 -715h-166zM261 274h188l-45 309zM438 902h158l-112 -139h-111z" />
    <glyph glyph-name="Acircumflex" unicode="&#xc2;" horiz-adv-x="718" 
d="M466 159h-259l-73 -159h-156l348 715h211l119 -715h-166zM261 274h188l-45 309zM384 902h123l92 -139h-100l-62 53l-75 -53h-106z" />
    <glyph glyph-name="Atilde" unicode="&#xc3;" horiz-adv-x="718" 
d="M466 159h-259l-73 -159h-156l348 715h211l119 -715h-166zM261 274h188l-45 309zM500 764c-53 0 -87 37 -116 37c-17 0 -34 -14 -39 -37h-87c16 95 65 140 125 140c50 0 86 -38 117 -38c19 0 32 12 39 37h86c-17 -93 -68 -139 -125 -139z" />
    <glyph glyph-name="Adieresis" unicode="&#xc4;" horiz-adv-x="718" 
d="M466 159h-259l-73 -159h-156l348 715h211l119 -715h-166zM261 274h188l-45 309zM331 769c-41 0 -74 32 -74 72s34 73 74 73c41 0 74 -32 74 -72s-34 -73 -74 -73zM546 769c-40 0 -73 32 -73 72s33 73 74 73s73 -32 73 -72s-33 -73 -74 -73z" />
    <glyph glyph-name="Aring" unicode="&#xc5;" horiz-adv-x="718" 
d="M466 159h-259l-73 -159h-156l348 715h211l119 -715h-166zM261 274h188l-45 309zM437 808c28 0 50 22 50 54c0 31 -19 53 -48 53s-50 -23 -50 -55c0 -31 19 -52 48 -52zM437 750c-63 0 -114 49 -114 110c0 63 53 113 116 113s114 -49 114 -111c0 -61 -53 -112 -116 -112z
" />
    <glyph glyph-name="AE" unicode="&#xc6;" horiz-adv-x="995" 
d="M422 715h584l-21 -126h-298l-26 -167h239l-18 -118h-239l-29 -178h317l-19 -126h-479l26 168h-216l-101 -168h-161zM310 280h167l49 309h-30z" />
    <glyph glyph-name="Ccedilla" unicode="&#xc7;" horiz-adv-x="761" 
d="M315 -222c-60 0 -111 27 -116 90h75c3 -16 13 -31 37 -31c19 0 36 10 36 35c0 19 -13 29 -33 29c-15 0 -21 -4 -28 -9l-32 35l55 70c-156 28 -250 135 -250 306c0 241 152 423 392 423c172 0 289 -88 297 -260h-161c-11 87 -53 133 -141 133c-140 0 -218 -132 -218 -291
c0 -115 51 -190 170 -190c88 0 147 51 172 139h159c-32 -173 -167 -268 -333 -268h-12c-3 0 -8 0 -15 1l-30 -38c48 4 92 -22 92 -77c0 -64 -49 -97 -116 -97z" />
    <glyph glyph-name="Egrave" unicode="&#xc8;" horiz-adv-x="610" 
d="M154 715h463l-20 -126h-302l-26 -167h243l-18 -118h-243l-29 -178h321l-20 -126h-482zM266 902h154l35 -139h-105z" />
    <glyph glyph-name="Eacute" unicode="&#xc9;" horiz-adv-x="610" 
d="M154 715h463l-20 -126h-302l-26 -167h243l-18 -118h-243l-29 -178h321l-20 -126h-482zM388 902h158l-112 -139h-111z" />
    <glyph glyph-name="Ecircumflex" unicode="&#xca;" horiz-adv-x="610" 
d="M154 715h463l-20 -126h-302l-26 -167h243l-18 -118h-243l-29 -178h321l-20 -126h-482zM341 902h123l92 -139h-100l-62 53l-75 -53h-106z" />
    <glyph glyph-name="Edieresis" unicode="&#xcb;" horiz-adv-x="610" 
d="M154 715h463l-20 -126h-302l-26 -167h243l-18 -118h-243l-29 -178h321l-20 -126h-482zM290 769c-41 0 -74 32 -74 72s34 73 74 73c41 0 74 -32 74 -72s-34 -73 -74 -73zM505 769c-40 0 -73 32 -73 72s33 73 74 73s73 -32 73 -72s-33 -73 -74 -73z" />
    <glyph glyph-name="Igrave" unicode="&#xcc;" horiz-adv-x="338" 
d="M158 715h163l-113 -715h-163zM117 902h154l35 -139h-105z" />
    <glyph glyph-name="Iacute" unicode="&#xcd;" horiz-adv-x="338" 
d="M158 715h163l-113 -715h-163zM246 902h158l-112 -139h-111z" />
    <glyph glyph-name="Icircumflex" unicode="&#xce;" horiz-adv-x="338" 
d="M158 715h163l-113 -715h-163zM199 902h123l92 -139h-100l-62 53l-75 -53h-106z" />
    <glyph glyph-name="Idieresis" unicode="&#xcf;" horiz-adv-x="338" 
d="M158 715h163l-113 -715h-163zM150 769c-41 0 -74 32 -74 72s34 73 74 73c41 0 74 -32 74 -72s-34 -73 -74 -73zM365 769c-40 0 -73 32 -73 72s33 73 74 73s73 -32 73 -72s-33 -73 -74 -73z" />
    <glyph glyph-name="Eth" unicode="&#xd0;" horiz-adv-x="761" 
d="M60 415h65l48 300h210c240 0 353 -121 353 -305c0 -248 -158 -410 -415 -410h-261l48 303h-65zM320 126c159 0 249 100 249 279c0 112 -57 185 -190 185h-66l-28 -175h152l-18 -112h-152l-28 -177h81z" />
    <glyph glyph-name="Ntilde" unicode="&#xd1;" horiz-adv-x="770" 
d="M154 715h189l194 -471l75 471h146l-113 -715h-163l-215 509l-80 -509h-146zM540 764c-53 0 -87 37 -116 37c-17 0 -34 -14 -39 -37h-87c16 95 65 140 125 140c50 0 86 -38 117 -38c19 0 32 12 39 37h86c-17 -93 -68 -139 -125 -139z" />
    <glyph glyph-name="Ograve" unicode="&#xd2;" horiz-adv-x="828" 
d="M799 406c0 -244 -168 -417 -401 -417c-192 0 -339 121 -339 316c0 241 168 420 399 420c201 0 341 -124 341 -319zM630 402c0 107 -57 195 -176 195c-144 0 -227 -134 -227 -287c0 -117 67 -193 180 -193c141 0 223 131 223 285zM344 902h154l35 -139h-105z" />
    <glyph glyph-name="Oacute" unicode="&#xd3;" horiz-adv-x="828" 
d="M799 406c0 -244 -168 -417 -401 -417c-192 0 -339 121 -339 316c0 241 168 420 399 420c201 0 341 -124 341 -319zM630 402c0 107 -57 195 -176 195c-144 0 -227 -134 -227 -287c0 -117 67 -193 180 -193c141 0 223 131 223 285zM474 902h158l-112 -139h-111z" />
    <glyph glyph-name="Ocircumflex" unicode="&#xd4;" horiz-adv-x="828" 
d="M799 406c0 -244 -168 -417 -401 -417c-192 0 -339 121 -339 316c0 241 168 420 399 420c201 0 341 -124 341 -319zM630 402c0 107 -57 195 -176 195c-144 0 -227 -134 -227 -287c0 -117 67 -193 180 -193c141 0 223 131 223 285zM430 902h123l92 -139h-100l-62 53
l-75 -53h-106z" />
    <glyph glyph-name="Otilde" unicode="&#xd5;" horiz-adv-x="828" 
d="M799 406c0 -244 -168 -417 -401 -417c-192 0 -339 121 -339 316c0 241 168 420 399 420c201 0 341 -124 341 -319zM630 402c0 107 -57 195 -176 195c-144 0 -227 -134 -227 -287c0 -117 67 -193 180 -193c141 0 223 131 223 285zM538 764c-53 0 -87 37 -116 37
c-17 0 -34 -14 -39 -37h-87c16 95 65 140 125 140c50 0 86 -38 117 -38c19 0 32 12 39 37h86c-17 -93 -68 -139 -125 -139z" />
    <glyph glyph-name="Odieresis" unicode="&#xd6;" horiz-adv-x="828" 
d="M799 406c0 -244 -168 -417 -401 -417c-192 0 -339 121 -339 316c0 241 168 420 399 420c201 0 341 -124 341 -319zM630 402c0 107 -57 195 -176 195c-144 0 -227 -134 -227 -287c0 -117 67 -193 180 -193c141 0 223 131 223 285zM376 769c-41 0 -74 32 -74 72
s34 73 74 73c41 0 74 -32 74 -72s-34 -73 -74 -73zM591 769c-40 0 -73 32 -73 72s33 73 74 73s73 -32 73 -72s-33 -73 -74 -73z" />
    <glyph glyph-name="multiply" unicode="&#xd7;" horiz-adv-x="546" 
d="M32 184l173 152l-131 154l85 77l133 -154l173 152l69 -79l-174 -153l133 -153l-87 -77l-133 154l-173 -152z" />
    <glyph glyph-name="Oslash" unicode="&#xd8;" horiz-adv-x="828" 
d="M39 21l85 87c-41 52 -65 118 -65 197c0 241 168 420 400 420c83 0 154 -21 211 -60l75 76l52 -54l-71 -72c47 -55 73 -125 73 -209c0 -244 -168 -417 -401 -417c-87 0 -161 24 -220 68l-87 -89zM634 401c0 39 -6 73 -19 101l-335 -341c31 -29 74 -44 127 -44
c141 0 227 128 227 284zM224 311c0 -35 5 -64 14 -87l331 338c-29 23 -68 35 -115 35c-145 0 -230 -131 -230 -286z" />
    <glyph glyph-name="Ugrave" unicode="&#xd9;" horiz-adv-x="751" 
d="M359 -11c-204 0 -309 105 -277 310l66 416h163l-67 -420c-20 -125 18 -177 118 -177c91 0 132 49 151 161l69 436h163l-72 -452c-28 -179 -126 -274 -314 -274zM316 902h154l35 -139h-105z" />
    <glyph glyph-name="Uacute" unicode="&#xda;" horiz-adv-x="751" 
d="M359 -11c-204 0 -309 105 -277 310l66 416h163l-67 -420c-20 -125 18 -177 118 -177c91 0 132 49 151 161l69 436h163l-72 -452c-28 -179 -126 -274 -314 -274zM453 902h158l-112 -139h-111z" />
    <glyph glyph-name="Ucircumflex" unicode="&#xdb;" horiz-adv-x="751" 
d="M359 -11c-204 0 -309 105 -277 310l66 416h163l-67 -420c-20 -125 18 -177 118 -177c91 0 132 49 151 161l69 436h163l-72 -452c-28 -179 -126 -274 -314 -274zM399 902h123l92 -139h-100l-62 53l-75 -53h-106z" />
    <glyph glyph-name="Udieresis" unicode="&#xdc;" horiz-adv-x="751" 
d="M359 -11c-204 0 -309 105 -277 310l66 416h163l-67 -420c-20 -125 18 -177 118 -177c91 0 132 49 151 161l69 436h163l-72 -452c-28 -179 -126 -274 -314 -274zM349 769c-41 0 -74 32 -74 72s34 73 74 73c41 0 74 -32 74 -72s-34 -73 -74 -73zM564 769
c-40 0 -73 32 -73 72s33 73 74 73s73 -32 73 -72s-33 -73 -74 -73z" />
    <glyph glyph-name="Yacute" unicode="&#xdd;" horiz-adv-x="659" 
d="M259 309l-171 406h170l105 -272l184 272h163l-289 -416l-48 -299h-163zM412 902h158l-112 -139h-111z" />
    <glyph glyph-name="Thorn" unicode="&#xde;" horiz-adv-x="638" 
d="M296 591h77c157 0 248 -67 248 -195c0 -167 -125 -250 -288 -250h-107l-23 -146h-162l113 715h161zM277 474l-33 -214h86c88 0 135 44 135 127c1 58 -36 87 -110 87h-78z" />
    <glyph glyph-name="germandbls" unicode="&#xdf;" horiz-adv-x="630" 
d="M344 -10c-47 0 -83 9 -110 21l18 108c20 -11 43 -17 71 -17c83 0 121 61 121 145s-52 132 -140 129l18 111c71 0 130 30 130 105c0 51 -32 81 -87 81c-57 0 -92 -39 -103 -107l-90 -566h-144l89 563c24 142 121 209 253 209c122 0 217 -59 217 -175
c0 -84 -56 -141 -140 -165c87 -25 142 -96 142 -196c0 -149 -90 -246 -245 -246z" />
    <glyph glyph-name="agrave" unicode="&#xe0;" horiz-adv-x="575" 
d="M188 -11c-100 0 -167 55 -167 147c0 133 110 177 267 177h86l3 22c9 61 -7 95 -74 95c-56 0 -82 -27 -93 -74h-138c26 127 122 179 238 179c149 0 232 -67 208 -216l-25 -159c-11 -68 -14 -116 -9 -160h-138c-4 24 -4 49 -3 72c-33 -49 -83 -83 -155 -83zM237 89
c60 0 107 34 116 97l7 41h-68c-88 0 -128 -20 -128 -76c0 -35 24 -62 73 -62zM183 753h150l42 -159h-102z" />
    <glyph glyph-name="aacute" unicode="&#xe1;" horiz-adv-x="575" 
d="M188 -11c-100 0 -167 55 -167 147c0 133 110 177 267 177h86l3 22c9 61 -7 95 -74 95c-56 0 -82 -27 -93 -74h-138c26 127 122 179 238 179c149 0 232 -67 208 -216l-25 -159c-11 -68 -14 -116 -9 -160h-138c-4 24 -4 49 -3 72c-33 -49 -83 -83 -155 -83zM237 89
c60 0 107 34 116 97l7 41h-68c-88 0 -128 -20 -128 -76c0 -35 24 -62 73 -62zM345 753h154l-123 -159h-107z" />
    <glyph glyph-name="acircumflex" unicode="&#xe2;" horiz-adv-x="575" 
d="M188 -11c-100 0 -167 55 -167 147c0 133 110 177 267 177h86l3 22c9 61 -7 95 -74 95c-56 0 -82 -27 -93 -74h-138c26 127 122 179 238 179c149 0 232 -67 208 -216l-25 -159c-11 -68 -14 -116 -9 -160h-138c-4 24 -4 49 -3 72c-33 -49 -83 -83 -155 -83zM237 89
c60 0 107 34 116 97l7 41h-68c-88 0 -128 -20 -128 -76c0 -35 24 -62 73 -62zM289 751h108l93 -156h-98l-60 63l-79 -63h-103z" />
    <glyph glyph-name="atilde" unicode="&#xe3;" horiz-adv-x="575" 
d="M188 -11c-100 0 -167 55 -167 147c0 133 110 177 267 177h86l3 22c9 61 -7 95 -74 95c-56 0 -82 -27 -93 -74h-138c26 127 122 179 238 179c149 0 232 -67 208 -216l-25 -159c-11 -68 -14 -116 -9 -160h-138c-4 24 -4 49 -3 72c-33 -49 -83 -83 -155 -83zM237 89
c60 0 107 34 116 97l7 41h-68c-88 0 -128 -20 -128 -76c0 -35 24 -62 73 -62zM393 598c-54 0 -85 38 -115 38c-17 0 -32 -14 -39 -37h-83c15 93 60 141 120 141c51 0 84 -37 116 -37c19 0 31 12 38 37h84c-16 -95 -64 -142 -121 -142z" />
    <glyph glyph-name="adieresis" unicode="&#xe4;" horiz-adv-x="575" 
d="M188 -11c-100 0 -167 55 -167 147c0 133 110 177 267 177h86l3 22c9 61 -7 95 -74 95c-56 0 -82 -27 -93 -74h-138c26 127 122 179 238 179c149 0 232 -67 208 -216l-25 -159c-11 -68 -14 -116 -9 -160h-138c-4 24 -4 49 -3 72c-33 -49 -83 -83 -155 -83zM237 89
c60 0 107 34 116 97l7 41h-68c-88 0 -128 -20 -128 -76c0 -35 24 -62 73 -62zM229 600c-41 0 -74 31 -74 71s34 73 75 73c40 0 73 -32 73 -72c0 -39 -33 -72 -74 -72zM432 600c-40 0 -73 31 -73 71s33 73 74 73s73 -32 73 -72c0 -39 -31 -72 -74 -72z" />
    <glyph glyph-name="aring" unicode="&#xe5;" horiz-adv-x="575" 
d="M188 -11c-100 0 -167 55 -167 147c0 133 110 177 267 177h86l3 22c9 61 -7 95 -74 95c-56 0 -82 -27 -93 -74h-138c26 127 122 179 238 179c149 0 232 -67 208 -216l-25 -159c-11 -68 -14 -116 -9 -160h-138c-4 24 -4 49 -3 72c-33 -49 -83 -83 -155 -83zM237 89
c60 0 107 34 116 97l7 41h-68c-88 0 -128 -20 -128 -76c0 -35 24 -62 73 -62zM333 643c28 0 49 22 49 54c0 31 -19 51 -47 51c-29 0 -50 -22 -50 -53s19 -52 48 -52zM333 585c-63 0 -113 49 -113 110c0 60 52 111 115 111s113 -48 113 -109s-54 -112 -115 -112z" />
    <glyph glyph-name="ae" unicode="&#xe6;" horiz-adv-x="907" 
d="M500 215c0 -75 29 -123 112 -123c60 0 92 26 107 73h137c-28 -117 -120 -176 -249 -176c-100 0 -171 36 -207 104c-35 -60 -95 -104 -196 -104c-113 0 -183 54 -183 147c0 133 115 181 271 181h83l3 20c9 59 -8 93 -75 93c-56 0 -85 -27 -96 -74h-137
c24 128 128 179 239 179c81 0 135 -22 164 -67c47 43 106 66 173 66c160 0 250 -97 223 -280l-4 -23h-365v-16zM236 89c61 0 107 32 118 99l7 42h-70c-88 0 -127 -23 -127 -80c0 -35 24 -61 72 -61zM641 435c-57 0 -107 -34 -130 -118h223c7 75 -20 118 -93 118z" />
    <glyph glyph-name="ccedilla" unicode="&#xe7;" horiz-adv-x="582" 
d="M225 -222c-60 0 -111 27 -116 90h75c3 -16 13 -31 37 -31c19 0 36 10 36 35c0 19 -13 29 -33 29c-15 0 -21 -4 -28 -9l-32 35l56 71c-115 23 -185 106 -185 231c0 189 125 305 286 305c127 0 228 -62 233 -203h-136c-7 68 -42 90 -101 90c-85 0 -137 -78 -137 -193
c0 -83 37 -131 118 -131c59 0 104 34 116 101h131c-20 -133 -113 -208 -252 -208h-14l-30 -38c48 4 92 -22 92 -77c0 -64 -49 -97 -116 -97z" />
    <glyph glyph-name="egrave" unicode="&#xe8;" horiz-adv-x="592" 
d="M177 214c0 -73 32 -122 115 -122c60 0 97 26 112 73h137c-29 -116 -124 -176 -253 -176c-148 0 -254 82 -254 232c0 187 124 314 289 314c162 0 258 -101 231 -283l-4 -23h-373v-15zM322 435c-56 0 -109 -33 -133 -117h230c7 76 -22 117 -97 117zM198 753h150l42 -159
h-102z" />
    <glyph glyph-name="eacute" unicode="&#xe9;" horiz-adv-x="592" 
d="M177 214c0 -73 32 -122 115 -122c60 0 97 26 112 73h137c-29 -116 -124 -176 -253 -176c-148 0 -254 82 -254 232c0 187 124 314 289 314c162 0 258 -101 231 -283l-4 -23h-373v-15zM322 435c-56 0 -109 -33 -133 -117h230c7 76 -22 117 -97 117zM353 753h154l-123 -159
h-107z" />
    <glyph glyph-name="ecircumflex" unicode="&#xea;" horiz-adv-x="592" 
d="M177 214c0 -73 32 -122 115 -122c60 0 97 26 112 73h137c-29 -116 -124 -176 -253 -176c-148 0 -254 82 -254 232c0 187 124 314 289 314c162 0 258 -101 231 -283l-4 -23h-373v-15zM322 435c-56 0 -109 -33 -133 -117h230c7 76 -22 117 -97 117zM299 751h108l93 -156
h-98l-60 63l-79 -63h-103z" />
    <glyph glyph-name="edieresis" unicode="&#xeb;" horiz-adv-x="592" 
d="M177 214c0 -73 32 -122 115 -122c60 0 97 26 112 73h137c-29 -116 -124 -176 -253 -176c-148 0 -254 82 -254 232c0 187 124 314 289 314c162 0 258 -101 231 -283l-4 -23h-373v-15zM322 435c-56 0 -109 -33 -133 -117h230c7 76 -22 117 -97 117zM244 600
c-41 0 -74 31 -74 71s34 73 75 73c40 0 73 -32 73 -72c0 -39 -33 -72 -74 -72zM447 600c-40 0 -73 31 -73 71s33 73 74 73s73 -32 73 -72c0 -39 -31 -72 -74 -72z" />
    <glyph glyph-name="igrave" unicode="&#xec;" horiz-adv-x="293" 
d="M115 523h144l-83 -523h-144zM60 753h150l42 -159h-102z" />
    <glyph glyph-name="iacute" unicode="&#xed;" horiz-adv-x="293" 
d="M115 523h144l-83 -523h-144zM213 753h154l-123 -159h-107z" />
    <glyph glyph-name="icircumflex" unicode="&#xee;" horiz-adv-x="293" 
d="M115 523h144l-83 -523h-144zM163 751h108l93 -156h-98l-60 63l-79 -63h-103z" />
    <glyph glyph-name="idieresis" unicode="&#xef;" horiz-adv-x="293" 
d="M112 600c-40 0 -73 31 -73 71s33 73 74 73s73 -32 73 -72c0 -39 -33 -72 -74 -72zM310 600c-41 0 -73 31 -73 71s33 73 74 73s73 -32 73 -72c0 -39 -33 -72 -74 -72zM115 523h144l-83 -523h-144z" />
    <glyph glyph-name="eth" unicode="&#xf0;" horiz-adv-x="622" 
d="M173 619l116 47c-36 35 -75 65 -115 94h173c20 -12 41 -27 62 -46l105 43l23 -57l-81 -33c72 -80 129 -195 129 -331c0 -194 -100 -347 -297 -347c-147 0 -254 86 -254 240c0 157 102 301 262 301c56 0 96 -17 129 -60c-23 56 -54 105 -91 148l-138 -55zM180 223
c0 -67 30 -124 111 -124c99 0 147 100 147 202c0 65 -33 124 -113 124c-96 0 -145 -94 -145 -202z" />
    <glyph glyph-name="ntilde" unicode="&#xf1;" horiz-adv-x="623" 
d="M84 357c12 75 15 119 18 166h139c0 -27 -1 -62 -5 -94c37 60 95 106 180 106c102 0 173 -64 149 -221l-50 -314h-144l49 313c12 69 -11 104 -70 104c-68 0 -119 -43 -131 -123l-47 -294h-144zM422 598c-54 0 -85 38 -115 38c-17 0 -32 -14 -39 -37h-83
c15 93 60 141 120 141c51 0 84 -37 116 -37c19 0 31 12 38 37h84c-16 -95 -64 -142 -121 -142z" />
    <glyph glyph-name="ograve" unicode="&#xf2;" horiz-adv-x="618" 
d="M289 -11c-142 0 -254 86 -254 237c0 177 123 308 293 308c144 0 255 -84 255 -237c0 -180 -121 -308 -294 -308zM293 99c92 0 143 87 143 202c0 72 -35 124 -111 124c-91 0 -145 -85 -145 -200c0 -72 33 -126 113 -126zM205 753h150l42 -159h-102z" />
    <glyph glyph-name="oacute" unicode="&#xf3;" horiz-adv-x="618" 
d="M289 -11c-142 0 -254 86 -254 237c0 177 123 308 293 308c144 0 255 -84 255 -237c0 -180 -121 -308 -294 -308zM293 99c92 0 143 87 143 202c0 72 -35 124 -111 124c-91 0 -145 -85 -145 -200c0 -72 33 -126 113 -126zM357 753h154l-123 -159h-107z" />
    <glyph glyph-name="ocircumflex" unicode="&#xf4;" horiz-adv-x="618" 
d="M289 -11c-142 0 -254 86 -254 237c0 177 123 308 293 308c144 0 255 -84 255 -237c0 -180 -121 -308 -294 -308zM293 99c92 0 143 87 143 202c0 72 -35 124 -111 124c-91 0 -145 -85 -145 -200c0 -72 33 -126 113 -126zM307 751h108l93 -156h-98l-60 63l-79 -63h-103z
" />
    <glyph glyph-name="otilde" unicode="&#xf5;" horiz-adv-x="618" 
d="M289 -11c-142 0 -254 86 -254 237c0 177 123 308 293 308c144 0 255 -84 255 -237c0 -180 -121 -308 -294 -308zM293 99c92 0 143 87 143 202c0 72 -35 124 -111 124c-91 0 -145 -85 -145 -200c0 -72 33 -126 113 -126zM410 598c-54 0 -85 38 -115 38
c-17 0 -32 -14 -39 -37h-83c15 93 60 141 120 141c51 0 84 -37 116 -37c19 0 31 12 38 37h84c-16 -95 -64 -142 -121 -142z" />
    <glyph glyph-name="odieresis" unicode="&#xf6;" horiz-adv-x="618" 
d="M289 -11c-142 0 -254 86 -254 237c0 177 123 308 293 308c144 0 255 -84 255 -237c0 -180 -121 -308 -294 -308zM293 99c92 0 143 87 143 202c0 72 -35 124 -111 124c-91 0 -145 -85 -145 -200c0 -72 33 -126 113 -126zM250 600c-41 0 -74 31 -74 71s34 73 75 73
c40 0 73 -32 73 -72c0 -39 -33 -72 -74 -72zM453 600c-40 0 -73 31 -73 71s33 73 74 73s73 -32 73 -72c0 -39 -31 -72 -74 -72z" />
    <glyph glyph-name="divide" unicode="&#xf7;" horiz-adv-x="565" 
d="M62 393h480l-17 -104h-479zM269 60c-47 0 -83 35 -83 82c0 45 36 82 83 82c48 0 85 -37 85 -82c0 -47 -37 -82 -85 -82zM317 458c-47 0 -83 35 -83 82c0 45 36 82 83 82c48 0 85 -37 85 -82c0 -47 -37 -82 -85 -82z" />
    <glyph glyph-name="oslash" unicode="&#xf8;" horiz-adv-x="618" 
d="M17 6l68 71c-31 39 -50 89 -50 150c0 176 121 308 293 308c59 0 111 -14 155 -43l66 68l47 -44l-65 -67c33 -39 52 -89 52 -152c0 -181 -121 -308 -294 -308c-60 0 -114 14 -157 45l-69 -72zM293 98c95 0 147 87 147 202c0 17 -2 33 -6 48l-218 -227
c19 -15 44 -23 77 -23zM176 227c0 -19 1 -35 5 -50l217 226c-19 15 -43 22 -73 22c-92 0 -149 -83 -149 -198z" />
    <glyph glyph-name="ugrave" unicode="&#xf9;" horiz-adv-x="621" 
d="M533 160c-11 -69 -15 -116 -12 -160h-140c-3 27 -2 56 2 88c-39 -57 -89 -99 -172 -99c-108 0 -179 65 -155 220l50 314h144l-50 -319c-11 -68 12 -104 68 -104c68 0 118 43 130 123l48 300h144zM217 753h150l42 -159h-102z" />
    <glyph glyph-name="uacute" unicode="&#xfa;" horiz-adv-x="621" 
d="M533 160c-11 -69 -15 -116 -12 -160h-140c-3 27 -2 56 2 88c-39 -57 -89 -99 -172 -99c-108 0 -179 65 -155 220l50 314h144l-50 -319c-11 -68 12 -104 68 -104c68 0 118 43 130 123l48 300h144zM372 753h154l-123 -159h-107z" />
    <glyph glyph-name="ucircumflex" unicode="&#xfb;" horiz-adv-x="621" 
d="M533 160c-11 -69 -15 -116 -12 -160h-140c-3 27 -2 56 2 88c-39 -57 -89 -99 -172 -99c-108 0 -179 65 -155 220l50 314h144l-50 -319c-11 -68 12 -104 68 -104c68 0 118 43 130 123l48 300h144zM319 751h108l93 -156h-98l-60 63l-79 -63h-103z" />
    <glyph glyph-name="udieresis" unicode="&#xfc;" horiz-adv-x="621" 
d="M533 160c-11 -69 -15 -116 -12 -160h-140c-3 27 -2 56 2 88c-39 -57 -89 -99 -172 -99c-108 0 -179 65 -155 220l50 314h144l-50 -319c-11 -68 12 -104 68 -104c68 0 118 43 130 123l48 300h144zM259 600c-41 0 -74 31 -74 71s34 73 75 73c40 0 73 -32 73 -72
c0 -39 -33 -72 -74 -72zM462 600c-40 0 -73 31 -73 71s33 73 74 73s73 -32 73 -72c0 -39 -31 -72 -74 -72z" />
    <glyph glyph-name="yacute" unicode="&#xfd;" horiz-adv-x="563" 
d="M183 59l-126 464h149l73 -315l162 315h146l-390 -701h-146zM350 753h154l-123 -159h-107z" />
    <glyph glyph-name="thorn" unicode="&#xfe;" horiz-adv-x="651" 
d="M148 760h144l-51 -323c35 57 99 98 179 98c110 0 193 -81 193 -228c0 -189 -103 -318 -255 -318c-92 0 -150 47 -171 102l-43 -269h-144zM324 100c88 0 140 82 140 197c0 84 -38 129 -105 129c-87 0 -152 -80 -152 -200c0 -80 42 -126 117 -126z" />
    <glyph glyph-name="ydieresis" unicode="&#xff;" horiz-adv-x="563" 
d="M183 59l-126 464h149l73 -315l162 315h146l-390 -701h-146zM242 600c-41 0 -74 31 -74 71s34 73 75 73c40 0 73 -32 73 -72c0 -39 -33 -72 -74 -72zM445 600c-40 0 -73 31 -73 71s33 73 74 73s73 -32 73 -72c0 -39 -31 -72 -74 -72z" />
    <glyph glyph-name="Amacron" unicode="&#x100;" horiz-adv-x="706" 
d="M466 159h-259l-73 -159h-156l348 715h211l119 -715h-166zM261 274h188l-45 309zM301 868h302l-15 -91h-301z" />
    <glyph glyph-name="amacron" unicode="&#x101;" horiz-adv-x="563" 
d="M188 -11c-100 0 -167 55 -167 147c0 133 110 177 267 177h86l3 22c9 61 -7 95 -74 95c-56 0 -82 -27 -93 -74h-138c26 127 122 179 238 179c149 0 232 -67 208 -216l-25 -159c-11 -68 -14 -116 -9 -160h-138c-4 24 -4 49 -3 72c-33 -49 -83 -83 -155 -83zM237 89
c60 0 107 34 116 97l7 41h-68c-88 0 -128 -20 -128 -76c0 -35 24 -62 73 -62zM198 712h291l-13 -87h-291z" />
    <glyph glyph-name="Abreve" unicode="&#x102;" horiz-adv-x="706" 
d="M466 159h-259l-73 -159h-156l348 715h211l119 -715h-166zM261 274h188l-45 309zM440 757c-93 0 -150 58 -150 146h97c3 -35 22 -52 55 -52s53 17 60 52h96c-11 -91 -75 -146 -158 -146z" />
    <glyph glyph-name="abreve" unicode="&#x103;" horiz-adv-x="563" 
d="M188 -11c-100 0 -167 55 -167 147c0 133 110 177 267 177h86l3 22c9 61 -7 95 -74 95c-56 0 -82 -27 -93 -74h-138c26 127 122 179 238 179c149 0 232 -67 208 -216l-25 -159c-11 -68 -14 -116 -9 -160h-138c-4 24 -4 49 -3 72c-33 -49 -83 -83 -155 -83zM237 89
c60 0 107 34 116 97l7 41h-68c-88 0 -128 -20 -128 -76c0 -35 24 -62 73 -62zM335 598c-90 0 -151 57 -148 149h94c3 -36 22 -54 56 -54c35 0 56 18 62 54h94c-11 -93 -74 -149 -158 -149z" />
    <glyph glyph-name="Aogonek" unicode="&#x104;" horiz-adv-x="706" 
d="M460 159h-259l-73 -159h-156l348 715h211l118 -709c-34 -21 -72 -48 -72 -82c0 -17 11 -26 32 -26c13 0 25 2 35 6l-11 -73c-16 -7 -38 -13 -71 -13c-57 0 -107 20 -107 80c0 50 49 86 92 102h-63zM255 274h188l-45 309z" />
    <glyph glyph-name="aogonek" unicode="&#x105;" horiz-adv-x="563" 
d="M400 -182c-56 0 -108 20 -108 80c0 50 49 86 91 102h-43c-4 24 -4 49 -3 72c-33 -49 -83 -83 -155 -83c-100 0 -167 55 -167 147c0 133 110 177 267 177h86l3 22c9 61 -7 95 -74 95c-56 0 -82 -27 -93 -74h-138c26 127 122 179 238 179c149 0 232 -67 208 -216l-25 -159
c-11 -67 -14 -113 -9 -157c-26 -18 -64 -45 -64 -79c0 -17 11 -26 32 -26c12 0 25 2 36 7l-12 -74c-15 -7 -37 -13 -70 -13zM231 89c60 0 107 34 116 97l7 41h-68c-88 0 -128 -20 -128 -76c0 -35 24 -62 73 -62z" />
    <glyph glyph-name="Cacute" unicode="&#x106;" horiz-adv-x="749" 
d="M396 -11c-206 0 -337 114 -337 314c0 241 152 423 392 423c172 0 289 -88 297 -260h-161c-11 87 -53 133 -141 133c-140 0 -218 -132 -218 -291c0 -115 51 -190 170 -190c88 0 147 51 172 139h159c-32 -173 -167 -268 -333 -268zM461 902h158l-112 -139h-111z" />
    <glyph glyph-name="cacute" unicode="&#x107;" horiz-adv-x="570" 
d="M293 -10c-155 0 -258 89 -258 239c0 189 125 305 286 305c127 0 228 -62 233 -203h-136c-7 68 -42 90 -101 90c-85 0 -137 -78 -137 -193c0 -83 37 -131 118 -131c59 0 104 34 116 101h131c-20 -133 -113 -208 -252 -208zM347 753h154l-123 -159h-107z" />
    <glyph glyph-name="Ccircumflex" unicode="&#x108;" horiz-adv-x="749" 
d="M396 -11c-206 0 -337 114 -337 314c0 241 152 423 392 423c172 0 289 -88 297 -260h-161c-11 87 -53 133 -141 133c-140 0 -218 -132 -218 -291c0 -115 51 -190 170 -190c88 0 147 51 172 139h159c-32 -173 -167 -268 -333 -268zM414 902h123l92 -139h-100l-62 53
l-75 -53h-106z" />
    <glyph glyph-name="ccircumflex" unicode="&#x109;" horiz-adv-x="570" 
d="M293 -10c-155 0 -258 89 -258 239c0 189 125 305 286 305c127 0 228 -62 233 -203h-136c-7 68 -42 90 -101 90c-85 0 -137 -78 -137 -193c0 -83 37 -131 118 -131c59 0 104 34 116 101h131c-20 -133 -113 -208 -252 -208zM295 751h108l93 -156h-98l-60 63l-79 -63h-103z
" />
    <glyph glyph-name="Cdotaccent" unicode="&#x10a;" horiz-adv-x="749" 
d="M396 -11c-206 0 -337 114 -337 314c0 241 152 423 392 423c172 0 289 -88 297 -260h-161c-11 87 -53 133 -141 133c-140 0 -218 -132 -218 -291c0 -115 51 -190 170 -190c88 0 147 51 172 139h159c-32 -173 -167 -268 -333 -268zM464 768c-47 0 -81 33 -81 76
s36 77 81 77c47 0 81 -32 81 -76c0 -43 -36 -77 -81 -77z" />
    <glyph glyph-name="cdotaccent" unicode="&#x10b;" horiz-adv-x="570" 
d="M293 -10c-155 0 -258 89 -258 239c0 189 125 305 286 305c127 0 228 -62 233 -203h-136c-7 68 -42 90 -101 90c-85 0 -137 -78 -137 -193c0 -83 37 -131 118 -131c59 0 104 34 116 101h131c-20 -133 -113 -208 -252 -208zM342 598c-45 0 -80 32 -80 76c0 43 36 77 81 77
s80 -33 80 -76s-36 -77 -81 -77z" />
    <glyph glyph-name="Ccaron" unicode="&#x10c;" horiz-adv-x="749" 
d="M396 -11c-206 0 -337 114 -337 314c0 241 152 423 392 423c172 0 289 -88 297 -260h-161c-11 87 -53 133 -141 133c-140 0 -218 -132 -218 -291c0 -115 51 -190 170 -190c88 0 147 51 172 139h159c-32 -173 -167 -268 -333 -268zM515 763h-123l-92 139h100l62 -52l75 52
h106z" />
    <glyph glyph-name="ccaron" unicode="&#x10d;" horiz-adv-x="570" 
d="M293 -10c-155 0 -258 89 -258 239c0 189 125 305 286 305c127 0 228 -62 233 -203h-136c-7 68 -42 90 -101 90c-85 0 -137 -78 -137 -193c0 -83 37 -131 118 -131c59 0 104 34 116 101h131c-20 -133 -113 -208 -252 -208zM379 595h-108l-93 156h97l61 -63l78 63h104z" />
    <glyph glyph-name="Dcaron" unicode="&#x10e;" horiz-adv-x="730" 
d="M154 715h210c240 0 353 -121 353 -305c0 -248 -158 -410 -415 -410h-261zM301 126c159 0 248 100 248 279c0 112 -56 185 -189 185h-64l-73 -464h78zM463 763h-123l-92 139h100l62 -52l75 52h106z" />
    <glyph glyph-name="dcaron" unicode="&#x10f;" horiz-adv-x="634" 
d="M238 -11c-118 0 -203 82 -203 229c0 188 107 317 264 317c88 0 138 -40 163 -92l50 317h145l-94 -600c-11 -69 -15 -116 -11 -160h-142c-3 27 -3 54 0 85c-39 -63 -93 -96 -172 -96zM291 99c85 0 150 74 150 201c0 80 -45 125 -113 125c-89 0 -144 -81 -144 -197
c0 -81 38 -129 107 -129zM707 760h117l-73 -174h-81z" />
    <glyph glyph-name="Dcroat" unicode="&#x110;" horiz-adv-x="749" 
d="M54 415h65l48 300h210c240 0 353 -121 353 -305c0 -248 -158 -410 -415 -410h-261l48 303h-65zM314 126c159 0 249 100 249 279c0 112 -57 185 -190 185h-66l-28 -175h152l-18 -112h-152l-28 -177h81z" />
    <glyph glyph-name="dcroat" unicode="&#x111;" horiz-adv-x="634" 
d="M330 680h163l13 80h145l-13 -80h63l-13 -83h-63l-68 -437c-11 -69 -15 -116 -11 -160h-142c-3 27 -3 54 0 85c-39 -63 -93 -96 -172 -96c-118 0 -203 82 -203 229c0 188 107 317 264 317c88 0 138 -40 163 -92l24 154h-163zM322 425c-89 0 -144 -81 -144 -197
c0 -83 36 -129 107 -129c85 0 150 74 150 203c0 80 -44 123 -113 123z" />
    <glyph glyph-name="Emacron" unicode="&#x112;" horiz-adv-x="598" 
d="M154 715h463l-20 -126h-302l-26 -167h243l-18 -118h-243l-29 -178h321l-20 -126h-482zM254 868h302l-15 -91h-301z" />
    <glyph glyph-name="emacron" unicode="&#x113;" horiz-adv-x="580" 
d="M177 214c0 -73 32 -122 115 -122c60 0 97 26 112 73h137c-29 -116 -124 -176 -253 -176c-148 0 -254 82 -254 232c0 187 124 314 289 314c162 0 258 -101 231 -283l-4 -23h-373v-15zM322 435c-56 0 -109 -33 -133 -117h230c7 76 -22 117 -97 117zM209 712h291l-13 -87
h-291z" />
    <glyph glyph-name="Ebreve" unicode="&#x114;" horiz-adv-x="598" 
d="M154 715h463l-20 -126h-302l-26 -167h243l-18 -118h-243l-29 -178h321l-20 -126h-482zM394 757c-93 0 -150 58 -150 146h97c3 -35 22 -52 55 -52s53 17 60 52h96c-11 -91 -75 -146 -158 -146z" />
    <glyph glyph-name="ebreve" unicode="&#x115;" horiz-adv-x="580" 
d="M177 214c0 -73 32 -122 115 -122c60 0 97 26 112 73h137c-29 -116 -124 -176 -253 -176c-148 0 -254 82 -254 232c0 187 124 314 289 314c162 0 258 -101 231 -283l-4 -23h-373v-15zM322 435c-56 0 -109 -33 -133 -117h230c7 76 -22 117 -97 117zM342 598
c-90 0 -151 57 -148 149h94c3 -36 22 -54 56 -54c35 0 56 18 62 54h94c-11 -93 -74 -149 -158 -149z" />
    <glyph glyph-name="Edotaccent" unicode="&#x116;" horiz-adv-x="598" 
d="M154 715h463l-20 -126h-302l-26 -167h243l-18 -118h-243l-29 -178h321l-20 -126h-482zM394 768c-47 0 -81 33 -81 76s36 77 81 77c47 0 81 -32 81 -76c0 -43 -36 -77 -81 -77z" />
    <glyph glyph-name="edotaccent" unicode="&#x117;" horiz-adv-x="580" 
d="M177 214c0 -73 32 -122 115 -122c60 0 97 26 112 73h137c-29 -116 -124 -176 -253 -176c-148 0 -254 82 -254 232c0 187 124 314 289 314c162 0 258 -101 231 -283l-4 -23h-373v-15zM322 435c-56 0 -109 -33 -133 -117h230c7 76 -22 117 -97 117zM344 598
c-45 0 -80 32 -80 76c0 43 36 77 81 77s80 -33 80 -76s-36 -77 -81 -77z" />
    <glyph glyph-name="Eogonek" unicode="&#x118;" horiz-adv-x="598" 
d="M148 715h463l-20 -126h-302l-26 -167h243l-18 -118h-243l-29 -178h321l-20 -126h-34c-25 -17 -65 -39 -65 -77c0 -17 11 -25 32 -25c14 0 26 2 36 6l-12 -73c-15 -7 -37 -13 -70 -13c-56 0 -108 20 -108 77c0 52 48 86 89 105h-350z" />
    <glyph glyph-name="eogonek" unicode="&#x119;" horiz-adv-x="580" 
d="M282 -11c-148 0 -254 82 -254 232c0 187 124 314 289 314c162 0 258 -101 231 -283l-4 -23h-373v-15c0 -73 32 -122 115 -122c60 0 97 26 112 73h137c-12 -49 -33 -85 -70 -118c-38 -38 -121 -71 -121 -123c0 -17 11 -26 32 -26c14 0 26 2 36 7l-11 -74
c-16 -7 -38 -13 -71 -13c-57 0 -107 19 -107 78c0 47 41 75 81 94c-7 -1 -15 -1 -22 -1zM316 435c-56 0 -109 -33 -133 -117h230c7 76 -22 117 -97 117z" />
    <glyph glyph-name="Ecaron" unicode="&#x11a;" horiz-adv-x="598" 
d="M154 715h463l-20 -126h-302l-26 -167h243l-18 -118h-243l-29 -178h321l-20 -126h-482zM443 763h-123l-92 139h100l62 -52l75 52h106z" />
    <glyph glyph-name="ecaron" unicode="&#x11b;" horiz-adv-x="580" 
d="M177 214c0 -73 32 -122 115 -122c60 0 97 26 112 73h137c-29 -116 -124 -176 -253 -176c-148 0 -254 82 -254 232c0 187 124 314 289 314c162 0 258 -101 231 -283l-4 -23h-373v-15zM322 435c-56 0 -109 -33 -133 -117h230c7 76 -22 117 -97 117zM383 595h-108l-93 156
h97l61 -63l78 63h104z" />
    <glyph glyph-name="Gcircumflex" unicode="&#x11c;" horiz-adv-x="781" 
d="M404 -11c-214 0 -344 124 -344 321c0 233 164 415 393 415c159 0 297 -74 305 -249h-161c-8 81 -61 121 -149 121c-140 0 -221 -131 -221 -286c0 -121 60 -197 181 -197c109 0 164 64 180 151h-161l19 118h321c-19 -268 -139 -394 -363 -394zM408 902h123l92 -139h-100
l-62 53l-75 -53h-106z" />
    <glyph glyph-name="gcircumflex" unicode="&#x11d;" horiz-adv-x="634" 
d="M292 131c86 0 149 71 149 179c0 72 -45 116 -113 116c-91 0 -140 -84 -140 -172c0 -73 35 -123 104 -123zM540 29c-24 -149 -106 -222 -277 -222c-185 0 -251 90 -259 182h144c7 -40 37 -76 112 -76c89 0 124 46 136 119l12 74c-36 -55 -88 -83 -163 -83
c-120 0 -206 82 -206 222c0 165 108 290 258 290c88 0 139 -40 164 -92l13 80h144zM323 751h108l93 -156h-98l-60 63l-79 -63h-103z" />
    <glyph glyph-name="Gbreve" unicode="&#x11e;" horiz-adv-x="781" 
d="M404 -11c-214 0 -344 124 -344 321c0 233 164 415 393 415c159 0 297 -74 305 -249h-161c-8 81 -61 121 -149 121c-140 0 -221 -131 -221 -286c0 -121 60 -197 181 -197c109 0 164 64 180 151h-161l19 118h321c-19 -268 -139 -394 -363 -394zM460 757
c-93 0 -150 58 -150 146h97c3 -35 22 -52 55 -52s53 17 60 52h96c-11 -91 -75 -146 -158 -146z" />
    <glyph glyph-name="gbreve" unicode="&#x11f;" horiz-adv-x="634" 
d="M292 131c86 0 149 71 149 179c0 72 -45 116 -113 116c-91 0 -140 -84 -140 -172c0 -73 35 -123 104 -123zM540 29c-24 -149 -106 -222 -277 -222c-185 0 -251 90 -259 182h144c7 -40 37 -76 112 -76c89 0 124 46 136 119l12 74c-36 -55 -88 -83 -163 -83
c-120 0 -206 82 -206 222c0 165 108 290 258 290c88 0 139 -40 164 -92l13 80h144zM364 598c-90 0 -151 57 -148 149h94c3 -36 22 -54 56 -54c35 0 56 18 62 54h94c-11 -93 -74 -149 -158 -149z" />
    <glyph glyph-name="Gdotaccent" unicode="&#x120;" horiz-adv-x="781" 
d="M404 -11c-214 0 -344 124 -344 321c0 233 164 415 393 415c159 0 297 -74 305 -249h-161c-8 81 -61 121 -149 121c-140 0 -221 -131 -221 -286c0 -121 60 -197 181 -197c109 0 164 64 180 151h-161l19 118h321c-19 -268 -139 -394 -363 -394zM459 768
c-47 0 -81 33 -81 76s36 77 81 77c47 0 81 -32 81 -76c0 -43 -36 -77 -81 -77z" />
    <glyph glyph-name="gdotaccent" unicode="&#x121;" horiz-adv-x="634" 
d="M292 131c86 0 149 71 149 179c0 72 -45 116 -113 116c-91 0 -140 -84 -140 -172c0 -73 35 -123 104 -123zM540 29c-24 -149 -106 -222 -277 -222c-185 0 -251 90 -259 182h144c7 -40 37 -76 112 -76c89 0 124 46 136 119l12 74c-36 -55 -88 -83 -163 -83
c-120 0 -206 82 -206 222c0 165 108 290 258 290c88 0 139 -40 164 -92l13 80h144zM366 598c-45 0 -80 32 -80 76c0 43 36 77 81 77s80 -33 80 -76s-36 -77 -81 -77z" />
    <glyph glyph-name="uni0122" unicode="&#x122;" horiz-adv-x="781" 
d="M404 -11c-214 0 -344 124 -344 321c0 233 164 415 393 415c159 0 297 -74 305 -249h-161c-8 81 -61 121 -149 121c-140 0 -221 -131 -221 -286c0 -121 60 -197 181 -197c109 0 164 64 180 151h-161l19 118h321c-19 -268 -139 -394 -363 -394zM236 -201l58 170l129 -21
l-107 -176z" />
    <glyph glyph-name="uni0123" unicode="&#x123;" horiz-adv-x="634" 
d="M292 131c86 0 149 71 149 179c0 72 -45 116 -113 116c-91 0 -140 -84 -140 -172c0 -73 35 -123 104 -123zM540 29c-24 -149 -106 -222 -277 -222c-185 0 -251 90 -259 182h144c7 -40 37 -76 112 -76c89 0 124 46 136 119l12 74c-36 -55 -88 -83 -163 -83
c-120 0 -206 82 -206 222c0 165 108 290 258 290c88 0 139 -40 164 -92l13 80h144zM465 749l-58 -170l-128 21l106 175z" />
    <glyph glyph-name="Hcircumflex" unicode="&#x124;" horiz-adv-x="764" 
d="M154 715h162l-46 -292h286l47 292h162l-113 -715h-162l46 295h-287l-46 -295h-162zM417 902h123l92 -139h-100l-62 53l-75 -53h-106z" />
    <glyph glyph-name="hcircumflex" unicode="&#x125;" horiz-adv-x="611" 
d="M148 760h144l-50 -324c35 56 89 99 174 99c102 0 173 -64 149 -221l-50 -314h-144l49 313c12 69 -11 104 -70 104c-68 0 -119 -43 -131 -123l-47 -294h-144zM347 941h123l92 -139h-100l-62 53l-75 -53h-106z" />
    <glyph glyph-name="Hbar" unicode="&#x126;" horiz-adv-x="764" 
d="M65 596h64l19 119h162l-19 -119h286l20 119h162l-19 -119h63l-13 -85h-63l-81 -511h-162l46 295h-287l-46 -295h-162l81 511h-65zM550 423l14 88h-286l-14 -88h286z" />
    <glyph glyph-name="hbar" unicode="&#x127;" horiz-adv-x="611" 
d="M66 680h63l13 80h144l-13 -80h164l-13 -83h-163l-25 -161c35 56 89 99 174 99c102 0 173 -64 149 -221l-50 -314h-144l49 313c12 75 -11 104 -70 104c-68 0 -119 -43 -131 -123l-47 -294h-144l94 597h-63z" />
    <glyph glyph-name="Itilde" unicode="&#x128;" horiz-adv-x="326" 
d="M158 715h163l-113 -715h-163zM318 764c-53 0 -87 37 -116 37c-17 0 -34 -14 -39 -37h-87c16 95 65 140 125 140c50 0 86 -38 117 -38c19 0 32 12 39 37h86c-17 -93 -68 -139 -125 -139z" />
    <glyph glyph-name="itilde" unicode="&#x129;" horiz-adv-x="281" 
d="M115 523h144l-83 -523h-144zM268 598c-54 0 -85 38 -115 38c-17 0 -32 -14 -39 -37h-83c15 93 60 141 120 141c51 0 84 -37 116 -37c19 0 31 12 38 37h84c-16 -95 -64 -142 -121 -142z" />
    <glyph glyph-name="Imacron" unicode="&#x12a;" horiz-adv-x="326" 
d="M158 715h163l-113 -715h-163zM111 868h302l-15 -91h-301z" />
    <glyph glyph-name="imacron" unicode="&#x12b;" horiz-adv-x="281" 
d="M98 712h226l-13 -87h-227zM109 523h144l-83 -523h-144z" />
    <glyph glyph-name="Ibreve" unicode="&#x12c;" horiz-adv-x="326" 
d="M158 715h163l-113 -715h-163zM253 757c-93 0 -150 58 -150 146h97c3 -35 22 -52 55 -52s53 17 60 52h96c-11 -91 -75 -146 -158 -146z" />
    <glyph glyph-name="ibreve" unicode="&#x12d;" horiz-adv-x="281" 
d="M115 523h144l-83 -523h-144zM204 598c-90 0 -151 57 -148 149h94c3 -36 22 -54 56 -54c35 0 56 18 62 54h94c-11 -93 -74 -149 -158 -149z" />
    <glyph glyph-name="Iogonek" unicode="&#x12e;" horiz-adv-x="326" 
d="M114 -182c-56 0 -108 20 -108 80c0 50 50 86 93 102h-60l113 715h163l-111 -704c-36 -25 -75 -54 -75 -87c0 -17 11 -26 32 -26c13 0 25 2 35 6l-12 -73c-15 -7 -37 -13 -70 -13z" />
    <glyph glyph-name="iogonek" unicode="&#x12f;" horiz-adv-x="281" 
d="M109 523h144l-81 -512c-36 -24 -74 -51 -74 -87c0 -17 10 -26 31 -26c13 0 25 2 35 6l-11 -73c-16 -7 -38 -13 -71 -13c-55 0 -106 20 -106 80c0 50 50 86 90 102h-40zM202 595c-47 0 -81 33 -81 78c0 44 35 78 82 78s81 -33 81 -77c0 -45 -35 -79 -82 -79z" />
    <glyph glyph-name="Idotaccent" unicode="&#x130;" horiz-adv-x="326" 
d="M158 715h163l-113 -715h-163zM252 768c-47 0 -81 33 -81 76s36 77 81 77c47 0 81 -32 81 -76c0 -43 -36 -77 -81 -77z" />
    <glyph glyph-name="dotlessi" unicode="&#x131;" horiz-adv-x="293" 
d="M115 523h144l-83 -523h-144z" />
    <glyph glyph-name="IJ" unicode="&#x132;" horiz-adv-x="750" 
d="M134 715h163l-113 -715h-163zM408 -9c-77 0 -115 16 -139 29l19 122c25 -11 53 -22 96 -22c60 0 98 29 109 102l78 493h163l-80 -501c-24 -155 -115 -223 -246 -223z" />
    <glyph glyph-name="ij" unicode="&#x133;" horiz-adv-x="281" 
d="M208 595c-47 0 -81 33 -81 78c0 44 35 78 82 78s81 -33 81 -77c0 -45 -35 -79 -82 -79zM115 523h144l-83 -523h-144zM231 -79c51 3 72 24 79 67l85 535h143l-86 -548c-16 -97 -72 -165 -237 -160zM488 595c-47 0 -81 33 -81 78c0 44 35 78 82 78s81 -33 81 -77
c0 -45 -35 -79 -82 -79z" />
    <glyph glyph-name="Jcircumflex" unicode="&#x134;" horiz-adv-x="457" 
d="M140 -9c-77 0 -115 16 -139 29l19 122c25 -11 53 -22 96 -22c60 0 98 29 109 102l78 493h163l-80 -501c-24 -155 -115 -223 -246 -223zM344 902h123l92 -139h-100l-62 53l-75 -53h-106z" />
    <glyph glyph-name="jcircumflex" unicode="&#x135;" horiz-adv-x="281" 
d="M-55 -79c51 3 72 24 79 67l85 535h143l-86 -548c-16 -97 -72 -165 -237 -160zM159 751h108l93 -156h-98l-60 63l-79 -63h-103z" />
    <glyph glyph-name="uni0136" unicode="&#x136;" horiz-adv-x="686" 
d="M154 715h162l-49 -307l301 307h177l-342 -343l235 -372h-177l-206 331l-52 -331h-162zM197 -201l58 170l129 -21l-107 -176z" />
    <glyph glyph-name="uni0137" unicode="&#x137;" horiz-adv-x="552" 
d="M148 760h144l-72 -456l202 219h161l-233 -241l160 -282h-158l-139 255l-40 -255h-145zM140 -201l58 170l129 -21l-107 -176z" />
    <glyph glyph-name="Lacute" unicode="&#x139;" horiz-adv-x="560" 
d="M154 715h162l-93 -588h291l-20 -127h-453zM243 902h158l-112 -139h-111z" />
    <glyph glyph-name="lacute" unicode="&#x13a;" horiz-adv-x="280" 
d="M152 760h144l-120 -760h-144zM233 941h158l-112 -139h-111z" />
    <glyph glyph-name="uni013B" unicode="&#x13b;" horiz-adv-x="560" 
d="M154 715h162l-93 -588h291l-20 -127h-453zM141 -201l58 170l129 -21l-107 -176z" />
    <glyph glyph-name="uni013C" unicode="&#x13c;" horiz-adv-x="280" 
d="M152 760h144l-120 -760h-144zM-21 -201l58 170l129 -21l-107 -176z" />
    <glyph glyph-name="Lcaron" unicode="&#x13d;" horiz-adv-x="560" 
d="M440 715h129l-85 -169h-87zM148 715h162l-93 -588h291l-20 -127h-453z" />
    <glyph glyph-name="lcaron" unicode="&#x13e;" horiz-adv-x="280" 
d="M152 760h144l-120 -760h-144zM347 760h117l-73 -174h-81z" />
    <glyph glyph-name="Ldot" unicode="&#x13f;" horiz-adv-x="577" 
d="M154 715h162l-93 -588h291l-20 -127h-453zM490 307c-51 0 -89 39 -89 88c0 48 37 87 88 87s91 -39 91 -87s-39 -88 -90 -88z" />
    <glyph glyph-name="ldot" unicode="&#x140;" horiz-adv-x="409" 
d="M152 760h144l-120 -760h-144zM364 274c-51 0 -89 39 -89 88c0 48 37 87 88 87s91 -39 91 -87s-39 -88 -90 -88z" />
    <glyph glyph-name="Lslash" unicode="&#x141;" horiz-adv-x="591" 
d="M47 332l69 23l57 360h162l-48 -304l197 66l-15 -97l-198 -66l-29 -187h291l-20 -127h-453l40 258l-68 -23z" />
    <glyph glyph-name="lslash" unicode="&#x142;" horiz-adv-x="325" 
d="M42 381l71 33l55 346h144l-44 -275l77 36l-17 -102l-76 -35l-60 -384h-144l49 312l-71 -33z" />
    <glyph glyph-name="Nacute" unicode="&#x143;" horiz-adv-x="758" 
d="M154 715h189l194 -471l75 471h146l-113 -715h-163l-215 509l-80 -509h-146zM475 902h158l-112 -139h-111z" />
    <glyph glyph-name="nacute" unicode="&#x144;" horiz-adv-x="611" 
d="M84 357c12 75 15 119 18 166h139c0 -27 -1 -62 -5 -94c37 60 95 106 180 106c102 0 173 -64 149 -221l-50 -314h-144l49 313c12 69 -11 104 -70 104c-68 0 -119 -43 -131 -123l-47 -294h-144zM370 753h154l-123 -159h-107z" />
    <glyph glyph-name="uni0145" unicode="&#x145;" horiz-adv-x="758" 
d="M154 715h189l194 -471l75 471h146l-113 -715h-163l-215 509l-80 -509h-146zM220 -201l58 170l129 -21l-107 -176z" />
    <glyph glyph-name="uni0146" unicode="&#x146;" horiz-adv-x="610" 
d="M84 357c12 75 15 119 18 166h139c0 -27 -1 -62 -5 -94c37 60 95 106 180 106c102 0 173 -64 149 -221l-50 -314h-144l49 313c12 69 -11 104 -70 104c-68 0 -119 -43 -131 -123l-47 -294h-144zM144 -201l58 170l129 -21l-107 -176z" />
    <glyph glyph-name="Ncaron" unicode="&#x147;" horiz-adv-x="758" 
d="M154 715h189l194 -471l75 471h146l-113 -715h-163l-215 509l-80 -509h-146zM530 763h-123l-92 139h100l62 -52l75 52h106z" />
    <glyph glyph-name="ncaron" unicode="&#x148;" horiz-adv-x="611" 
d="M84 357c12 75 15 119 18 166h139c0 -27 -1 -62 -5 -94c37 60 95 106 180 106c102 0 173 -64 149 -221l-50 -314h-144l49 313c12 69 -11 104 -70 104c-68 0 -119 -43 -131 -123l-47 -294h-144zM402 595h-108l-93 156h97l61 -63l78 63h104z" />
    <glyph glyph-name="napostrophe" unicode="&#x149;" horiz-adv-x="689" 
d="M162 357c12 75 15 119 18 166h139c0 -27 -1 -62 -5 -94c37 60 95 106 180 106c102 0 173 -64 149 -221l-50 -314h-144l49 313c12 69 -11 104 -70 104c-68 0 -119 -43 -131 -123l-47 -294h-144zM3 484l102 243l126 -47l-147 -230z" />
    <glyph glyph-name="Eng" unicode="&#x14a;" horiz-adv-x="758" 
d="M376 -69c55 0 87 22 103 75l-216 507l-81 -513h-147l113 715h190l193 -465l74 465h147l-111 -701c-22 -138 -102 -207 -240 -207c-68 0 -103 13 -126 25l19 117c23 -11 43 -18 82 -18z" />
    <glyph glyph-name="eng" unicode="&#x14b;" horiz-adv-x="611" 
d="M78 357c12 75 15 119 18 166h139c0 -27 -1 -62 -5 -94c37 60 95 106 180 106c102 0 173 -64 149 -221l-54 -338c-13 -95 -69 -167 -237 -162l16 108c51 3 73 22 80 67l50 324c12 69 -11 104 -70 104c-68 0 -119 -43 -131 -123l-47 -294h-144z" />
    <glyph glyph-name="Omacron" unicode="&#x14c;" horiz-adv-x="816" 
d="M799 406c0 -244 -168 -417 -401 -417c-192 0 -339 121 -339 316c0 241 168 420 399 420c201 0 341 -124 341 -319zM630 402c0 107 -57 195 -176 195c-144 0 -227 -134 -227 -287c0 -117 67 -193 180 -193c141 0 223 131 223 285zM344 868h302l-15 -91h-301z" />
    <glyph glyph-name="omacron" unicode="&#x14d;" horiz-adv-x="606" 
d="M289 -11c-142 0 -254 86 -254 237c0 177 123 308 293 308c144 0 255 -84 255 -237c0 -180 -121 -308 -294 -308zM293 99c92 0 143 87 143 202c0 72 -35 124 -111 124c-91 0 -145 -85 -145 -200c0 -72 33 -126 113 -126zM216 712h291l-13 -87h-291z" />
    <glyph glyph-name="Obreve" unicode="&#x14e;" horiz-adv-x="816" 
d="M799 406c0 -244 -168 -417 -401 -417c-192 0 -339 121 -339 316c0 241 168 420 399 420c201 0 341 -124 341 -319zM630 402c0 107 -57 195 -176 195c-144 0 -227 -134 -227 -287c0 -117 67 -193 180 -193c141 0 223 131 223 285zM485 757c-93 0 -150 58 -150 146h97
c3 -35 22 -52 55 -52s53 17 60 52h96c-11 -91 -75 -146 -158 -146z" />
    <glyph glyph-name="obreve" unicode="&#x14f;" horiz-adv-x="606" 
d="M289 -11c-142 0 -254 86 -254 237c0 177 123 308 293 308c144 0 255 -84 255 -237c0 -180 -121 -308 -294 -308zM293 99c92 0 143 87 143 202c0 72 -35 124 -111 124c-91 0 -145 -85 -145 -200c0 -72 33 -126 113 -126zM348 598c-90 0 -151 57 -148 149h94
c3 -36 22 -54 56 -54c35 0 56 18 62 54h94c-11 -93 -74 -149 -158 -149z" />
    <glyph glyph-name="Ohungarumlaut" unicode="&#x150;" horiz-adv-x="816" 
d="M799 406c0 -244 -168 -417 -401 -417c-192 0 -339 121 -339 316c0 241 168 420 399 420c201 0 341 -124 341 -319zM630 402c0 107 -57 195 -176 195c-144 0 -227 -134 -227 -287c0 -117 67 -193 180 -193c141 0 223 131 223 285zM386 902h133l-86 -139h-99zM566 902h132
l-86 -139h-98z" />
    <glyph glyph-name="ohungarumlaut" unicode="&#x151;" horiz-adv-x="606" 
d="M289 -11c-142 0 -254 86 -254 237c0 177 123 308 293 308c144 0 255 -84 255 -237c0 -180 -121 -308 -294 -308zM293 99c92 0 143 87 143 202c0 72 -35 124 -111 124c-91 0 -145 -85 -145 -200c0 -72 33 -126 113 -126zM272 753h124l-94 -159h-90zM440 753h124l-93 -159
h-90z" />
    <glyph glyph-name="OE" unicode="&#x152;" horiz-adv-x="987" 
d="M410 0c-237 0 -351 118 -351 302c0 249 160 413 416 413h523l-21 -126h-287l-26 -167h228l-18 -118h-228l-29 -178h306l-19 -126h-494zM476 589c-159 0 -250 -104 -250 -281c0 -113 58 -183 193 -183h38l73 464h-54z" />
    <glyph glyph-name="oe" unicode="&#x153;" horiz-adv-x="989" 
d="M575 214c0 -73 32 -122 115 -122c60 0 96 26 111 73h138c-28 -116 -126 -176 -254 -176c-88 0 -156 30 -195 90c-49 -57 -117 -90 -201 -90c-142 0 -254 87 -254 238c0 176 121 307 293 307c84 0 153 -33 194 -93c48 60 118 94 199 94c160 0 259 -101 230 -283l-3 -23
h-373v-15zM292 99c93 0 145 87 145 202c0 72 -36 124 -112 124c-91 0 -145 -85 -145 -200c0 -72 31 -126 112 -126zM719 435c-56 0 -108 -33 -132 -117h229c7 76 -21 117 -97 117z" />
    <glyph glyph-name="Racute" unicode="&#x154;" horiz-adv-x="672" 
d="M154 715h249c157 0 248 -70 247 -195c0 -124 -79 -196 -180 -217l150 -303h-167l-136 276h-72l-43 -276h-161zM358 386c87 0 133 37 133 118c1 60 -36 87 -107 87h-88l-33 -205h95zM392 902h158l-112 -139h-111z" />
    <glyph glyph-name="racute" unicode="&#x155;" horiz-adv-x="409" 
d="M84 357c12 75 16 119 17 166h140c0 -27 -2 -67 -7 -110c43 77 96 118 191 118l-21 -135c-108 1 -175 -37 -192 -150l-40 -246h-144zM302 753h154l-123 -159h-107z" />
    <glyph glyph-name="uni0156" unicode="&#x156;" horiz-adv-x="672" 
d="M154 715h249c157 0 248 -70 247 -195c0 -124 -79 -196 -180 -217l150 -303h-167l-136 276h-72l-43 -276h-161zM358 386c87 0 133 37 133 118c1 60 -36 87 -107 87h-88l-33 -205h95zM192 -201l58 170l129 -21l-107 -176z" />
    <glyph glyph-name="uni0157" unicode="&#x157;" horiz-adv-x="409" 
d="M84 357c12 75 16 119 17 166h140c0 -27 -2 -67 -7 -110c43 77 96 118 191 118l-21 -135c-108 1 -175 -37 -192 -150l-40 -246h-144zM-27 -201l58 170l129 -21l-107 -176z" />
    <glyph glyph-name="Rcaron" unicode="&#x158;" horiz-adv-x="672" 
d="M154 715h249c157 0 248 -70 247 -195c0 -124 -79 -196 -180 -217l150 -303h-167l-136 276h-72l-43 -276h-161zM358 386c87 0 133 37 133 118c1 60 -36 87 -107 87h-88l-33 -205h95zM444 763h-123l-92 139h100l62 -52l75 52h106z" />
    <glyph glyph-name="rcaron" unicode="&#x159;" horiz-adv-x="409" 
d="M84 357c12 75 16 119 17 166h140c0 -27 -2 -67 -7 -110c43 77 96 118 191 118l-21 -135c-108 1 -175 -37 -192 -150l-40 -246h-144zM331 595h-108l-93 156h97l61 -63l78 63h104z" />
    <glyph glyph-name="Sacute" unicode="&#x15a;" horiz-adv-x="640" 
d="M315 -11c-190 0 -288 97 -288 235h154c3 -61 38 -117 139 -117c79 -1 121 37 121 98c0 45 -28 69 -120 92c-160 37 -227 89 -227 205c0 124 101 223 270 223c157 0 256 -70 256 -214h-148c-5 69 -47 95 -115 95c-73 0 -107 -36 -107 -87c0 -41 26 -61 121 -85
c155 -37 229 -89 229 -206c0 -139 -104 -239 -285 -239zM388 902h158l-112 -139h-111z" />
    <glyph glyph-name="sacute" unicode="&#x15b;" horiz-adv-x="501" 
d="M236 -12c-141 0 -222 67 -223 176h135c3 -43 25 -74 93 -74c51 0 77 19 77 58c0 32 -20 47 -95 63c-119 25 -167 67 -167 154c0 113 97 170 216 170s201 -46 209 -162h-132c-3 36 -32 63 -81 63s-76 -19 -76 -54c0 -31 24 -44 91 -59c122 -26 177 -62 177 -162
c0 -112 -92 -173 -224 -173zM306 753h154l-123 -159h-107z" />
    <glyph glyph-name="Scircumflex" unicode="&#x15c;" horiz-adv-x="640" 
d="M315 -11c-190 0 -288 97 -288 235h154c3 -61 38 -117 139 -117c79 -1 121 37 121 98c0 45 -28 69 -120 92c-160 37 -227 89 -227 205c0 124 101 223 270 223c157 0 256 -70 256 -214h-148c-5 69 -47 95 -115 95c-73 0 -107 -36 -107 -87c0 -41 26 -61 121 -85
c155 -37 229 -89 229 -206c0 -139 -104 -239 -285 -239zM341 902h123l92 -139h-100l-62 53l-75 -53h-106z" />
    <glyph glyph-name="scircumflex" unicode="&#x15d;" horiz-adv-x="501" 
d="M236 -12c-141 0 -222 67 -223 176h135c3 -43 25 -74 93 -74c51 0 77 19 77 58c0 32 -20 47 -95 63c-119 25 -167 67 -167 154c0 113 97 170 216 170s201 -46 209 -162h-132c-3 36 -32 63 -81 63s-76 -19 -76 -54c0 -31 24 -44 91 -59c122 -26 177 -62 177 -162
c0 -112 -92 -173 -224 -173zM255 751h108l93 -156h-98l-60 63l-79 -63h-103z" />
    <glyph glyph-name="uni015E" unicode="&#x15e;" horiz-adv-x="640" 
d="M246 -222c-60 0 -111 27 -116 90h75c3 -16 13 -31 37 -31c19 0 36 10 36 35c0 19 -13 29 -33 29c-15 0 -21 -4 -28 -9l-32 35l53 67c-144 21 -218 109 -217 230h154c3 -61 38 -117 139 -117c79 -1 121 37 121 98c0 45 -28 69 -120 92c-160 37 -227 89 -227 205
c0 124 101 223 270 223c157 0 256 -70 256 -214h-148c-5 69 -47 95 -115 95c-73 0 -107 -36 -107 -87c0 -41 26 -61 121 -85c155 -37 229 -89 229 -206c0 -139 -104 -239 -285 -239h-10l-29 -37c48 4 92 -22 92 -77c0 -64 -49 -97 -116 -97z" />
    <glyph glyph-name="uni015F" unicode="&#x15f;" horiz-adv-x="501" 
d="M184 -222c-60 0 -111 27 -116 90h75c3 -16 13 -31 37 -31c19 0 36 10 36 35c0 19 -13 29 -33 29c-15 0 -21 -4 -28 -9l-32 35l51 65c-107 15 -166 77 -167 172h135c3 -43 25 -74 93 -74c51 0 77 19 77 58c0 32 -20 47 -95 63c-119 25 -167 67 -167 154
c0 113 97 170 216 170s201 -46 209 -162h-132c-3 36 -32 63 -81 63s-76 -19 -76 -54c0 -31 24 -44 91 -59c122 -26 177 -62 177 -162c0 -110 -88 -170 -218 -173l-28 -36c48 4 92 -22 92 -77c0 -64 -49 -97 -116 -97z" />
    <glyph glyph-name="Scaron" unicode="&#x160;" horiz-adv-x="652" 
d="M315 -11c-190 0 -288 97 -288 235h154c3 -61 38 -117 139 -117c79 -1 121 37 121 98c0 45 -28 69 -120 92c-160 37 -227 89 -227 205c0 124 101 223 270 223c157 0 256 -70 256 -214h-148c-5 69 -47 95 -115 95c-73 0 -107 -36 -107 -87c0 -41 26 -61 121 -85
c155 -37 229 -89 229 -206c0 -139 -104 -239 -285 -239zM432 763h-123l-92 139h100l62 -52l75 52h106z" />
    <glyph glyph-name="scaron" unicode="&#x161;" horiz-adv-x="513" 
d="M236 -12c-141 0 -222 67 -223 176h135c3 -43 25 -74 93 -74c51 0 77 19 77 58c0 32 -20 47 -95 63c-119 25 -167 67 -167 154c0 113 97 170 216 170s201 -46 209 -162h-132c-3 36 -32 63 -81 63s-76 -19 -76 -54c0 -31 24 -44 91 -59c122 -26 177 -62 177 -162
c0 -112 -92 -173 -224 -173zM338 595h-108l-93 156h97l61 -63l78 63h104z" />
    <glyph glyph-name="Tcommaaccent" unicode="&#x162;" horiz-adv-x="598" 
d="M273 589h-193l21 126h549l-21 -126h-193l-92 -589h-163zM141 -201l58 170l129 -21l-107 -176z" />
    <glyph glyph-name="tcommaaccent" unicode="&#x163;" horiz-adv-x="370" 
d="M223 -10c-116 0 -169 60 -150 179l40 251h-67l16 103h67l18 113h145l-19 -113h109l-16 -103h-109l-39 -248c-8 -51 10 -66 50 -66c17 0 36 3 55 10l-18 -112c-20 -8 -47 -14 -82 -14zM51 -201l58 170l129 -21l-107 -176z" />
    <glyph glyph-name="Tcaron" unicode="&#x164;" horiz-adv-x="597" 
d="M273 589h-193l21 126h549l-21 -126h-193l-92 -589h-163zM436 763h-123l-92 139h100l62 -52l75 52h106z" />
    <glyph glyph-name="tcaron" unicode="&#x165;" horiz-adv-x="370" 
d="M223 -10c-116 0 -169 60 -150 179l40 251h-67l16 103h67l18 113h145l-19 -113h109l-16 -103h-109l-39 -248c-8 -51 10 -66 50 -66c17 0 36 3 55 10l-18 -112c-20 -8 -47 -14 -82 -14zM379 760h117l-73 -174h-81z" />
    <glyph glyph-name="Tbar" unicode="&#x166;" horiz-adv-x="597" 
d="M106 406h132l29 183h-193l21 126h549l-21 -126h-193l-29 -183h133l-16 -106h-133l-47 -300h-163l47 300h-132z" />
    <glyph glyph-name="tbar" unicode="&#x167;" horiz-adv-x="370" 
d="M26 335h67l14 85h-67l16 103h67l18 113h145l-19 -113h109l-16 -103h-109l-14 -85h109l-14 -85h-108l-12 -78c-8 -51 10 -66 50 -66c17 0 36 3 55 10l-18 -112c-20 -8 -47 -14 -82 -14c-116 0 -169 60 -150 179l13 81h-67z" />
    <glyph glyph-name="Utilde" unicode="&#x168;" horiz-adv-x="739" 
d="M359 -11c-204 0 -309 105 -277 310l66 416h163l-67 -420c-20 -125 18 -177 118 -177c91 0 132 49 151 161l69 436h163l-72 -452c-28 -179 -126 -274 -314 -274zM514 764c-53 0 -87 37 -116 37c-17 0 -34 -14 -39 -37h-87c16 95 65 140 125 140c50 0 86 -38 117 -38
c19 0 32 12 39 37h86c-17 -93 -68 -139 -125 -139z" />
    <glyph glyph-name="utilde" unicode="&#x169;" horiz-adv-x="609" 
d="M533 160c-11 -69 -15 -116 -12 -160h-140c-3 27 -2 56 2 88c-39 -57 -89 -99 -172 -99c-108 0 -179 65 -155 220l50 314h144l-50 -319c-11 -68 12 -104 68 -104c68 0 118 43 130 123l48 300h144zM418 598c-54 0 -85 38 -115 38c-17 0 -32 -14 -39 -37h-83
c15 93 60 141 120 141c51 0 84 -37 116 -37c19 0 31 12 38 37h84c-16 -95 -64 -142 -121 -142z" />
    <glyph glyph-name="Umacron" unicode="&#x16a;" horiz-adv-x="739" 
d="M359 -11c-204 0 -309 105 -277 310l66 416h163l-67 -420c-20 -125 18 -177 118 -177c91 0 132 49 151 161l69 436h163l-72 -452c-28 -179 -126 -274 -314 -274zM317 868h302l-15 -91h-301z" />
    <glyph glyph-name="umacron" unicode="&#x16b;" horiz-adv-x="609" 
d="M533 160c-11 -69 -15 -116 -12 -160h-140c-3 27 -2 56 2 88c-39 -57 -89 -99 -172 -99c-108 0 -179 65 -155 220l50 314h144l-50 -319c-11 -68 12 -104 68 -104c68 0 118 43 130 123l48 300h144zM222 712h291l-13 -87h-291z" />
    <glyph glyph-name="Ubreve" unicode="&#x16c;" horiz-adv-x="739" 
d="M359 -11c-204 0 -309 105 -277 310l66 416h163l-67 -420c-20 -125 18 -177 118 -177c91 0 132 49 151 161l69 436h163l-72 -452c-28 -179 -126 -274 -314 -274zM453 757c-93 0 -150 58 -150 146h97c3 -35 22 -52 55 -52s53 17 60 52h96c-11 -91 -75 -146 -158 -146z" />
    <glyph glyph-name="ubreve" unicode="&#x16d;" horiz-adv-x="609" 
d="M533 160c-11 -69 -15 -116 -12 -160h-140c-3 27 -2 56 2 88c-39 -57 -89 -99 -172 -99c-108 0 -179 65 -155 220l50 314h144l-50 -319c-11 -68 12 -104 68 -104c68 0 118 43 130 123l48 300h144zM361 598c-90 0 -151 57 -148 149h94c3 -36 22 -54 56 -54
c35 0 56 18 62 54h94c-11 -93 -74 -149 -158 -149z" />
    <glyph glyph-name="Uring" unicode="&#x16e;" horiz-adv-x="739" 
d="M359 -11c-204 0 -309 105 -277 310l66 416h163l-67 -420c-20 -125 18 -177 118 -177c91 0 132 49 151 161l69 436h163l-72 -452c-28 -179 -126 -274 -314 -274zM456 788c28 0 50 22 50 54c0 31 -19 53 -48 53s-50 -23 -50 -55c0 -31 19 -52 48 -52zM456 730
c-63 0 -114 49 -114 110c0 63 53 113 116 113s114 -49 114 -111c0 -61 -53 -112 -116 -112z" />
    <glyph glyph-name="uring" unicode="&#x16f;" horiz-adv-x="609" 
d="M533 160c-11 -69 -15 -116 -12 -160h-140c-3 27 -2 56 2 88c-39 -57 -89 -99 -172 -99c-108 0 -179 65 -155 220l50 314h144l-50 -319c-11 -68 12 -104 68 -104c68 0 118 43 130 123l48 300h144zM358 643c28 0 49 22 49 54c0 31 -19 51 -47 51c-29 0 -50 -22 -50 -53
s19 -52 48 -52zM358 585c-63 0 -113 49 -113 110c0 60 52 111 115 111s113 -48 113 -109s-54 -112 -115 -112z" />
    <glyph glyph-name="Uhungarumlaut" unicode="&#x170;" horiz-adv-x="739" 
d="M359 -11c-204 0 -309 105 -277 310l66 416h163l-67 -420c-20 -125 18 -177 118 -177c91 0 132 49 151 161l69 436h163l-72 -452c-28 -179 -126 -274 -314 -274zM361 902h133l-86 -139h-99zM541 902h132l-86 -139h-98z" />
    <glyph glyph-name="uhungarumlaut" unicode="&#x171;" horiz-adv-x="609" 
d="M533 160c-11 -69 -15 -116 -12 -160h-140c-3 27 -2 56 2 88c-39 -57 -89 -99 -172 -99c-108 0 -179 65 -155 220l50 314h144l-50 -319c-11 -68 12 -104 68 -104c68 0 118 43 130 123l48 300h144zM283 753h124l-94 -159h-90zM451 753h124l-93 -159h-90z" />
    <glyph glyph-name="Uogonek" unicode="&#x172;" horiz-adv-x="739" 
d="M360 -182c-57 0 -107 20 -107 80c0 44 36 73 72 92c-187 9 -281 112 -249 309l66 416h163l-67 -420c-20 -125 18 -177 118 -177c89 0 132 49 151 161l69 436h163l-72 -452c-19 -121 -66 -202 -174 -249c-43 -21 -118 -37 -118 -90c0 -17 11 -26 32 -26c13 0 25 2 35 6
l-11 -73c-16 -7 -38 -13 -71 -13z" />
    <glyph glyph-name="uogonek" unicode="&#x173;" horiz-adv-x="609" 
d="M527 160c-11 -71 -15 -117 -12 -156c-27 -21 -66 -46 -66 -80c0 -17 11 -26 32 -26c13 0 25 2 35 6l-11 -73c-15 -7 -38 -13 -70 -13c-56 0 -108 20 -108 80c0 50 49 86 91 102h-43c-3 27 -1 68 3 100c-39 -64 -97 -111 -181 -111c-102 0 -171 65 -147 220l50 314h145
l-51 -319c-11 -68 12 -104 68 -104c68 0 118 43 130 123l48 300h144z" />
    <glyph glyph-name="Wcircumflex" unicode="&#x174;" horiz-adv-x="951" 
d="M90 715h164l32 -501l202 501h130l54 -504l193 504h150l-289 -715h-157l-52 481l-202 -481h-160zM508 902h123l92 -139h-100l-62 53l-75 -53h-106z" />
    <glyph glyph-name="wcircumflex" unicode="&#x175;" horiz-adv-x="807" 
d="M60 523h148l34 -355l153 355h119l36 -355l149 355h142l-243 -523h-142l-35 331l-146 -331h-144zM423 751h108l93 -156h-98l-60 63l-79 -63h-103z" />
    <glyph glyph-name="Ycircumflex" unicode="&#x176;" horiz-adv-x="647" 
d="M259 309l-171 406h170l105 -272l184 272h163l-289 -416l-48 -299h-163zM356 902h123l92 -139h-100l-62 53l-75 -53h-106z" />
    <glyph glyph-name="ycircumflex" unicode="&#x177;" horiz-adv-x="551" 
d="M183 59l-126 464h149l73 -315l162 315h146l-390 -701h-146zM295 751h108l93 -156h-98l-60 63l-79 -63h-103z" />
    <glyph glyph-name="Ydieresis" unicode="&#x178;" horiz-adv-x="659" 
d="M259 309l-171 406h170l105 -272l184 272h163l-289 -416l-48 -299h-163zM307 769c-41 0 -74 32 -74 72s34 73 74 73c41 0 74 -32 74 -72s-34 -73 -74 -73zM522 769c-40 0 -73 32 -73 72s33 73 74 73s73 -32 73 -72s-33 -73 -74 -73z" />
    <glyph glyph-name="Zacute" unicode="&#x179;" horiz-adv-x="614" 
d="M-15 20l428 570h-301l20 125h534l-3 -19l-423 -570h318l-20 -126h-556zM392 902h158l-112 -139h-111z" />
    <glyph glyph-name="zacute" unicode="&#x17a;" horiz-adv-x="494" 
d="M-20 16l312 396h-225l17 111h438l-3 -18l-312 -393h242l-17 -112h-454zM322 753h154l-123 -159h-107z" />
    <glyph glyph-name="Zdotaccent" unicode="&#x17b;" horiz-adv-x="614" 
d="M-15 20l428 570h-301l20 125h534l-3 -19l-423 -570h318l-20 -126h-556zM398 768c-47 0 -81 33 -81 76s36 77 81 77c47 0 81 -32 81 -76c0 -43 -36 -77 -81 -77z" />
    <glyph glyph-name="zdotaccent" unicode="&#x17c;" horiz-adv-x="494" 
d="M-20 16l312 396h-225l17 111h438l-3 -18l-312 -393h242l-17 -112h-454zM312 598c-45 0 -80 32 -80 76c0 43 36 77 81 77s80 -33 80 -76s-36 -77 -81 -77z" />
    <glyph glyph-name="Zcaron" unicode="&#x17d;" horiz-adv-x="626" 
d="M-15 20l428 570h-301l20 125h534l-3 -19l-423 -570h318l-20 -126h-556zM451 763h-123l-92 139h100l62 -52l75 52h106z" />
    <glyph glyph-name="zcaron" unicode="&#x17e;" horiz-adv-x="506" 
d="M-20 16l312 396h-225l17 111h438l-3 -18l-312 -393h242l-17 -112h-454zM352 595h-108l-93 156h97l61 -63l78 63h104z" />
    <glyph glyph-name="uni0192" unicode="&#x192;" horiz-adv-x="429" 
d="M50 414h90l26 134c24 124 105 176 210 176c43 0 63 -5 83 -13l-17 -108c-15 5 -29 9 -56 9c-44 0 -71 -25 -80 -76l-23 -122h122l-16 -102h-125l-92 -494h-143l92 494h-87z" />
    <glyph glyph-name="Aringacute" unicode="&#x1fa;" horiz-adv-x="706" 
d="M466 159h-259l-73 -159h-156l348 715h211l119 -715h-166zM261 274h188l-45 309zM439 803c28 0 50 22 50 54c0 31 -19 53 -48 53s-50 -23 -50 -55c0 -31 19 -52 48 -52zM439 745c-63 0 -114 49 -114 110c0 63 53 113 116 113s114 -49 114 -111c0 -61 -53 -112 -116 -112z
M462 1128h158l-112 -139h-111z" />
    <glyph glyph-name="aringacute" unicode="&#x1fb;" horiz-adv-x="563" 
d="M188 -11c-100 0 -167 55 -167 147c0 133 110 177 267 177h86l3 22c9 61 -7 95 -74 95c-56 0 -82 -27 -93 -74h-138c26 127 122 179 238 179c149 0 232 -67 208 -216l-25 -159c-11 -68 -14 -116 -9 -160h-138c-4 24 -4 49 -3 72c-33 -49 -83 -83 -155 -83zM237 89
c60 0 107 34 116 97l7 41h-68c-88 0 -128 -20 -128 -76c0 -35 24 -62 73 -62zM343 632c28 0 49 22 49 54c0 31 -19 51 -47 51c-29 0 -50 -22 -50 -53s19 -52 48 -52zM343 574c-63 0 -113 49 -113 110c0 60 52 111 115 111s113 -48 113 -109s-54 -112 -115 -112zM370 967h158
l-112 -139h-111z" />
    <glyph glyph-name="AEacute" unicode="&#x1fc;" horiz-adv-x="983" 
d="M422 715h584l-21 -126h-298l-26 -167h239l-18 -118h-239l-29 -178h317l-19 -126h-479l26 168h-216l-101 -168h-161zM310 280h167l49 309h-30zM706 902h158l-112 -139h-111z" />
    <glyph glyph-name="aeacute" unicode="&#x1fd;" horiz-adv-x="895" 
d="M500 215c0 -75 29 -123 112 -123c60 0 92 26 107 73h137c-28 -117 -120 -176 -249 -176c-100 0 -171 36 -207 104c-35 -60 -95 -104 -196 -104c-113 0 -183 54 -183 147c0 133 115 181 271 181h83l3 20c9 59 -8 93 -75 93c-56 0 -85 -27 -96 -74h-137
c24 128 128 179 239 179c81 0 135 -22 164 -67c47 43 106 66 173 66c160 0 250 -97 223 -280l-4 -23h-365v-16zM236 89c61 0 107 32 118 99l7 42h-70c-88 0 -127 -23 -127 -80c0 -35 24 -61 72 -61zM641 435c-57 0 -107 -34 -130 -118h223c7 75 -20 118 -93 118zM513 753
h154l-123 -159h-107z" />
    <glyph glyph-name="Oslashacute" unicode="&#x1fe;" horiz-adv-x="816" 
d="M39 21l85 87c-41 52 -65 118 -65 197c0 241 168 420 400 420c83 0 154 -21 211 -60l75 76l52 -54l-71 -72c47 -55 73 -125 73 -209c0 -244 -168 -417 -401 -417c-87 0 -161 24 -220 68l-87 -89zM634 401c0 39 -6 73 -19 101l-335 -341c31 -29 74 -44 127 -44
c141 0 227 128 227 284zM224 311c0 -35 5 -64 14 -87l331 338c-29 23 -68 35 -115 35c-145 0 -230 -131 -230 -286zM479 902h158l-112 -139h-111z" />
    <glyph glyph-name="oslashacute" unicode="&#x1ff;" horiz-adv-x="606" 
d="M17 6l68 71c-31 39 -50 89 -50 150c0 176 121 308 293 308c59 0 111 -14 155 -43l66 68l47 -44l-65 -67c33 -39 52 -89 52 -152c0 -181 -121 -308 -294 -308c-60 0 -114 14 -157 45l-69 -72zM293 98c95 0 147 87 147 202c0 17 -2 33 -6 48l-218 -227
c19 -15 44 -23 77 -23zM176 227c0 -19 1 -35 5 -50l217 226c-19 15 -43 22 -73 22c-92 0 -149 -83 -149 -198zM357 753h154l-123 -159h-107z" />
    <glyph glyph-name="uni0218" unicode="&#x218;" horiz-adv-x="640" 
d="M315 -11c-190 0 -288 97 -288 235h154c3 -61 38 -117 139 -117c79 -1 121 37 121 98c0 45 -28 69 -120 92c-160 37 -227 89 -227 205c0 124 101 223 270 223c157 0 256 -70 256 -214h-148c-5 69 -47 95 -115 95c-73 0 -107 -36 -107 -87c0 -41 26 -61 121 -85
c155 -37 229 -89 229 -206c0 -139 -104 -239 -285 -239zM155 -201l58 170l129 -21l-107 -176z" />
    <glyph glyph-name="uni0219" unicode="&#x219;" horiz-adv-x="501" 
d="M236 -12c-141 0 -222 67 -223 176h135c3 -43 25 -74 93 -74c51 0 77 19 77 58c0 32 -20 47 -95 63c-119 25 -167 67 -167 154c0 113 97 170 216 170s201 -46 209 -162h-132c-3 36 -32 63 -81 63s-76 -19 -76 -54c0 -31 24 -44 91 -59c122 -26 177 -62 177 -162
c0 -112 -92 -173 -224 -173zM90 -201l58 170l129 -21l-107 -176z" />
    <glyph glyph-name="uni021A" unicode="&#x21a;" horiz-adv-x="598" 
d="M273 589h-193l21 126h549l-21 -126h-193l-92 -589h-163zM141 -201l58 170l129 -21l-107 -176z" />
    <glyph glyph-name="uni021B" unicode="&#x21b;" horiz-adv-x="370" 
d="M223 -10c-116 0 -169 60 -150 179l40 251h-67l16 103h67l18 113h145l-19 -113h109l-16 -103h-109l-39 -248c-8 -51 10 -66 50 -66c17 0 36 3 55 10l-18 -112c-20 -8 -47 -14 -82 -14zM51 -201l58 170l129 -21l-107 -176z" />
    <glyph glyph-name="uni0237" unicode="&#x237;" horiz-adv-x="281" 
d="M-55 -79c51 3 72 24 79 67l85 535h143l-86 -548c-16 -97 -72 -165 -237 -160z" />
    <glyph glyph-name="circumflex" unicode="&#x2c6;" horiz-adv-x="412" 
d="M227 751h108l93 -156h-98l-60 63l-79 -63h-103z" />
    <glyph glyph-name="caron" unicode="&#x2c7;" horiz-adv-x="412" 
d="M313 595h-108l-93 156h97l61 -63l78 63h104z" />
    <glyph glyph-name="breve" unicode="&#x2d8;" horiz-adv-x="412" 
d="M272 598c-90 0 -151 57 -148 149h94c3 -36 22 -54 56 -54c35 0 56 18 62 54h94c-11 -93 -74 -149 -158 -149z" />
    <glyph glyph-name="dotaccent" unicode="&#x2d9;" horiz-adv-x="412" 
d="M270 598c-45 0 -80 32 -80 76c0 43 36 77 81 77s80 -33 80 -76s-36 -77 -81 -77z" />
    <glyph glyph-name="ring" unicode="&#x2da;" horiz-adv-x="412" 
d="M273 643c28 0 49 22 49 54c0 31 -19 51 -47 51c-29 0 -50 -22 -50 -53s19 -52 48 -52zM273 585c-63 0 -113 49 -113 110c0 60 52 111 115 111s113 -48 113 -109s-54 -112 -115 -112z" />
    <glyph glyph-name="ogonek" unicode="&#x2db;" horiz-adv-x="412" 
d="M154 -182c-57 0 -107 20 -107 80c0 50 50 86 92 102h94c-24 -16 -64 -40 -64 -76c0 -17 11 -26 32 -26c13 0 25 2 35 6l-11 -73c-16 -7 -38 -13 -71 -13z" />
    <glyph glyph-name="tilde" unicode="&#x2dc;" horiz-adv-x="412" 
d="M327 598c-54 0 -85 38 -115 38c-17 0 -32 -14 -39 -37h-83c15 93 60 141 120 141c51 0 84 -37 116 -37c19 0 31 12 38 37h84c-16 -95 -64 -142 -121 -142z" />
    <glyph glyph-name="hungarumlaut" unicode="&#x2dd;" horiz-adv-x="412" 
d="M184 753h124l-94 -159h-90zM352 753h124l-93 -159h-90z" />
    <glyph glyph-name="uni037E" unicode="&#x37e;" horiz-adv-x="310" 
d="M-20 -85l111 246l127 -51l-157 -233zM189 281c-51 0 -89 39 -89 88c0 48 37 87 88 87s91 -39 91 -87s-39 -88 -90 -88z" />
    <glyph glyph-name="tonos" unicode="&#x384;" horiz-adv-x="400" 
d="M273 753h154l-123 -159h-107z" />
    <glyph glyph-name="dieresistonos" unicode="&#x385;" horiz-adv-x="400" 
d="M223 776h121l-101 -167h-84zM390 604c-39 0 -67 30 -67 67c0 36 28 66 67 66c37 0 67 -30 67 -66c0 -37 -30 -67 -67 -67zM81 604c-39 0 -69 30 -69 67c0 36 30 66 69 66c37 0 67 -30 67 -66c0 -37 -30 -67 -67 -67z" />
    <glyph glyph-name="Alphatonos" unicode="&#x386;" horiz-adv-x="706" 
d="M466 159h-259l-73 -159h-156l348 715h211l119 -715h-166zM261 274h188l-45 309zM85 715h154l-123 -159h-107z" />
    <glyph glyph-name="anoteleia" unicode="&#x387;" horiz-adv-x="293" 
d="M161 239c-51 0 -89 39 -89 88c0 48 37 87 88 87s91 -39 91 -87s-39 -88 -90 -88z" />
    <glyph glyph-name="Epsilontonos" unicode="&#x388;" horiz-adv-x="599" 
d="M154 715h463l-20 -126h-302l-26 -167h243l-18 -118h-243l-29 -178h321l-20 -126h-482zM-45 715h154l-123 -159h-107z" />
    <glyph glyph-name="Etatonos" unicode="&#x389;" horiz-adv-x="764" 
d="M154 715h162l-46 -292h286l47 292h162l-113 -715h-162l46 295h-287l-46 -295h-162zM-45 715h154l-123 -159h-107z" />
    <glyph glyph-name="Iotatonos" unicode="&#x38a;" horiz-adv-x="326" 
d="M158 715h163l-113 -715h-163zM-45 715h154l-123 -159h-107z" />
    <glyph glyph-name="Omicrontonos" unicode="&#x38c;" horiz-adv-x="816" 
d="M799 406c0 -244 -168 -417 -401 -417c-192 0 -339 121 -339 316c0 241 168 420 399 420c201 0 341 -124 341 -319zM630 402c0 107 -57 195 -176 195c-144 0 -227 -134 -227 -287c0 -117 67 -193 180 -193c141 0 223 131 223 285zM9 715h154l-123 -159h-107z" />
    <glyph glyph-name="Upsilontonos" unicode="&#x38e;" horiz-adv-x="646" 
d="M259 309l-171 406h170l105 -272l184 272h163l-289 -416l-48 -299h-163zM-89 715h154l-123 -159h-107z" />
    <glyph glyph-name="Omegatonos" unicode="&#x38f;" horiz-adv-x="826" 
d="M450 598c-155 0 -229 -133 -229 -276c0 -107 49 -185 132 -245l-12 -77h-322l18 121h118c-51 40 -98 116 -98 219c0 216 173 385 396 385c214 0 344 -139 344 -317c0 -110 -47 -223 -142 -287h115l-18 -121h-311l12 77c106 64 177 182 177 318c0 112 -56 203 -180 203z
M7 715h154l-123 -159h-107z" />
    <glyph glyph-name="iotadieresistonos" unicode="&#x390;" horiz-adv-x="280" 
d="M109 523h143l-82 -523h-144zM207 776h121l-101 -167h-84zM374 604c-39 0 -67 30 -67 67c0 36 28 66 67 66c37 0 67 -30 67 -66c0 -37 -30 -67 -67 -67zM65 604c-39 0 -69 30 -69 67c0 36 30 66 69 66c37 0 67 -30 67 -66c0 -37 -30 -67 -67 -67z" />
    <glyph glyph-name="Alpha" unicode="&#x391;" horiz-adv-x="706" 
d="M466 159h-259l-73 -159h-156l348 715h211l119 -715h-166zM261 274h188l-45 309z" />
    <glyph glyph-name="Beta" unicode="&#x392;" horiz-adv-x="658" 
d="M154 715h258c152 0 222 -65 221 -172c0 -92 -50 -150 -137 -173c76 -17 122 -65 123 -152c0 -132 -105 -218 -267 -218h-311zM333 112c85 0 128 46 128 114c0 60 -32 91 -116 91h-96l-33 -205h117zM363 421c83 0 120 36 120 104c0 56 -29 79 -97 79h-92l-29 -183h98z" />
    <glyph glyph-name="Gamma" unicode="&#x393;" horiz-adv-x="552" 
d="M148 715h451l-20 -127h-290l-92 -588h-162z" />
    <glyph glyph-name="uni0394" unicode="&#x394;" horiz-adv-x="717" 
d="M-19 20l338 695h224l114 -695l-3 -20h-675zM183 127h298l-73 475z" />
    <glyph glyph-name="Epsilon" unicode="&#x395;" horiz-adv-x="599" 
d="M154 715h463l-20 -126h-302l-26 -167h243l-18 -118h-243l-29 -178h321l-20 -126h-482z" />
    <glyph glyph-name="Zeta" unicode="&#x396;" horiz-adv-x="614" 
d="M-15 20l428 570h-301l20 125h534l-3 -19l-423 -570h318l-20 -126h-556z" />
    <glyph glyph-name="Eta" unicode="&#x397;" horiz-adv-x="764" 
d="M154 715h162l-46 -292h286l47 292h162l-113 -715h-162l46 295h-287l-46 -295h-162z" />
    <glyph glyph-name="Theta" unicode="&#x398;" horiz-adv-x="826" 
d="M803 408c0 -252 -169 -419 -405 -419c-213 0 -345 132 -345 316c0 247 173 420 405 420c212 0 345 -128 345 -317zM636 401c0 115 -65 199 -182 199c-148 0 -235 -138 -235 -286c0 -125 74 -199 187 -199c141 0 230 127 230 286zM324 414h223l-17 -107h-223z" />
    <glyph glyph-name="Iota" unicode="&#x399;" horiz-adv-x="326" 
d="M158 715h163l-113 -715h-163z" />
    <glyph glyph-name="Kappa" unicode="&#x39a;" horiz-adv-x="686" 
d="M154 715h162l-49 -307l301 307h177l-342 -343l235 -372h-177l-206 331l-52 -331h-162z" />
    <glyph glyph-name="Lambda" unicode="&#x39b;" horiz-adv-x="693" 
d="M636 0h-167l-85 546l-256 -546h-156l350 715h189z" />
    <glyph glyph-name="Mu" unicode="&#x39c;" horiz-adv-x="910" 
d="M154 715h207l98 -444l235 444h216l-113 -715h-161l80 504l-278 -504h-53l-119 504l-80 -504h-145z" />
    <glyph glyph-name="Nu" unicode="&#x39d;" horiz-adv-x="758" 
d="M154 715h189l194 -471l75 471h146l-113 -715h-163l-215 509l-80 -509h-146z" />
    <glyph glyph-name="Xi" unicode="&#x39e;" horiz-adv-x="613" 
d="M627 715l-21 -131h-516l21 131h516zM535 421l-20 -123h-421l20 123h421zM17 131h529l-21 -131h-529z" />
    <glyph glyph-name="Omicron" unicode="&#x39f;" horiz-adv-x="816" 
d="M799 406c0 -244 -168 -417 -401 -417c-192 0 -339 121 -339 316c0 241 168 420 399 420c201 0 341 -124 341 -319zM630 402c0 107 -57 195 -176 195c-144 0 -227 -134 -227 -287c0 -117 67 -193 180 -193c141 0 223 131 223 285z" />
    <glyph glyph-name="Pi" unicode="&#x3a0;" horiz-adv-x="755" 
d="M148 715h602l-113 -715h-162l92 584h-278l-92 -584h-162z" />
    <glyph glyph-name="Rho" unicode="&#x3a1;" horiz-adv-x="626" 
d="M154 715h236c157 0 248 -71 248 -198c0 -176 -125 -257 -290 -257h-104l-41 -260h-162zM345 373c91 0 138 46 138 130c0 60 -37 90 -111 90h-76l-35 -220h84z" />
    <glyph glyph-name="Sigma" unicode="&#x3a3;" horiz-adv-x="600" 
d="M219 130h321l-21 -130h-512l16 105l235 260l-155 225l20 125h491l-20 -124h-312l153 -222z" />
    <glyph glyph-name="Tau" unicode="&#x3a4;" horiz-adv-x="597" 
d="M273 589h-193l21 126h549l-21 -126h-193l-92 -589h-163z" />
    <glyph glyph-name="Upsilon" unicode="&#x3a5;" horiz-adv-x="646" 
d="M259 309l-171 406h170l105 -272l184 272h163l-289 -416l-48 -299h-163z" />
    <glyph glyph-name="Phi" unicode="&#x3a6;" horiz-adv-x="920" 
d="M499 45l-11 -69h-148l11 72c-195 16 -297 134 -297 280c0 212 173 345 397 348l10 63h148l-11 -65c192 -16 301 -126 301 -276c0 -216 -174 -350 -398 -353h-2zM212 338c0 -92 53 -156 158 -171l62 390c-120 -11 -220 -81 -220 -219zM740 389c0 88 -48 151 -160 166
l-62 -390c120 8 222 85 222 224z" />
    <glyph glyph-name="Chi" unicode="&#x3a7;" horiz-adv-x="680" 
d="M265 375l-154 340h173l101 -240l170 240h167l-255 -351l165 -364h-175l-114 267l-192 -267h-169z" />
    <glyph glyph-name="Psi" unicode="&#x3a8;" horiz-adv-x="855" 
d="M825 451c-27 -169 -121 -274 -340 -279c-4 -21 -7 -41 -10 -62c-7 -35 -12 -79 -17 -110h-148l26 174c-155 16 -255 105 -255 253c0 15 1 41 4 62l36 226h155l-36 -226c-3 -16 -5 -39 -5 -51c0 -73 33 -127 121 -139l66 416h148l-42 -266c-7 -50 -15 -100 -23 -151
c95 7 154 51 173 162l40 255h147z" />
    <glyph glyph-name="uni03A9" unicode="&#x3a9;" horiz-adv-x="826" 
d="M450 598c-155 0 -229 -133 -229 -276c0 -107 49 -185 132 -245l-12 -77h-322l18 121h118c-51 40 -98 116 -98 219c0 216 173 385 396 385c214 0 344 -139 344 -317c0 -110 -47 -223 -142 -287h115l-18 -121h-311l12 77c106 64 177 182 177 318c0 112 -56 203 -180 203z
" />
    <glyph glyph-name="Iotadieresis" unicode="&#x3aa;" horiz-adv-x="326" 
d="M158 715h163l-113 -715h-163zM150 769c-41 0 -74 32 -74 72s34 73 74 73c41 0 74 -32 74 -72s-34 -73 -74 -73zM365 769c-40 0 -73 32 -73 72s33 73 74 73s73 -32 73 -72s-33 -73 -74 -73z" />
    <glyph glyph-name="Upsilondieresis" unicode="&#x3ab;" horiz-adv-x="646" 
d="M259 309l-171 406h170l105 -272l184 272h163l-289 -416l-48 -299h-163zM307 769c-41 0 -74 32 -74 72s34 73 74 73c41 0 74 -32 74 -72s-34 -73 -74 -73zM522 769c-40 0 -73 32 -73 72s33 73 74 73s73 -32 73 -72s-33 -73 -74 -73z" />
    <glyph glyph-name="alphatonos" unicode="&#x3ac;" horiz-adv-x="622" 
d="M320 425c-85 0 -137 -81 -137 -196c0 -80 34 -130 105 -130c79 0 140 82 140 200c0 79 -43 126 -108 126zM232 -11c-117 0 -198 86 -198 227c0 188 106 319 255 319c88 0 136 -46 159 -99l14 87h144l-57 -363c-11 -71 -14 -116 -11 -160h-141c-4 27 -3 61 0 90
c-37 -64 -89 -101 -165 -101zM387 753h154l-123 -159h-107z" />
    <glyph glyph-name="epsilontonos" unicode="&#x3ad;" horiz-adv-x="563" 
d="M406 369c-3 31 -24 65 -100 65c-41 0 -104 -10 -104 -68c0 -25 16 -52 67 -52h101l-14 -90h-96c-40 0 -91 -16 -91 -71c0 -44 45 -61 104 -61c76 0 112 30 121 75h132c-20 -116 -113 -178 -269 -178c-155 0 -235 56 -235 144c0 72 54 128 126 141c-49 11 -88 51 -88 102
c0 118 125 158 245 158c148 0 224 -70 235 -165h-134zM369 753h154l-123 -159h-107z" />
    <glyph glyph-name="etatonos" unicode="&#x3ae;" horiz-adv-x="611" 
d="M78 358c12 73 15 118 18 165h139c0 -27 -1 -62 -5 -94c39 64 96 106 181 106c104 0 172 -64 148 -221l-78 -492h-144l77 491c11 69 -13 104 -70 104c-68 0 -118 -42 -131 -122l-47 -295h-144zM381 753h154l-123 -159h-107z" />
    <glyph glyph-name="iotatonos" unicode="&#x3af;" horiz-adv-x="280" 
d="M109 523h143l-82 -523h-144zM222 753h154l-123 -159h-107z" />
    <glyph glyph-name="upsilondieresistonos" unicode="&#x3b0;" horiz-adv-x="599" 
d="M194 228c-1 -13 -4 -26 -4 -37c0 -52 26 -92 86 -92c68 0 98 38 109 106l51 318h144l-50 -320c-24 -149 -117 -214 -260 -214c-148 0 -221 87 -221 204c0 16 1 34 4 50l44 280h144zM349 776h121l-101 -167h-84zM516 604c-39 0 -67 30 -67 67c0 36 28 66 67 66
c37 0 67 -30 67 -66c0 -37 -30 -67 -67 -67zM207 604c-39 0 -69 30 -69 67c0 36 30 66 69 66c37 0 67 -30 67 -66c0 -37 -30 -67 -67 -67z" />
    <glyph glyph-name="alpha" unicode="&#x3b1;" horiz-adv-x="622" 
d="M320 425c-85 0 -137 -81 -137 -196c0 -80 34 -130 105 -130c79 0 140 82 140 200c0 79 -43 126 -108 126zM232 -11c-117 0 -198 86 -198 227c0 188 106 319 255 319c88 0 136 -46 159 -99l14 87h144l-57 -363c-11 -71 -14 -116 -11 -160h-141c-4 27 -3 61 0 90
c-37 -64 -89 -101 -165 -101z" />
    <glyph glyph-name="beta" unicode="&#x3b2;" horiz-adv-x="628" 
d="M205 242c-13 -80 37 -143 113 -143c72 0 126 60 126 144c0 72 -46 112 -137 108l17 104c73 0 149 33 149 121c0 53 -33 87 -97 87c-65 0 -111 -43 -124 -124zM138 -178h-144l113 717c24 146 128 229 270 229c115 0 225 -52 225 -181c0 -84 -59 -160 -146 -181
c80 -21 134 -87 134 -175c0 -131 -88 -243 -241 -243c-73 0 -140 38 -167 106z" />
    <glyph glyph-name="gamma" unicode="&#x3b3;" horiz-adv-x="570" 
d="M458 523h145l-288 -516l-30 -185h-143l29 185l-124 516h150l72 -357z" />
    <glyph glyph-name="delta" unicode="&#x3b4;" horiz-adv-x="605" 
d="M571 650h-238l144 -164c56 -63 96 -120 96 -207c0 -160 -119 -290 -290 -290c-148 0 -254 91 -254 239c0 135 90 264 244 264c11 0 25 -2 36 -5l-160 181l14 92h426zM174 223c0 -76 36 -124 113 -124c93 0 141 91 141 180c0 75 -44 124 -113 124
c-92 0 -141 -88 -141 -180z" />
    <glyph glyph-name="epsilon" unicode="&#x3b5;" horiz-adv-x="563" 
d="M406 369c-3 31 -24 65 -100 65c-41 0 -104 -10 -104 -68c0 -25 16 -52 67 -52h101l-14 -90h-96c-40 0 -91 -16 -91 -71c0 -44 45 -61 104 -61c76 0 112 30 121 75h132c-20 -116 -113 -178 -269 -178c-155 0 -235 56 -235 144c0 72 54 128 126 141c-49 11 -88 51 -88 102
c0 118 125 158 245 158c148 0 224 -70 235 -165h-134z" />
    <glyph glyph-name="zeta" unicode="&#x3b6;" horiz-adv-x="506" 
d="M459 9c0 -48 -25 -108 -48 -159h-112c13 32 33 83 33 111c0 26 -17 39 -51 39h-56c-124 0 -198 73 -198 180c0 180 160 352 296 459h-199l19 121h437l-5 -32c-225 -190 -401 -365 -401 -523c0 -57 39 -86 94 -86h58c93 0 133 -46 133 -110z" />
    <glyph glyph-name="eta" unicode="&#x3b7;" horiz-adv-x="611" 
d="M78 358c12 73 15 118 18 165h139c0 -27 -1 -62 -5 -94c39 64 96 106 181 106c104 0 172 -64 148 -221l-78 -492h-144l77 491c11 69 -13 104 -70 104c-68 0 -118 -42 -131 -122l-47 -295h-144z" />
    <glyph glyph-name="theta" unicode="&#x3b8;" horiz-adv-x="625" 
d="M598 513c0 -105 -22 -242 -70 -343c-53 -115 -136 -181 -261 -181c-147 0 -219 94 -219 255c0 128 29 296 106 407c51 75 128 117 228 117c144 0 216 -88 216 -255zM372 660c-42 0 -77 -20 -106 -60c-28 -39 -48 -94 -61 -165h250c4 30 6 58 6 84c0 92 -21 141 -89 141z
M276 96c42 0 77 20 104 61c26 39 46 96 59 172h-251c-4 -33 -6 -65 -6 -92c0 -92 26 -141 94 -141z" />
    <glyph glyph-name="iota" unicode="&#x3b9;" horiz-adv-x="280" 
d="M109 523h143l-82 -523h-144z" />
    <glyph glyph-name="kappa" unicode="&#x3ba;" horiz-adv-x="558" 
d="M212 291l213 232h159l-239 -251l162 -272h-156l-146 248l-39 -248h-144l83 523h144z" />
    <glyph glyph-name="lambda" unicode="&#x3bb;" horiz-adv-x="569" 
d="M115 0h-151l281 520l-17 86c-7 33 -27 50 -61 50c-20 0 -47 -5 -66 -10l18 106c28 11 66 16 102 16c69 0 119 -31 140 -132l98 -485c5 -23 16 -41 41 -41c12 0 28 1 39 4l-18 -111c-19 -7 -45 -10 -70 -10c-63 0 -106 30 -121 106l-44 252z" />
    <glyph glyph-name="uni03BC" unicode="&#x3bc;" horiz-adv-x="613" 
d="M531 160c-11 -69 -15 -117 -12 -160h-140c-3 25 0 58 3 89c-31 -59 -75 -91 -134 -91c-28 0 -57 9 -76 37l-35 -213h-143l111 701h144l-52 -323c-11 -68 16 -101 69 -101c65 0 118 45 130 122l48 302h144z" />
    <glyph glyph-name="nu" unicode="&#x3bd;" horiz-adv-x="556" 
d="M57 523h150l60 -377l180 377h145l-271 -523h-162z" />
    <glyph glyph-name="xi" unicode="&#x3be;" horiz-adv-x="531" 
d="M108 656l17 104h443l-18 -114h-129c-79 0 -158 -33 -158 -112c0 -45 39 -78 103 -78h118l-19 -118h-137c-85 0 -157 -43 -157 -131c0 -66 51 -88 109 -88h58c92 0 133 -46 133 -110c0 -48 -26 -108 -49 -159h-111c13 32 33 83 33 111c0 27 -19 39 -51 39h-42
c-127 0 -226 61 -226 185c0 112 73 187 180 219c-56 21 -84 67 -84 114c0 68 39 115 108 138h-121z" />
    <glyph glyph-name="omicron" unicode="&#x3bf;" horiz-adv-x="605" 
d="M289 -11c-142 0 -254 86 -254 237c0 177 123 308 293 308c144 0 255 -84 255 -237c0 -180 -121 -308 -294 -308zM293 99c92 0 143 87 143 202c0 72 -35 124 -111 124c-91 0 -145 -85 -145 -200c0 -72 33 -126 113 -126z" />
    <glyph glyph-name="pi" unicode="&#x3c0;" horiz-adv-x="637" 
d="M520 160c-11 -69 -14 -116 -11 -160h-142c-3 35 -1 91 8 147l42 268h-167l-65 -415h-144l65 415h-69l17 108h594l-18 -108h-69z" />
    <glyph glyph-name="rho" unicode="&#x3c1;" horiz-adv-x="626" 
d="M305 98c96 0 142 77 142 201c0 76 -33 126 -105 126c-96 0 -151 -89 -151 -199c0 -77 43 -128 114 -128zM126 -178h-143l73 469c24 144 135 244 285 244c145 0 253 -85 253 -238c0 -173 -100 -306 -278 -306c-60 0 -121 32 -150 83z" />
    <glyph glyph-name="uni03C2" unicode="&#x3c2;" horiz-adv-x="569" 
d="M335 115c92 0 140 -42 140 -107c0 -48 -26 -107 -49 -158h-112c13 32 33 83 33 111c0 26 -17 39 -51 39h-27c-145 0 -239 89 -239 229c0 189 124 305 285 305c127 0 228 -62 233 -203h-135c-8 68 -43 90 -102 90c-85 0 -136 -75 -136 -184c0 -72 34 -122 121 -122h39z
" />
    <glyph glyph-name="sigma" unicode="&#x3c3;" horiz-adv-x="639" 
d="M281 -11c-141 0 -252 88 -252 237c0 166 106 297 293 297h322l-18 -108h-123c43 -29 70 -80 70 -137c0 -161 -118 -289 -292 -289zM285 99c99 0 146 92 146 200c0 75 -46 120 -114 120c-99 0 -143 -85 -143 -194c0 -73 32 -126 111 -126z" />
    <glyph glyph-name="tau" unicode="&#x3c4;" horiz-adv-x="483" 
d="M287 -8c-115 0 -163 65 -144 184l38 239h-147l17 108h442l-17 -108h-151l-36 -230c-8 -53 1 -80 53 -80c20 0 50 4 67 9l-17 -111c-25 -7 -56 -11 -105 -11z" />
    <glyph glyph-name="upsilon" unicode="&#x3c5;" horiz-adv-x="599" 
d="M194 228c-1 -13 -4 -26 -4 -37c0 -52 26 -92 86 -92c68 0 98 38 109 106l51 318h144l-50 -320c-24 -149 -117 -214 -260 -214c-148 0 -221 87 -221 204c0 16 1 34 4 50l44 280h144z" />
    <glyph glyph-name="phi" unicode="&#x3c6;" horiz-adv-x="785" 
d="M443 535c196 0 314 -103 314 -239c0 -184 -131 -296 -331 -304l-27 -170h-142l26 172c-140 11 -254 91 -254 240c0 156 102 276 262 297l-10 -108c-71 -24 -109 -106 -109 -185c0 -84 41 -127 129 -140l67 432c20 3 40 5 75 5zM442 98c116 3 172 87 172 204
c0 68 -44 115 -120 124z" />
    <glyph glyph-name="chi" unicode="&#x3c7;" horiz-adv-x="570" 
d="M252 69l-153 -247h-150l250 371l-69 190c-9 25 -27 34 -50 34c-11 0 -25 -2 -38 -7l17 107c27 11 50 16 78 16c56 0 92 -17 115 -80l53 -154l132 224h155l-235 -349l75 -199c12 -32 26 -43 51 -43c9 0 20 2 32 5l-17 -109c-28 -9 -56 -11 -75 -11c-56 0 -93 29 -117 97z
" />
    <glyph glyph-name="psi" unicode="&#x3c8;" horiz-adv-x="784" 
d="M192 259c-13 -76 11 -146 104 -157l66 421h143l-68 -423c99 11 139 69 152 149l44 274h143l-44 -278c-27 -165 -136 -241 -311 -249l-27 -174h-143l28 175c-166 16 -253 118 -229 272l41 254h143z" />
    <glyph glyph-name="omega" unicode="&#x3c9;" horiz-adv-x="794" 
d="M457 195c-11 -68 14 -97 59 -97c81 0 102 129 102 194c0 64 -11 120 -90 136l17 106c147 -16 219 -110 219 -242c0 -149 -75 -303 -239 -303c-88 0 -133 48 -148 104c-27 -59 -75 -104 -163 -104c-123 0 -186 94 -186 211c0 180 97 321 299 334l-18 -107
c-102 -21 -135 -130 -135 -228c0 -55 16 -101 63 -101c41 0 69 37 80 101l23 151h142z" />
    <glyph glyph-name="iotadieresis" unicode="&#x3ca;" horiz-adv-x="280" 
d="M109 523h143l-82 -523h-144zM105 600c-41 0 -74 31 -74 71s34 73 75 73c40 0 73 -32 73 -72c0 -39 -33 -72 -74 -72zM308 600c-40 0 -73 31 -73 71s33 73 74 73s73 -32 73 -72c0 -39 -31 -72 -74 -72z" />
    <glyph glyph-name="upsilondieresis" unicode="&#x3cb;" horiz-adv-x="599" 
d="M194 228c-1 -13 -4 -26 -4 -37c0 -52 26 -92 86 -92c68 0 98 38 109 106l51 318h144l-50 -320c-24 -149 -117 -214 -260 -214c-148 0 -221 87 -221 204c0 16 1 34 4 50l44 280h144zM257 600c-41 0 -74 31 -74 71s34 73 75 73c40 0 73 -32 73 -72c0 -39 -33 -72 -74 -72z
M460 600c-40 0 -73 31 -73 71s33 73 74 73s73 -32 73 -72c0 -39 -31 -72 -74 -72z" />
    <glyph glyph-name="omicrontonos" unicode="&#x3cc;" horiz-adv-x="607" 
d="M289 -11c-142 0 -254 86 -254 237c0 177 123 308 293 308c144 0 255 -84 255 -237c0 -180 -121 -308 -294 -308zM293 99c92 0 143 87 143 202c0 72 -35 124 -111 124c-91 0 -145 -85 -145 -200c0 -72 33 -126 113 -126zM381 753h154l-123 -159h-107z" />
    <glyph glyph-name="upsilontonos" unicode="&#x3cd;" horiz-adv-x="599" 
d="M194 228c-1 -13 -4 -26 -4 -37c0 -52 26 -92 86 -92c68 0 98 38 109 106l51 318h144l-50 -320c-24 -149 -117 -214 -260 -214c-148 0 -221 87 -221 204c0 16 1 34 4 50l44 280h144zM375 753h154l-123 -159h-107z" />
    <glyph glyph-name="omegatonos" unicode="&#x3ce;" horiz-adv-x="794" 
d="M457 195c-11 -68 14 -97 59 -97c81 0 102 129 102 194c0 64 -11 120 -90 136l17 106c147 -16 219 -110 219 -242c0 -149 -75 -303 -239 -303c-88 0 -133 48 -148 104c-27 -59 -75 -104 -163 -104c-123 0 -186 94 -186 211c0 180 97 321 299 334l-18 -107
c-102 -21 -135 -130 -135 -228c0 -55 16 -101 63 -101c41 0 69 37 80 101l23 151h142zM477 753h154l-123 -159h-107z" />
    <glyph glyph-name="uni0401" unicode="&#x401;" horiz-adv-x="599" 
d="M154 715h463l-20 -126h-302l-26 -167h243l-18 -118h-243l-29 -178h321l-20 -126h-482zM290 769c-41 0 -74 32 -74 72s34 73 74 73c41 0 74 -32 74 -72s-34 -73 -74 -73zM505 769c-40 0 -73 32 -73 72s33 73 74 73s73 -32 73 -72s-33 -73 -74 -73z" />
    <glyph glyph-name="uni0402" unicode="&#x402;" horiz-adv-x="806" 
d="M550 -13c-52 0 -79 9 -98 17l18 114c9 -3 30 -8 53 -8c51 0 87 36 87 112c0 57 -26 96 -103 96c-73 0 -113 -34 -127 -45l-42 -273h-163l92 589h-193l21 126h553l-21 -126h-197l-29 -183c35 21 84 38 145 38c155 0 225 -84 225 -213c0 -165 -105 -244 -221 -244z" />
    <glyph glyph-name="uni0403" unicode="&#x403;" horiz-adv-x="565" 
d="M378 902h158l-112 -139h-111zM148 715h452l-21 -127h-290l-92 -588h-162z" />
    <glyph glyph-name="uni0404" unicode="&#x404;" horiz-adv-x="750" 
d="M723 257c-32 -173 -167 -268 -333 -268c-204 0 -337 114 -337 321c0 235 152 416 392 416c172 0 289 -88 297 -260h-161c-11 87 -53 133 -141 133c-107 0 -178 -74 -205 -179h287l-18 -122h-282c0 -7 1 -13 2 -20c8 -100 61 -160 168 -160c88 0 147 51 172 139h159z" />
    <glyph glyph-name="uni0405" unicode="&#x405;" horiz-adv-x="640" 
d="M315 -11c-190 0 -288 97 -288 235h154c3 -61 38 -117 139 -117c79 -1 121 37 121 98c0 45 -28 69 -120 92c-160 37 -227 89 -227 205c0 124 101 223 270 223c157 0 256 -70 256 -214h-148c-5 69 -47 95 -115 95c-73 0 -107 -36 -107 -87c0 -41 26 -61 121 -85
c155 -37 229 -89 229 -206c0 -139 -104 -239 -285 -239z" />
    <glyph glyph-name="uni0406" unicode="&#x406;" horiz-adv-x="326" 
d="M158 715h163l-113 -715h-163z" />
    <glyph glyph-name="uni0407" unicode="&#x407;" horiz-adv-x="326" 
d="M158 715h163l-113 -715h-163zM150 769c-41 0 -74 32 -74 72s34 73 74 73c41 0 74 -32 74 -72s-34 -73 -74 -73zM365 769c-40 0 -73 32 -73 72s33 73 74 73s73 -32 73 -72s-33 -73 -74 -73z" />
    <glyph glyph-name="uni0408" unicode="&#x408;" horiz-adv-x="457" 
d="M140 -9c-77 0 -115 16 -139 29l19 122c25 -11 53 -22 96 -22c60 0 98 29 109 102l78 493h163l-80 -501c-24 -155 -115 -223 -246 -223z" />
    <glyph glyph-name="uni0409" unicode="&#x409;" horiz-adv-x="1021" 
d="M351 587c-8 -40 -36 -181 -68 -300c-45 -180 -103 -296 -242 -296c-47 0 -65 10 -66 11l19 124l8 -3c5 -1 13 -2 26 -2c57 0 88 74 123 210c19 73 40 168 57 247l28 137h471l-43 -277h73c148 0 251 -57 251 -205c0 -152 -117 -233 -274 -233h-278l93 587h-178zM697 112
c88 0 134 49 134 124c0 61 -38 91 -113 91h-72l-34 -215h85z" />
    <glyph glyph-name="uni040A" unicode="&#x40a;" horiz-adv-x="1056" 
d="M732 112c88 0 134 44 134 116c0 60 -34 87 -113 87h-73l-32 -203h84zM35 0l113 715h162l-47 -292h276l46 292h158l-45 -289h75c147 0 250 -55 250 -201c0 -149 -116 -225 -273 -225h-278l46 295h-274l-47 -295h-162z" />
    <glyph glyph-name="uni040B" unicode="&#x40b;" horiz-adv-x="813" 
d="M501 316c-78 0 -113 -41 -122 -50l-41 -266h-163l92 589h-193l21 126h553l-21 -126h-197l-29 -183c35 21 84 38 145 38c173 0 243 -107 216 -278l-26 -166h-162l27 169c15 93 -9 147 -100 147z" />
    <glyph glyph-name="uni040C" unicode="&#x40c;" horiz-adv-x="686" 
d="M154 715h162l-49 -307l301 307h177l-342 -343l235 -372h-177l-206 331l-52 -331h-162zM433 902h158l-112 -139h-111z" />
    <glyph glyph-name="uni040D" unicode="&#x40d;" horiz-adv-x="767" 
d="M35 0l113 715h162l-75 -483l373 483h161l-113 -715h-162l76 483l-374 -483h-161zM340 902h154l35 -139h-105z" />
    <glyph glyph-name="uni040E" unicode="&#x40e;" horiz-adv-x="626" 
d="M385 758c-95 0 -153 57 -154 145h103c1 -36 17 -66 52 -66c36 0 55 30 59 66h102c-11 -91 -79 -145 -162 -145zM162 -8c-23 0 -42 2 -57 5c-8 1 -15 3 -22 5l19 124c11 -3 27 -8 46 -8c43 0 73 22 104 66l-185 531h166l112 -361l185 360l163 1l-287 -521
c-72 -132 -133 -202 -244 -202z" />
    <glyph glyph-name="uni040F" unicode="&#x40f;" horiz-adv-x="754" 
d="M35 0l113 715h162l-93 -587h276l93 587h163l-113 -715h-231l-25 -130h-131l15 130h-229z" />
    <glyph glyph-name="uni0410" unicode="&#x410;" horiz-adv-x="706" 
d="M466 159h-259l-73 -159h-156l348 715h211l119 -715h-166zM261 274h188l-45 309z" />
    <glyph glyph-name="uni0411" unicode="&#x411;" horiz-adv-x="634" 
d="M596 236c0 -159 -116 -236 -273 -236h-288l113 715h464l-20 -127h-306l-26 -160h86c147 0 250 -55 250 -192zM305 112c88 0 134 41 134 117c0 64 -34 88 -113 88h-83l-32 -205h94z" />
    <glyph glyph-name="uni0412" unicode="&#x412;" horiz-adv-x="658" 
d="M154 715h258c152 0 222 -65 221 -172c0 -92 -50 -150 -137 -173c76 -17 122 -65 123 -152c0 -132 -105 -218 -267 -218h-311zM333 112c85 0 128 46 128 114c0 60 -32 91 -116 91h-96l-33 -205h117zM363 421c83 0 120 36 120 104c0 56 -29 79 -97 79h-92l-29 -183h98z" />
    <glyph glyph-name="uni0413" unicode="&#x413;" horiz-adv-x="565" 
d="M148 715h452l-21 -127h-290l-92 -588h-162z" />
    <glyph glyph-name="uni0414" unicode="&#x414;" horiz-adv-x="757" 
d="M285 344c-25 -100 -52 -169 -85 -216h266l72 459h-190c-11 -40 -45 -169 -63 -243zM80 -130h-140l40 258h42c59 25 90 103 122 226l57 225l33 136h487l-93 -587h108l-41 -258h-141l16 130h-464z" />
    <glyph glyph-name="uni0415" unicode="&#x415;" horiz-adv-x="599" 
d="M154 715h463l-20 -126h-302l-26 -167h243l-18 -118h-243l-29 -178h321l-20 -126h-482z" />
    <glyph glyph-name="uni0416" unicode="&#x416;" horiz-adv-x="944" 
d="M403 335l-284 -335h-177l337 390l-183 325h158l160 -311l49 311h161l-49 -310l264 310h174l-310 -345l201 -370h-165l-175 334l-53 -334h-161z" />
    <glyph glyph-name="uni0417" unicode="&#x417;" horiz-adv-x="640" 
d="M301 -11c-154 0 -272 90 -272 250h151c7 -80 49 -128 128 -128c83 0 122 45 125 105c4 63 -33 92 -108 92h-76l19 115h81c72 0 109 33 110 88c3 56 -28 94 -100 94c-74 0 -112 -50 -123 -107h-147c19 132 113 227 283 227c153 0 242 -83 239 -196
c-4 -79 -50 -140 -137 -159c72 -20 122 -72 115 -167c-8 -122 -117 -214 -288 -214z" />
    <glyph glyph-name="uni0418" unicode="&#x418;" horiz-adv-x="767" 
d="M35 0l113 715h162l-75 -483l373 483h161l-113 -715h-162l76 483l-374 -483h-161z" />
    <glyph glyph-name="uni0419" unicode="&#x419;" horiz-adv-x="767" 
d="M466 758c-93 0 -153 57 -153 145h102c3 -36 17 -66 52 -66c36 0 55 30 59 66h102c-11 -91 -78 -145 -162 -145zM35 0l113 715h162l-75 -483l373 483h161l-113 -715h-162l76 483l-374 -483h-161z" />
    <glyph glyph-name="uni041A" unicode="&#x41a;" horiz-adv-x="686" 
d="M154 715h162l-49 -307l301 307h177l-342 -343l235 -372h-177l-206 331l-52 -331h-162z" />
    <glyph glyph-name="uni041B" unicode="&#x41b;" horiz-adv-x="729" 
d="M285 287c-45 -180 -106 -296 -244 -296c-47 0 -65 10 -66 11l19 124l8 -3c5 -1 13 -2 26 -2c57 0 88 74 123 210c19 73 40 168 57 247l28 137h487l-113 -715h-162l93 587h-188c-8 -40 -39 -181 -68 -300z" />
    <glyph glyph-name="uni041C" unicode="&#x41c;" horiz-adv-x="910" 
d="M154 715h207l98 -444l235 444h216l-113 -715h-161l80 504l-278 -504h-53l-119 504l-80 -504h-145z" />
    <glyph glyph-name="uni041D" unicode="&#x41d;" horiz-adv-x="764" 
d="M154 715h162l-46 -292h286l47 292h162l-113 -715h-162l46 295h-287l-46 -295h-162z" />
    <glyph glyph-name="uni041E" unicode="&#x41e;" horiz-adv-x="816" 
d="M799 406c0 -244 -168 -417 -401 -417c-192 0 -339 121 -339 316c0 241 168 420 399 420c201 0 341 -124 341 -319zM630 402c0 107 -57 195 -176 195c-144 0 -227 -134 -227 -287c0 -117 67 -193 180 -193c141 0 223 131 223 285z" />
    <glyph glyph-name="uni041F" unicode="&#x41f;" horiz-adv-x="754" 
d="M566 587h-276l-93 -587h-162l113 715h601l-113 -715h-162z" />
    <glyph glyph-name="uni0420" unicode="&#x420;" horiz-adv-x="626" 
d="M154 715h236c157 0 248 -71 248 -198c0 -176 -125 -257 -290 -257h-104l-41 -260h-162zM345 373c91 0 138 46 138 130c0 60 -37 90 -111 90h-76l-35 -220h84z" />
    <glyph glyph-name="uni0421" unicode="&#x421;" horiz-adv-x="750" 
d="M396 -11c-206 0 -337 114 -337 314c0 241 152 423 392 423c172 0 289 -88 297 -260h-161c-11 87 -53 133 -141 133c-140 0 -218 -132 -218 -291c0 -115 51 -190 170 -190c88 0 147 51 172 139h159c-32 -173 -167 -268 -333 -268z" />
    <glyph glyph-name="uni0422" unicode="&#x422;" horiz-adv-x="597" 
d="M273 589h-193l21 126h549l-21 -126h-193l-92 -589h-163z" />
    <glyph glyph-name="uni0423" unicode="&#x423;" horiz-adv-x="626" 
d="M162 -8c-23 0 -42 2 -57 5c-8 1 -15 3 -22 5l19 124c11 -3 27 -8 46 -8c43 0 73 22 104 66l-185 531h166l112 -361l185 360l163 1l-287 -521c-72 -132 -133 -202 -244 -202z" />
    <glyph glyph-name="uni0424" unicode="&#x424;" horiz-adv-x="878" 
d="M316 -10l15 96c-174 8 -282 100 -282 246v7c0 174 138 294 367 297l14 89h161l-14 -89c173 -8 282 -99 282 -243v-8c0 -176 -137 -296 -368 -299l-15 -96h-160zM204 341c0 -84 52 -137 145 -140l50 324c-128 -3 -195 -79 -195 -177v-7zM704 381c0 84 -52 139 -145 140
l-50 -324c128 3 195 79 195 178v6z" />
    <glyph glyph-name="uni0425" unicode="&#x425;" horiz-adv-x="681" 
d="M265 375l-154 340h173l101 -240l170 240h167l-255 -351l165 -364h-175l-114 267l-192 -267h-169z" />
    <glyph glyph-name="uni0426" unicode="&#x426;" horiz-adv-x="786" 
d="M582 -130l16 130h-563l113 715h162l-93 -587h276l93 587h163l-93 -587h108l-41 -258h-141z" />
    <glyph glyph-name="uni0427" unicode="&#x427;" horiz-adv-x="709" 
d="M428 0l46 291c-36 -17 -81 -31 -140 -31c-171 0 -268 105 -239 279l27 176h162l-28 -179c-15 -95 13 -147 109 -147c74 0 111 28 132 44l44 282h162l-113 -715h-162z" />
    <glyph glyph-name="uni0428" unicode="&#x428;" horiz-adv-x="1046" 
d="M148 715h162l-93 -587h203l93 587h162l-93 -587h203l93 587h162l-113 -715h-892z" />
    <glyph glyph-name="uni0429" unicode="&#x429;" horiz-adv-x="1077" 
d="M873 -130l16 130h-854l113 715h162l-93 -587h203l93 587h162l-93 -587h203l93 587h162l-92 -587h107l-41 -258h-141z" />
    <glyph glyph-name="uni042A" unicode="&#x42a;" horiz-adv-x="723" 
d="M131 0l93 589h-156l21 126h313l-43 -277h80c148 0 251 -57 251 -205c0 -152 -117 -233 -274 -233h-285zM399 112c88 0 133 49 133 124c0 63 -34 91 -113 91h-78l-34 -215h92z" />
    <glyph glyph-name="uni042B" unicode="&#x42b;" horiz-adv-x="887" 
d="M35 0l113 715h158l-44 -277h81c147 0 250 -57 250 -205c0 -152 -116 -233 -273 -233h-285zM719 715h162l-113 -715h-162zM302 112c88 0 134 49 134 124c0 61 -38 91 -113 91h-79l-33 -215h91z" />
    <glyph glyph-name="uni042C" unicode="&#x42c;" horiz-adv-x="626" 
d="M35 0l113 715h158l-44 -277h81c147 0 250 -57 250 -205c0 -152 -116 -233 -273 -233h-285zM302 112c88 0 134 49 134 124c0 61 -38 91 -113 91h-79l-33 -215h91z" />
    <glyph glyph-name="uni042D" unicode="&#x42d;" horiz-adv-x="751" 
d="M345 -11c-174 0 -294 89 -302 262h160c11 -88 56 -135 147 -135c104 0 173 72 201 176h-286l19 122h282v20c-7 104 -62 163 -162 163c-87 0 -146 -46 -175 -137h-159c34 175 171 266 336 266c197 0 329 -112 329 -316c0 -240 -153 -421 -390 -421z" />
    <glyph glyph-name="uni042E" unicode="&#x42e;" horiz-adv-x="1070" 
d="M656 -12c-179 0 -317 113 -328 292c-1 1 -1 4 -1 9v6h-84l-46 -295h-163l113 715h163l-47 -292h79c42 178 190 300 375 300c194 0 330 -124 330 -318c0 -244 -163 -417 -391 -417zM878 401c0 107 -54 195 -166 195c-139 0 -217 -134 -217 -287c0 -117 65 -193 170 -193
c133 0 213 129 213 285z" />
    <glyph glyph-name="uni042F" unicode="&#x42f;" horiz-adv-x="659" 
d="M444 391l33 212h-91c-88 0 -134 -45 -134 -114c0 -64 34 -98 113 -98h79zM151 0h-176l237 315c-72 25 -117 79 -117 174c0 144 105 226 273 226h285l-113 -715h-158l44 281h-71z" />
    <glyph glyph-name="uni0430" unicode="&#x430;" horiz-adv-x="563" 
d="M188 -11c-100 0 -167 55 -167 147c0 133 110 177 267 177h86l3 22c9 61 -7 95 -74 95c-56 0 -82 -27 -93 -74h-138c26 127 122 179 238 179c149 0 232 -67 208 -216l-25 -159c-11 -68 -14 -116 -9 -160h-138c-4 24 -4 49 -3 72c-33 -49 -83 -83 -155 -83zM237 89
c60 0 107 34 116 97l7 41h-68c-88 0 -128 -20 -128 -76c0 -35 24 -62 73 -62z" />
    <glyph glyph-name="uni0431" unicode="&#x431;" horiz-adv-x="604" 
d="M285 -11c-141 0 -245 90 -245 258c0 53 3 83 8 118c30 202 98 387 373 392c88 3 145 10 169 18l-17 -115c-21 -11 -74 -18 -157 -22c-165 -8 -219 -75 -254 -212h4c35 52 95 96 190 96c125 0 221 -87 221 -234c0 -176 -118 -299 -292 -299zM288 98c94 0 143 82 143 188
c0 73 -36 126 -112 126c-91 0 -143 -83 -143 -182c0 -75 31 -132 112 -132z" />
    <glyph glyph-name="uni0432" unicode="&#x432;" horiz-adv-x="546" 
d="M105 523h216c131 0 189 -50 189 -126c0 -69 -44 -111 -109 -126c55 -11 97 -46 97 -110c0 -99 -77 -161 -213 -161h-263zM234 432l-18 -120h59c61 0 91 22 91 67c0 35 -25 53 -76 53h-56zM202 225l-21 -133h74c61 0 95 24 95 71c0 44 -27 62 -88 62h-60z" />
    <glyph glyph-name="uni0433" unicode="&#x433;" horiz-adv-x="450" 
d="M233 420l-67 -420h-144l83 523h349l-17 -103h-204z" />
    <glyph glyph-name="uni0434" unicode="&#x434;" horiz-adv-x="597" 
d="M397 421h-138c-5 -31 -21 -111 -37 -167c-19 -73 -36 -120 -61 -151h185zM-61 -127l36 230h32c57 16 81 116 111 253c7 19 15 61 22 98l13 69h401l-67 -420h77l-36 -230h-118l10 127h-333l-30 -127h-118z" />
    <glyph glyph-name="uni0435" unicode="&#x435;" horiz-adv-x="580" 
d="M177 214c0 -73 32 -122 115 -122c60 0 97 26 112 73h137c-29 -116 -124 -176 -253 -176c-148 0 -254 82 -254 232c0 187 124 314 289 314c162 0 258 -101 231 -283l-4 -23h-373v-15zM322 435c-56 0 -109 -33 -133 -117h230c7 76 -22 117 -97 117z" />
    <glyph glyph-name="uni0436" unicode="&#x436;" horiz-adv-x="781" 
d="M321 259l-197 -259h-161l235 295l-121 228h143l107 -226l36 226h142l-36 -227l179 227h155l-209 -243l136 -280h-152l-115 257l-41 -257h-142z" />
    <glyph glyph-name="uni0437" unicode="&#x437;" horiz-adv-x="507" 
d="M241 -10c-131 0 -220 63 -228 179h134c5 -43 35 -68 88 -68c49 0 75 30 75 62c0 39 -23 59 -70 59h-62l17 95h61c51 0 78 20 79 59c0 28 -19 53 -66 53c-51 0 -82 -22 -93 -67h-129c25 109 107 172 240 172c136 0 193 -66 193 -144c-3 -64 -50 -106 -115 -119
c54 -11 96 -50 93 -113c0 -95 -93 -168 -217 -168z" />
    <glyph glyph-name="uni0438" unicode="&#x438;" horiz-adv-x="615" 
d="M22 0l83 523h144l-54 -337l254 337h142l-82 -523h-145l54 336l-253 -336h-143z" />
    <glyph glyph-name="uni0439" unicode="&#x439;" horiz-adv-x="615" 
d="M358 595c-95 0 -153 57 -154 145h103c1 -36 17 -65 52 -65c36 0 55 29 59 65h102c-11 -91 -79 -145 -162 -145zM22 0l83 523h144l-54 -337l254 337h142l-82 -523h-145l54 336l-253 -336h-143z" />
    <glyph glyph-name="uni043A" unicode="&#x43a;" horiz-adv-x="552" 
d="M206 255l-40 -255h-144l83 523h144l-35 -221l202 221h161l-234 -244l161 -279h-158z" />
    <glyph glyph-name="uni043B" unicode="&#x43b;" horiz-adv-x="575" 
d="M231 247c-32 -139 -70 -255 -194 -255c-19 0 -34 2 -44 5c-5 1 -10 3 -13 5l18 118c1 -1 3 -1 6 -2c5 -1 11 -2 18 -2c47 0 65 58 88 158c16 80 40 211 48 249h392l-82 -523h-144l67 420h-125c-11 -59 -24 -122 -35 -173z" />
    <glyph glyph-name="uni043C" unicode="&#x43c;" horiz-adv-x="743" 
d="M493 0l58 361l-207 -361h-60l-91 361l-58 -361h-113l84 523h180l74 -311l174 311h185l-83 -523h-143z" />
    <glyph glyph-name="uni043D" unicode="&#x43d;" horiz-adv-x="605" 
d="M388 212h-188l-34 -212h-144l83 523h144l-33 -208h188l33 208h144l-82 -523h-145z" />
    <glyph glyph-name="uni043E" unicode="&#x43e;" horiz-adv-x="606" 
d="M289 -11c-142 0 -254 86 -254 237c0 177 123 308 293 308c144 0 255 -84 255 -237c0 -180 -121 -308 -294 -308zM293 99c92 0 143 87 143 202c0 72 -35 124 -111 124c-91 0 -145 -85 -145 -200c0 -72 33 -126 113 -126z" />
    <glyph glyph-name="uni043F" unicode="&#x43f;" horiz-adv-x="595" 
d="M411 420h-178l-67 -420h-144l83 523h466l-82 -523h-145z" />
    <glyph glyph-name="uni0440" unicode="&#x440;" horiz-adv-x="637" 
d="M418 535c112 0 196 -82 196 -227c0 -188 -103 -319 -256 -319c-92 0 -149 47 -172 100l-42 -267h-144l84 535c12 75 15 119 18 166h139c0 -27 -1 -58 -4 -89c39 64 101 101 181 101zM324 100c88 0 140 82 140 198c0 83 -37 128 -105 128c-88 0 -153 -80 -153 -200
c0 -80 43 -126 118 -126z" />
    <glyph glyph-name="uni0441" unicode="&#x441;" horiz-adv-x="570" 
d="M293 -10c-155 0 -258 89 -258 239c0 189 125 305 286 305c127 0 228 -62 233 -203h-136c-7 68 -42 90 -101 90c-85 0 -137 -78 -137 -193c0 -83 37 -131 118 -131c59 0 104 34 116 101h131c-20 -133 -113 -208 -252 -208z" />
    <glyph glyph-name="uni0442" unicode="&#x442;" horiz-adv-x="469" 
d="M326 420l-66 -420h-145l67 420h-150l16 103h445l-17 -103h-150z" />
    <glyph glyph-name="uni0443" unicode="&#x443;" horiz-adv-x="551" 
d="M183 59l-126 464h149l73 -315l162 315h146l-390 -701h-146z" />
    <glyph glyph-name="uni0444" unicode="&#x444;" horiz-adv-x="744" 
d="M232 -178l27 167c-128 16 -230 95 -230 238v11c0 161 119 285 316 296l35 226h141l-36 -226c130 -16 229 -95 229 -238v-9c0 -163 -120 -287 -315 -298l-26 -167h-141zM171 228c0 -73 30 -123 105 -131l52 330c-103 -12 -157 -86 -157 -190v-9zM572 294
c0 76 -29 125 -104 132l-52 -329c100 11 156 85 156 190v7z" />
    <glyph glyph-name="uni0445" unicode="&#x445;" horiz-adv-x="551" 
d="M192 272l-126 251h159l74 -155l119 155h154l-205 -251l139 -272h-160l-82 175l-138 -175h-154z" />
    <glyph glyph-name="uni0446" unicode="&#x446;" horiz-adv-x="613" 
d="M425 -127l10 127h-413l83 523h144l-67 -420h179l66 420h144l-67 -420h77l-37 -230h-119z" />
    <glyph glyph-name="uni0447" unicode="&#x447;" horiz-adv-x="557" 
d="M306 0l37 234c-31 -32 -74 -61 -138 -61c-111 0 -168 72 -145 216l20 134h145l-21 -135c-11 -65 7 -105 67 -105c45 1 71 15 83 26l35 214h144l-83 -523h-144z" />
    <glyph glyph-name="uni0448" unicode="&#x448;" horiz-adv-x="850" 
d="M105 523h144l-67 -420h145l66 420h144l-67 -420h145l67 420h144l-83 -523h-721z" />
    <glyph glyph-name="uni0449" unicode="&#x449;" horiz-adv-x="869" 
d="M681 -127l10 127h-669l83 523h144l-67 -420h145l66 420h144l-67 -420h145l67 420h144l-67 -420h77l-36 -230h-119z" />
    <glyph glyph-name="uni044A" unicode="&#x44a;" horiz-adv-x="577" 
d="M152 420h-120l16 103h263l-29 -184h53c133 0 203 -52 203 -155c0 -117 -81 -184 -222 -184h-231zM267 244l-22 -144h67c56 0 85 32 85 80c0 39 -24 64 -75 64h-55z" />
    <glyph glyph-name="uni044B" unicode="&#x44b;" horiz-adv-x="731" 
d="M563 523h144l-83 -523h-144zM105 523h144l-29 -184h46c133 0 203 -52 203 -155c0 -117 -81 -184 -222 -184h-225zM205 244l-23 -144h61c56 0 85 32 85 80c0 39 -24 64 -75 64h-48z" />
    <glyph glyph-name="uni044C" unicode="&#x44c;" horiz-adv-x="514" 
d="M105 523h144l-29 -184h52c133 0 204 -52 204 -155c0 -117 -82 -184 -223 -184h-231zM205 244l-23 -144h68c55 0 84 32 84 80c0 39 -23 64 -74 64h-55z" />
    <glyph glyph-name="uni044D" unicode="&#x44d;" horiz-adv-x="574" 
d="M259 -10c-129 0 -224 66 -235 197h136c11 -55 45 -83 103 -83c65 0 109 40 126 111h-189l16 98h183v15c-5 67 -45 99 -112 99c-59 0 -101 -32 -117 -88h-132c24 123 115 195 252 195c152 0 255 -88 255 -239c0 -189 -123 -305 -286 -305z" />
    <glyph glyph-name="uni044E" unicode="&#x44e;" horiz-adv-x="815" 
d="M503 -11c-131 0 -229 78 -240 213c0 1 -1 3 -1 6v4h-62l-34 -212h-144l83 523h144l-33 -208h56c32 130 134 219 270 219s244 -84 244 -237c0 -180 -115 -308 -283 -308zM506 99c88 0 134 87 134 202c0 72 -33 124 -102 124c-84 0 -134 -85 -134 -200
c0 -72 27 -126 102 -126z" />
    <glyph glyph-name="uni044F" unicode="&#x44f;" horiz-adv-x="539" 
d="M335 283l22 139h-71c-51 0 -83 -29 -83 -76c0 -39 24 -63 76 -63h56zM127 0h-151l170 221c-56 21 -87 66 -87 130c0 103 86 172 219 172h236l-83 -523h-140l30 193h-53z" />
    <glyph glyph-name="uni0451" unicode="&#x451;" horiz-adv-x="580" 
d="M177 214c0 -73 32 -122 115 -122c60 0 97 26 112 73h137c-29 -116 -124 -176 -253 -176c-148 0 -254 82 -254 232c0 187 124 314 289 314c162 0 258 -101 231 -283l-4 -23h-373v-15zM322 435c-56 0 -109 -33 -133 -117h230c7 76 -22 117 -97 117zM244 600
c-41 0 -74 31 -74 71s34 73 75 73c40 0 73 -32 73 -72c0 -39 -33 -72 -74 -72zM447 600c-40 0 -73 31 -73 71s33 73 74 73s73 -32 73 -72c0 -39 -31 -72 -74 -72z" />
    <glyph glyph-name="uni0452" unicode="&#x452;" horiz-adv-x="611" 
d="M505 -24c-16 -98 -72 -167 -237 -162l16 108c51 3 73 23 80 66l50 325c12 75 -11 104 -70 104c-68 0 -118 -43 -131 -123l-47 -294h-144l95 597h-64l13 83h64l12 80h144l-12 -80h163l-13 -83h-163l-25 -161c35 56 89 99 174 99c102 0 173 -64 149 -221z" />
    <glyph glyph-name="uni0453" unicode="&#x453;" horiz-adv-x="450" 
d="M307 753h154l-123 -159h-107zM233 420l-67 -420h-144l83 523h349l-17 -103h-204z" />
    <glyph glyph-name="uni0454" unicode="&#x454;" horiz-adv-x="570" 
d="M538 189c-23 -125 -112 -199 -251 -199c-155 0 -258 89 -258 239c0 189 125 305 286 305c129 0 221 -61 232 -193h-136c-11 57 -41 80 -100 80c-63 0 -106 -40 -125 -108h187l-15 -98h-183v-2c0 -2 0 -3 1 -4c5 -72 41 -111 116 -111c59 0 101 32 113 91h133z" />
    <glyph glyph-name="uni0455" unicode="&#x455;" horiz-adv-x="501" 
d="M236 -12c-141 0 -222 67 -223 176h135c3 -43 25 -74 93 -74c51 0 77 19 77 58c0 32 -20 47 -95 63c-119 25 -167 67 -167 154c0 113 97 170 216 170s201 -46 209 -162h-132c-3 36 -32 63 -81 63s-76 -19 -76 -54c0 -31 24 -44 91 -59c122 -26 177 -62 177 -162
c0 -112 -92 -173 -224 -173z" />
    <glyph glyph-name="uni0456" unicode="&#x456;" horiz-adv-x="280" 
d="M208 595c-47 0 -81 33 -81 78c0 44 35 78 82 78s81 -33 81 -77c0 -45 -35 -79 -82 -79zM115 523h144l-83 -523h-144z" />
    <glyph glyph-name="uni0457" unicode="&#x457;" horiz-adv-x="280" 
d="M112 600c-40 0 -73 31 -73 71s33 73 74 73s73 -32 73 -72c0 -39 -33 -72 -74 -72zM310 600c-41 0 -73 31 -73 71s33 73 74 73s73 -32 73 -72c0 -39 -33 -72 -74 -72zM115 523h144l-83 -523h-144z" />
    <glyph glyph-name="uni0458" unicode="&#x458;" horiz-adv-x="280" 
d="M-49 -79c51 3 72 24 79 67l85 535h143l-86 -548c-16 -97 -72 -165 -237 -160zM208 595c-47 0 -81 33 -81 78c0 44 35 78 82 78s81 -33 81 -77c0 -45 -35 -79 -82 -79z" />
    <glyph glyph-name="uni0459" unicode="&#x459;" horiz-adv-x="797" 
d="M231 247c-32 -139 -70 -255 -194 -255c-19 0 -34 2 -44 5c-5 1 -10 3 -13 5l18 118c1 -1 3 -1 6 -2c5 -1 11 -2 18 -2c47 0 65 58 88 158c16 80 40 211 48 249h383l-29 -184h43c133 0 203 -52 203 -155c0 -117 -82 -184 -223 -184h-221l67 420h-115
c-11 -59 -24 -122 -35 -173zM497 244l-22 -144h57c55 0 85 32 85 80c0 39 -24 64 -75 64h-45z" />
    <glyph glyph-name="uni045A" unicode="&#x45a;" horiz-adv-x="826" 
d="M525 237l-21 -137h57c56 0 85 28 85 76c0 41 -25 61 -74 61h-47zM377 212h-177l-34 -212h-144l83 523h144l-33 -208h177l33 208h144l-30 -191h44c133 0 204 -50 204 -151c0 -119 -82 -181 -223 -181h-222z" />
    <glyph glyph-name="uni045B" unicode="&#x45b;" horiz-adv-x="611" 
d="M66 680h63l13 80h144l-13 -80h164l-13 -83h-163l-25 -161c35 56 89 99 174 99c102 0 173 -64 149 -221l-50 -314h-144l49 313c12 75 -11 104 -70 104c-68 0 -119 -43 -131 -123l-47 -294h-144l94 597h-63z" />
    <glyph glyph-name="uni045C" unicode="&#x45c;" horiz-adv-x="552" 
d="M206 255l-40 -255h-144l83 523h144l-35 -221l202 221h161l-234 -244l161 -279h-158zM346 753h154l-123 -159h-107z" />
    <glyph glyph-name="uni045D" unicode="&#x45d;" horiz-adv-x="615" 
d="M22 0l83 523h144l-54 -337l254 337h142l-82 -523h-145l54 336l-253 -336h-143zM227 753h150l42 -159h-102z" />
    <glyph glyph-name="uni045E" unicode="&#x45e;" horiz-adv-x="551" 
d="M325 595c-95 0 -153 57 -154 145h103c1 -36 17 -65 52 -65c36 0 55 29 58 65h103c-13 -91 -78 -145 -162 -145zM183 59l-126 464h149l73 -315l162 315h146l-390 -701h-146z" />
    <glyph glyph-name="uni045F" unicode="&#x45f;" horiz-adv-x="595" 
d="M22 0l83 523h144l-67 -420h179l66 420h144l-83 -523h-168l-26 -127h-119l16 127h-169z" />
    <glyph glyph-name="uni0490" unicode="&#x490;" horiz-adv-x="560" 
d="M197 0h-162l113 715h296l26 130h144l-39 -258h-286z" />
    <glyph glyph-name="uni0491" unicode="&#x491;" horiz-adv-x="453" 
d="M233 420l-66 -420h-144l83 523h225l31 127h119l-36 -230h-212z" />
    <glyph glyph-name="Wgrave" unicode="&#x1e80;" horiz-adv-x="951" 
d="M90 715h164l32 -501l202 501h130l54 -504l193 504h150l-289 -715h-157l-52 481l-202 -481h-160zM423 902h154l35 -139h-105z" />
    <glyph glyph-name="wgrave" unicode="&#x1e81;" horiz-adv-x="807" 
d="M60 523h148l34 -355l153 355h119l36 -355l149 355h142l-243 -523h-142l-35 331l-146 -331h-144zM315 753h150l42 -159h-102z" />
    <glyph glyph-name="Wacute" unicode="&#x1e82;" horiz-adv-x="951" 
d="M90 715h164l32 -501l202 501h130l54 -504l193 504h150l-289 -715h-157l-52 481l-202 -481h-160zM563 902h158l-112 -139h-111z" />
    <glyph glyph-name="wacute" unicode="&#x1e83;" horiz-adv-x="807" 
d="M60 523h148l34 -355l153 355h119l36 -355l149 355h142l-243 -523h-142l-35 331l-146 -331h-144zM488 753h154l-123 -159h-107z" />
    <glyph glyph-name="Wdieresis" unicode="&#x1e84;" horiz-adv-x="951" 
d="M90 715h164l32 -501l202 501h130l54 -504l193 504h150l-289 -715h-157l-52 481l-202 -481h-160zM455 769c-41 0 -74 32 -74 72s34 73 74 73c41 0 74 -32 74 -72s-34 -73 -74 -73zM670 769c-40 0 -73 32 -73 72s33 73 74 73s73 -32 73 -72s-33 -73 -74 -73z" />
    <glyph glyph-name="wdieresis" unicode="&#x1e85;" horiz-adv-x="807" 
d="M60 523h148l34 -355l153 355h119l36 -355l149 355h142l-243 -523h-142l-35 331l-146 -331h-144zM366 600c-41 0 -74 31 -74 71s34 73 75 73c40 0 73 -32 73 -72c0 -39 -33 -72 -74 -72zM569 600c-40 0 -73 31 -73 71s33 73 74 73s73 -32 73 -72c0 -39 -31 -72 -74 -72z
" />
    <glyph glyph-name="Ygrave" unicode="&#x1ef2;" horiz-adv-x="647" 
d="M259 309l-171 406h170l105 -272l184 272h163l-289 -416l-48 -299h-163zM272 902h154l35 -139h-105z" />
    <glyph glyph-name="ygrave" unicode="&#x1ef3;" horiz-adv-x="551" 
d="M183 59l-126 464h149l73 -315l162 315h146l-390 -701h-146zM193 753h150l42 -159h-102z" />
    <glyph glyph-name="uni2009" unicode="&#x2009;" horiz-adv-x="90" 
 />
    <glyph glyph-name="endash" unicode="&#x2013;" horiz-adv-x="547" 
d="M62 332h444l-15 -92h-444z" />
    <glyph glyph-name="emdash" unicode="&#x2014;" horiz-adv-x="936" 
d="M62 332h833l-15 -92h-833z" />
    <glyph glyph-name="quoteleft" unicode="&#x2018;" horiz-adv-x="289" 
d="M75 497l147 230l81 -34l-102 -243z" />
    <glyph glyph-name="quoteright" unicode="&#x2019;" horiz-adv-x="288" 
d="M85 484l102 243l126 -47l-147 -230z" />
    <glyph glyph-name="quotesinglbase" unicode="&#x201a;" horiz-adv-x="288" 
d="M-14 -75l101 244l125 -47l-147 -231z" />
    <glyph glyph-name="quotedblleft" unicode="&#x201c;" horiz-adv-x="497" 
d="M75 497l147 230l81 -34l-102 -243zM284 497l147 230l80 -34l-101 -243z" />
    <glyph glyph-name="quotedblright" unicode="&#x201d;" horiz-adv-x="497" 
d="M85 484l102 243l126 -47l-147 -230zM294 484l102 243l126 -47l-148 -230z" />
    <glyph glyph-name="quotedblbase" unicode="&#x201e;" horiz-adv-x="497" 
d="M-14 -75l101 244l125 -47l-147 -231zM194 -75l102 244l125 -47l-147 -231z" />
    <glyph glyph-name="dagger" unicode="&#x2020;" horiz-adv-x="406" 
d="M178 489h-110l17 105h110l19 121h120l-20 -121h110l-17 -105h-109l-44 -276h-120z" />
    <glyph glyph-name="daggerdbl" unicode="&#x2021;" horiz-adv-x="406" 
d="M181 507h-110l15 97h110l18 111h120l-18 -111h109l-15 -97h-109l-14 -86h110l-15 -97h-110l-18 -111h-120l18 111h-110l15 97h111z" />
    <glyph glyph-name="bullet" unicode="&#x2022;" horiz-adv-x="369" 
d="M185 169c-75 0 -130 59 -130 127c0 84 61 143 140 143c77 0 131 -60 131 -129c0 -81 -59 -141 -141 -141z" />
    <glyph glyph-name="ellipsis" unicode="&#x2026;" horiz-adv-x="873" 
d="M122 -9c-51 0 -89 39 -89 88c0 48 37 87 88 87s91 -39 91 -87s-39 -88 -90 -88zM406 -9c-51 0 -89 39 -89 88c0 48 37 87 88 87s91 -39 91 -87s-39 -88 -90 -88zM690 -9c-51 0 -88 39 -88 88c0 48 36 87 87 87s91 -39 91 -87s-39 -88 -90 -88z" />
    <glyph glyph-name="perthousand" unicode="&#x2030;" horiz-adv-x="1193" 
d="M182 534c0 -35 15 -67 62 -67s73 47 73 99c0 35 -17 68 -60 68c-51 0 -75 -45 -75 -100zM240 377c-94 0 -169 60 -169 156c0 103 80 189 189 189c93 0 167 -61 167 -157c0 -101 -79 -188 -187 -188zM659 715h91l-566 -715h-91zM520 146c0 -35 15 -67 62 -67
c47 1 73 47 73 99c0 35 -17 69 -60 69c-51 0 -75 -47 -75 -101zM578 -11c-94 0 -169 61 -169 156c0 104 80 190 189 190c93 0 167 -63 167 -158c0 -101 -79 -188 -187 -188zM910 146c0 -35 15 -67 62 -67c47 1 73 47 73 99c0 35 -17 69 -60 69c-51 0 -75 -47 -75 -101z
M968 -11c-94 0 -169 61 -169 156c0 104 80 190 189 190c94 0 168 -63 168 -158c0 -101 -80 -188 -188 -188z" />
    <glyph glyph-name="uni2032" unicode="&#x2032;" horiz-adv-x="248" 
d="M136 715h142l-104 -264h-103z" />
    <glyph glyph-name="uni2033" unicode="&#x2033;" horiz-adv-x="442" 
d="M136 715h142l-104 -264h-103zM330 715h142l-103 -264h-103z" />
    <glyph glyph-name="guilsinglleft" unicode="&#x2039;" horiz-adv-x="324" 
d="M46 265l154 182h111l-152 -185l89 -187h-104z" />
    <glyph glyph-name="guilsinglright" unicode="&#x203a;" horiz-adv-x="324" 
d="M276 257l-155 -182h-110l152 185l-89 187h103z" />
    <glyph glyph-name="fraction" unicode="&#x2044;" horiz-adv-x="160" 
d="M353 715h85l-605 -715h-86z" />
    <glyph glyph-name="Euro" unicode="&#x20ac;" horiz-adv-x="712" 
d="M62 452h64c38 164 146 273 316 273c157 0 255 -81 256 -244h-152c0 67 -30 121 -109 121c-84 0 -129 -58 -152 -150h182l-21 -66h-174l-10 -62h165l-21 -66h-150c0 -73 23 -143 123 -143c71 0 121 37 145 134h149c-35 -177 -145 -260 -302 -260c-182 0 -271 112 -271 269
h-68l10 66h63l10 62h-64z" />
    <glyph glyph-name="uni20B4" unicode="&#x20b4;" horiz-adv-x="655" 
d="M617 220c-30 -137 -135 -230 -310 -230c-156 0 -239 75 -239 182c0 35 8 66 25 93h-68l10 67h127c31 21 74 42 128 62h-245l10 67h377c24 23 31 47 31 76c0 43 -26 69 -83 69c-65 0 -102 -30 -118 -93h-148c28 137 125 212 284 212c139 0 218 -83 218 -174
c0 -33 -8 -63 -23 -90h68l-10 -67h-122c-34 -23 -77 -44 -129 -62h242l-10 -67h-373c-27 -27 -34 -54 -34 -82c0 -47 35 -76 95 -76c92 0 127 54 143 113h154z" />
    <glyph glyph-name="uni20B8" unicode="&#x20b8;" horiz-adv-x="577" 
d="M84 649l11 66h529l-11 -66h-529zM237 459h-183l21 127h529l-21 -127h-183l-72 -459h-163z" />
    <glyph glyph-name="uni20BD" unicode="&#x20bd;" horiz-adv-x="656" 
d="M372 373c92 0 138 46 138 130c0 60 -37 90 -110 90h-77l-34 -220h83zM252 136l-21 -136h-163l21 136h-90l11 66h90l10 62h-91l10 66h91l61 385h236c157 0 248 -72 249 -197c0 -177 -125 -258 -290 -258h-104l-9 -58h235l-11 -66h-235z" />
    <glyph glyph-name="uni2116" unicode="&#x2116;" horiz-adv-x="1139" 
d="M937 332c-113 0 -181 64 -181 168c0 132 99 223 219 223c117 0 180 -69 180 -169c0 -133 -97 -222 -218 -222zM945 423c59 0 90 59 90 131c0 47 -21 78 -68 78c-57 0 -91 -56 -91 -131c0 -49 22 -78 69 -78zM148 715h189l162 -463l73 463h146l-113 -715h-162l-184 499
l-78 -499h-146zM739 266h371l-13 -85h-371z" />
    <glyph glyph-name="trademark" unicode="&#x2122;" horiz-adv-x="756" 
d="M413 715h106l41 -183l99 183h115l-51 -322h-89l32 208l-116 -208h-28l-50 208l-33 -208h-77zM179 645h-88l11 70h265l-11 -70h-88l-40 -252h-88z" />
    <glyph glyph-name="Omega" unicode="&#x2126;" horiz-adv-x="826" 
d="M450 598c-155 0 -229 -133 -229 -276c0 -107 49 -185 132 -245l-12 -77h-322l18 121h118c-51 40 -98 116 -98 219c0 216 173 385 396 385c214 0 344 -139 344 -317c0 -110 -47 -223 -142 -287h115l-18 -121h-311l12 77c106 64 177 182 177 318c0 112 -56 203 -180 203z
" />
    <glyph glyph-name="onethird" unicode="&#x2153;" horiz-adv-x="802" 
d="M166 608l-89 -49l14 91l107 65h95l-58 -363h-109zM643 715h85l-605 -715h-86zM589 -6c-84 0 -152 35 -152 126h98c1 -31 15 -49 50 -49c24 0 50 13 50 45c0 25 -16 37 -48 37h-26l10 64h31c31 0 50 13 50 40c0 23 -11 36 -39 36c-29 0 -47 -15 -54 -45h-95
c11 76 70 121 157 121c67 0 134 -23 134 -98c0 -43 -29 -73 -73 -86c35 -7 61 -31 61 -76c0 -77 -71 -115 -154 -115z" />
    <glyph glyph-name="twothirds" unicode="&#x2154;" horiz-adv-x="852" 
d="M31 367l148 132c43 37 80 70 80 105c0 24 -14 35 -34 35c-27 0 -45 -16 -54 -57h-100c13 92 77 138 161 138c72 0 135 -30 135 -107c0 -55 -37 -89 -101 -144l-45 -39h119l-12 -78h-300zM708 715h85l-605 -715h-86zM639 -6c-84 0 -152 35 -152 126h98
c1 -31 15 -49 50 -49c24 0 50 13 50 45c0 25 -16 37 -48 37h-26l10 64h31c31 0 50 13 50 40c0 23 -11 36 -39 36c-29 0 -47 -15 -54 -45h-95c11 76 70 121 157 121c67 0 134 -23 134 -98c0 -43 -29 -73 -73 -86c35 -7 61 -31 61 -76c0 -77 -71 -115 -154 -115z" />
    <glyph glyph-name="oneeighth" unicode="&#x215b;" horiz-adv-x="796" 
d="M166 608l-89 -49l14 91l107 65h95l-58 -363h-109zM643 715h85l-605 -715h-86zM584 -6c-75 0 -154 27 -154 103c0 56 32 84 81 100c-27 13 -43 34 -43 65c0 73 72 107 144 107c68 0 138 -28 138 -97c0 -42 -21 -70 -62 -84c36 -15 54 -42 54 -77c0 -83 -79 -117 -158 -117
zM539 110c0 -23 15 -41 46 -41c27 0 52 15 52 48c0 25 -17 43 -46 43c-27 0 -52 -17 -52 -50zM565 255c0 -23 17 -36 40 -36c27 0 46 14 46 42c0 21 -17 36 -42 36c-23 0 -44 -14 -44 -42z" />
    <glyph glyph-name="threeeighths" unicode="&#x215c;" horiz-adv-x="846" 
d="M212 345c-84 0 -152 35 -152 126h98c1 -31 15 -49 50 -49c24 0 50 13 50 45c0 25 -16 37 -48 37h-26l10 64h31c31 0 50 13 50 40c0 23 -11 36 -39 36c-29 0 -47 -15 -54 -45h-95c11 76 70 121 157 121c67 0 134 -23 134 -98c0 -43 -29 -73 -73 -86c35 -7 61 -31 61 -76
c0 -77 -71 -115 -154 -115zM699 715h85l-605 -715h-86zM633 -7c-75 0 -154 27 -154 103c0 56 32 84 81 100c-27 13 -43 34 -43 65c0 73 72 107 144 107c68 0 138 -28 138 -97c0 -42 -21 -70 -62 -84c36 -15 54 -42 54 -77c0 -83 -79 -117 -158 -117zM588 109
c0 -23 15 -41 46 -41c27 0 52 15 52 48c0 25 -17 43 -46 43c-27 0 -52 -17 -52 -50zM614 254c0 -23 17 -36 40 -36c27 0 46 14 46 42c0 21 -17 36 -42 36c-23 0 -44 -14 -44 -42z" />
    <glyph glyph-name="fiveeighths" unicode="&#x215d;" horiz-adv-x="831" 
d="M205 345c-76 0 -145 30 -148 118h101c3 -23 14 -38 45 -38c28 0 49 20 49 57c0 29 -15 43 -45 43c-24 0 -39 -10 -51 -26h-77l43 216h254l-13 -78h-177l-15 -81c16 19 42 38 87 38c60 0 103 -35 103 -103c-1 -95 -64 -145 -156 -146zM686 715h85l-605 -715h-86zM618 -6
c-75 0 -154 27 -154 103c0 56 32 84 81 100c-27 13 -43 34 -43 65c0 73 72 107 144 107c68 0 138 -28 138 -97c0 -42 -21 -70 -62 -84c36 -15 54 -42 54 -77c0 -83 -79 -117 -158 -117zM573 110c0 -23 15 -41 46 -41c27 0 52 15 52 48c0 25 -17 43 -46 43
c-27 0 -52 -17 -52 -50zM599 255c0 -23 17 -36 40 -36c27 0 46 14 46 42c0 21 -17 36 -42 36c-23 0 -44 -14 -44 -42z" />
    <glyph glyph-name="seveneighths" unicode="&#x215e;" horiz-adv-x="787" 
d="M232 629h-151l14 86h291l-3 -12l-187 -351h-112zM631 715h85l-605 -715h-86zM575 -6c-75 0 -154 27 -154 103c0 56 32 84 81 100c-27 13 -43 34 -43 65c0 73 72 107 144 107c68 0 138 -28 138 -97c0 -42 -21 -70 -62 -84c36 -15 54 -42 54 -77c0 -83 -79 -117 -158 -117z
M530 110c0 -23 15 -41 46 -41c27 0 52 15 52 48c0 25 -17 43 -46 43c-27 0 -52 -17 -52 -50zM556 255c0 -23 17 -36 40 -36c27 0 46 14 46 42c0 21 -17 36 -42 36c-23 0 -44 -14 -44 -42z" />
    <glyph glyph-name="Delta" unicode="&#x2206;" horiz-adv-x="717" 
d="M-19 20l338 695h224l114 -695l-3 -20h-675zM183 127h298l-73 475z" />
    <glyph glyph-name="minus" unicode="&#x2212;" horiz-adv-x="565" 
d="M63 397h480l-18 -113h-480z" />
    <glyph glyph-name="approxequal" unicode="&#x2248;" horiz-adv-x="561" 
d="M64 342c16 111 74 157 141 157c75 0 154 -42 204 -42c23 0 44 14 49 45h89c-13 -107 -75 -157 -139 -157c-78 0 -156 42 -206 42c-24 0 -43 -16 -50 -45h-88zM30 137c16 112 75 157 142 157c75 0 154 -42 204 -42c23 0 42 14 49 45h89c-13 -107 -76 -156 -139 -156
c-79 0 -155 41 -206 41c-24 0 -43 -16 -50 -45h-89z" />
    <glyph glyph-name="notequal" unicode="&#x2260;" horiz-adv-x="542" 
d="M77 472h228l50 99h101l-50 -99h123l-16 -104h-159l-44 -87h189l-16 -103h-225l-50 -99h-101l50 99h-126l16 103h162l44 87h-192z" />
    <glyph glyph-name="lessequal" unicode="&#x2264;" horiz-adv-x="521" 
d="M65 356l5 29l442 214l-21 -134l-216 -99l184 -104l-21 -128zM25 100h408l-15 -100h-408z" />
    <glyph glyph-name="greaterequal" unicode="&#x2265;" horiz-adv-x="521" 
d="M35 100h408l-15 -100h-408zM487 377l-5 -29l-442 -214l21 134l216 99l-184 104l21 128z" />
    <glyph glyph-name="uni24C5" unicode="&#x24c5;" horiz-adv-x="855" 
d="M306 560h148c107 0 158 -47 158 -132v-3c0 -85 -56 -127 -153 -127h-46v-139h-107v401zM449 371c41 0 61 18 61 54v3c0 33 -20 50 -60 50h-37v-107h36zM438 32c176 0 322 131 322 327c0 192 -143 324 -320 324c-179 0 -321 -134 -321 -326c0 -195 148 -325 319 -325z
M438 -16c-208 0 -376 162 -376 373c0 208 167 374 378 374c216 0 377 -165 377 -372c0 -212 -167 -375 -379 -375z" />
    <glyph glyph-name="zero.tab" unicode="&#xe44f;" 
d="M199 293c-4 -25 -7 -48 -7 -69c0 -64 24 -112 98 -112c75 0 110 47 129 167l23 141c4 26 6 49 6 70c0 67 -23 114 -95 114c-76 0 -112 -53 -131 -170zM282 -11c-152 0 -237 88 -236 233c0 31 2 54 6 81l23 142c31 188 132 280 284 280c153 0 235 -90 235 -235
c0 -25 -1 -51 -6 -79l-22 -141c-30 -187 -125 -281 -284 -281z" />
    <glyph glyph-name="one.tab" unicode="&#xe450;" 
d="M324 548l-205 -130l23 144l224 153h150l-113 -715h-166z" />
    <glyph glyph-name="two.tab" unicode="&#xe451;" 
d="M-5 26l292 279c58 55 138 139 138 217c0 44 -24 80 -77 80c-56 1 -95 -31 -118 -132h-149c27 172 126 256 283 255c119 0 222 -60 222 -190c0 -114 -75 -194 -182 -290l-139 -119h264l-20 -126h-518z" />
    <glyph glyph-name="three.tab" unicode="&#xe452;" 
d="M287 -11c-157 0 -265 73 -262 238h144c3 -67 29 -118 114 -118c76 0 120 38 120 118c0 51 -29 87 -100 87h-49l18 108h60c59 0 106 29 106 102c0 51 -31 80 -87 80c-63 0 -107 -32 -123 -107h-141c23 141 123 228 272 228c111 0 228 -49 228 -185
c0 -87 -50 -148 -133 -172c67 -20 105 -70 105 -146c0 -145 -112 -233 -272 -233z" />
    <glyph glyph-name="four.tab" unicode="&#xe453;" 
d="M329 141h-317l9 57l357 517h191l-72 -460h76l-18 -114h-77l-22 -141h-148zM350 255l52 329l-223 -329h171z" />
    <glyph glyph-name="five.tab" unicode="&#xe454;" 
d="M276 -11c-149 0 -244 74 -241 226h144c1 -63 29 -100 100 -100c79 0 122 58 122 146c0 64 -33 104 -105 104c-60 0 -99 -25 -130 -58h-86l74 408h435l-19 -123h-318l-32 -179c32 35 82 64 150 64c116 0 189 -76 189 -201c0 -169 -107 -287 -283 -287z" />
    <glyph glyph-name="six.tab" unicode="&#xe455;" 
d="M299 -11c-157 0 -254 84 -254 249c0 29 4 62 9 95l8 55c32 189 134 337 322 337c141 0 217 -66 217 -198h-139c-3 48 -23 80 -86 80c-97 0 -145 -102 -166 -225c35 45 90 82 165 82c112 0 195 -74 195 -200c0 -159 -107 -275 -271 -275zM190 221c0 -60 35 -112 110 -112
c76 0 124 60 124 141c0 57 -34 106 -107 106c-72 0 -127 -52 -127 -135z" />
    <glyph glyph-name="seven.tab" unicode="&#xe456;" 
d="M405 583h-310l21 132h517l-3 -18l-371 -697h-167z" />
    <glyph glyph-name="eight.tab" unicode="&#xe457;" 
d="M290 -11c-123 0 -257 56 -257 195c0 104 59 171 154 203c-48 25 -80 72 -80 128c0 131 116 210 249 210c112 0 226 -58 226 -183c0 -89 -47 -136 -122 -167c65 -29 102 -85 102 -153c0 -155 -124 -233 -272 -233zM185 208c0 -60 46 -98 110 -98c71 0 121 43 121 119
c0 60 -45 97 -106 97c-72 0 -125 -42 -125 -118zM246 512c0 -48 35 -86 95 -86c53 0 101 31 101 98c0 48 -36 86 -92 86c-57 0 -104 -34 -104 -98z" />
    <glyph glyph-name="nine.tab" unicode="&#xe458;" 
d="M260 -10c-136 0 -226 63 -230 203h142c7 -61 37 -85 97 -85c84 0 138 71 161 222c-33 -45 -89 -79 -164 -79c-108 0 -195 70 -195 200c0 156 109 275 277 275c153 0 245 -83 246 -247c0 -29 -3 -63 -8 -96l-10 -62c-37 -231 -141 -331 -316 -331zM217 466
c0 -63 35 -106 100 -106c73 0 134 46 134 134c0 59 -31 113 -106 113c-76 0 -128 -57 -128 -141z" />
    <glyph glyph-name="cent.tab" unicode="&#xe459;" 
d="M243 -5c-117 20 -197 101 -198 229c0 183 123 305 284 310l15 95h71l-16 -99c103 -17 173 -80 178 -200h-132c-3 51 -26 79 -63 90l-52 -327c55 7 93 37 108 105h128c-21 -131 -116 -206 -253 -209l-19 -124h-71zM187 225c0 -68 24 -110 73 -126l51 325
c-73 -13 -124 -79 -124 -199z" />
    <glyph glyph-name="dollar.tab" unicode="&#xe45a;" 
d="M296 -11l-19 -124h-67l20 129c-131 19 -214 103 -209 229h138c1 -56 28 -99 89 -115l31 195c-132 34 -195 90 -195 199c0 129 110 223 262 223l14 88h67l-15 -93c115 -16 188 -79 189 -206h-133c-4 52 -31 80 -74 91l-29 -183c128 -32 202 -86 202 -198
c0 -144 -105 -235 -269 -235h-2zM428 202c0 41 -20 63 -85 84l-29 -184c71 4 114 37 114 100zM223 520c0 -37 17 -59 78 -80l27 171c-72 -3 -105 -40 -105 -91z" />
    <glyph glyph-name="Euro.tab" unicode="&#xe45b;" 
d="M48 453h53c33 183 131 272 278 272c148 0 228 -81 221 -233h-138c0 65 -19 111 -87 111c-69 0 -106 -45 -125 -150h168l-22 -67h-157l-9 -60h145l-22 -67h-133c-8 -77 4 -146 96 -146c60 0 98 29 117 120h136c-32 -177 -128 -244 -260 -244c-171 0 -250 105 -237 270h-54
l10 67h53l9 60h-52z" />
    <glyph glyph-name="a.alt" unicode="&#xe4c0;" horiz-adv-x="634" 
d="M320 425c-85 0 -137 -81 -137 -196c0 -80 34 -130 105 -130c79 0 140 82 140 200c0 79 -43 126 -108 126zM232 -11c-117 0 -198 86 -198 227c0 188 106 319 255 319c88 0 136 -46 159 -99l14 87h144l-57 -363c-11 -71 -14 -116 -11 -160h-141c-4 27 -3 61 0 90
c-37 -64 -89 -101 -165 -101z" />
    <glyph glyph-name="t.alt" unicode="&#xe4d3;" horiz-adv-x="378" 
d="M124 420h-75l16 103h75l18 113h145l-18 -113h102l-16 -103h-102l-66 -420h-145z" />
    <glyph glyph-name="f_i" unicode="&#xfb01;" horiz-adv-x="643" 
d="M62 523h69l12 76c19 120 99 169 198 169c43 0 65 -6 85 -13l-17 -108c-13 5 -28 9 -51 9c-43 0 -65 -22 -73 -69l-10 -64h114l-16 -103h-115l-66 -420h-144l66 420h-68zM570 595c-47 0 -81 33 -81 78c0 44 35 78 82 78s81 -33 81 -77c0 -45 -35 -79 -82 -79zM477 523h144
l-83 -523h-144z" />
    <glyph glyph-name="f_l" unicode="&#xfb02;" horiz-adv-x="642" 
d="M62 523h69l12 76c19 120 99 169 198 169c43 0 65 -6 85 -13l-17 -108c-13 5 -28 9 -51 9c-43 0 -65 -22 -73 -69l-10 -64h114l-16 -103h-115l-66 -420h-144l66 420h-68zM514 760h144l-120 -760h-144z" />
    <glyph glyph-name="five.oldtab" horiz-adv-x="600" 
d="M157 112c4 -61 33 -101 105 -101c84 0 123 60 123 148c0 57 -32 106 -105 106c-59 0 -97 -22 -130 -58h-82l74 412h425l-19 -120h-312l-33 -189c32 35 77 65 145 65c112 0 188 -77 188 -200c0 -161 -94 -280 -275 -280c-144 0 -245 74 -242 217h138z" />
    <glyph glyph-name="uni043F.locl" horiz-adv-x="609" 
d="M187 712h350l-13 -87h-351zM527 160c-11 -69 -15 -116 -12 -160h-140c-3 27 -2 56 2 88c-39 -57 -89 -99 -172 -99c-108 0 -179 65 -155 220l50 314h144l-50 -319c-11 -68 12 -104 68 -104c68 0 118 43 130 123l48 300h144z" />
    <glyph glyph-name="adieresis.alt" horiz-adv-x="634" 
d="M320 425c-85 0 -137 -81 -137 -196c0 -80 34 -130 105 -130c79 0 140 82 140 200c0 79 -43 126 -108 126zM232 -11c-117 0 -198 86 -198 227c0 188 106 319 255 319c88 0 136 -46 159 -99l14 87h144l-57 -363c-11 -71 -14 -116 -11 -160h-141c-4 27 -3 61 0 90
c-37 -64 -89 -101 -165 -101zM260 600c-41 0 -74 31 -74 71s34 73 75 73c40 0 73 -32 73 -72c0 -39 -33 -72 -74 -72zM463 600c-40 0 -73 31 -73 71s33 73 74 73s73 -32 73 -72c0 -39 -31 -72 -74 -72z" />
    <glyph glyph-name="acircumflex.alt" horiz-adv-x="634" 
d="M320 425c-85 0 -137 -81 -137 -196c0 -80 34 -130 105 -130c79 0 140 82 140 200c0 79 -43 126 -108 126zM232 -11c-117 0 -198 86 -198 227c0 188 106 319 255 319c88 0 136 -46 159 -99l14 87h144l-57 -363c-11 -71 -14 -116 -11 -160h-141c-4 27 -3 61 0 90
c-37 -64 -89 -101 -165 -101zM318 751h108l93 -156h-98l-60 63l-79 -63h-103z" />
    <glyph glyph-name="abreve.alt" horiz-adv-x="622" 
d="M320 425c-85 0 -137 -81 -137 -196c0 -80 34 -130 105 -130c79 0 140 82 140 200c0 79 -43 126 -108 126zM232 -11c-117 0 -198 86 -198 227c0 188 106 319 255 319c88 0 136 -46 159 -99l14 87h144l-57 -363c-11 -71 -14 -116 -11 -160h-141c-4 27 -3 61 0 90
c-37 -64 -89 -101 -165 -101zM358 598c-90 0 -151 57 -148 149h94c3 -36 22 -54 56 -54c35 0 56 18 62 54h94c-11 -93 -74 -149 -158 -149z" />
    <glyph glyph-name="aacute.alt" horiz-adv-x="634" 
d="M320 425c-85 0 -137 -81 -137 -196c0 -80 34 -130 105 -130c79 0 140 82 140 200c0 79 -43 126 -108 126zM232 -11c-117 0 -198 86 -198 227c0 188 106 319 255 319c88 0 136 -46 159 -99l14 87h144l-57 -363c-11 -71 -14 -116 -11 -160h-141c-4 27 -3 61 0 90
c-37 -64 -89 -101 -165 -101zM368 753h154l-123 -159h-107z" />
    <glyph glyph-name="amacron.alt" horiz-adv-x="622" 
d="M320 425c-85 0 -137 -81 -137 -196c0 -80 34 -130 105 -130c79 0 140 82 140 200c0 79 -43 126 -108 126zM232 -11c-117 0 -198 86 -198 227c0 188 106 319 255 319c88 0 136 -46 159 -99l14 87h144l-57 -363c-11 -71 -14 -116 -11 -160h-141c-4 27 -3 61 0 90
c-37 -64 -89 -101 -165 -101zM227 712h291l-13 -87h-291z" />
    <glyph glyph-name="aogonek.alt" horiz-adv-x="622" 
d="M450 -182c-57 0 -107 20 -107 80c0 50 49 86 91 102h-43c-4 27 -3 61 0 90c-37 -64 -89 -101 -165 -101c-117 0 -198 85 -198 227c0 188 106 319 255 319c88 0 136 -46 159 -99l14 87h144l-57 -363c-11 -68 -15 -113 -12 -156c-27 -21 -66 -46 -66 -80
c0 -17 11 -26 32 -26c13 0 25 2 35 6l-11 -73c-15 -7 -38 -13 -71 -13zM314 425c-85 0 -137 -81 -137 -196c0 -80 34 -130 105 -130c79 0 140 82 140 200c0 79 -43 126 -108 126z" />
    <glyph glyph-name="minus.sup" horiz-adv-x="363" 
d="M96 633h276l-12 -78h-277z" />
    <glyph glyph-name="plus.sup" horiz-adv-x="363" 
d="M180 555h-98l13 78h98l17 102h80l-17 -102h98l-12 -78h-98l-16 -101h-80z" />
    <glyph glyph-name="nine.sup" horiz-adv-x="377" 
d="M244 778c92 0 151 -44 152 -135c0 -19 -1 -39 -4 -56l-2 -12c-17 -113 -77 -172 -182 -172c-75 0 -136 30 -139 110h99c3 -20 12 -31 43 -31c40 0 62 33 71 92c-19 -23 -46 -37 -87 -37c-59 0 -110 34 -110 101c0 88 72 140 159 140zM289 658c0 24 -14 47 -46 47
c-28 0 -52 -22 -52 -59c0 -25 12 -45 44 -45c29 0 54 20 54 57z" />
    <glyph glyph-name="eight.sup" horiz-adv-x="368" 
d="M222 403c-75 0 -154 27 -154 103c0 56 32 84 81 100c-27 13 -43 34 -43 65c0 73 72 107 144 107c68 0 138 -28 138 -97c0 -42 -21 -70 -62 -84c36 -15 54 -42 54 -77c0 -83 -79 -117 -158 -117zM177 519c0 -23 15 -41 46 -41c27 0 52 15 52 48c0 25 -17 43 -46 43
c-27 0 -52 -17 -52 -50zM203 664c0 -23 17 -36 40 -36c27 0 46 14 46 42c0 21 -17 36 -42 36c-23 0 -44 -14 -44 -42z" />
    <glyph glyph-name="seven.sup" horiz-adv-x="328" 
d="M236 687h-151l14 86h291l-3 -12l-187 -351h-112z" />
    <glyph glyph-name="six.sup" horiz-adv-x="377" 
d="M232 403c-92 0 -154 48 -154 141c0 15 1 31 4 47l2 13c17 109 88 174 184 174c72 0 132 -29 135 -108h-99c-4 19 -15 30 -39 30c-39 0 -62 -34 -73 -93c19 23 46 38 87 38c59 0 110 -34 110 -100c0 -93 -69 -142 -157 -142zM185 524c0 -25 14 -47 47 -47
c29 0 51 22 51 59c0 25 -13 45 -44 45c-29 0 -54 -20 -54 -57z" />
    <glyph glyph-name="five.sup" horiz-adv-x="355" 
d="M209 403c-76 0 -145 30 -148 118h101c3 -23 14 -38 45 -38c28 0 49 20 49 57c0 29 -15 43 -45 43c-24 0 -39 -10 -51 -26h-77l43 216h254l-13 -78h-177l-15 -81c16 19 42 38 87 38c60 0 103 -35 103 -103c-1 -95 -64 -145 -156 -146z" />
    <glyph glyph-name="four.sup" horiz-adv-x="378" 
d="M232 479h-181l6 40l195 254h132l-35 -221h47l-12 -73h-46l-11 -69h-106zM247 552l22 143l-105 -143h83z" />
    <glyph glyph-name="f.short" horiz-adv-x="377" 
d="M62 523h69l12 76c19 120 99 169 198 169c43 0 65 -6 85 -13l-17 -108c-13 5 -28 9 -51 9c-43 0 -65 -22 -73 -69l-10 -64h114l-16 -103h-115l-66 -420h-144l66 420h-68z" />
    <glyph glyph-name="f_f.short" horiz-adv-x="690" 
d="M62 523h68l11 69c19 115 99 166 200 166c41 0 63 -5 83 -14l-17 -107c-13 7 -26 9 -49 9c-44 0 -67 -23 -74 -66l-9 -57h170l12 76c19 120 97 169 198 169c43 0 65 -6 84 -13l-16 -108c-13 5 -28 9 -51 9c-43 0 -65 -22 -73 -69l-10 -64h114l-16 -103h-115l-66 -420h-144
l66 420h-170l-66 -420h-144l66 420h-68z" />
    <glyph glyph-name="three.sup" horiz-adv-x="363" 
d="M216 403c-84 0 -152 35 -152 126h98c1 -31 15 -49 50 -49c24 0 50 13 50 45c0 25 -16 37 -48 37h-26l10 64h31c31 0 50 13 50 40c0 23 -11 36 -39 36c-29 0 -47 -15 -54 -45h-95c11 76 70 121 157 121c67 0 134 -23 134 -98c0 -43 -29 -73 -73 -86c35 -7 61 -31 61 -76
c0 -77 -71 -115 -154 -115z" />
    <glyph glyph-name="two.sup" horiz-adv-x="341" 
d="M35 425l148 132c43 37 80 70 80 105c0 24 -14 35 -34 35c-27 0 -45 -16 -54 -57h-100c13 92 77 138 161 138c72 0 135 -30 135 -107c0 -55 -37 -89 -101 -144l-45 -39h119l-12 -78h-300z" />
    <glyph glyph-name="one.sup" horiz-adv-x="278" 
d="M170 666l-89 -49l14 91l107 65h95l-58 -363h-109z" />
    <glyph glyph-name="zero.sup" horiz-adv-x="408" 
d="M186 556c0 -36 13 -69 57 -69c59 0 76 79 76 139c0 36 -14 69 -55 69c-64 0 -78 -91 -78 -139zM239 403c-99 0 -161 56 -161 152c0 120 67 223 190 223c96 0 159 -52 159 -152c0 -124 -64 -223 -188 -223z" />
    <glyph glyph-name="minus.sub" horiz-adv-x="363" 
d="M19 116h276l-12 -78h-277z" />
    <glyph glyph-name="plus.sub" horiz-adv-x="363" 
d="M104 38h-98l13 78h98l17 102h80l-17 -102h98l-12 -78h-98l-16 -101h-80z" />
    <glyph glyph-name="nine.sub" horiz-adv-x="377" 
d="M164 261c92 0 151 -44 152 -135c0 -19 -1 -39 -4 -56l-2 -12c-17 -113 -77 -172 -182 -172c-75 0 -136 30 -139 110h99c3 -20 12 -31 43 -31c40 0 62 33 71 92c-19 -23 -46 -37 -87 -37c-59 0 -110 34 -110 101c0 88 72 140 159 140zM209 141c0 24 -14 47 -46 47
c-28 0 -52 -22 -52 -59c0 -25 12 -45 44 -45c29 0 54 20 54 57z" />
    <glyph glyph-name="eight.sub" horiz-adv-x="368" 
d="M142 -114c-75 0 -154 27 -154 103c0 56 32 84 81 100c-27 13 -43 34 -43 65c0 73 72 107 144 107c68 0 138 -28 138 -97c0 -42 -21 -70 -62 -84c36 -15 54 -42 54 -77c0 -83 -79 -117 -158 -117zM97 2c0 -23 15 -41 46 -41c27 0 52 15 52 48c0 25 -17 43 -46 43
c-27 0 -52 -17 -52 -50zM123 147c0 -23 17 -36 40 -36c27 0 46 14 46 42c0 21 -17 36 -42 36c-23 0 -44 -14 -44 -42z" />
    <glyph glyph-name="seven.sub" horiz-adv-x="328" 
d="M157 169h-151l14 86h291l-3 -12l-187 -351h-112z" />
    <glyph glyph-name="six.sub" horiz-adv-x="377" 
d="M152 -114c-92 0 -154 48 -154 141c0 15 1 31 4 47l2 13c17 109 88 174 184 174c72 0 132 -29 135 -108h-99c-4 19 -15 30 -39 30c-39 0 -62 -34 -73 -93c19 23 46 38 87 38c59 0 110 -34 110 -100c0 -93 -69 -142 -157 -142zM105 7c0 -25 14 -47 47 -47c29 0 51 22 51 59
c0 25 -13 45 -44 45c-29 0 -54 -20 -54 -57z" />
    <glyph glyph-name="five.sub" horiz-adv-x="355" 
d="M129 -114c-76 0 -145 30 -148 118h101c3 -23 14 -38 45 -38c28 0 49 20 49 57c0 29 -15 43 -45 43c-24 0 -39 -10 -51 -26h-77l43 216h254l-13 -78h-177l-15 -81c16 19 42 38 87 38c60 0 103 -35 103 -103c-1 -95 -64 -145 -156 -146z" />
    <glyph glyph-name="four.sub" horiz-adv-x="378" 
d="M152 -39h-181l6 40l195 254h132l-35 -221h47l-12 -73h-46l-11 -69h-106zM167 34l22 143l-105 -143h83z" />
    <glyph glyph-name="three.sub" horiz-adv-x="363" 
d="M136 -114c-84 0 -152 35 -152 126h98c1 -31 15 -49 50 -49c24 0 50 13 50 45c0 25 -16 37 -48 37h-26l10 64h31c31 0 50 13 50 40c0 23 -11 36 -39 36c-29 0 -47 -15 -54 -45h-95c11 76 70 121 157 121c67 0 134 -23 134 -98c0 -43 -29 -73 -73 -86c35 -7 61 -31 61 -76
c0 -77 -71 -115 -154 -115z" />
    <glyph glyph-name="two.sub" horiz-adv-x="341" 
d="M-45 -93l148 132c43 37 80 70 80 105c0 24 -14 35 -34 35c-27 0 -45 -16 -54 -57h-100c13 92 77 138 161 138c72 0 135 -30 135 -107c0 -55 -37 -89 -101 -144l-45 -39h119l-12 -78h-300z" />
    <glyph glyph-name="one.sub" horiz-adv-x="278" 
d="M91 148l-89 -49l14 91l107 65h95l-58 -363h-109z" />
    <glyph glyph-name="zero.sub" horiz-adv-x="408" 
d="M107 38c0 -36 13 -69 57 -69c59 0 76 79 76 139c0 36 -14 69 -55 69c-64 0 -78 -91 -78 -139zM160 -115c-99 0 -161 56 -161 152c0 120 67 223 190 223c96 0 159 -52 159 -152c0 -124 -64 -223 -188 -223z" />
    <glyph glyph-name="nine.den" horiz-adv-x="377" 
d="M182 369c92 0 151 -44 152 -135c0 -19 -1 -39 -4 -56l-2 -12c-17 -113 -77 -172 -182 -172c-75 0 -136 30 -139 110h99c3 -20 12 -31 43 -31c40 0 62 33 71 92c-19 -23 -46 -37 -87 -37c-59 0 -110 34 -110 101c0 88 72 140 159 140zM227 249c0 24 -14 47 -46 47
c-28 0 -52 -22 -52 -59c0 -25 12 -45 44 -45c29 0 54 20 54 57z" />
    <glyph glyph-name="eight.den" horiz-adv-x="368" 
d="M159 -6c-75 0 -154 27 -154 103c0 56 32 84 81 100c-27 13 -43 34 -43 65c0 73 72 107 144 107c68 0 138 -28 138 -97c0 -42 -21 -70 -62 -84c36 -15 54 -42 54 -77c0 -83 -79 -117 -158 -117zM114 110c0 -23 15 -41 46 -41c27 0 52 15 52 48c0 25 -17 43 -46 43
c-27 0 -52 -17 -52 -50zM140 255c0 -23 17 -36 40 -36c27 0 46 14 46 42c0 21 -17 36 -42 36c-23 0 -44 -14 -44 -42z" />
    <glyph glyph-name="seven.den" horiz-adv-x="328" 
d="M174 277h-151l14 86h291l-3 -12l-187 -351h-112z" />
    <glyph glyph-name="six.den" horiz-adv-x="377" 
d="M170 -7c-92 0 -154 48 -154 141c0 15 1 31 4 47l2 13c17 109 88 174 184 174c72 0 132 -29 135 -108h-99c-4 19 -15 30 -39 30c-39 0 -62 -34 -73 -93c19 23 46 38 87 38c59 0 110 -34 110 -100c0 -93 -69 -142 -157 -142zM123 114c0 -25 14 -47 47 -47c29 0 51 22 51 59
c0 25 -13 45 -44 45c-29 0 -54 -20 -54 -57z" />
    <glyph glyph-name="five.den" horiz-adv-x="355" 
d="M147 -6c-76 0 -145 30 -148 118h101c3 -23 14 -38 45 -38c28 0 49 20 49 57c0 29 -15 43 -45 43c-24 0 -39 -10 -51 -26h-77l43 216h254l-13 -78h-177l-15 -81c16 19 42 38 87 38c60 0 103 -35 103 -103c-1 -95 -64 -145 -156 -146z" />
    <glyph glyph-name="four.den" horiz-adv-x="378" 
d="M170 69h-181l6 40l195 254h132l-35 -221h47l-12 -73h-46l-11 -69h-106zM185 142l22 143l-105 -143h83z" />
    <glyph glyph-name="three.den" horiz-adv-x="363" 
d="M154 -6c-84 0 -152 35 -152 126h98c1 -31 15 -49 50 -49c24 0 50 13 50 45c0 25 -16 37 -48 37h-26l10 64h31c31 0 50 13 50 40c0 23 -11 36 -39 36c-29 0 -47 -15 -54 -45h-95c11 76 70 121 157 121c67 0 134 -23 134 -98c0 -43 -29 -73 -73 -86c35 -7 61 -31 61 -76
c0 -77 -71 -115 -154 -115z" />
    <glyph glyph-name="two.den" horiz-adv-x="341" 
d="M-27 15l148 132c43 37 80 70 80 105c0 24 -14 35 -34 35c-27 0 -45 -16 -54 -57h-100c13 92 77 138 161 138c72 0 135 -30 135 -107c0 -55 -37 -89 -101 -144l-45 -39h119l-12 -78h-300z" />
    <glyph glyph-name="one.den" horiz-adv-x="278" 
d="M108 256l-89 -49l14 91l107 65h95l-58 -363h-109z" />
    <glyph glyph-name="zero.den" horiz-adv-x="408" 
d="M124 147c0 -36 13 -69 57 -69c59 0 76 79 76 139c0 36 -14 69 -55 69c-64 0 -78 -91 -78 -139zM177 -6c-99 0 -161 56 -161 152c0 120 67 223 190 223c96 0 159 -52 159 -152c0 -124 -64 -223 -188 -223z" />
    <glyph glyph-name="nine.num" horiz-adv-x="377" 
d="M237 720c92 0 151 -44 152 -135c0 -19 -1 -39 -4 -56l-2 -12c-17 -113 -77 -172 -182 -172c-75 0 -136 30 -139 110h99c3 -20 12 -31 43 -31c40 0 62 33 71 92c-19 -23 -46 -37 -87 -37c-59 0 -110 34 -110 101c0 88 72 140 159 140zM282 600c0 24 -14 47 -46 47
c-28 0 -52 -22 -52 -59c0 -25 12 -45 44 -45c29 0 54 20 54 57z" />
    <glyph glyph-name="uni045D.bgr" horiz-adv-x="609" 
d="M533 160c-11 -69 -15 -116 -12 -160h-140c-3 27 -2 56 2 88c-39 -57 -89 -99 -172 -99c-108 0 -179 65 -155 220l50 314h144l-50 -319c-11 -68 12 -104 68 -104c68 0 118 43 130 123l48 300h144zM217 753h150l42 -159h-102z" />
    <glyph glyph-name="eight.num" horiz-adv-x="368" 
d="M214 345c-75 0 -154 27 -154 103c0 56 32 84 81 100c-27 13 -43 34 -43 65c0 73 72 107 144 107c68 0 138 -28 138 -97c0 -42 -21 -70 -62 -84c36 -15 54 -42 54 -77c0 -83 -79 -117 -158 -117zM169 461c0 -23 15 -41 46 -41c27 0 52 15 52 48c0 25 -17 43 -46 43
c-27 0 -52 -17 -52 -50zM195 606c0 -23 17 -36 40 -36c27 0 46 14 46 42c0 21 -17 36 -42 36c-23 0 -44 -14 -44 -42z" />
    <glyph glyph-name="aring.alt" horiz-adv-x="634" 
d="M320 425c-85 0 -137 -81 -137 -196c0 -80 34 -130 105 -130c79 0 140 82 140 200c0 79 -43 126 -108 126zM232 -11c-117 0 -198 86 -198 227c0 188 106 319 255 319c88 0 136 -46 159 -99l14 87h144l-57 -363c-11 -71 -14 -116 -11 -160h-141c-4 27 -3 61 0 90
c-37 -64 -89 -101 -165 -101zM364 643c28 0 49 22 49 54c0 31 -19 51 -47 51c-29 0 -50 -22 -50 -53s19 -52 48 -52zM364 585c-63 0 -113 49 -113 110c0 60 52 111 115 111s113 -48 113 -109s-54 -112 -115 -112z" />
    <glyph glyph-name="uni20B4.old" horiz-adv-x="645" 
d="M598 213c-24 -133 -132 -223 -300 -223c-152 0 -231 73 -231 176c0 33 8 64 24 91h-66l10 65h122c32 21 73 41 123 60h-236l10 65h365c24 21 30 45 30 73c0 43 -24 68 -80 68c-64 0 -99 -30 -115 -90h-144c27 133 123 205 276 205c136 0 212 -80 212 -169
c0 -33 -7 -62 -22 -87h66l-10 -65h-118c-32 -23 -73 -41 -125 -60h235l-11 -65h-361c-27 -25 -32 -52 -32 -80c0 -44 32 -73 91 -73c89 0 123 52 137 109h150z" />
    <glyph glyph-name="uni20B4.oldtab" horiz-adv-x="600" 
d="M572 213c-27 -133 -133 -223 -293 -223c-143 0 -219 72 -216 175c0 34 8 65 24 92h-64l10 65h117c31 23 69 41 117 60h-225l11 65h347c23 21 28 45 29 73c1 43 -23 68 -76 68c-61 0 -94 -30 -110 -90h-135c27 133 117 205 262 205c129 0 198 -80 198 -169
c0 -32 -7 -61 -21 -87h61l-10 -65h-111c-31 -23 -70 -41 -119 -60h221l-11 -65h-340c-27 -27 -32 -53 -33 -81c0 -44 32 -72 88 -72c83 0 126 52 140 109h139z" />
    <glyph glyph-name="uni20B4.tab" horiz-adv-x="600" 
d="M564 220c-30 -137 -129 -230 -291 -230c-145 0 -218 74 -215 182c1 35 10 66 25 93h-60l10 67h115c31 23 70 43 119 62h-223l11 67h345c23 23 27 47 28 76c1 43 -22 69 -74 69c-60 0 -94 -30 -110 -93h-137c31 137 120 212 267 212c128 0 197 -83 197 -174
c-1 -34 -9 -64 -23 -90h60l-11 -67h-108c-31 -24 -71 -43 -120 -62h219l-12 -67h-340c-27 -27 -32 -55 -33 -82c-1 -47 29 -76 85 -76c84 0 120 54 133 113h143z" />
    <glyph glyph-name="aringacute.alt" horiz-adv-x="622" 
d="M320 425c-85 0 -137 -81 -137 -196c0 -80 34 -130 105 -130c79 0 140 82 140 200c0 79 -43 126 -108 126zM232 -11c-117 0 -198 86 -198 227c0 188 106 319 255 319c88 0 136 -46 159 -99l14 87h144l-57 -363c-11 -71 -14 -116 -11 -160h-141c-4 27 -3 61 0 90
c-37 -64 -89 -101 -165 -101zM363 632c28 0 49 22 49 54c0 31 -19 51 -47 51c-29 0 -50 -22 -50 -53s19 -52 48 -52zM363 574c-63 0 -113 49 -113 110c0 60 52 111 115 111s113 -48 113 -109s-54 -112 -115 -112zM389 967h158l-112 -139h-111z" />
    <glyph glyph-name="uni20B8.old" horiz-adv-x="567" 
d="M83 629l11 65h513l-11 -65h-513zM232 445h-178l20 123h514l-21 -123h-177l-70 -445h-158z" />
    <glyph glyph-name="uni20B8.oldtab" horiz-adv-x="600" 
d="M102 629l10 65h501l-11 -65h-500zM244 445h-171l20 123h501l-21 -123h-171l-70 -445h-158z" />
    <glyph glyph-name="uni20B8.tab" horiz-adv-x="600" 
d="M96 649l11 66h529l-10 -66h-530zM250 459h-184l21 127h530l-21 -127h-184l-72 -459h-163z" />
    <glyph glyph-name="atilde.alt" horiz-adv-x="634" 
d="M320 425c-85 0 -137 -81 -137 -196c0 -80 34 -130 105 -130c79 0 140 82 140 200c0 79 -43 126 -108 126zM232 -11c-117 0 -198 86 -198 227c0 188 106 319 255 319c88 0 136 -46 159 -99l14 87h144l-57 -363c-11 -71 -14 -116 -11 -160h-141c-4 27 -3 61 0 90
c-37 -64 -89 -101 -165 -101zM423 598c-54 0 -85 38 -115 38c-17 0 -32 -14 -39 -37h-83c15 93 60 141 120 141c51 0 84 -37 116 -37c19 0 31 12 38 37h84c-16 -95 -64 -142 -121 -142z" />
    <glyph glyph-name="uni20BD.old" horiz-adv-x="636" 
d="M356 362c87 0 131 44 131 125c0 59 -35 88 -105 88h-72l-33 -213h79zM242 132l-20 -132h-157l21 132h-87l10 64h87l9 60h-87l10 64h87l58 374h226c149 0 237 -69 238 -192c0 -171 -119 -250 -278 -250h-98l-9 -56h224l-10 -64h-224z" />
    <glyph glyph-name="uni20BD.oldtab" horiz-adv-x="600" 
d="M336 362c85 0 129 44 129 125c0 59 -34 88 -103 88h-60l-31 -213h65zM236 132l-20 -132h-153l20 132h-84l9 64h85l9 60h-85l10 64h85l57 374h209c148 0 233 -69 233 -192c0 -171 -116 -250 -272 -250h-85l-8 -56h208l-10 -64h-208z" />
    <glyph glyph-name="uni20BD.tab" horiz-adv-x="600" 
d="M348 373c87 0 132 46 132 130c0 60 -35 90 -106 90h-69l-32 -220h75zM238 136l-20 -136h-151l20 136h-82l9 66h83l10 62h-83l9 67h84l57 384h216c147 0 233 -72 233 -197c0 -177 -116 -258 -272 -258h-95l-8 -58h217l-10 -66h-217z" />
    <glyph glyph-name="seven.num" horiz-adv-x="328" 
d="M229 629h-151l14 86h291l-3 -12l-187 -351h-112z" />
    <glyph glyph-name="six.num" horiz-adv-x="377" 
d="M225 345c-92 0 -154 48 -154 141c0 15 1 31 4 47l2 13c17 109 88 174 184 174c72 0 132 -29 135 -108h-99c-4 19 -15 30 -39 30c-39 0 -62 -34 -73 -93c19 23 46 38 87 38c59 0 110 -34 110 -100c0 -93 -69 -142 -157 -142zM178 466c0 -25 14 -47 47 -47
c29 0 51 22 51 59c0 25 -13 45 -44 45c-29 0 -54 -20 -54 -57z" />
    <glyph glyph-name="five.num" horiz-adv-x="355" 
d="M202 345c-76 0 -145 30 -148 118h101c3 -23 14 -38 45 -38c28 0 49 20 49 57c0 29 -15 43 -45 43c-24 0 -39 -10 -51 -26h-77l43 216h254l-13 -78h-177l-15 -81c16 19 42 38 87 38c60 0 103 -35 103 -103c-1 -95 -64 -145 -156 -146z" />
    <glyph glyph-name="four.num" horiz-adv-x="378" 
d="M225 421h-181l6 40l195 254h132l-35 -221h47l-12 -73h-46l-11 -69h-106zM240 494l22 143l-105 -143h83z" />
    <glyph glyph-name="three.num" horiz-adv-x="363" 
d="M209 345c-84 0 -152 35 -152 126h98c1 -31 15 -49 50 -49c24 0 50 13 50 45c0 25 -16 37 -48 37h-26l10 64h31c31 0 50 13 50 40c0 23 -11 36 -39 36c-29 0 -47 -15 -54 -45h-95c11 76 70 121 157 121c67 0 134 -23 134 -98c0 -43 -29 -73 -73 -86c35 -7 61 -31 61 -76
c0 -77 -71 -115 -154 -115z" />
    <glyph glyph-name="two.num" horiz-adv-x="341" 
d="M28 367l148 132c43 37 80 70 80 105c0 24 -14 35 -34 35c-27 0 -45 -16 -54 -57h-100c13 92 77 138 161 138c72 0 135 -30 135 -107c0 -55 -37 -89 -101 -144l-45 -39h119l-12 -78h-300z" />
    <glyph glyph-name="uni021B.alt" horiz-adv-x="366" 
d="M1 -201l58 170l129 -21l-107 -176zM124 420h-75l16 103h75l18 113h145l-18 -113h102l-16 -103h-102l-66 -420h-145z" />
    <glyph glyph-name="uni0437.bgr" horiz-adv-x="510" 
d="M199 -189c-130 0 -218 70 -221 207h128c3 -65 34 -102 90 -102c60 0 98 47 98 120c0 63 -32 98 -99 98h-48l15 102h49c71 0 112 35 113 111c0 52 -24 83 -72 83c-49 0 -80 -28 -92 -83h-125c20 121 107 186 227 186c119 0 203 -62 203 -177c0 -84 -55 -160 -149 -171
c75 -15 124 -67 124 -150c0 -141 -103 -224 -241 -224z" />
    <glyph glyph-name="uni0449.bgr" horiz-adv-x="915" 
d="M727 -127l10 127h-78c-2 27 -1 56 3 88c-35 -60 -97 -100 -173 -100c-71 0 -120 32 -137 103c-51 -76 -115 -103 -179 -103c-100 0 -170 62 -146 213l50 322h144l-49 -312c-11 -72 10 -105 66 -105c55 0 103 37 116 114l48 303h142l-49 -315c-11 -68 13 -102 66 -102
c57 0 104 39 116 114l48 303h144l-67 -420h81l-37 -230h-119z" />
    <glyph glyph-name="one.num" horiz-adv-x="278" 
d="M163 608l-89 -49l14 91l107 65h95l-58 -363h-109z" />
    <glyph glyph-name="uni044A.bgr" horiz-adv-x="573" 
d="M32 420l16 103h258l-28 -172c6 0 41 1 54 1c139 0 210 -60 210 -164c0 -115 -83 -198 -235 -198c-156 0 -214 92 -193 231l32 199h-114zM313 92c55 0 84 42 84 91c0 45 -25 72 -78 72c-12 0 -48 -1 -56 -1l-10 -62c-11 -67 9 -100 60 -100z" />
    <glyph glyph-name="zero.num" horiz-adv-x="408" 
d="M179 498c0 -36 13 -69 57 -69c59 0 76 79 76 139c0 36 -14 69 -55 69c-64 0 -78 -91 -78 -139zM232 345c-99 0 -161 56 -161 152c0 120 67 223 190 223c96 0 159 -52 159 -152c0 -124 -64 -223 -188 -223z" />
    <glyph glyph-name="nine.oldtab" horiz-adv-x="600" 
d="M419 403c0 67 -30 113 -106 113c-71 0 -124 -60 -124 -139c0 -61 32 -107 103 -107c72 0 127 56 127 133zM319 630c159 0 242 -92 242 -247c0 -31 -3 -59 -8 -90l-8 -53c-39 -240 -140 -346 -311 -346c-131 0 -226 59 -229 203h138c4 -55 30 -88 93 -88
c89 0 136 70 165 235c-33 -45 -85 -80 -164 -80c-113 0 -189 77 -189 198c0 158 116 268 271 268z" />
    <glyph glyph-name="eight.oldtab" horiz-adv-x="600" 
d="M283 -11c-126 0 -252 61 -252 194c0 105 65 172 156 200c-51 27 -81 71 -81 132c0 131 114 210 245 210c109 0 219 -53 219 -183c0 -88 -46 -141 -125 -172c67 -29 105 -81 105 -154c0 -149 -126 -227 -267 -227zM242 508c0 -48 35 -84 92 -84c56 0 99 36 99 104
c0 51 -32 86 -88 86c-57 0 -103 -38 -103 -106zM181 200c0 -56 38 -95 107 -95c62 0 117 40 117 120c0 56 -35 96 -103 96c-67 0 -121 -44 -121 -121z" />
    <glyph glyph-name="seven.oldtab" horiz-adv-x="600" 
d="M389 494h-306l19 124h506l-3 -17l-379 -695h-163z" />
    <glyph glyph-name="six.oldtab" horiz-adv-x="600" 
d="M295 -11c-160 0 -247 93 -247 246c0 35 4 67 9 96l8 54c35 223 159 340 316 340c132 0 216 -58 216 -195h-137c-3 49 -26 80 -87 80c-75 0 -137 -71 -165 -235c33 45 86 80 166 80c116 0 185 -75 185 -196c0 -160 -106 -270 -264 -270zM189 220c0 -65 31 -116 107 -116
c71 0 123 61 123 140c0 60 -29 107 -102 107s-128 -52 -128 -131z" />
    <glyph glyph-name="uni0431.locl" horiz-adv-x="606" 
d="M283 -11c-143 0 -254 86 -254 237c0 134 78 234 198 258c13 4 25 7 38 8c7 1 14 1 21 1c-107 37 -173 79 -173 146c0 72 51 121 163 121h158c71 0 116 7 139 14l-17 -110c-19 -9 -71 -18 -132 -18h-158c-29 0 -40 -9 -40 -28c0 -24 26 -38 65 -53
c123 -45 284 -109 284 -281c0 -171 -118 -295 -292 -295zM286 99c94 0 143 82 143 189c0 72 -36 124 -112 124c-91 0 -143 -83 -143 -187c0 -72 31 -126 112 -126z" />
    <glyph glyph-name="slash.uc" horiz-adv-x="435" 
d="M374 777h121l-412 -861h-121z" />
    <glyph glyph-name="germandbls.alt" horiz-adv-x="672" 
d="M428 -9c-108 0 -190 48 -190 162h126c3 -40 19 -63 59 -63c35 0 61 18 61 59c0 37 -32 55 -77 84c-48 29 -99 71 -99 129c0 116 162 151 162 234c0 41 -32 62 -84 62c-67 0 -114 -35 -129 -120l-85 -538h-144l86 544c24 156 137 224 281 224c107 0 215 -43 215 -156
c0 -131 -163 -169 -163 -220c0 -20 19 -30 78 -73c59 -40 99 -83 99 -159c0 -107 -80 -169 -196 -169z" />
    <glyph glyph-name="four.oldtab" horiz-adv-x="600" 
d="M309 47h-317l7 50l357 521h188l-74 -467h82l-16 -104h-82l-23 -141h-145zM328 151l55 344l-234 -344h179z" />
    <glyph glyph-name="three.oldtab" horiz-adv-x="600" 
d="M271 -105c-158 0 -266 80 -263 236h141c3 -80 39 -121 120 -121c71 0 118 39 118 116c1 61 -35 96 -103 96h-49l16 103h54c71 0 113 31 113 107c0 59 -37 84 -92 84c-65 0 -105 -37 -121 -110h-138c21 140 120 224 267 224c113 0 228 -49 228 -182
c0 -84 -43 -147 -132 -174c68 -21 108 -69 108 -152c0 -144 -119 -227 -267 -227z" />
    <glyph glyph-name="two.oldtab" horiz-adv-x="600" 
d="M-5 25l266 217c67 54 146 123 146 193c0 52 -27 78 -82 78c-60 0 -101 -39 -118 -122h-139c25 156 125 239 270 239c115 0 226 -54 223 -181c0 -112 -81 -174 -182 -253l-106 -82h247l-17 -114h-512z" />
    <glyph glyph-name="one.oldtab" horiz-adv-x="600" 
d="M314 465l-205 -125l20 134l228 145h134l-98 -619h-152z" />
    <glyph glyph-name="zero.oldtab" horiz-adv-x="600" 
d="M279 -11c-149 0 -239 85 -239 225c0 25 1 45 4 68l14 89c27 164 131 259 280 259s236 -92 236 -228c0 -20 -2 -42 -5 -63l-14 -89c-27 -168 -123 -261 -276 -261zM284 112c73 0 108 49 123 146l14 89c4 22 6 41 6 58c0 68 -31 105 -94 105c-72 0 -112 -52 -127 -147
l-14 -89c-3 -23 -5 -41 -5 -60c0 -60 25 -102 97 -102z" />
    <glyph glyph-name="yen.oldtab" horiz-adv-x="600" 
d="M90 354h141l-126 340h157l77 -244l150 244h141l-227 -340h145l-10 -65h-154l-10 -59h154l-10 -65h-154l-26 -165h-152l25 165h-150l10 65h150l10 59h-151z" />
    <glyph glyph-name="sterling.oldtab" horiz-adv-x="600" 
d="M62 384h55c-3 23 -4 47 -4 74c0 144 90 245 249 245c141 0 222 -68 217 -213h-134c0 60 -23 92 -86 92c-84 0 -104 -69 -104 -143c0 -20 0 -38 1 -55h174l-15 -96h-155v-17c0 -48 -7 -87 -28 -124c45 -13 85 -31 116 -31c39 0 66 18 74 66h128
c-17 -120 -80 -191 -192 -191c-86 0 -147 55 -195 55c-31 0 -48 -21 -52 -46h-113c11 68 46 129 107 152c17 30 25 64 25 102c0 11 -1 22 -2 34h-81z" />
    <glyph glyph-name="Euro.oldtab" horiz-adv-x="600" 
d="M53 439h52c32 176 128 264 269 264c144 -1 221 -78 214 -225h-132c0 64 -18 109 -86 109s-104 -44 -124 -148h166l-22 -65h-155l-9 -58h144l-22 -65h-131c-8 -76 5 -144 96 -144c59 0 96 30 116 119h129c-29 -172 -126 -237 -251 -237c-164 0 -244 102 -231 262h-53
l10 65h52l9 58h-51z" />
    <glyph glyph-name="uni0433.bgr" horiz-adv-x="495" 
d="M223 -12c-127 0 -208 54 -207 153c1 96 72 150 204 177c93 19 112 38 112 73c0 31 -22 46 -65 46c-44 0 -74 -28 -83 -64h-132c18 106 112 162 221 162c120 0 198 -54 198 -146c0 -101 -63 -144 -203 -170c-91 -16 -107 -45 -107 -80c0 -31 27 -49 66 -49
c56 0 82 29 93 73h135c-23 -116 -111 -175 -232 -175z" />
    <glyph glyph-name="uni043F.bgr" horiz-adv-x="611" 
d="M78 357c12 75 15 119 18 166h139c0 -27 -1 -62 -5 -94c37 60 95 106 180 106c102 0 173 -64 149 -221l-50 -314h-144l49 313c12 69 -11 104 -70 104c-68 0 -119 -43 -131 -123l-47 -294h-144z" />
    <glyph glyph-name="uni0448.bgr" horiz-adv-x="894" 
d="M812 160c-11 -69 -15 -116 -12 -160h-141c-2 27 -1 56 3 88c-35 -60 -97 -100 -173 -100c-71 0 -120 32 -137 103c-51 -76 -115 -103 -179 -103c-100 0 -170 62 -146 213l50 322h144l-49 -312c-11 -72 10 -105 66 -105c55 0 103 37 116 114l48 303h142l-49 -315
c-11 -68 13 -102 66 -102c57 0 104 39 116 114l48 303h144z" />
    <glyph glyph-name="uni044E.bgr" horiz-adv-x="816" 
d="M503 -11c-128 0 -221 75 -237 203c-3 5 -2 13 -3 20h-63l-33 -212h-144l119 760h143l-69 -445h57c32 130 134 219 270 219s244 -84 244 -237c0 -180 -117 -308 -284 -308zM507 99c88 0 134 87 134 202c0 72 -33 124 -102 124c-84 0 -135 -85 -135 -200
c0 -72 28 -126 103 -126z" />
    <glyph glyph-name="dollar.oldtab" horiz-adv-x="600" 
d="M217 505c0 -36 17 -58 77 -79l26 169c-69 -4 -103 -41 -103 -90zM420 195c0 41 -18 63 -83 84l-29 -183c69 3 112 38 112 99zM291 -10l-19 -121h-66l20 126c-129 20 -208 98 -204 221h132c1 -55 26 -99 89 -114l30 194c-127 33 -188 85 -188 192c0 126 104 212 252 215
l14 86h66l-14 -90c111 -16 182 -77 183 -200h-126c-5 53 -31 79 -74 90l-29 -181c125 -32 197 -84 197 -192c0 -140 -102 -226 -261 -226h-2z" />
    <glyph glyph-name="braceright.tab" horiz-adv-x="312" 
d="M110 776c171 -7 219 -92 164 -236l-34 -87c-20 -52 -8 -85 60 -100l-14 -93c-73 -8 -93 -41 -90 -90l3 -109c8 -160 -73 -209 -236 -209l15 96c68 3 93 22 93 105l-1 111c0 83 40 123 121 146c-72 27 -102 75 -70 164l30 85c29 81 15 113 -56 120z" />
    <glyph glyph-name="braceleft.tab" horiz-adv-x="312" 
d="M217 -148c-172 5 -219 92 -164 236l33 87c20 52 9 85 -59 100l14 93c73 8 92 41 89 89l-3 110c-8 160 75 209 237 209l-16 -97c-68 0 -92 -22 -92 -104v-111c1 -84 -40 -124 -121 -147c72 -27 103 -74 71 -163l-30 -85c-29 -83 -16 -113 56 -120z" />
    <glyph glyph-name="bracketright.tab" horiz-adv-x="312" 
d="M-21 -49h90l115 726h-90l15 99h223l-146 -924h-222z" />
    <glyph glyph-name="uni0434.bgr" horiz-adv-x="634" 
d="M286 131c86 0 149 71 149 179c0 72 -45 116 -113 116c-91 0 -140 -84 -140 -172c0 -73 35 -123 104 -123zM534 29c-24 -149 -106 -222 -277 -222c-185 0 -251 90 -259 182h144c7 -40 37 -76 112 -76c89 0 124 46 136 119l12 74c-36 -55 -88 -83 -163 -83
c-120 0 -206 82 -206 222c0 165 108 290 258 290c88 0 139 -40 164 -92l13 80h144z" />
    <glyph glyph-name="bracketleft.tab" horiz-adv-x="312" 
d="M140 776h223l-15 -99h-90l-115 -726h90l-16 -99h-223z" />
    <glyph glyph-name="uni0438.bgr" horiz-adv-x="609" 
d="M527 160c-11 -69 -15 -116 -12 -160h-140c-3 27 -2 56 2 88c-39 -57 -89 -99 -172 -99c-108 0 -179 65 -155 220l50 314h144l-50 -319c-11 -68 12 -104 68 -104c68 0 118 43 130 123l48 300h144z" />
    <glyph glyph-name="agrave.alt" horiz-adv-x="634" 
d="M320 425c-85 0 -137 -81 -137 -196c0 -80 34 -130 105 -130c79 0 140 82 140 200c0 79 -43 126 -108 126zM232 -11c-117 0 -198 86 -198 227c0 188 106 319 255 319c88 0 136 -46 159 -99l14 87h144l-57 -363c-11 -71 -14 -116 -11 -160h-141c-4 27 -3 61 0 90
c-37 -64 -89 -101 -165 -101zM215 753h150l42 -159h-102z" />
    <glyph glyph-name="parenright.tab" horiz-adv-x="312" 
d="M197 774c40 -80 86 -184 86 -347c0 -215 -83 -407 -224 -575h-114c129 176 208 375 208 582c0 155 -31 261 -64 340h108z" />
    <glyph glyph-name="parenleft.tab" horiz-adv-x="312" 
d="M129 -148c-40 80 -86 184 -86 347c0 215 83 407 224 575h114c-129 -176 -208 -375 -208 -582c0 -155 29 -261 64 -340h-108z" />
    <glyph glyph-name="uni044C.bgr" horiz-adv-x="509" 
d="M243 -10c-156 0 -214 92 -193 231l48 302h144l-28 -172c6 0 41 1 54 1c139 0 210 -60 210 -164c0 -115 -83 -198 -235 -198zM249 92c55 0 84 42 84 91c0 45 -25 72 -78 72c-12 0 -48 -1 -56 -1l-10 -62c-11 -67 9 -100 60 -100z" />
    <glyph glyph-name="semicolon.tab" horiz-adv-x="312" 
d="M-31 -85l111 246l127 -51l-157 -233zM178 281c-51 0 -89 39 -89 88c0 48 37 87 88 87s91 -39 91 -87s-39 -88 -90 -88z" />
    <glyph glyph-name="uni0439.bgr" horiz-adv-x="609" 
d="M353 599c-93 0 -152 56 -152 145h101c1 -35 17 -62 52 -62c36 0 55 27 58 62h101c-11 -91 -78 -145 -160 -145zM527 160c-11 -69 -15 -116 -12 -160h-140c-3 27 -2 56 2 88c-39 -57 -89 -99 -172 -99c-108 0 -179 65 -155 220l50 314h144l-50 -319
c-11 -68 12 -104 68 -104c68 0 118 43 130 123l48 300h144z" />
    <glyph glyph-name="uni0414.bgr" horiz-adv-x="719" 
d="M404 586l-216 -458h289zM73 -130h-140l40 258h65l288 587h210l102 -587h65l-41 -258h-141l16 130h-438z" />
    <glyph glyph-name="uni0416.bgr" horiz-adv-x="944" 
d="M403 335l-284 -335h-177l337 390l-183 325h158l160 -311l49 311h161l-49 -310l264 310h174l-310 -345l201 -370h-165l-175 334l-53 -334h-161z" />
    <glyph glyph-name="uni041A.bgr" horiz-adv-x="686" 
d="M249 332l-52 -332h-162l113 715h162l-48 -307l300 307h177l-342 -343l234 -372h-175z" />
    <glyph glyph-name="uni0436.bgr" horiz-adv-x="781" 
d="M321 260l-197 -260h-161l235 295l-121 228h143l107 -226l74 463h141l-73 -464l179 227h155l-209 -243l136 -280h-152l-115 258l-41 -258h-142z" />
    <glyph glyph-name="colon.tab" horiz-adv-x="312" 
d="M125 -9c-51 0 -89 39 -89 88c0 48 37 87 88 87s91 -39 91 -87s-39 -88 -90 -88zM171 281c-51 0 -88 39 -88 88c0 48 36 87 87 87c52 0 92 -39 92 -87s-40 -88 -91 -88z" />
    <glyph glyph-name="comma.tab" horiz-adv-x="312" 
d="M-18 -85l110 246l128 -51l-157 -233z" />
    <glyph glyph-name="uni0432.bgr" horiz-adv-x="529" 
d="M239 -12c-165 0 -226 120 -199 272l50 288c24 141 102 223 251 223c129 0 205 -85 194 -197c-9 -88 -64 -158 -156 -174c83 -16 124 -92 113 -179c-16 -131 -109 -233 -253 -233zM333 668c-59 0 -83 -44 -95 -103l-24 -114h66c71 0 105 43 114 119c8 65 -17 98 -61 98z
M243 92c65 0 96 66 104 138c7 77 -22 122 -86 122h-65l-19 -109c-16 -97 3 -151 66 -151z" />
    <glyph glyph-name="period.tab" horiz-adv-x="312" 
d="M126 -9c-51 0 -89 39 -89 88c0 48 37 87 88 87s91 -39 91 -87c0 -49 -39 -88 -90 -88z" />
    <glyph glyph-name="uni0424.bgr" horiz-adv-x="879" 
d="M316 -10l9 61c-171 19 -276 113 -276 281v7c0 197 140 327 373 338l8 48h161l-8 -48c171 -19 276 -116 276 -284v-8c0 -194 -139 -323 -373 -334l-10 -61h-160zM204 341c0 -103 51 -163 139 -175l62 400c-132 -13 -201 -100 -201 -218v-7zM704 381
c0 107 -50 170 -139 181l-62 -399c133 13 201 95 201 212v6z" />
    <glyph glyph-name="greaterequal.tab" 
d="M80 100h408l-15 -100h-408zM532 377l-5 -29l-442 -214l21 134l216 99l-184 104l21 128z" />
    <glyph glyph-name="lessequal.tab" 
d="M110 356l5 29l442 214l-21 -134l-216 -99l184 -104l-21 -128zM70 100h408l-15 -100h-408z" />
    <glyph glyph-name="greater.tab" 
d="M530 332l-5 -29l-457 -230l21 136l248 114l-210 124l20 126z" />
    <glyph glyph-name="uni0442.bgr" horiz-adv-x="916" 
d="M78 357c12 75 15 119 18 166h139c0 -27 -1 -58 -5 -91c36 60 96 103 172 103c71 0 120 -32 137 -103c51 76 115 103 179 103c100 0 171 -62 147 -213l-50 -322h-145l50 312c11 72 -11 105 -66 105s-104 -37 -116 -114l-48 -303h-143l49 315c11 68 -11 102 -66 102
c-57 0 -104 -39 -116 -114l-48 -303h-144z" />
    <glyph glyph-name="less.tab" 
d="M100 313l4 29l457 230l-20 -135l-249 -114l211 -124l-20 -127z" />
    <glyph glyph-name="approxequal.tab" 
d="M90 342c16 111 74 157 141 157c75 0 154 -42 204 -42c23 0 44 14 49 45h89c-13 -107 -75 -157 -139 -157c-78 0 -156 42 -206 42c-24 0 -43 -16 -50 -45h-88zM56 137c16 112 75 157 142 157c75 0 154 -42 204 -42c23 0 42 14 49 45h89c-13 -107 -76 -156 -139 -156
c-79 0 -155 41 -206 41c-24 0 -43 -16 -50 -45h-89z" />
    <glyph glyph-name="notequal.tab" 
d="M112 472h228l50 99h101l-50 -99h123l-16 -104h-159l-44 -87h189l-16 -103h-225l-50 -99h-101l50 99h-126l16 103h162l44 87h-192z" />
    <glyph glyph-name="equal.tab" 
d="M86 281h444l-16 -103h-444zM116 472h444l-17 -104h-443z" />
    <glyph glyph-name="divide.tab" 
d="M90 393h471l-16 -104h-471zM293 60c-47 0 -83 35 -83 82c0 45 36 82 83 82s84 -37 84 -82c0 -47 -36 -82 -84 -82zM341 458c-47 0 -83 35 -83 82c0 45 36 82 83 82s84 -37 84 -82c0 -47 -36 -82 -84 -82z" />
    <glyph glyph-name="multiply.tab" 
d="M67 184l173 152l-131 154l85 77l133 -154l173 152l69 -79l-174 -153l133 -153l-87 -77l-133 154l-173 -152z" />
    <glyph glyph-name="plusminus.tab" 
d="M258 336h-180l17 108h180l27 172h118l-27 -172h180l-17 -108h-180l-27 -171h-118zM41 100h479l-15 -100h-480z" />
    <glyph glyph-name="minus.tab" 
d="M91 397h471l-18 -113h-471z" />
    <glyph glyph-name="plus.tab" 
d="M250 286h-176l18 109h176l30 191h118l-30 -191h175l-17 -109h-176l-30 -191h-118z" />
    <glyph glyph-name="perthousand.tab" horiz-adv-x="1012" 
d="M174 525c0 -31 12 -54 41 -54c49 0 60 74 60 115c0 33 -11 56 -40 56c-49 0 -61 -73 -61 -117zM210 390c-79 0 -137 50 -136 138c0 101 57 194 165 194c79 0 135 -49 135 -138c0 -99 -56 -194 -164 -194zM599 715h91l-571 -715h-91zM439 125c0 -32 13 -54 41 -54
c50 0 61 72 61 115c0 35 -12 56 -40 56c-48 0 -62 -75 -62 -117zM476 -11c-77 0 -137 50 -137 138c0 102 59 195 166 195c79 0 135 -50 135 -138c0 -99 -56 -195 -164 -195zM766 125c0 -32 12 -54 41 -54c49 0 60 72 60 115c0 35 -10 56 -41 56c-48 0 -60 -75 -60 -117z
M803 -11c-80 0 -137 50 -137 138c0 102 57 195 166 195c76 0 135 -50 135 -138c0 -99 -57 -195 -164 -195z" />
    <glyph glyph-name="percent.tab" horiz-adv-x="812" 
d="M188 538c0 -35 13 -68 60 -68c47 1 71 46 71 98c0 35 -14 69 -58 69c-51 0 -73 -44 -73 -99zM245 383c-94 0 -166 58 -166 153c0 102 77 186 185 186c93 0 164 -62 164 -155c0 -100 -76 -184 -183 -184zM658 715h93l-567 -715h-92zM521 144c0 -35 12 -68 59 -68
c47 1 71 46 71 99c0 33 -14 68 -58 68c-51 0 -72 -44 -72 -99zM577 -11c-94 0 -165 59 -165 153c0 101 77 187 185 187c93 0 163 -62 163 -155c0 -100 -76 -185 -183 -185z" />
    <glyph glyph-name="tbar.alt" horiz-adv-x="366" 
d="M29 335h75l14 85h-75l16 103h75l18 113h145l-18 -113h102l-16 -103h-102l-14 -85h103l-13 -85h-103l-39 -250h-145l39 250h-75z" />
    <glyph glyph-name="tcaron.alt" horiz-adv-x="366" 
d="M124 420h-75l16 103h75l18 113h145l-18 -113h102l-16 -103h-102l-66 -420h-145zM384 760h117l-73 -174h-81z" />
    <glyph glyph-name="uni041B.bgr" horiz-adv-x="706" 
d="M398 583l-270 -583h-156l349 715h210l119 -715h-165z" />
    <glyph glyph-name="tcommaaccent.alt" horiz-adv-x="366" 
d="M1 -201l58 170l129 -21l-107 -176zM124 420h-75l16 103h75l18 113h145l-18 -113h102l-16 -103h-102l-66 -420h-145z" />
    <glyph glyph-name="space_uni0326.alt" horiz-adv-x="412" 
d="M378 749l-58 -170l-128 21l106 175z" />
    <glyph glyph-name="registered.alt" horiz-adv-x="843" 
d="M282 561h153c103 0 160 -41 160 -125v-2c0 -60 -32 -91 -75 -106l99 -168h-111l-87 147h-32v-147h-107v401zM430 378c40 0 60 17 60 51v3c0 35 -20 47 -59 47h-42v-101h41zM432 32c176 0 322 131 322 327c0 192 -143 324 -320 324c-179 0 -321 -134 -321 -326
c0 -195 148 -325 319 -325zM432 -16c-208 0 -376 162 -376 373c0 208 167 374 378 374c216 0 377 -165 377 -372c0 -212 -167 -375 -379 -375z" />
    <glyph glyph-name="caron.alt" horiz-adv-x="412" 
d="M256 760h117l-73 -174h-81z" />
    <glyph glyph-name="questiondown.uc" horiz-adv-x="544" 
d="M395 460c-13 -88 -75 -134 -128 -173c-48 -36 -85 -62 -85 -114c1 -40 27 -65 75 -65c52 0 92 34 104 103h140c-19 -147 -120 -221 -254 -221c-143 0 -218 76 -218 174c0 89 52 138 112 181c50 37 113 70 124 141l1 6h134zM353 723c51 0 89 -37 89 -85
c0 -49 -38 -87 -89 -87s-90 38 -90 86c0 49 39 86 90 86z" />
    <glyph glyph-name="exclamdown.uc" horiz-adv-x="329" 
d="M204 -1h-162l101 492h118zM223 722c51 0 88 -37 88 -85s-38 -87 -89 -87s-90 38 -90 86c0 49 40 86 91 86z" />
    <glyph glyph-name="hyphen.uc" horiz-adv-x="402" 
d="M78 386h282l-18 -119h-282z" />
    <glyph glyph-name="endash.uc" horiz-adv-x="547" 
d="M69 374h444l-15 -92h-444z" />
    <glyph glyph-name="florin.tab" 
d="M127 414h105l24 125c24 136 118 185 222 185c43 0 67 -5 87 -13l-17 -108c-15 5 -33 9 -60 9c-43 0 -80 -22 -92 -86l-21 -112h134l-16 -102h-137l-92 -494h-144l93 494h-102z" />
    <glyph glyph-name="yen.tab" 
d="M89 356h144l-125 359h162l74 -250l150 250h154l-235 -359h150l-11 -66h-159l-9 -60h158l-10 -68h-158l-25 -162h-162l25 162h-154l10 68h155l9 60h-154z" />
    <glyph glyph-name="sterling.tab" 
d="M60 396h56c-3 24 -4 49 -4 76c0 149 93 253 257 253c149 0 232 -69 225 -222h-140c0 63 -23 95 -87 95c-85 0 -108 -71 -108 -145v-29c0 -9 0 -19 1 -28h180l-16 -99h-159v-15c0 -49 -7 -89 -28 -128c47 -13 86 -31 119 -31c37 0 66 17 74 66h136
c-19 -125 -83 -198 -199 -198c-89 0 -151 56 -202 56c-31 0 -48 -20 -53 -47h-118c11 71 47 135 110 158c17 31 25 66 25 105c0 11 -1 22 -2 34h-82z" />
    <glyph glyph-name="emdash.uc" horiz-adv-x="936" 
d="M69 374h833l-15 -92h-833z" />
    <glyph glyph-name="guilsinglleft.uc" horiz-adv-x="324" 
d="M47 305l156 188h110l-153 -190l90 -194h-103z" />
    <glyph glyph-name="guilsinglright.uc" horiz-adv-x="324" 
d="M289 297l-156 -188h-110l153 190l-90 194h103z" />
    <glyph glyph-name="space.tab" horiz-adv-x="300" 
 />
    <glyph glyph-name="nine.old" horiz-adv-x="648" 
d="M350 630c172 0 260 -102 260 -253c0 -36 -3 -65 -8 -100l-6 -33c-39 -239 -159 -349 -334 -349c-131 0 -234 61 -237 202h145c7 -56 34 -85 97 -85c93 0 144 71 175 234c-33 -44 -92 -82 -176 -82c-117 0 -204 71 -204 199c0 159 124 267 288 267zM458 403
c0 65 -34 114 -113 114c-75 0 -130 -62 -130 -142c0 -61 36 -109 109 -109c75 0 134 57 134 137z" />
    <glyph glyph-name="eight.old" horiz-adv-x="644" 
d="M300 -11c-136 0 -264 64 -264 196c0 108 71 174 163 198c-55 27 -85 72 -85 132c0 133 122 210 258 210c112 0 236 -51 236 -185c0 -84 -54 -140 -131 -168c69 -29 109 -84 109 -153c0 -149 -126 -230 -286 -230zM193 203c0 -60 42 -100 114 -100c65 0 125 41 125 122
c0 60 -39 99 -110 99c-69 0 -129 -41 -129 -121zM258 509c0 -51 37 -86 98 -86c57 0 106 36 106 104c0 52 -37 88 -94 88c-60 0 -110 -38 -110 -106z" />
    <glyph glyph-name="uni0442.locl" horiz-adv-x="894" 
d="M189 712h617l-13 -87h-618zM812 160c-11 -69 -15 -116 -12 -160h-141c-2 27 -1 56 3 88c-35 -60 -97 -100 -173 -100c-71 0 -120 32 -137 103c-51 -76 -115 -103 -179 -103c-100 0 -170 62 -146 213l50 322h144l-49 -312c-11 -72 10 -105 66 -105c55 0 103 37 116 114
l48 303h142l-49 -315c-11 -68 13 -102 66 -102c57 0 104 39 116 114l48 303h144z" />
    <glyph glyph-name="seven.old" horiz-adv-x="566" 
d="M380 494h-314l19 124h514l-3 -17l-382 -695h-163z" />
    <glyph glyph-name="six.old" horiz-adv-x="648" 
d="M315 -11c-172 0 -261 100 -264 249c0 33 5 75 10 107l5 33c39 229 162 347 333 347c127 0 226 -58 229 -195h-145c-5 48 -29 78 -92 78c-84 0 -142 -74 -171 -235c33 45 91 82 176 82c116 0 203 -74 203 -201c0 -163 -121 -265 -284 -265zM204 219
c-1 -67 35 -117 114 -117c75 0 128 62 128 142c0 61 -35 109 -108 109c-75 0 -134 -55 -134 -134z" />
    <glyph glyph-name="five.old" horiz-adv-x="609" 
d="M153 112c5 -63 38 -100 111 -100c83 0 128 60 128 145c0 59 -34 108 -111 108c-64 0 -103 -25 -136 -58h-84l75 412h441l-20 -121h-326l-32 -186c33 32 84 60 152 60c119 0 197 -82 197 -199c0 -167 -110 -278 -288 -278c-136 0 -247 68 -250 217h143z" />
    <glyph glyph-name="four.old" horiz-adv-x="662" 
d="M348 47h-356l8 51l394 520h195l-73 -466h95l-16 -105h-96l-23 -141h-151zM367 152l55 346l-254 -346h199z" />
    <glyph glyph-name="three.old" horiz-adv-x="622" 
d="M281 -105c-157 0 -269 77 -269 236h140c4 -79 44 -121 128 -121c71 1 123 40 123 116c0 64 -37 96 -110 96h-51l16 103h55c71 0 116 29 116 106c0 60 -38 85 -95 85c-64 0 -109 -38 -126 -110h-139c24 134 121 224 277 224c124 0 230 -57 230 -184
c0 -85 -49 -145 -133 -172c68 -23 111 -69 111 -153c0 -141 -123 -226 -273 -226z" />
    <glyph glyph-name="two.old" horiz-adv-x="582" 
d="M-22 25l271 218c61 48 152 122 152 193c0 51 -30 77 -85 77c-61 0 -103 -39 -122 -122h-138c24 152 127 239 273 239c131 0 229 -62 226 -182c0 -104 -75 -167 -186 -252l-106 -82h252l-18 -114h-523z" />
    <glyph glyph-name="one.old" horiz-adv-x="430" 
d="M212 466l-156 -92l21 133l179 112h133l-98 -619h-152z" />
    <glyph glyph-name="zero.old" horiz-adv-x="675" 
d="M207 306c-4 -23 -5 -43 -5 -62c0 -84 36 -136 125 -136c84 0 131 59 150 176l5 30c4 23 5 45 5 64c0 84 -38 135 -122 135c-83 0 -135 -59 -154 -177zM323 -11c-166 0 -275 97 -275 261c0 21 2 43 5 66l5 30c29 184 149 284 310 284c163 0 272 -95 272 -258
c0 -21 -1 -46 -5 -69l-5 -30c-29 -188 -140 -284 -307 -284z" />
    <glyph glyph-name="yen.old" horiz-adv-x="614" 
d="M88 345h139l-135 349h165l84 -259l164 259h155l-237 -349h140l-10 -64h-159l-9 -60h158l-10 -64h-158l-25 -157h-157l24 157h-159l10 64h159l9 60h-158z" />
    <glyph glyph-name="sterling.old" horiz-adv-x="628" 
d="M65 384h55c-3 23 -4 47 -4 72c0 145 99 247 262 247c136 0 234 -60 234 -216h-148c-1 60 -23 96 -88 96c-84 0 -109 -67 -109 -143v-56h190l-17 -96h-169v-28c0 -41 -7 -78 -26 -113c48 -15 91 -32 124 -32c39 0 66 19 74 67h139c-16 -112 -78 -191 -201 -191
c-91 0 -163 55 -213 55c-33 0 -51 -22 -55 -46h-119c11 68 50 133 117 154c15 27 22 60 22 98c0 11 -1 23 -2 36h-81z" />
    <glyph glyph-name="Euro.old" horiz-adv-x="694" 
d="M59 438h62c38 158 141 265 307 265c153 0 247 -79 248 -236h-147c0 64 -30 117 -106 117c-83 0 -125 -57 -148 -146h177l-20 -64h-169l-10 -59h160l-20 -64h-146c0 -72 23 -139 119 -139c68 0 119 36 142 129h143c-32 -171 -139 -252 -292 -252c-177 0 -263 109 -263 262
h-66l10 64h61l9 59h-61z" />
    <glyph glyph-name="dollar.old" horiz-adv-x="633" 
d="M290 -131h-70l20 125c-125 20 -212 95 -213 222h143c1 -55 28 -96 87 -112l31 191c-132 34 -198 87 -198 193c0 128 113 212 262 215l14 86h69l-14 -91c110 -16 189 -74 194 -199h-140c-4 51 -31 77 -72 88l-28 -177c131 -35 207 -85 207 -194
c0 -142 -111 -227 -273 -227zM438 196c0 39 -20 61 -84 82l-28 -180c72 4 112 38 112 98zM229 506c0 -37 17 -57 80 -78l26 166c-64 -4 -106 -36 -106 -88z" />
    <glyph glyph-name="guillemotleft.uc" horiz-adv-x="499" 
d="M47 304l151 189h107l-150 -191l94 -193h-101zM228 303l150 190h107l-150 -194l92 -190h-101z" />
    <glyph glyph-name="guillemotright.uc" horiz-adv-x="499" 
d="M465 298l-151 -189h-106l150 191l-94 193h100zM285 299l-151 -190h-106l149 194l-91 190h100z" />
    <glyph glyph-name="uni043A.bgr" horiz-adv-x="552" 
d="M206 255l-40 -255h-144l120 760h144l-72 -458l202 221h161l-234 -244l161 -279h-158z" />
    <glyph glyph-name="uni043D.bgr" horiz-adv-x="605" 
d="M388 212h-188l-34 -212h-144l83 523h144l-33 -208h188l33 208h144l-82 -523h-145z" />
    <glyph glyph-name="parenleft.uc" horiz-adv-x="355" 
d="M159 -98c-53 80 -105 191 -105 343c0 215 93 394 244 539h124c-141 -168 -228 -330 -228 -546c0 -137 37 -251 82 -336h-117z" />
    <glyph glyph-name="parenright.uc" horiz-adv-x="355" 
d="M219 784c53 -80 105 -191 105 -343c0 -215 -93 -394 -244 -539h-125c141 170 229 328 229 546c0 137 -38 252 -82 336h117z" />
    <glyph glyph-name="bracketleft.uc" horiz-adv-x="402" 
d="M161 781h276l-17 -107h-131l-104 -657h131l-17 -107h-276z" />
    <glyph glyph-name="uni0433.locl" horiz-adv-x="280" 
d="M98 712h226l-13 -87h-227zM109 523h144l-83 -523h-144z" />
    <glyph glyph-name="uni0446.bgr" horiz-adv-x="628" 
d="M440 -127l10 127h-75c-3 27 -2 56 2 88c-39 -57 -89 -99 -172 -99c-108 0 -179 65 -155 220l50 314h144l-50 -319c-11 -68 12 -104 68 -104c68 0 118 43 130 123l48 300h144l-66 -420h77l-36 -230h-119z" />
    <glyph glyph-name="uni0447.bgr" horiz-adv-x="560" 
d="M309 0l36 234c-29 -32 -74 -61 -138 -61c-111 0 -168 72 -145 220l21 130h144l-21 -135c-11 -65 8 -105 67 -105c45 0 72 15 83 26l36 214h143l-82 -523h-144z" />
    <glyph glyph-name="bracketright.uc" horiz-adv-x="402" 
d="M7 17h130l104 657h-130l17 107h275l-138 -871h-275z" />
    <glyph glyph-name="uni043B.bgr" horiz-adv-x="552" 
d="M499 0h-150l-60 377l-180 -377h-145l270 523h162z" />
    <glyph glyph-name="braceleft.uc" horiz-adv-x="417" 
d="M313 -92c-179 5 -250 85 -201 234l19 56c20 59 1 100 -86 103l16 101c89 -1 119 28 116 92l-2 72c-5 162 88 219 277 216l-17 -105c-93 -3 -119 -30 -119 -115v-76c0 -84 -47 -124 -119 -140c72 -19 97 -75 73 -151l-20 -62c-27 -84 -4 -112 80 -119z" />
    <glyph glyph-name="space_uni0326" horiz-adv-x="412" 
d="M52 -201l58 170l129 -21l-107 -176z" />
    <glyph glyph-name="braceright.uc" horiz-adv-x="417" 
d="M128 782c179 -5 250 -84 201 -233l-19 -57c-20 -59 -1 -99 86 -103l-16 -101c-89 1 -119 -27 -116 -91l2 -73c3 -164 -85 -216 -277 -216l17 106c93 3 119 29 119 114v77c0 83 48 125 119 140c-72 19 -97 74 -72 151l19 61c27 84 4 114 -80 119z" />
    <glyph glyph-name="hungarumlaut.uc" horiz-adv-x="412" 
d="M197 902h133l-86 -139h-99zM377 902h132l-86 -139h-98z" />
    <glyph glyph-name="tilde.uc" horiz-adv-x="412" 
d="M354 764c-53 0 -87 37 -116 37c-17 0 -34 -14 -39 -37h-87c16 95 65 140 125 140c50 0 86 -38 117 -38c19 0 32 12 39 37h86c-17 -93 -68 -139 -125 -139z" />
    <glyph glyph-name="idotaccent" horiz-adv-x="281" 
d="M202 595c-47 0 -81 33 -81 78c0 44 35 78 82 78s81 -33 81 -77c0 -45 -35 -79 -82 -79zM109 523h144l-83 -523h-144z" />
    <glyph glyph-name="ring.uc" horiz-adv-x="412" 
d="M299 808c28 0 50 22 50 54c0 31 -19 53 -48 53s-50 -23 -50 -55c0 -31 19 -52 48 -52zM299 750c-63 0 -114 49 -114 110c0 63 53 113 116 113s114 -49 114 -111c0 -61 -53 -112 -116 -112z" />
    <glyph glyph-name="dotaccent.uc" horiz-adv-x="412" 
d="M297 768c-47 0 -81 33 -81 76s36 77 81 77c47 0 81 -32 81 -76c0 -43 -36 -77 -81 -77z" />
    <glyph glyph-name="breve.uc" horiz-adv-x="412" 
d="M299 757c-93 0 -150 58 -150 146h97c3 -35 22 -52 55 -52s53 17 60 52h96c-11 -91 -75 -146 -158 -146z" />
    <glyph glyph-name="caron.uc" horiz-adv-x="412" 
d="M348 763h-123l-92 139h100l62 -52l75 52h106z" />
    <glyph glyph-name="circumflex.uc" horiz-adv-x="412" 
d="M241 902h123l92 -139h-100l-62 53l-75 -53h-106z" />
    <glyph glyph-name="acute.uc" horiz-adv-x="412" 
d="M286 902h158l-112 -139h-111z" />
    <glyph glyph-name="uni0430.alt" horiz-adv-x="622" 
d="M320 425c-85 0 -137 -81 -137 -196c0 -80 34 -130 105 -130c79 0 140 82 140 200c0 79 -43 126 -108 126zM232 -11c-117 0 -198 86 -198 227c0 188 106 319 255 319c88 0 136 -46 159 -99l14 87h144l-57 -363c-11 -71 -14 -116 -11 -160h-141c-4 27 -3 61 0 90
c-37 -64 -89 -101 -165 -101z" />
    <glyph glyph-name="macron.uc" horiz-adv-x="412" 
d="M150 868h302l-15 -91h-301z" />
    <glyph glyph-name="uni0434.locl" horiz-adv-x="634" 
d="M286 131c86 0 149 71 149 179c0 72 -45 116 -113 116c-91 0 -140 -84 -140 -172c0 -73 35 -123 104 -123zM534 29c-24 -149 -106 -222 -277 -222c-185 0 -251 90 -259 182h144c7 -40 37 -76 112 -76c89 0 124 46 136 119l12 74c-36 -55 -88 -83 -163 -83
c-120 0 -206 82 -206 222c0 165 108 290 258 290c88 0 139 -40 164 -92l13 80h144z" />
    <glyph glyph-name="dieresis.uc" horiz-adv-x="412" 
d="M189 769c-41 0 -74 32 -74 72s34 73 74 73c41 0 74 -32 74 -72s-34 -73 -74 -73zM404 769c-40 0 -73 32 -73 72s33 73 74 73s73 -32 73 -72s-33 -73 -74 -73z" />
    <glyph glyph-name="grave.uc" horiz-adv-x="412" 
d="M160 902h154l35 -139h-105z" />
    <glyph glyph-name="at.uc" horiz-adv-x="933" 
d="M474 -72c-264 0 -411 185 -411 390c0 264 213 438 445 438s392 -145 392 -347c0 -203 -114 -273 -212 -273c-81 0 -118 29 -129 81c-28 -51 -81 -85 -145 -85c-92 0 -148 64 -151 164c0 147 92 244 202 244c65 0 97 -29 110 -62l9 54h124l-42 -261c-7 -44 4 -69 40 -69
c55 0 117 56 117 208c0 160 -118 278 -317 278c-202 0 -360 -141 -360 -373c0 -171 107 -319 332 -319c113 0 191 34 246 83h86c-61 -91 -188 -151 -336 -151zM458 228c49 0 99 52 99 137c0 51 -26 78 -74 78c-49 0 -96 -48 -93 -139c0 -44 25 -76 68 -76z" />
    <glyph glyph-name="bar.uc" horiz-adv-x="274" 
d="M99 777h104v-861h-104v861z" />
    <glyph glyph-name="backslash.uc" horiz-adv-x="439" 
d="M95 777h114l161 -861h-114z" />
    <glyph glyph-name="uni02BC" unicode="&#x2bc;" horiz-adv-x="288" 
d="M85 484l102 243l126 -47l-147 -230z" />
    </font>
</defs>
</svg>
