<?xml version="1.0" standalone="no"?>
<!DOCTYPE svg PUBLIC "-//W3C//DTD SVG 1.1//EN" "http://www.w3.org/Graphics/SVG/1.1/DTD/svg11.dtd" >
<svg xmlns="http://www.w3.org/2000/svg" xmlns:xlink="http://www.w3.org/1999/xlink" version="1.1">
<metadata>
Created by FontForge 20190801 at Mon Jul  4 10:26:35 2016
 By Jimmy Wärting
LCG stand for Latin, Cyrillic and Greek.
</metadata>
<defs>
<font id="GraphikLCG-RegularItalic" horiz-adv-x="612" >
  <font-face 
    font-family="Graphik LCG"
    font-weight="400"
    font-style="italic"
    font-stretch="normal"
    units-per-em="1000"
    panose-1="2 11 5 3 3 2 2 13 2 3"
    ascent="818"
    descent="-182"
    x-height="523"
    cap-height="715"
    bbox="-257 -220 1090 1113"
    underline-thickness="50"
    underline-position="-100"
    slope="-8"
    stemh="71"
    stemv="86"
    unicode-range="U+000D-FB02"
  />
<missing-glyph horiz-adv-x="500" 
 />
    <glyph glyph-name="f_f" unicode="ff" horiz-adv-x="632" 
d="M416 453h-202l-71 -453h-83l71 453h-74l11 70h74l15 92c16 100 82 151 170 151c35 0 53 -5 69 -13l-10 -66c-15 7 -34 10 -55 10c-55 0 -82 -31 -91 -84l-15 -90h202l16 102c16 100 82 151 170 151c35 0 53 -5 69 -13l-10 -66c-15 7 -34 10 -55 10c-55 0 -82 -31 -91 -84
l-16 -100h128l-11 -70h-128l-72 -453h-83z" />
    <glyph glyph-name=".notdef" horiz-adv-x="500" 
 />
    <glyph glyph-name="NULL" horiz-adv-x="0" 
 />
    <glyph glyph-name="NULL" horiz-adv-x="0" 
 />
    <glyph glyph-name="CR" unicode="&#xd;" horiz-adv-x="265" 
 />
    <glyph glyph-name="space" unicode=" " horiz-adv-x="265" 
 />
    <glyph glyph-name="exclam" unicode="!" horiz-adv-x="298" 
d="M175 715h92l-96 -513h-64zM119 -5c-35 0 -64 28 -64 64s28 64 63 64s65 -28 65 -64s-29 -64 -64 -64z" />
    <glyph glyph-name="quotedbl" unicode="&#x22;" horiz-adv-x="387" 
d="M137 715h90l-52 -245h-60zM300 715h90l-52 -245h-60z" />
    <glyph glyph-name="numbersign" unicode="#" horiz-adv-x="515" 
d="M295 282h-97l-43 -183h-68l43 183h-87l11 70h92l31 132h-88l11 70h94l38 161h68l-38 -161h97l38 161h68l-38 -161h88l-11 -70h-94l-31 -132h90l-11 -70h-95l-43 -183h-68zM214 352h97l31 132h-97z" />
    <glyph glyph-name="dollar" unicode="$" horiz-adv-x="629" 
d="M301 -9l-20 -126h-59l20 131c-138 21 -204 118 -204 222h84c3 -67 39 -135 131 -153l44 274c-119 37 -181 84 -181 187c0 107 98 198 242 198l14 89h59l-15 -94c105 -17 174 -84 177 -192h-78c-7 75 -50 110 -110 123l-40 -251c131 -40 194 -88 194 -190
c0 -125 -96 -218 -253 -218h-5zM475 201c0 60 -26 89 -122 121l-41 -262c105 1 163 56 163 141zM198 529c0 -50 23 -80 111 -112l38 238c-101 -1 -149 -57 -149 -126z" />
    <glyph glyph-name="percent" unicode="%" horiz-adv-x="796" 
d="M155 535c0 -44 19 -88 80 -88c60 0 95 50 95 118c0 44 -19 92 -79 92c-64 0 -96 -54 -96 -122zM233 383c-92 0 -154 68 -154 156c0 96 76 182 175 182c94 0 152 -71 152 -159c0 -96 -76 -179 -173 -179zM649 715h79l-547 -715h-79zM499 144c0 -44 19 -88 80 -88
c60 0 95 50 95 118c0 44 -19 92 -79 92c-64 0 -96 -54 -96 -122zM577 -8c-92 0 -154 68 -154 156c0 96 76 182 175 182c94 0 152 -71 152 -159c0 -96 -76 -179 -173 -179z" />
    <glyph glyph-name="ampersand" unicode="&#x26;" horiz-adv-x="692" 
d="M512 0l-57 85c-47 -48 -118 -90 -199 -91c-101 0 -212 47 -212 186c0 121 86 183 198 228c-27 47 -42 91 -42 132c0 109 79 179 178 179c86 0 155 -53 155 -142c0 -105 -87 -154 -179 -192l119 -181l108 165h80l-148 -224l96 -145h-97zM130 182c0 -77 50 -121 129 -121
c56 0 114 27 161 78l-146 219c-75 -29 -144 -73 -144 -176zM376 655c-56 0 -95 -39 -95 -107c0 -33 15 -68 42 -112c64 24 131 57 131 139c0 41 -23 80 -78 80z" />
    <glyph glyph-name="quotesingle" unicode="'" horiz-adv-x="224" 
d="M137 715h90l-52 -245h-60z" />
    <glyph glyph-name="parenleft" unicode="(" horiz-adv-x="334" 
d="M161 -148c-64 93 -105 209 -105 350c0 234 99 424 246 571h91c-151 -156 -251 -335 -251 -571c0 -132 35 -246 99 -350h-80z" />
    <glyph glyph-name="parenright" unicode=")" horiz-adv-x="334" 
d="M187 773c64 -93 105 -209 105 -350c0 -234 -99 -424 -246 -571h-91c151 154 251 337 251 571c0 132 -35 246 -99 350h80z" />
    <glyph glyph-name="asterisk" unicode="*" horiz-adv-x="434" 
d="M118 460l99 105l-118 36l33 65l110 -54l14 131h73l-28 -134l125 40l11 -67l-129 -22l67 -115l-63 -37l-56 123l-88 -115z" />
    <glyph glyph-name="plus" unicode="+" horiz-adv-x="531" 
d="M235 307h-187l11 70h187l32 202h73l-32 -202h187l-11 -70h-187l-32 -202h-73z" />
    <glyph glyph-name="comma" unicode="," horiz-adv-x="294" 
d="M-3 -95l118 219l75 -38l-143 -209z" />
    <glyph glyph-name="hyphen" unicode="-" horiz-adv-x="347" 
d="M73 314h214l-12 -78h-214z" />
    <glyph glyph-name="period" unicode="." horiz-adv-x="294" 
d="M114 -5c-35 0 -64 28 -64 64s28 64 63 64s65 -28 65 -64s-29 -64 -64 -64z" />
    <glyph glyph-name="slash" unicode="/" horiz-adv-x="415" 
d="M381 776h78l-435 -924h-77z" />
    <glyph glyph-name="zero" unicode="0" horiz-adv-x="693" 
d="M324 -9c-172 0 -251 123 -251 275c0 31 2 61 7 89l6 37c32 202 153 332 318 332c172 0 244 -126 244 -278c0 -28 -2 -59 -7 -88l-6 -37c-32 -198 -145 -330 -311 -330zM329 63c117 0 192 93 220 268l6 37c4 24 6 51 6 78c0 103 -35 208 -162 208
c-116 0 -198 -97 -226 -268l-6 -37c-4 -25 -7 -55 -7 -84c0 -100 34 -202 169 -202z" />
    <glyph glyph-name="one" unicode="1" horiz-adv-x="411" 
d="M256 627l-178 -115l13 83l185 120h81l-113 -715h-87z" />
    <glyph glyph-name="two" unicode="2" horiz-adv-x="566" 
d="M-24 20l341 296c66 58 131 128 131 221c0 62 -38 117 -114 117c-80 0 -140 -37 -170 -159h-82c24 157 127 229 257 229c109 0 197 -68 197 -185c0 -116 -80 -198 -179 -281l-221 -187h337l-11 -71h-489z" />
    <glyph glyph-name="three" unicode="3" horiz-adv-x="616" 
d="M277 -9c-147 0 -241 86 -241 220h82c3 -82 46 -150 163 -150c107 0 169 50 169 158c0 71 -41 119 -137 119h-46l12 73h62c76 0 139 37 139 130c0 72 -45 112 -121 112c-87 0 -148 -46 -169 -135h-77c19 123 119 206 251 206c100 0 202 -55 202 -180
c0 -83 -51 -148 -136 -172c69 -23 109 -76 109 -153c0 -140 -108 -228 -262 -228z" />
    <glyph glyph-name="four" unicode="4" horiz-adv-x="629" 
d="M384 150h-356l5 28l410 537h116l-78 -494h99l-12 -71h-99l-23 -150h-85zM396 221l66 420l-313 -420h247z" />
    <glyph glyph-name="five" unicode="5" horiz-adv-x="599" 
d="M264 -9c-126 0 -221 70 -226 202h84c5 -80 47 -132 143 -132c109 0 177 76 177 199c0 83 -45 141 -142 141c-76 0 -125 -30 -166 -69h-32l61 383h402l-12 -75h-330l-34 -214c32 25 79 45 140 45c121 0 203 -83 203 -207c0 -155 -109 -273 -268 -273z" />
    <glyph glyph-name="six" unicode="6" horiz-adv-x="631" 
d="M305 -9c-156 0 -238 87 -238 247c0 31 4 62 9 97l5 31c27 173 115 358 318 358c125 0 194 -65 199 -173h-82c-8 60 -37 102 -122 102c-137 0 -198 -136 -225 -277c44 57 107 88 184 88c121 0 212 -83 212 -208c0 -148 -105 -265 -260 -265zM152 211
c0 -83 47 -152 154 -152c103 0 170 85 170 193c0 77 -44 144 -148 144c-100 0 -176 -81 -176 -185z" />
    <glyph glyph-name="seven" unicode="7" horiz-adv-x="537" 
d="M451 645h-357l11 70h471l-2 -12l-389 -703h-91z" />
    <glyph glyph-name="eight" unicode="8" horiz-adv-x="619" 
d="M293 -9c-117 0 -237 67 -237 195c0 105 66 178 165 207c-56 25 -88 77 -88 134c0 116 105 197 232 197c104 0 206 -66 206 -178c0 -89 -53 -135 -133 -162c69 -28 113 -90 113 -165c0 -147 -118 -228 -258 -228zM145 197c0 -83 65 -135 153 -135c97 0 164 56 164 156
c0 81 -62 132 -145 132c-99 0 -172 -53 -172 -153zM220 530c0 -63 51 -111 130 -111c69 0 134 35 134 123c0 64 -50 114 -126 114c-72 0 -138 -41 -138 -126z" />
    <glyph glyph-name="nine" unicode="9" horiz-adv-x="632" 
d="M266 -8c-117 0 -207 55 -218 184h85c12 -85 59 -113 140 -113c108 0 184 88 215 273c-40 -53 -108 -84 -184 -84c-114 0 -211 75 -211 207c0 152 112 266 268 266c149 0 226 -90 227 -243c0 -31 -1 -64 -8 -100l-7 -44c-39 -235 -144 -346 -307 -346zM182 463
c0 -84 46 -143 134 -143c104 0 189 61 189 184c0 79 -40 153 -147 153c-104 0 -176 -81 -176 -194z" />
    <glyph glyph-name="colon" unicode=":" horiz-adv-x="304" 
d="M118 -5c-35 0 -64 28 -64 64s28 64 63 64s65 -28 65 -64s-29 -64 -64 -64zM166 292c-35 0 -64 28 -64 64s28 64 63 64s65 -28 65 -64s-29 -64 -64 -64z" />
    <glyph glyph-name="semicolon" unicode=";" horiz-adv-x="304" 
d="M-18 -95l118 219l75 -38l-143 -209zM174 292c-35 0 -64 28 -64 64s28 64 63 64s65 -28 65 -64s-29 -64 -64 -64z" />
    <glyph glyph-name="less" unicode="&#x3c;" horiz-adv-x="516" 
d="M66 316l3 20l418 213l-12 -82l-288 -143l241 -151l-12 -78z" />
    <glyph glyph-name="equal" unicode="=" horiz-adv-x="496" 
d="M46 268h404l-11 -72h-404zM74 448h404l-11 -72h-404z" />
    <glyph glyph-name="greater" unicode="&#x3e;" horiz-adv-x="516" 
d="M467 328l-3 -20l-418 -213l12 84l288 143l-241 151l12 76z" />
    <glyph glyph-name="question" unicode="?" horiz-adv-x="501" 
d="M182 253c16 97 81 138 139 182c49 38 84 68 84 130c0 56 -37 90 -105 90c-71 0 -125 -45 -140 -130h-79c16 128 113 199 228 199c126 0 181 -75 181 -158c0 -97 -61 -137 -128 -185c-50 -37 -96 -70 -107 -135l-7 -44h-74zM194 -5c-35 0 -64 28 -64 64s28 64 63 64
s65 -28 65 -64s-29 -64 -64 -64z" />
    <glyph glyph-name="at" unicode="@" horiz-adv-x="927" 
d="M641 206c-7 -53 9 -79 48 -79c57 0 120 57 120 193c0 179 -121 302 -326 302c-202 0 -350 -148 -350 -360c0 -182 114 -343 337 -343c108 0 175 28 236 81h77c-51 -88 -169 -147 -313 -147c-268 0 -414 194 -414 407c0 245 195 428 427 428c239 0 398 -160 398 -366
c0 -188 -113 -255 -193 -255c-79 0 -109 37 -117 86c-28 -53 -75 -93 -147 -93c-96 0 -160 63 -160 171c0 136 88 235 204 235c72 0 106 -34 119 -68l10 60h83zM440 124c66 0 132 66 132 171c0 71 -39 105 -96 105c-71 0 -127 -63 -127 -171c0 -69 39 -105 91 -105z" />
    <glyph glyph-name="A" unicode="A" horiz-adv-x="662" 
d="M469 206h-295l-102 -206h-84l359 715h114l129 -715h-84zM208 275h248l-66 368z" />
    <glyph glyph-name="B" unicode="B" horiz-adv-x="634" 
d="M167 715h204c132 0 210 -50 209 -167c0 -89 -42 -147 -135 -176c81 -20 121 -72 122 -156c0 -133 -100 -216 -252 -216h-261zM315 68c113 0 167 62 167 150c0 76 -42 117 -153 117h-137l-43 -267h166zM334 403c107 0 161 47 161 141c0 71 -36 103 -127 103h-127l-39 -244
h132z" />
    <glyph glyph-name="C" unicode="C" horiz-adv-x="740" 
d="M392 -9c-197 0 -318 123 -318 313c0 235 156 422 380 422c145 0 255 -80 266 -234h-82c-17 108 -73 165 -188 165c-180 0 -286 -156 -286 -353c0 -155 76 -243 229 -243c116 0 191 71 224 176h83c-37 -152 -158 -246 -308 -246z" />
    <glyph glyph-name="D" unicode="D" horiz-adv-x="710" 
d="M167 715h174c236 0 334 -130 334 -305c0 -228 -144 -410 -412 -410h-209zM260 71c205 0 326 126 326 338c0 135 -69 236 -249 236h-94l-91 -574h108z" />
    <glyph glyph-name="E" unicode="E" horiz-adv-x="584" 
d="M167 715h413l-12 -71h-326l-38 -243h266l-11 -71h-266l-41 -259h348l-11 -71h-435z" />
    <glyph glyph-name="F" unicode="F" horiz-adv-x="568" 
d="M167 715h418l-12 -71h-331l-40 -253h258l-11 -71h-258l-50 -320h-87z" />
    <glyph glyph-name="G" unicode="G" horiz-adv-x="782" 
d="M400 -9c-208 0 -325 139 -325 323c0 224 158 410 374 410c145 0 268 -72 279 -225h-86c-11 108 -88 156 -195 156c-175 0 -282 -153 -282 -341c0 -153 80 -253 237 -253c144 0 218 96 239 228h-212l12 72h295c-21 -259 -144 -370 -336 -370z" />
    <glyph glyph-name="H" unicode="H" horiz-adv-x="742" 
d="M167 715h87l-52 -324h376l52 324h87l-113 -715h-87l50 318h-376l-50 -318h-87z" />
    <glyph glyph-name="I" unicode="I" horiz-adv-x="291" 
d="M172 715h87l-113 -715h-87z" />
    <glyph glyph-name="J" unicode="J" horiz-adv-x="432" 
d="M119 -9c-68 0 -96 15 -115 26l11 70c25 -12 54 -25 101 -25c72 0 112 38 127 126l83 527h87l-85 -535c-21 -133 -104 -189 -209 -189z" />
    <glyph glyph-name="K" unicode="K" horiz-adv-x="628" 
d="M167 715h87l-54 -340l363 340h101l-373 -345l272 -370h-97l-268 359l-57 -359h-87z" />
    <glyph glyph-name="L" unicode="L" horiz-adv-x="547" 
d="M167 715h87l-102 -644h327l-11 -71h-414z" />
    <glyph glyph-name="M" unicode="M" horiz-adv-x="868" 
d="M167 715h118l133 -557l302 557h123l-113 -715h-87l95 602l-332 -602h-27l-150 602l-95 -602h-80z" />
    <glyph glyph-name="N" unicode="N" horiz-adv-x="736" 
d="M167 715h111l256 -591l94 591h83l-113 -715h-98l-266 613l-97 -613h-83z" />
    <glyph glyph-name="O" unicode="O" horiz-adv-x="823" 
d="M779 402c0 -237 -167 -411 -378 -411c-198 0 -327 137 -327 321c0 228 167 412 384 412c206 0 321 -146 321 -322zM689 402c0 139 -82 252 -232 252c-180 0 -293 -157 -293 -342c0 -156 98 -250 238 -250c170 0 287 144 287 340z" />
    <glyph glyph-name="P" unicode="P" horiz-adv-x="593" 
d="M167 715h199c131 0 220 -61 220 -186c0 -175 -133 -238 -273 -238h-126l-46 -291h-87zM318 360c121 0 182 60 182 168c0 81 -47 117 -143 117h-114l-45 -285h120z" />
    <glyph glyph-name="Q" unicode="Q" horiz-adv-x="823" 
d="M779 402c0 -149 -66 -272 -166 -344l80 -98l-60 -49l-89 109c-45 -19 -92 -29 -143 -29c-198 0 -327 137 -327 321c0 228 167 412 384 412c206 0 321 -146 321 -322zM689 402c0 139 -82 252 -232 252c-180 0 -293 -157 -293 -342c0 -156 98 -250 238 -250
c35 0 67 5 95 16l-75 93l60 49l84 -104c77 60 123 162 123 286z" />
    <glyph glyph-name="R" unicode="R" horiz-adv-x="640" 
d="M167 715h211c124 0 221 -61 218 -182c0 -131 -91 -199 -204 -215l175 -318h-94l-170 311h-113l-49 -311h-87zM335 380c117 0 175 51 175 153c1 80 -49 112 -137 112h-130l-42 -265h134z" />
    <glyph glyph-name="S" unicode="S" horiz-adv-x="639" 
d="M306 -9c-179 0 -266 110 -266 227h86c3 -80 55 -157 185 -157c108 -1 168 54 168 141c0 65 -34 96 -154 131c-135 40 -208 83 -208 193c0 107 93 198 240 198c138 0 228 -70 231 -197h-80c-9 95 -70 127 -159 127c-103 0 -149 -55 -149 -125c0 -56 30 -85 155 -122
c142 -43 209 -89 209 -196c0 -126 -99 -220 -258 -220z" />
    <glyph glyph-name="T" unicode="T" horiz-adv-x="573" 
d="M301 644h-208l12 71h503l-12 -71h-208l-101 -644h-87z" />
    <glyph glyph-name="U" unicode="U" horiz-adv-x="708" 
d="M331 -9c-181 0 -270 97 -239 292l69 432h87l-69 -433c-25 -159 29 -219 156 -219c107 0 172 54 195 198l72 454h87l-74 -466c-24 -156 -113 -258 -284 -258z" />
    <glyph glyph-name="V" unicode="V" horiz-adv-x="648" 
d="M98 715h85l113 -631l313 631h83l-360 -715h-104z" />
    <glyph glyph-name="W" unicode="W" horiz-adv-x="902" 
d="M99 715h87l54 -583l253 583h56l78 -585l235 585h83l-295 -715h-81l-72 561l-247 -561h-78z" />
    <glyph glyph-name="X" unicode="X" horiz-adv-x="619" 
d="M279 373l-163 342h90l137 -285l217 285h90l-274 -355l172 -360h-94l-144 303l-233 -303h-90z" />
    <glyph glyph-name="Y" unicode="Y" horiz-adv-x="604" 
d="M272 312l-175 403h93l138 -332l232 332h89l-291 -410l-48 -305h-87z" />
    <glyph glyph-name="Z" unicode="Z" horiz-adv-x="607" 
d="M-6 14l501 633h-365l11 68h489l-2 -13l-492 -631h386l-11 -71h-519z" />
    <glyph glyph-name="bracketleft" unicode="[" horiz-adv-x="368" 
d="M174 776h224l-10 -66h-141l-125 -792h141l-11 -66h-224z" />
    <glyph glyph-name="backslash" unicode="\" horiz-adv-x="415" 
d="M116 776h74l147 -924h-74z" />
    <glyph glyph-name="bracketright" unicode="]" horiz-adv-x="368" 
d="M-5 -82h141l125 792h-141l10 66h224l-146 -924h-224z" />
    <glyph glyph-name="asciicircum" unicode="^" horiz-adv-x="519" 
d="M285 715h85l121 -307h-81l-93 236l-160 -236h-85z" />
    <glyph glyph-name="underscore" unicode="_" horiz-adv-x="406" 
d="M-51 -92h395l-11 -66h-395z" />
    <glyph glyph-name="grave" unicode="`" horiz-adv-x="412" 
d="M151 760h102l47 -147h-61z" />
    <glyph glyph-name="a" unicode="a" horiz-adv-x="550" 
d="M203 -8c-108 0 -169 59 -169 148c0 129 117 167 254 167h101l6 38c13 80 -14 118 -98 118c-68 0 -110 -29 -125 -94h-83c24 126 126 163 211 163c117 0 198 -53 177 -194l-29 -182c-11 -68 -14 -112 -9 -156h-78c-3 28 -4 60 -1 83c-37 -60 -93 -91 -157 -91zM214 57
c79 0 141 42 156 134l9 57h-89c-117 0 -174 -28 -174 -108c0 -47 30 -83 98 -83z" />
    <glyph glyph-name="b" unicode="b" horiz-adv-x="639" 
d="M331 -9c-107 0 -160 57 -184 107l-16 -98h-83l122 773h83l-54 -342c35 59 106 101 183 101c123 0 210 -91 210 -230c0 -168 -97 -311 -261 -311zM326 59c114 0 178 102 178 238c0 108 -53 167 -138 167c-113 0 -201 -92 -201 -242c0 -101 61 -163 161 -163z" />
    <glyph glyph-name="c" unicode="c" horiz-adv-x="566" 
d="M289 -8c-157 0 -244 98 -244 238c0 193 130 301 271 301c115 0 204 -57 212 -184h-79c-11 90 -64 115 -137 115c-104 0 -182 -81 -182 -232c0 -111 53 -170 161 -170c73 0 136 45 151 126h78c-23 -125 -114 -194 -231 -194z" />
    <glyph glyph-name="d" unicode="d" horiz-adv-x="634" 
d="M267 -9c-131 0 -221 91 -221 231c0 167 103 310 271 310c100 0 151 -53 175 -104l54 345h83l-97 -617c-11 -71 -14 -113 -11 -156h-79c-3 31 0 64 4 95c-37 -63 -102 -104 -179 -104zM277 60c111 0 196 80 196 243c0 100 -64 160 -153 160c-117 0 -186 -101 -186 -237
c0 -104 52 -166 143 -166z" />
    <glyph glyph-name="e" unicode="e" horiz-adv-x="565" 
d="M129 211c0 -96 44 -151 144 -151c73 0 124 31 144 91h83c-32 -109 -123 -160 -230 -160c-141 0 -226 93 -226 224c0 184 118 316 273 316c143 0 230 -88 203 -267l-3 -19h-387c-1 -5 -1 -11 -1 -17v-17zM312 463c-75 0 -145 -44 -172 -151h303c8 105 -35 151 -131 151z
" />
    <glyph glyph-name="f" unicode="f" horiz-adv-x="348" 
d="M68 523h75l16 102c16 100 82 151 170 151c35 0 53 -5 69 -13l-10 -66c-15 7 -34 10 -55 10c-55 0 -82 -31 -91 -84l-16 -100h128l-11 -70h-128l-72 -453h-83l72 453h-75z" />
    <glyph glyph-name="g" unicode="g" horiz-adv-x="635" 
d="M278 86c104 0 195 85 195 225c0 95 -66 152 -155 152c-112 0 -180 -101 -180 -217c0 -95 48 -160 140 -160zM512 26c-23 -145 -115 -216 -260 -216c-169 0 -222 85 -233 160h84c11 -53 54 -90 147 -90c112 0 162 53 179 154l12 73c-39 -56 -95 -88 -172 -88
c-128 0 -218 91 -218 223c0 157 111 290 264 290c99 0 153 -54 177 -104l15 95h83z" />
    <glyph glyph-name="h" unicode="h" horiz-adv-x="604" 
d="M170 773h83l-54 -343c32 51 91 102 176 102c110 0 176 -62 152 -219l-50 -313h-83l53 332c15 88 -18 129 -90 129c-87 0 -162 -58 -178 -157l-48 -304h-83z" />
    <glyph glyph-name="i" unicode="i" horiz-adv-x="267" 
d="M198 632c-31 0 -55 23 -55 54s25 56 56 56s54 -23 54 -54s-24 -56 -55 -56zM133 523h83l-83 -523h-83z" />
    <glyph glyph-name="j" unicode="j" horiz-adv-x="267" 
d="M-46 -121c60 3 82 31 90 80l89 564h83l-90 -569c-15 -91 -67 -144 -183 -144zM198 632c-31 0 -55 23 -55 54s25 56 56 56s54 -23 54 -54s-24 -56 -55 -56z" />
    <glyph glyph-name="k" unicode="k" horiz-adv-x="523" 
d="M170 773h83l-76 -481l249 231h103l-264 -240l195 -283h-95l-190 279l-44 -279h-83z" />
    <glyph glyph-name="l" unicode="l" horiz-adv-x="268" 
d="M172 773h84l-122 -773h-84z" />
    <glyph glyph-name="m" unicode="m" horiz-adv-x="909" 
d="M106 367c11 71 13 112 14 156h78c0 -29 -1 -64 -5 -99c37 67 97 108 166 108c73 0 128 -33 143 -114c46 84 123 114 181 114c100 0 176 -58 149 -221l-49 -311h-83l51 324c15 96 -13 137 -86 137c-68 0 -143 -47 -159 -151l-49 -310h-83l52 330c15 88 -16 131 -87 131
s-143 -51 -159 -151l-49 -310h-83z" />
    <glyph glyph-name="n" unicode="n" horiz-adv-x="604" 
d="M106 367c11 71 13 112 14 156h78c0 -29 -2 -69 -6 -104c36 64 98 113 183 113c110 0 176 -62 152 -219l-50 -313h-83l53 332c14 86 -16 129 -90 129c-87 0 -162 -58 -178 -157l-48 -304h-83z" />
    <glyph glyph-name="o" unicode="o" horiz-adv-x="601" 
d="M277 -8c-145 0 -233 99 -233 232c0 175 122 307 278 307c145 0 234 -95 234 -230c0 -179 -115 -309 -279 -309zM281 60c117 0 188 103 188 239c0 100 -52 164 -152 164c-112 0 -187 -103 -187 -239c0 -100 48 -164 151 -164z" />
    <glyph glyph-name="p" unicode="p" horiz-adv-x="639" 
d="M382 532c123 0 210 -91 210 -230c0 -168 -97 -311 -261 -311c-107 0 -160 57 -184 107l-45 -280h-83l87 549c11 71 13 112 14 156h78c0 -29 -2 -69 -6 -102c37 68 113 111 190 111zM326 59c114 0 178 102 178 238c0 108 -53 167 -138 167c-113 0 -201 -92 -201 -242
c0 -101 61 -163 161 -163z" />
    <glyph glyph-name="q" unicode="q" horiz-adv-x="639" 
d="M437 81c-39 -56 -93 -90 -170 -90c-131 0 -221 91 -221 231c0 167 103 310 271 310c100 0 151 -53 175 -104l15 95h83l-112 -705h-83zM277 60c111 0 196 80 196 243c0 100 -64 160 -153 160c-117 0 -186 -101 -186 -237c0 -104 52 -166 143 -166z" />
    <glyph glyph-name="r" unicode="r" horiz-adv-x="386" 
d="M106 367c11 71 13 112 14 156h78c0 -29 -2 -67 -6 -107c43 70 91 113 193 116l-12 -78c-106 -5 -178 -49 -199 -182l-43 -272h-83z" />
    <glyph glyph-name="s" unicode="s" horiz-adv-x="492" 
d="M235 -9c-139 0 -201 80 -204 170h81c3 -56 34 -101 126 -101c73 0 107 31 107 86c0 45 -27 65 -106 85c-117 29 -159 70 -159 149c0 100 88 152 182 152c101 0 180 -44 185 -151h-78c-3 51 -44 82 -109 82s-102 -29 -102 -78c0 -39 23 -61 106 -80
c104 -27 162 -59 162 -155s-74 -159 -191 -159z" />
    <glyph glyph-name="t" unicode="t" horiz-adv-x="355" 
d="M210 -7c-103 0 -140 65 -127 150l49 310h-75l11 70h75l19 119h83l-19 -119h119l-11 -70h-119l-50 -313c-9 -57 11 -77 58 -77c21 0 42 4 62 11l-11 -69c-18 -8 -39 -12 -64 -12z" />
    <glyph glyph-name="u" unicode="u" horiz-adv-x="600" 
d="M493 156c-11 -71 -14 -113 -11 -156h-79c-3 31 0 69 5 104c-37 -64 -97 -113 -182 -113c-109 0 -174 67 -150 219l50 313h83l-53 -332c-13 -83 16 -129 88 -129c87 0 160 58 176 157l48 304h83z" />
    <glyph glyph-name="v" unicode="v" horiz-adv-x="526" 
d="M66 523h88l81 -443l219 443h88l-267 -523h-106z" />
    <glyph glyph-name="w" unicode="w" horiz-adv-x="779" 
d="M70 523h88l48 -426l192 426h72l50 -426l184 426h87l-240 -523h-92l-45 397l-182 -397h-91z" />
    <glyph glyph-name="x" unicode="x" horiz-adv-x="504" 
d="M204 276l-133 247h93l98 -187l153 187h93l-209 -256l144 -267h-94l-107 209l-172 -209h-93z" />
    <glyph glyph-name="y" unicode="y" horiz-adv-x="517" 
d="M190 59l-124 464h85l94 -375l199 375h89l-395 -705h-88z" />
    <glyph glyph-name="z" unicode="z" horiz-adv-x="487" 
d="M-13 12l366 441h-269l11 70h399l-3 -15l-357 -435h288l-12 -73h-425z" />
    <glyph glyph-name="braceleft" unicode="{" horiz-adv-x="393" 
d="M277 -148c-149 8 -209 83 -160 223l33 91c24 67 2 119 -99 122l8 61c101 -3 137 38 136 117l-3 106c-5 154 76 209 232 206l-10 -62c-109 0 -147 -35 -144 -149l2 -101c1 -93 -47 -135 -118 -152c71 -19 99 -74 68 -162l-29 -81c-39 -111 -9 -151 94 -156z" />
    <glyph glyph-name="bar" unicode="|" horiz-adv-x="265" 
d="M114 776h67v-924h-67v924z" />
    <glyph glyph-name="braceright" unicode="}" horiz-adv-x="393" 
d="M131 778c149 -8 209 -83 160 -223l-33 -93c-24 -64 -3 -120 99 -128l-8 -61c-103 8 -139 -28 -136 -109l3 -106c3 -154 -74 -209 -232 -206l10 62c109 0 147 35 144 149l-2 107c0 95 48 131 118 142c-71 23 -99 82 -71 159l32 88c37 111 9 151 -94 156z" />
    <glyph glyph-name="asciitilde" unicode="~" horiz-adv-x="457" 
d="M46 223c16 88 62 128 113 128c66 0 107 -51 139 -51c21 0 45 17 52 53h66c-16 -89 -64 -128 -112 -128c-69 0 -109 51 -141 51c-23 0 -43 -18 -51 -53h-66z" />
    <glyph glyph-name="uni00A0" unicode="&#xa0;" horiz-adv-x="280" 
 />
    <glyph glyph-name="exclamdown" unicode="&#xa1;" horiz-adv-x="300" 
d="M135 -116h-92l96 513h64zM191 603c35 0 64 -27 64 -63s-28 -64 -63 -64s-65 28 -65 64s29 63 64 63z" />
    <glyph glyph-name="cent" unicode="&#xa2;" horiz-adv-x="574" 
d="M286 -8l-20 -127h-59l21 133c-117 23 -183 109 -183 230c0 189 127 298 267 303l16 98h59l-16 -102c91 -16 157 -71 165 -180h-79c-7 69 -45 100 -97 111l-63 -398c66 0 133 33 152 126h78c-24 -135 -124 -194 -234 -194h-7zM130 228c0 -91 36 -145 109 -162l62 395
c-96 -8 -171 -89 -171 -233z" />
    <glyph glyph-name="sterling" unicode="&#xa3;" horiz-adv-x="608" 
d="M73 377h70c-3 31 -4 62 -4 94c0 139 77 253 241 253c121 0 201 -61 202 -189h-85c-5 69 -32 118 -121 118c-115 0 -151 -85 -151 -183c0 -35 1 -62 2 -93h211l-10 -62h-197c1 -11 1 -22 1 -33v-36c0 -51 -7 -92 -30 -131c64 -16 128 -51 172 -51c48 0 83 21 94 86h74
c-13 -95 -68 -159 -171 -159c-84 0 -167 63 -224 63c-40 0 -59 -27 -66 -54h-72c8 49 48 111 115 122c19 31 28 70 28 116c0 23 -1 49 -4 77h-85z" />
    <glyph glyph-name="yen" unicode="&#xa5;" horiz-adv-x="588" 
d="M100 339h156l-151 376h91l123 -324l219 324h87l-260 -376h156l-9 -58h-168l-12 -78h167l-9 -58h-167l-23 -145h-85l23 145h-169l9 58h169l12 78h-168z" />
    <glyph glyph-name="brokenbar" unicode="&#xa6;" horiz-adv-x="265" 
d="M114 297h67v-445h-67v445zM114 776h67v-409h-67v409z" />
    <glyph glyph-name="section" unicode="&#xa7;" horiz-adv-x="551" 
d="M223 -137c-97 0 -187 51 -182 163h84c1 -60 32 -93 105 -93c59 0 107 34 107 97c0 45 -28 71 -128 108c-95 34 -158 77 -158 164c0 80 62 128 136 144c-27 27 -42 55 -42 106c0 105 91 172 198 172c95 0 167 -48 170 -157h-85c-1 58 -32 87 -93 87
c-59 0 -108 -28 -108 -97c0 -43 24 -72 117 -104c96 -35 164 -76 164 -170c0 -81 -57 -118 -133 -140c27 -24 45 -65 45 -106c0 -111 -88 -174 -197 -174zM319 180c50 10 105 33 105 97c0 47 -40 78 -104 101l-82 30c-47 -8 -103 -37 -103 -99c0 -44 32 -70 100 -97z" />
    <glyph glyph-name="dieresis" unicode="&#xa8;" horiz-adv-x="412" 
d="M178 634c-29 0 -53 23 -53 52s25 54 54 54s52 -23 52 -52s-24 -54 -53 -54zM366 634c-29 0 -53 23 -53 52s25 54 54 54s52 -23 52 -52s-24 -54 -53 -54z" />
    <glyph glyph-name="copyright" unicode="&#xa9;" horiz-adv-x="856" 
d="M440 155c-121 0 -192 77 -192 198v8c0 119 81 199 192 199c91 0 161 -45 169 -138h-76c-8 52 -39 78 -93 78c-69 0 -113 -51 -113 -139v-7c0 -88 41 -138 113 -138c55 0 93 27 101 83h72c-11 -96 -78 -144 -173 -144zM438 33c171 0 320 134 320 326
c0 189 -146 323 -318 323c-175 0 -320 -134 -320 -325c0 -193 150 -324 318 -324zM438 -9c-204 0 -366 159 -366 366c0 204 162 367 368 367c208 0 366 -162 366 -365c0 -209 -162 -368 -368 -368z" />
    <glyph glyph-name="ordfeminine" unicode="&#xaa;" horiz-adv-x="431" 
d="M190 290c-84 0 -131 47 -131 116c0 104 94 139 210 139h73l4 26c9 60 -10 90 -74 90c-51 0 -81 -23 -91 -68h-78c19 99 102 131 173 131c98 0 166 -46 147 -159l-22 -140c-9 -56 -10 -92 -6 -127h-75c-3 23 -3 36 -2 55c-32 -45 -77 -63 -128 -63zM207 350
c63 0 109 29 120 97l7 44h-68c-88 0 -129 -22 -129 -81c0 -35 23 -60 70 -60z" />
    <glyph glyph-name="guillemotleft" unicode="&#xab;" horiz-adv-x="512" 
d="M64 262l158 177h85l-156 -181l95 -175h-80zM242 262l158 177h85l-156 -181l95 -175h-80z" />
    <glyph glyph-name="uni00AD" unicode="&#xad;" horiz-adv-x="347" 
d="M73 314h214l-12 -78h-214z" />
    <glyph glyph-name="registered" unicode="&#xae;" horiz-adv-x="526" 
d="M221 615h77c51 0 84 -21 84 -66v-1c0 -33 -18 -51 -45 -59l58 -93h-50l-53 85h-23v-85h-48v219zM297 514c25 0 38 11 38 32v1c0 23 -14 31 -38 31h-28v-64h28zM297 318c103 0 182 76 182 185s-75 185 -182 185s-182 -77 -182 -186s80 -184 182 -184zM297 282
c-123 0 -222 96 -222 220c0 123 97 222 222 222s222 -97 222 -221c0 -125 -99 -221 -222 -221z" />
    <glyph glyph-name="macron" unicode="&#xaf;" horiz-adv-x="412" 
d="M145 712h262l-10 -64h-262z" />
    <glyph glyph-name="degree" unicode="&#xb0;" horiz-adv-x="439" 
d="M263 464c53 0 91 40 91 104c0 55 -36 98 -87 98c-55 0 -95 -41 -95 -105c0 -55 39 -97 91 -97zM261 406c-89 0 -160 68 -160 153c0 93 71 165 168 165c91 0 159 -68 159 -155c0 -90 -71 -163 -167 -163z" />
    <glyph glyph-name="plusminus" unicode="&#xb1;" horiz-adv-x="531" 
d="M238 327h-187l11 70h187l29 182h73l-29 -182h187l-11 -70h-187l-29 -182h-73zM11 70h447l-11 -70h-447z" />
    <glyph glyph-name="twosuperior" unicode="&#xb2;" horiz-adv-x="298" 
d="M32 385l148 131c48 43 72 67 72 106c0 31 -21 45 -46 45c-32 0 -56 -19 -67 -66h-62c12 76 65 118 133 118c55 0 109 -28 109 -96c0 -54 -34 -83 -98 -139l-69 -60h138l-8 -51h-252z" />
    <glyph glyph-name="threesuperior" unicode="&#xb3;" horiz-adv-x="323" 
d="M189 368c-66 0 -129 27 -129 111h63c3 -35 22 -61 65 -61c33 0 66 18 66 59c0 33 -18 49 -55 49h-24l7 47h27c36 0 60 17 60 50c0 28 -14 46 -49 46s-60 -20 -68 -55h-60c8 67 63 105 130 105c60 0 112 -24 112 -90c0 -37 -26 -67 -67 -80c31 -7 56 -31 56 -75
c0 -68 -64 -106 -134 -106z" />
    <glyph glyph-name="acute" unicode="&#xb4;" horiz-adv-x="412" 
d="M299 760h108l-121 -147h-66z" />
    <glyph glyph-name="mu" unicode="&#xb5;" horiz-adv-x="593" 
d="M492 156c-11 -71 -14 -113 -11 -156h-79c-3 31 0 69 5 104c-35 -61 -98 -110 -175 -110c-39 0 -77 12 -100 49l-36 -225h-83l112 705h83l-53 -334c-15 -88 20 -127 91 -127c85 0 156 61 172 154l49 307h83z" />
    <glyph glyph-name="paragraph" unicode="&#xb6;" horiz-adv-x="600" 
d="M294 346h-3c-119 0 -200 56 -200 163c0 136 107 206 236 206h244l-129 -815h-69l120 758h-81l-120 -758h-68z" />
    <glyph glyph-name="periodcentered" unicode="&#xb7;" horiz-adv-x="294" 
d="M156 263c-35 0 -64 28 -64 64s28 64 63 64s65 -28 65 -64s-29 -64 -64 -64z" />
    <glyph glyph-name="cedilla" unicode="&#xb8;" horiz-adv-x="412" 
d="M149 -214c-52 0 -94 27 -99 84h56c3 -20 17 -36 42 -36c21 0 40 10 40 38c0 20 -15 32 -35 32c-12 0 -19 -4 -26 -8l-27 30l57 74h53l-40 -53c40 4 81 -21 81 -72c0 -59 -41 -89 -102 -89z" />
    <glyph glyph-name="onesuperior" unicode="&#xb9;" horiz-adv-x="243" 
d="M171 647l-89 -54l9 61l99 61h60l-54 -342h-68z" />
    <glyph glyph-name="ordmasculine" unicode="&#xba;" horiz-adv-x="505" 
d="M270 290c-117 0 -189 77 -189 186c0 141 99 248 227 248c117 0 189 -77 189 -186c0 -144 -95 -248 -227 -248zM274 354c91 0 142 79 142 183c0 76 -37 123 -113 123c-85 0 -141 -79 -141 -184c0 -76 36 -122 112 -122z" />
    <glyph glyph-name="guillemotright" unicode="&#xbb;" horiz-adv-x="512" 
d="M446 260l-158 -177h-85l156 181l-95 175h80zM268 260l-158 -177h-85l156 181l-95 175h80z" />
    <glyph glyph-name="onequarter" unicode="&#xbc;" horiz-adv-x="696" 
d="M174 647l-89 -54l9 61l99 61h60l-54 -342h-68zM623 715h69l-597 -715h-69zM527 69h-172l4 24l192 249h84l-36 -224h46l-8 -49h-45l-11 -69h-65zM536 118l26 169l-125 -169h99z" />
    <glyph glyph-name="onehalf" unicode="&#xbd;" horiz-adv-x="709" 
d="M174 647l-89 -54l9 61l99 61h60l-54 -342h-68zM610 715h69l-597 -715h-69zM381 12l148 131c48 43 72 67 72 106c0 31 -21 45 -46 45c-32 0 -56 -19 -67 -66h-62c12 76 65 118 133 118c55 0 109 -28 109 -96c0 -54 -34 -83 -98 -139l-69 -60h138l-8 -51h-252z" />
    <glyph glyph-name="threequarters" unicode="&#xbe;" horiz-adv-x="722" 
d="M192 368c-66 0 -129 27 -129 111h63c3 -35 22 -61 65 -61c33 0 66 18 66 59c0 33 -18 49 -55 49h-24l7 47h27c36 0 60 17 60 50c0 28 -14 46 -49 46s-60 -20 -68 -55h-60c8 67 63 105 130 105c60 0 112 -24 112 -90c0 -37 -26 -67 -67 -80c31 -7 56 -31 56 -75
c0 -68 -64 -106 -134 -106zM663 715h69l-597 -715h-69zM553 69h-172l4 24l192 249h84l-36 -224h46l-8 -49h-45l-11 -69h-65zM562 118l26 169l-125 -169h99z" />
    <glyph glyph-name="questiondown" unicode="&#xbf;" horiz-adv-x="501" 
d="M326 346c-16 -97 -81 -138 -139 -182c-49 -38 -84 -68 -84 -130c0 -56 37 -90 105 -90c71 0 125 45 140 130h79c-16 -128 -113 -199 -228 -199c-126 0 -181 75 -181 158c0 97 61 137 128 185c50 37 96 70 107 135l7 44h74zM314 603c35 0 64 -27 64 -63s-28 -64 -63 -64
s-65 28 -65 64s29 63 64 63z" />
    <glyph glyph-name="Agrave" unicode="&#xc0;" horiz-adv-x="662" 
d="M469 206h-295l-102 -206h-84l359 715h114l129 -715h-84zM208 275h248l-66 368zM305 898h101l39 -127h-60z" />
    <glyph glyph-name="Aacute" unicode="&#xc1;" horiz-adv-x="662" 
d="M469 206h-295l-102 -206h-84l359 715h114l129 -715h-84zM208 275h248l-66 368zM438 898h106l-108 -127h-66z" />
    <glyph glyph-name="Acircumflex" unicode="&#xc2;" horiz-adv-x="662" 
d="M469 206h-295l-102 -206h-84l359 715h114l129 -715h-84zM208 275h248l-66 368zM381 898h75l91 -127h-58l-77 58l-93 -58h-62z" />
    <glyph glyph-name="Atilde" unicode="&#xc3;" horiz-adv-x="662" 
d="M469 206h-295l-102 -206h-84l359 715h114l129 -715h-84zM208 275h248l-66 368zM471 774c-48 0 -82 43 -111 43c-19 0 -39 -17 -46 -45h-60c15 73 55 116 107 116c46 0 81 -43 110 -43c19 0 38 17 45 45h60c-15 -73 -54 -116 -105 -116z" />
    <glyph glyph-name="Adieresis" unicode="&#xc4;" horiz-adv-x="662" 
d="M469 206h-295l-102 -206h-84l359 715h114l129 -715h-84zM208 275h248l-66 368zM311 789c-29 0 -53 23 -53 52s25 54 54 54s52 -23 52 -52s-24 -54 -53 -54zM514 789c-29 0 -53 23 -53 52s25 54 54 54s52 -23 52 -52s-24 -54 -53 -54z" />
    <glyph glyph-name="Aring" unicode="&#xc5;" horiz-adv-x="662" 
d="M469 206h-295l-102 -206h-84l359 715h114l129 -715h-84zM208 275h248l-66 368zM411 805c31 0 55 25 55 60c0 33 -20 56 -51 56s-55 -25 -55 -60c0 -33 20 -56 51 -56zM411 759c-59 0 -105 45 -105 102c0 59 49 106 109 106c59 0 105 -45 105 -102
c0 -59 -49 -106 -109 -106z" />
    <glyph glyph-name="AE" unicode="&#xc6;" horiz-adv-x="962" 
d="M459 715h505l-12 -71h-326l-38 -243h266l-11 -71h-266l-41 -259h348l-11 -71h-435l32 207h-253l-133 -207h-91zM261 275h220l58 369h-40z" />
    <glyph glyph-name="Ccedilla" unicode="&#xc7;" horiz-adv-x="740" 
d="M308 -214c-52 0 -94 27 -99 84h56c3 -20 17 -36 42 -36c21 0 40 10 40 38c0 20 -15 32 -35 32c-12 0 -19 -4 -26 -8l-27 30l55 72c-149 27 -240 142 -240 306c0 235 156 422 380 422c145 0 255 -80 266 -234h-82c-17 108 -73 165 -188 165c-180 0 -286 -156 -286 -353
c0 -155 76 -243 229 -243c116 0 191 71 224 176h83c-37 -152 -158 -246 -308 -246h-13c-3 0 -9 0 -16 1l-34 -45c40 4 81 -21 81 -72c0 -59 -41 -89 -102 -89z" />
    <glyph glyph-name="Egrave" unicode="&#xc8;" horiz-adv-x="584" 
d="M167 715h413l-12 -71h-326l-38 -243h266l-11 -71h-266l-41 -259h348l-11 -71h-435zM287 898h101l39 -127h-60z" />
    <glyph glyph-name="Eacute" unicode="&#xc9;" horiz-adv-x="584" 
d="M167 715h413l-12 -71h-326l-38 -243h266l-11 -71h-266l-41 -259h348l-11 -71h-435zM407 898h106l-108 -127h-66z" />
    <glyph glyph-name="Ecircumflex" unicode="&#xca;" horiz-adv-x="584" 
d="M167 715h413l-12 -71h-326l-38 -243h266l-11 -71h-266l-41 -259h348l-11 -71h-435zM352 898h75l91 -127h-58l-77 58l-93 -58h-62z" />
    <glyph glyph-name="Edieresis" unicode="&#xcb;" horiz-adv-x="584" 
d="M167 715h413l-12 -71h-326l-38 -243h266l-11 -71h-266l-41 -259h348l-11 -71h-435zM284 789c-29 0 -53 23 -53 52s25 54 54 54s52 -23 52 -52s-24 -54 -53 -54zM487 789c-29 0 -53 23 -53 52s25 54 54 54s52 -23 52 -52s-24 -54 -53 -54z" />
    <glyph glyph-name="Igrave" unicode="&#xcc;" horiz-adv-x="291" 
d="M172 715h87l-113 -715h-87zM120 898h101l39 -127h-60z" />
    <glyph glyph-name="Iacute" unicode="&#xcd;" horiz-adv-x="291" 
d="M172 715h87l-113 -715h-87zM253 898h106l-108 -127h-66z" />
    <glyph glyph-name="Icircumflex" unicode="&#xce;" horiz-adv-x="291" 
d="M172 715h87l-113 -715h-87zM198 898h75l91 -127h-58l-77 58l-93 -58h-62z" />
    <glyph glyph-name="Idieresis" unicode="&#xcf;" horiz-adv-x="291" 
d="M172 715h87l-113 -715h-87zM133 789c-29 0 -53 23 -53 52s25 54 54 54s52 -23 52 -52s-24 -54 -53 -54zM336 789c-29 0 -53 23 -53 52s25 54 54 54s52 -23 52 -52s-24 -54 -53 -54z" />
    <glyph glyph-name="Eth" unicode="&#xd0;" horiz-adv-x="730" 
d="M60 392h76l51 323h174c236 0 334 -130 334 -305c0 -228 -144 -410 -412 -410h-209l51 325h-76zM280 71c205 0 326 126 326 338c0 135 -69 236 -249 236h-94l-40 -253h207l-11 -67h-207l-40 -254h108z" />
    <glyph glyph-name="Ntilde" unicode="&#xd1;" horiz-adv-x="736" 
d="M167 715h111l256 -591l94 591h83l-113 -715h-98l-266 613l-97 -613h-83zM520 774c-48 0 -82 43 -111 43c-19 0 -39 -17 -46 -45h-60c15 73 55 116 107 116c46 0 81 -43 110 -43c19 0 38 17 45 45h60c-15 -73 -54 -116 -105 -116z" />
    <glyph glyph-name="Ograve" unicode="&#xd2;" horiz-adv-x="823" 
d="M779 402c0 -237 -167 -411 -378 -411c-198 0 -327 137 -327 321c0 228 167 412 384 412c206 0 321 -146 321 -322zM689 402c0 139 -82 252 -232 252c-180 0 -293 -157 -293 -342c0 -156 98 -250 238 -250c170 0 287 144 287 340zM372 898h101l39 -127h-60z" />
    <glyph glyph-name="Oacute" unicode="&#xd3;" horiz-adv-x="823" 
d="M779 402c0 -237 -167 -411 -378 -411c-198 0 -327 137 -327 321c0 228 167 412 384 412c206 0 321 -146 321 -322zM689 402c0 139 -82 252 -232 252c-180 0 -293 -157 -293 -342c0 -156 98 -250 238 -250c170 0 287 144 287 340zM508 898h106l-108 -127h-66z" />
    <glyph glyph-name="Ocircumflex" unicode="&#xd4;" horiz-adv-x="823" 
d="M779 402c0 -237 -167 -411 -378 -411c-198 0 -327 137 -327 321c0 228 167 412 384 412c206 0 321 -146 321 -322zM689 402c0 139 -82 252 -232 252c-180 0 -293 -157 -293 -342c0 -156 98 -250 238 -250c170 0 287 144 287 340zM460 898h75l91 -127h-58l-77 58l-93 -58
h-62z" />
    <glyph glyph-name="Otilde" unicode="&#xd5;" horiz-adv-x="823" 
d="M779 402c0 -237 -167 -411 -378 -411c-198 0 -327 137 -327 321c0 228 167 412 384 412c206 0 321 -146 321 -322zM689 402c0 139 -82 252 -232 252c-180 0 -293 -157 -293 -342c0 -156 98 -250 238 -250c170 0 287 144 287 340zM541 774c-48 0 -82 43 -111 43
c-19 0 -39 -17 -46 -45h-60c15 73 55 116 107 116c46 0 81 -43 110 -43c19 0 38 17 45 45h60c-15 -73 -54 -116 -105 -116z" />
    <glyph glyph-name="Odieresis" unicode="&#xd6;" horiz-adv-x="823" 
d="M779 402c0 -237 -167 -411 -378 -411c-198 0 -327 137 -327 321c0 228 167 412 384 412c206 0 321 -146 321 -322zM689 402c0 139 -82 252 -232 252c-180 0 -293 -157 -293 -342c0 -156 98 -250 238 -250c170 0 287 144 287 340zM384 789c-29 0 -53 23 -53 52
s25 54 54 54s52 -23 52 -52s-24 -54 -53 -54zM587 789c-29 0 -53 23 -53 52s25 54 54 54s52 -23 52 -52s-24 -54 -53 -54z" />
    <glyph glyph-name="multiply" unicode="&#xd7;" horiz-adv-x="481" 
d="M30 181l172 154l-132 153l50 47l134 -154l172 154l45 -50l-174 -155l134 -153l-52 -46l-133 153l-173 -153z" />
    <glyph glyph-name="Oslash" unicode="&#xd8;" horiz-adv-x="823" 
d="M36 12l100 102c-40 55 -62 122 -62 198c0 228 167 412 384 412c85 0 155 -25 207 -68l84 86l43 -45l-83 -84c47 -57 70 -131 70 -211c0 -237 -167 -411 -378 -411c-92 0 -167 28 -223 77l-99 -101zM689 402c0 59 -13 110 -38 151l-419 -429c43 -41 99 -62 170 -62
c170 0 287 144 287 340zM164 312c0 -54 10 -100 31 -138l417 427c-39 35 -91 53 -155 53c-180 0 -293 -157 -293 -342z" />
    <glyph glyph-name="Ugrave" unicode="&#xd9;" horiz-adv-x="708" 
d="M331 -9c-181 0 -270 97 -239 292l69 432h87l-69 -433c-25 -159 29 -219 156 -219c107 0 172 54 195 198l72 454h87l-74 -466c-24 -156 -113 -258 -284 -258zM324 898h101l39 -127h-60z" />
    <glyph glyph-name="Uacute" unicode="&#xda;" horiz-adv-x="708" 
d="M331 -9c-181 0 -270 97 -239 292l69 432h87l-69 -433c-25 -159 29 -219 156 -219c107 0 172 54 195 198l72 454h87l-74 -466c-24 -156 -113 -258 -284 -258zM457 898h106l-108 -127h-66z" />
    <glyph glyph-name="Ucircumflex" unicode="&#xdb;" horiz-adv-x="708" 
d="M331 -9c-181 0 -270 97 -239 292l69 432h87l-69 -433c-25 -159 29 -219 156 -219c107 0 172 54 195 198l72 454h87l-74 -466c-24 -156 -113 -258 -284 -258zM402 898h75l91 -127h-58l-77 58l-93 -58h-62z" />
    <glyph glyph-name="Udieresis" unicode="&#xdc;" horiz-adv-x="708" 
d="M331 -9c-181 0 -270 97 -239 292l69 432h87l-69 -433c-25 -159 29 -219 156 -219c107 0 172 54 195 198l72 454h87l-74 -466c-24 -156 -113 -258 -284 -258zM337 789c-29 0 -53 23 -53 52s25 54 54 54s52 -23 52 -52s-24 -54 -53 -54zM540 789c-29 0 -53 23 -53 52
s25 54 54 54s52 -23 52 -52s-24 -54 -53 -54z" />
    <glyph glyph-name="Yacute" unicode="&#xdd;" horiz-adv-x="604" 
d="M272 312l-175 403h93l138 -332l232 332h89l-291 -410l-48 -305h-87zM407 898h106l-108 -127h-66z" />
    <glyph glyph-name="Thorn" unicode="&#xde;" horiz-adv-x="593" 
d="M233 581h114c131 0 220 -62 220 -182c0 -171 -134 -234 -268 -234h-132l-26 -165h-87l113 715h87zM222 511l-44 -277h126c116 0 177 59 177 164c1 79 -47 113 -143 113h-116z" />
    <glyph glyph-name="germandbls" unicode="&#xdf;" horiz-adv-x="605" 
d="M321 -9c-51 0 -85 10 -112 25l11 67c29 -15 60 -24 97 -24c93 0 145 73 145 170c0 103 -63 164 -172 164l12 70c90 0 170 38 170 139c0 68 -43 106 -115 106c-76 0 -122 -52 -135 -133l-91 -575h-83l91 580c19 121 109 195 220 195c99 0 192 -59 192 -174
c0 -88 -57 -148 -145 -175c89 -29 142 -102 142 -201c0 -142 -88 -234 -227 -234z" />
    <glyph glyph-name="agrave" unicode="&#xe0;" horiz-adv-x="550" 
d="M203 -8c-108 0 -169 59 -169 148c0 129 117 167 254 167h101l6 38c13 80 -14 118 -98 118c-68 0 -110 -29 -125 -94h-83c24 126 126 163 211 163c117 0 198 -53 177 -194l-29 -182c-11 -68 -14 -112 -9 -156h-78c-3 28 -4 60 -1 83c-37 -60 -93 -91 -157 -91zM214 57
c79 0 141 42 156 134l9 57h-89c-117 0 -174 -28 -174 -108c0 -47 30 -83 98 -83zM200 760h102l47 -147h-61z" />
    <glyph glyph-name="aacute" unicode="&#xe1;" horiz-adv-x="550" 
d="M203 -8c-108 0 -169 59 -169 148c0 129 117 167 254 167h101l6 38c13 80 -14 118 -98 118c-68 0 -110 -29 -125 -94h-83c24 126 126 163 211 163c117 0 198 -53 177 -194l-29 -182c-11 -68 -14 -112 -9 -156h-78c-3 28 -4 60 -1 83c-37 -60 -93 -91 -157 -91zM214 57
c79 0 141 42 156 134l9 57h-89c-117 0 -174 -28 -174 -108c0 -47 30 -83 98 -83zM354 760h108l-121 -147h-66z" />
    <glyph glyph-name="acircumflex" unicode="&#xe2;" horiz-adv-x="550" 
d="M203 -8c-108 0 -169 59 -169 148c0 129 117 167 254 167h101l6 38c13 80 -14 118 -98 118c-68 0 -110 -29 -125 -94h-83c24 126 126 163 211 163c117 0 198 -53 177 -194l-29 -182c-11 -68 -14 -112 -9 -156h-78c-3 28 -4 60 -1 83c-37 -60 -93 -91 -157 -91zM214 57
c79 0 141 42 156 134l9 57h-89c-117 0 -174 -28 -174 -108c0 -47 30 -83 98 -83zM292 757h75l86 -144h-58l-74 75l-96 -75h-62z" />
    <glyph glyph-name="atilde" unicode="&#xe3;" horiz-adv-x="550" 
d="M203 -8c-108 0 -169 59 -169 148c0 129 117 167 254 167h101l6 38c13 80 -14 118 -98 118c-68 0 -110 -29 -125 -94h-83c24 126 126 163 211 163c117 0 198 -53 177 -194l-29 -182c-11 -68 -14 -112 -9 -156h-78c-3 28 -4 60 -1 83c-37 -60 -93 -91 -157 -91zM214 57
c79 0 141 42 156 134l9 57h-89c-117 0 -174 -28 -174 -108c0 -47 30 -83 98 -83zM382 619c-48 0 -82 43 -111 43c-19 0 -39 -17 -46 -45h-60c15 73 55 116 107 116c46 0 81 -43 110 -43c19 0 38 17 45 45h60c-15 -73 -54 -116 -105 -116z" />
    <glyph glyph-name="adieresis" unicode="&#xe4;" horiz-adv-x="550" 
d="M203 -8c-108 0 -169 59 -169 148c0 129 117 167 254 167h101l6 38c13 80 -14 118 -98 118c-68 0 -110 -29 -125 -94h-83c24 126 126 163 211 163c117 0 198 -53 177 -194l-29 -182c-11 -68 -14 -112 -9 -156h-78c-3 28 -4 60 -1 83c-37 -60 -93 -91 -157 -91zM214 57
c79 0 141 42 156 134l9 57h-89c-117 0 -174 -28 -174 -108c0 -47 30 -83 98 -83zM229 634c-29 0 -53 23 -53 52s25 54 54 54s52 -23 52 -52s-24 -54 -53 -54zM417 634c-29 0 -53 23 -53 52s25 54 54 54s52 -23 52 -52s-24 -54 -53 -54z" />
    <glyph glyph-name="aring" unicode="&#xe5;" horiz-adv-x="550" 
d="M203 -8c-108 0 -169 59 -169 148c0 129 117 167 254 167h101l6 38c13 80 -14 118 -98 118c-68 0 -110 -29 -125 -94h-83c24 126 126 163 211 163c117 0 198 -53 177 -194l-29 -182c-11 -68 -14 -112 -9 -156h-78c-3 28 -4 60 -1 83c-37 -60 -93 -91 -157 -91zM214 57
c79 0 141 42 156 134l9 57h-89c-117 0 -174 -28 -174 -108c0 -47 30 -83 98 -83zM330 644c31 0 55 25 55 60c0 33 -20 56 -51 56s-55 -25 -55 -60c0 -33 20 -56 51 -56zM330 598c-59 0 -105 45 -105 102c0 59 49 106 109 106c59 0 105 -45 105 -102
c0 -59 -49 -106 -109 -106z" />
    <glyph glyph-name="ae" unicode="&#xe6;" horiz-adv-x="887" 
d="M464 211c0 -96 38 -151 138 -151c73 0 119 30 139 91h81c-32 -108 -116 -160 -223 -160c-100 0 -165 46 -196 118c-40 -76 -110 -117 -198 -117c-111 0 -171 53 -171 142c0 128 120 176 259 176h97l6 35c13 80 -15 118 -99 118c-68 0 -110 -29 -125 -94h-83
c24 126 126 163 211 163c80 0 140 -25 163 -86c47 53 110 85 183 85c143 0 223 -88 196 -267l-3 -17h-374c-1 -6 -1 -12 -1 -18v-18zM212 57c81 0 144 42 159 134l9 56h-90c-117 0 -174 -30 -174 -110c0 -47 31 -80 96 -80zM641 463c-76 0 -142 -44 -167 -153h291
c8 105 -28 153 -124 153z" />
    <glyph glyph-name="ccedilla" unicode="&#xe7;" horiz-adv-x="566" 
d="M215 -214c-52 0 -94 27 -99 84h56c3 -20 17 -36 42 -36c21 0 40 10 40 38c0 20 -15 32 -35 32c-12 0 -19 -4 -26 -8l-27 30l56 73c-115 23 -177 112 -177 231c0 193 130 301 271 301c115 0 204 -57 212 -184h-79c-11 90 -64 115 -137 115c-104 0 -182 -81 -182 -232
c0 -111 53 -170 161 -170c73 0 136 45 151 126h78c-23 -125 -114 -194 -231 -194h-20l-33 -45c40 4 81 -21 81 -72c0 -59 -41 -89 -102 -89z" />
    <glyph glyph-name="egrave" unicode="&#xe8;" horiz-adv-x="565" 
d="M129 211c0 -96 44 -151 144 -151c73 0 124 31 144 91h83c-32 -109 -123 -160 -230 -160c-141 0 -226 93 -226 224c0 184 118 316 273 316c143 0 230 -88 203 -267l-3 -19h-387c-1 -5 -1 -11 -1 -17v-17zM312 463c-75 0 -145 -44 -172 -151h303c8 105 -35 151 -131 151z
M212 760h102l47 -147h-61z" />
    <glyph glyph-name="eacute" unicode="&#xe9;" horiz-adv-x="565" 
d="M129 211c0 -96 44 -151 144 -151c73 0 124 31 144 91h83c-32 -109 -123 -160 -230 -160c-141 0 -226 93 -226 224c0 184 118 316 273 316c143 0 230 -88 203 -267l-3 -19h-387c-1 -5 -1 -11 -1 -17v-17zM312 463c-75 0 -145 -44 -172 -151h303c8 105 -35 151 -131 151z
M366 760h108l-121 -147h-66z" />
    <glyph glyph-name="ecircumflex" unicode="&#xea;" horiz-adv-x="565" 
d="M129 211c0 -96 44 -151 144 -151c73 0 124 31 144 91h83c-32 -109 -123 -160 -230 -160c-141 0 -226 93 -226 224c0 184 118 316 273 316c143 0 230 -88 203 -267l-3 -19h-387c-1 -5 -1 -11 -1 -17v-17zM312 463c-75 0 -145 -44 -172 -151h303c8 105 -35 151 -131 151z
M304 757h75l86 -144h-58l-74 75l-96 -75h-62z" />
    <glyph glyph-name="edieresis" unicode="&#xeb;" horiz-adv-x="565" 
d="M129 211c0 -96 44 -151 144 -151c73 0 124 31 144 91h83c-32 -109 -123 -160 -230 -160c-141 0 -226 93 -226 224c0 184 118 316 273 316c143 0 230 -88 203 -267l-3 -19h-387c-1 -5 -1 -11 -1 -17v-17zM312 463c-75 0 -145 -44 -172 -151h303c8 105 -35 151 -131 151z
M247 634c-29 0 -53 23 -53 52s25 54 54 54s52 -23 52 -52s-24 -54 -53 -54zM435 634c-29 0 -53 23 -53 52s25 54 54 54s52 -23 52 -52s-24 -54 -53 -54z" />
    <glyph glyph-name="igrave" unicode="&#xec;" horiz-adv-x="267" 
d="M133 523h83l-83 -523h-83zM71 760h102l47 -147h-61z" />
    <glyph glyph-name="iacute" unicode="&#xed;" horiz-adv-x="267" 
d="M133 523h83l-83 -523h-83zM225 760h108l-121 -147h-66z" />
    <glyph glyph-name="icircumflex" unicode="&#xee;" horiz-adv-x="267" 
d="M133 523h83l-83 -523h-83zM163 757h75l86 -144h-58l-74 75l-96 -75h-62z" />
    <glyph glyph-name="idieresis" unicode="&#xef;" horiz-adv-x="267" 
d="M111 634c-29 0 -53 23 -53 52s25 54 54 54s52 -23 52 -52s-24 -54 -53 -54zM289 634c-29 0 -53 23 -53 52s25 54 54 54s52 -23 52 -52s-24 -54 -53 -54zM133 523h83l-83 -523h-83z" />
    <glyph glyph-name="eth" unicode="&#xf0;" horiz-adv-x="604" 
d="M207 619l109 59c-35 35 -72 64 -115 95h106c25 -15 50 -34 77 -59l93 51l26 -46l-82 -44c74 -85 135 -205 135 -345c0 -191 -103 -339 -282 -339c-135 0 -230 93 -230 234c0 154 106 307 266 307c65 0 115 -24 150 -80c-27 71 -62 133 -107 186l-120 -64zM130 222
c0 -84 41 -162 146 -162c123 0 193 111 193 239c0 84 -41 164 -150 164c-121 0 -189 -114 -189 -241z" />
    <glyph glyph-name="ntilde" unicode="&#xf1;" horiz-adv-x="604" 
d="M106 367c11 71 13 112 14 156h78c0 -29 -2 -69 -6 -104c36 64 98 113 183 113c110 0 176 -62 152 -219l-50 -313h-83l53 332c14 86 -16 129 -90 129c-87 0 -162 -58 -178 -157l-48 -304h-83zM415 619c-48 0 -82 43 -111 43c-19 0 -39 -17 -46 -45h-60
c15 73 55 116 107 116c46 0 81 -43 110 -43c19 0 38 17 45 45h60c-15 -73 -54 -116 -105 -116z" />
    <glyph glyph-name="ograve" unicode="&#xf2;" horiz-adv-x="601" 
d="M277 -8c-145 0 -233 99 -233 232c0 175 122 307 278 307c145 0 234 -95 234 -230c0 -179 -115 -309 -279 -309zM281 60c117 0 188 103 188 239c0 100 -52 164 -152 164c-112 0 -187 -103 -187 -239c0 -100 48 -164 151 -164zM225 760h102l47 -147h-61z" />
    <glyph glyph-name="oacute" unicode="&#xf3;" horiz-adv-x="601" 
d="M277 -8c-145 0 -233 99 -233 232c0 175 122 307 278 307c145 0 234 -95 234 -230c0 -179 -115 -309 -279 -309zM281 60c117 0 188 103 188 239c0 100 -52 164 -152 164c-112 0 -187 -103 -187 -239c0 -100 48 -164 151 -164zM379 760h108l-121 -147h-66z" />
    <glyph glyph-name="ocircumflex" unicode="&#xf4;" horiz-adv-x="601" 
d="M277 -8c-145 0 -233 99 -233 232c0 175 122 307 278 307c145 0 234 -95 234 -230c0 -179 -115 -309 -279 -309zM281 60c117 0 188 103 188 239c0 100 -52 164 -152 164c-112 0 -187 -103 -187 -239c0 -100 48 -164 151 -164zM317 757h75l86 -144h-58l-74 75l-96 -75h-62z
" />
    <glyph glyph-name="otilde" unicode="&#xf5;" horiz-adv-x="601" 
d="M277 -8c-145 0 -233 99 -233 232c0 175 122 307 278 307c145 0 234 -95 234 -230c0 -179 -115 -309 -279 -309zM281 60c117 0 188 103 188 239c0 100 -52 164 -152 164c-112 0 -187 -103 -187 -239c0 -100 48 -164 151 -164zM402 619c-48 0 -82 43 -111 43
c-19 0 -39 -17 -46 -45h-60c15 73 55 116 107 116c46 0 81 -43 110 -43c19 0 38 17 45 45h60c-15 -73 -54 -116 -105 -116z" />
    <glyph glyph-name="odieresis" unicode="&#xf6;" horiz-adv-x="601" 
d="M277 -8c-145 0 -233 99 -233 232c0 175 122 307 278 307c145 0 234 -95 234 -230c0 -179 -115 -309 -279 -309zM281 60c117 0 188 103 188 239c0 100 -52 164 -152 164c-112 0 -187 -103 -187 -239c0 -100 48 -164 151 -164zM252 634c-29 0 -53 23 -53 52s25 54 54 54
s52 -23 52 -52s-24 -54 -53 -54zM440 634c-29 0 -53 23 -53 52s25 54 54 54s52 -23 52 -52s-24 -54 -53 -54z" />
    <glyph glyph-name="divide" unicode="&#xf7;" horiz-adv-x="531" 
d="M59 377h447l-11 -70h-447zM253 89c-35 0 -64 28 -64 64s29 64 64 64s64 -28 64 -64s-29 -64 -64 -64zM301 467c-35 0 -64 28 -64 64s29 64 64 64s64 -28 64 -64s-29 -64 -64 -64z" />
    <glyph glyph-name="oslash" unicode="&#xf8;" horiz-adv-x="601" 
d="M17 1l72 77c-29 39 -45 89 -45 146c0 175 122 307 278 307c60 0 110 -16 149 -47l67 72l41 -38l-69 -73c31 -39 46 -87 46 -144c0 -179 -115 -309 -279 -309c-60 0 -110 16 -149 47l-71 -76zM281 60c117 0 188 103 188 239c0 33 -5 62 -16 85l-275 -293
c25 -21 59 -31 103 -31zM130 224c0 -33 4 -62 15 -87l275 293c-25 22 -60 33 -103 33c-112 0 -187 -103 -187 -239z" />
    <glyph glyph-name="ugrave" unicode="&#xf9;" horiz-adv-x="600" 
d="M493 156c-11 -71 -14 -113 -11 -156h-79c-3 31 0 69 5 104c-37 -64 -97 -113 -182 -113c-109 0 -174 67 -150 219l50 313h83l-53 -332c-13 -83 16 -129 88 -129c87 0 160 58 176 157l48 304h83zM237 760h102l47 -147h-61z" />
    <glyph glyph-name="uacute" unicode="&#xfa;" horiz-adv-x="600" 
d="M493 156c-11 -71 -14 -113 -11 -156h-79c-3 31 0 69 5 104c-37 -64 -97 -113 -182 -113c-109 0 -174 67 -150 219l50 313h83l-53 -332c-13 -83 16 -129 88 -129c87 0 160 58 176 157l48 304h83zM385 760h108l-121 -147h-66z" />
    <glyph glyph-name="ucircumflex" unicode="&#xfb;" horiz-adv-x="600" 
d="M493 156c-11 -71 -14 -113 -11 -156h-79c-3 31 0 69 5 104c-37 -64 -97 -113 -182 -113c-109 0 -174 67 -150 219l50 313h83l-53 -332c-13 -83 16 -129 88 -129c87 0 160 58 176 157l48 304h83zM329 757h75l86 -144h-58l-74 75l-96 -75h-62z" />
    <glyph glyph-name="udieresis" unicode="&#xfc;" horiz-adv-x="600" 
d="M493 156c-11 -71 -14 -113 -11 -156h-79c-3 31 0 69 5 104c-37 -64 -97 -113 -182 -113c-109 0 -174 67 -150 219l50 313h83l-53 -332c-13 -83 16 -129 88 -129c87 0 160 58 176 157l48 304h83zM262 634c-29 0 -53 23 -53 52s25 54 54 54s52 -23 52 -52s-24 -54 -53 -54z
M450 634c-29 0 -53 23 -53 52s25 54 54 54s52 -23 52 -52s-24 -54 -53 -54z" />
    <glyph glyph-name="yacute" unicode="&#xfd;" horiz-adv-x="517" 
d="M190 59l-124 464h85l94 -375l199 375h89l-395 -705h-88zM348 760h108l-121 -147h-66z" />
    <glyph glyph-name="thorn" unicode="&#xfe;" horiz-adv-x="643" 
d="M170 773h83l-54 -342c35 59 106 101 183 101c123 0 210 -91 210 -230c0 -168 -97 -311 -261 -311c-107 0 -160 57 -184 107l-45 -280h-83zM326 59c114 0 178 102 178 238c0 108 -53 167 -138 167c-113 0 -201 -92 -201 -242c0 -101 61 -163 161 -163z" />
    <glyph glyph-name="ydieresis" unicode="&#xff;" horiz-adv-x="517" 
d="M190 59l-124 464h85l94 -375l199 375h89l-395 -705h-88zM229 634c-29 0 -53 23 -53 52s25 54 54 54s52 -23 52 -52s-24 -54 -53 -54zM417 634c-29 0 -53 23 -53 52s25 54 54 54s52 -23 52 -52s-24 -54 -53 -54z" />
    <glyph glyph-name="Amacron" unicode="&#x100;" horiz-adv-x="650" 
d="M469 206h-295l-102 -206h-84l359 715h114l129 -715h-84zM208 275h248l-66 368zM289 850h266l-10 -64h-266z" />
    <glyph glyph-name="amacron" unicode="&#x101;" horiz-adv-x="538" 
d="M203 -8c-108 0 -169 59 -169 148c0 129 117 167 254 167h101l6 38c13 80 -14 118 -98 118c-68 0 -110 -29 -125 -94h-83c24 126 126 163 211 163c117 0 198 -53 177 -194l-29 -182c-11 -68 -14 -112 -9 -156h-78c-3 28 -4 60 -1 83c-37 -60 -93 -91 -157 -91zM214 57
c79 0 141 42 156 134l9 57h-89c-117 0 -174 -28 -174 -108c0 -47 30 -83 98 -83zM202 712h262l-10 -64h-262z" />
    <glyph glyph-name="Abreve" unicode="&#x102;" horiz-adv-x="650" 
d="M469 206h-295l-102 -206h-84l359 715h114l129 -715h-84zM208 275h248l-66 368zM412 767c-75 0 -130 52 -130 132h66c5 -43 25 -64 65 -64c41 0 65 21 73 64h64c-5 -78 -69 -132 -138 -132z" />
    <glyph glyph-name="abreve" unicode="&#x103;" horiz-adv-x="538" 
d="M203 -8c-108 0 -169 59 -169 148c0 129 117 167 254 167h101l6 38c13 80 -14 118 -98 118c-68 0 -110 -29 -125 -94h-83c24 126 126 163 211 163c117 0 198 -53 177 -194l-29 -182c-11 -68 -14 -112 -9 -156h-78c-3 28 -4 60 -1 83c-37 -60 -93 -91 -157 -91zM214 57
c79 0 141 42 156 134l9 57h-89c-117 0 -174 -28 -174 -108c0 -47 30 -83 98 -83zM321 619c-75 0 -130 52 -130 132h66c5 -43 25 -64 65 -64c41 0 65 21 73 64h64c-5 -78 -69 -132 -138 -132z" />
    <glyph glyph-name="Aogonek" unicode="&#x104;" horiz-adv-x="650" 
d="M418 -101c0 47 42 79 82 99l-37 208h-295l-102 -206h-84l359 715h114l129 -715c-32 -19 -85 -45 -85 -91c0 -21 12 -31 37 -31c17 0 33 3 48 10l-9 -59c-13 -5 -31 -11 -58 -11c-53 0 -99 22 -99 81zM202 275h248l-66 368z" />
    <glyph glyph-name="aogonek" unicode="&#x105;" horiz-adv-x="538" 
d="M370 -182c-53 0 -99 22 -99 81c0 49 44 80 84 101c-3 28 -4 60 -1 83c-37 -60 -93 -91 -157 -91c-108 0 -169 59 -169 148c0 129 117 167 254 167h101l6 38c13 80 -14 118 -98 118c-68 0 -110 -29 -125 -94h-83c24 126 126 163 211 163c117 0 198 -53 177 -194l-29 -182
c-11 -68 -14 -112 -9 -156c-29 -19 -81 -45 -81 -91c0 -21 12 -31 37 -31c17 0 33 3 48 10l-9 -59c-13 -5 -31 -11 -58 -11zM208 57c79 0 141 42 156 134l9 57h-89c-117 0 -174 -28 -174 -108c0 -47 30 -83 98 -83z" />
    <glyph glyph-name="Cacute" unicode="&#x106;" horiz-adv-x="728" 
d="M392 -9c-197 0 -318 123 -318 313c0 235 156 422 380 422c145 0 255 -80 266 -234h-82c-17 108 -73 165 -188 165c-180 0 -286 -156 -286 -353c0 -155 76 -243 229 -243c116 0 191 71 224 176h83c-37 -152 -158 -246 -308 -246zM495 898h106l-108 -127h-66z" />
    <glyph glyph-name="cacute" unicode="&#x107;" horiz-adv-x="554" 
d="M289 -8c-157 0 -244 98 -244 238c0 193 130 301 271 301c115 0 204 -57 212 -184h-79c-11 90 -64 115 -137 115c-104 0 -182 -81 -182 -232c0 -111 53 -170 161 -170c73 0 136 45 151 126h78c-23 -125 -114 -194 -231 -194zM369 760h108l-121 -147h-66z" />
    <glyph glyph-name="Ccircumflex" unicode="&#x108;" horiz-adv-x="728" 
d="M392 -9c-197 0 -318 123 -318 313c0 235 156 422 380 422c145 0 255 -80 266 -234h-82c-17 108 -73 165 -188 165c-180 0 -286 -156 -286 -353c0 -155 76 -243 229 -243c116 0 191 71 224 176h83c-37 -152 -158 -246 -308 -246zM440 898h75l91 -127h-58l-77 58l-93 -58
h-62z" />
    <glyph glyph-name="ccircumflex" unicode="&#x109;" horiz-adv-x="554" 
d="M289 -8c-157 0 -244 98 -244 238c0 193 130 301 271 301c115 0 204 -57 212 -184h-79c-11 90 -64 115 -137 115c-104 0 -182 -81 -182 -232c0 -111 53 -170 161 -170c73 0 136 45 151 126h78c-23 -125 -114 -194 -231 -194zM307 757h75l86 -144h-58l-74 75l-96 -75h-62z
" />
    <glyph glyph-name="Cdotaccent" unicode="&#x10a;" horiz-adv-x="728" 
d="M392 -9c-197 0 -318 123 -318 313c0 235 156 422 380 422c145 0 255 -80 266 -234h-82c-17 108 -73 165 -188 165c-180 0 -286 -156 -286 -353c0 -155 76 -243 229 -243c116 0 191 71 224 176h83c-37 -152 -158 -246 -308 -246zM469 787c-31 0 -55 23 -55 54s25 56 56 56
s54 -23 54 -54s-24 -56 -55 -56z" />
    <glyph glyph-name="cdotaccent" unicode="&#x10b;" horiz-adv-x="554" 
d="M289 -8c-157 0 -244 98 -244 238c0 193 130 301 271 301c115 0 204 -57 212 -184h-79c-11 90 -64 115 -137 115c-104 0 -182 -81 -182 -232c0 -111 53 -170 161 -170c73 0 136 45 151 126h78c-23 -125 -114 -194 -231 -194zM346 632c-31 0 -55 23 -55 54s25 56 56 56
s54 -23 54 -54s-24 -56 -55 -56z" />
    <glyph glyph-name="Ccaron" unicode="&#x10c;" horiz-adv-x="728" 
d="M392 -9c-197 0 -318 123 -318 313c0 235 156 422 380 422c145 0 255 -80 266 -234h-82c-17 108 -73 165 -188 165c-180 0 -286 -156 -286 -353c0 -155 76 -243 229 -243c116 0 191 71 224 176h83c-37 -152 -158 -246 -308 -246zM493 771h-75l-91 127h58l77 -58l93 58h62z
" />
    <glyph glyph-name="ccaron" unicode="&#x10d;" horiz-adv-x="554" 
d="M289 -8c-157 0 -244 98 -244 238c0 193 130 301 271 301c115 0 204 -57 212 -184h-79c-11 90 -64 115 -137 115c-104 0 -182 -81 -182 -232c0 -111 53 -170 161 -170c73 0 136 45 151 126h78c-23 -125 -114 -194 -231 -194zM361 613h-75l-86 144h58l74 -75l96 75h62z" />
    <glyph glyph-name="Dcaron" unicode="&#x10e;" horiz-adv-x="698" 
d="M167 715h174c236 0 334 -130 334 -305c0 -228 -144 -410 -412 -410h-209zM260 71c205 0 326 126 326 338c0 135 -69 236 -249 236h-94l-91 -574h108zM422 771h-75l-91 127h58l77 -58l93 58h62z" />
    <glyph glyph-name="dcaron" unicode="&#x10f;" horiz-adv-x="622" 
d="M267 -9c-131 0 -221 91 -221 231c0 167 103 310 271 310c100 0 151 -53 175 -104l54 345h83l-97 -617c-11 -71 -14 -113 -11 -156h-79c-3 31 0 64 4 95c-37 -63 -102 -104 -179 -104zM277 60c111 0 196 80 196 243c0 100 -64 160 -153 160c-117 0 -186 -101 -186 -237
c0 -104 52 -166 143 -166zM689 773h91l-70 -175h-59z" />
    <glyph glyph-name="Dcroat" unicode="&#x110;" horiz-adv-x="718" 
d="M54 392h76l51 323h174c236 0 334 -130 334 -305c0 -228 -144 -410 -412 -410h-209l51 325h-76zM274 71c205 0 326 126 326 338c0 135 -69 236 -249 236h-94l-40 -253h207l-11 -67h-207l-40 -254h108z" />
    <glyph glyph-name="dcroat" unicode="&#x111;" horiz-adv-x="622" 
d="M347 676h178l15 97h83l-16 -97h76l-10 -61h-75l-72 -459c-11 -71 -14 -113 -11 -156h-79c-3 31 0 64 4 95c-37 -63 -102 -104 -179 -104c-131 0 -221 91 -221 231c0 167 103 310 271 310c100 0 151 -53 175 -104l29 187h-178zM314 463c-117 0 -186 -101 -186 -237
c0 -108 51 -166 143 -166c111 0 196 81 196 246c0 101 -61 157 -153 157z" />
    <glyph glyph-name="Emacron" unicode="&#x112;" horiz-adv-x="572" 
d="M167 715h413l-12 -71h-326l-38 -243h266l-11 -71h-266l-41 -259h348l-11 -71h-435zM258 850h266l-10 -64h-266z" />
    <glyph glyph-name="emacron" unicode="&#x113;" horiz-adv-x="553" 
d="M129 211c0 -96 44 -151 144 -151c73 0 124 31 144 91h83c-32 -109 -123 -160 -230 -160c-141 0 -226 93 -226 224c0 184 118 316 273 316c143 0 230 -88 203 -267l-3 -19h-387c-1 -5 -1 -11 -1 -17v-17zM312 463c-75 0 -145 -44 -172 -151h303c8 105 -35 151 -131 151z
M214 712h262l-10 -64h-262z" />
    <glyph glyph-name="Ebreve" unicode="&#x114;" horiz-adv-x="572" 
d="M167 715h413l-12 -71h-326l-38 -243h266l-11 -71h-266l-41 -259h348l-11 -71h-435zM381 767c-75 0 -130 52 -130 132h66c5 -43 25 -64 65 -64c41 0 65 21 73 64h64c-5 -78 -69 -132 -138 -132z" />
    <glyph glyph-name="ebreve" unicode="&#x115;" horiz-adv-x="553" 
d="M129 211c0 -96 44 -151 144 -151c73 0 124 31 144 91h83c-32 -109 -123 -160 -230 -160c-141 0 -226 93 -226 224c0 184 118 316 273 316c143 0 230 -88 203 -267l-3 -19h-387c-1 -5 -1 -11 -1 -17v-17zM312 463c-75 0 -145 -44 -172 -151h303c8 105 -35 151 -131 151z
M333 619c-75 0 -130 52 -130 132h66c5 -43 25 -64 65 -64c41 0 65 21 73 64h64c-5 -78 -69 -132 -138 -132z" />
    <glyph glyph-name="Edotaccent" unicode="&#x116;" horiz-adv-x="572" 
d="M167 715h413l-12 -71h-326l-38 -243h266l-11 -71h-266l-41 -259h348l-11 -71h-435zM385 787c-31 0 -55 23 -55 54s25 56 56 56s54 -23 54 -54s-24 -56 -55 -56z" />
    <glyph glyph-name="edotaccent" unicode="&#x117;" horiz-adv-x="553" 
d="M129 211c0 -96 44 -151 144 -151c73 0 124 31 144 91h83c-32 -109 -123 -160 -230 -160c-141 0 -226 93 -226 224c0 184 118 316 273 316c143 0 230 -88 203 -267l-3 -19h-387c-1 -5 -1 -11 -1 -17v-17zM312 463c-75 0 -145 -44 -172 -151h303c8 105 -35 151 -131 151z
M343 632c-31 0 -55 23 -55 54s25 56 56 56s54 -23 54 -54s-24 -56 -55 -56z" />
    <glyph glyph-name="Eogonek" unicode="&#x118;" horiz-adv-x="572" 
d="M161 715h413l-12 -71h-326l-38 -243h266l-11 -71h-266l-41 -259h348l-11 -71h-31c-31 -18 -84 -46 -84 -93c0 -19 12 -29 37 -29c17 0 33 3 48 10l-9 -59c-13 -5 -31 -11 -58 -11c-53 0 -99 23 -99 76c0 50 41 85 80 106h-319z" />
    <glyph glyph-name="eogonek" unicode="&#x119;" horiz-adv-x="553" 
d="M316 -182c-53 0 -99 22 -99 81c0 42 41 73 77 94c-11 -1 -19 -2 -30 -2c-141 0 -226 93 -226 224c0 184 118 316 273 316c143 0 230 -88 203 -267l-3 -19h-387c-1 -11 -1 -22 -1 -34c0 -96 44 -151 144 -151c73 0 124 31 144 91h83c-12 -39 -28 -68 -56 -97
c-47 -47 -140 -90 -140 -145c0 -21 12 -31 37 -31c17 0 33 3 48 10l-9 -59c-13 -5 -31 -11 -58 -11zM306 463c-75 0 -145 -44 -172 -151h303c8 105 -35 151 -131 151z" />
    <glyph glyph-name="Ecaron" unicode="&#x11a;" horiz-adv-x="572" 
d="M167 715h413l-12 -71h-326l-38 -243h266l-11 -71h-266l-41 -259h348l-11 -71h-435zM407 771h-75l-91 127h58l77 -58l93 58h62z" />
    <glyph glyph-name="ecaron" unicode="&#x11b;" horiz-adv-x="553" 
d="M129 211c0 -96 44 -151 144 -151c73 0 124 31 144 91h83c-32 -109 -123 -160 -230 -160c-141 0 -226 93 -226 224c0 184 118 316 273 316c143 0 230 -88 203 -267l-3 -19h-387c-1 -5 -1 -11 -1 -17v-17zM312 463c-75 0 -145 -44 -172 -151h303c8 105 -35 151 -131 151z
M361 613h-75l-86 144h58l74 -75l96 75h62z" />
    <glyph glyph-name="Gcircumflex" unicode="&#x11c;" horiz-adv-x="770" 
d="M400 -9c-208 0 -325 139 -325 323c0 224 158 410 374 410c145 0 268 -72 279 -225h-86c-11 108 -88 156 -195 156c-175 0 -282 -153 -282 -341c0 -153 80 -253 237 -253c144 0 218 96 239 228h-212l12 72h295c-21 -259 -144 -370 -336 -370zM432 898h75l91 -127h-58
l-77 58l-93 -58h-62z" />
    <glyph glyph-name="gcircumflex" unicode="&#x11d;" horiz-adv-x="623" 
d="M278 86c104 0 195 85 195 225c0 95 -66 152 -155 152c-112 0 -180 -101 -180 -217c0 -95 48 -160 140 -160zM512 26c-23 -145 -115 -216 -260 -216c-169 0 -222 85 -233 160h84c11 -53 54 -90 147 -90c112 0 162 53 179 154l12 73c-39 -56 -95 -88 -172 -88
c-128 0 -218 91 -218 223c0 157 111 290 264 290c99 0 153 -54 177 -104l15 95h83zM331 757h75l86 -144h-58l-74 75l-96 -75h-62z" />
    <glyph glyph-name="Gbreve" unicode="&#x11e;" horiz-adv-x="770" 
d="M400 -9c-208 0 -325 139 -325 323c0 224 158 410 374 410c145 0 268 -72 279 -225h-86c-11 108 -88 156 -195 156c-175 0 -282 -153 -282 -341c0 -153 80 -253 237 -253c144 0 218 96 239 228h-212l12 72h295c-21 -259 -144 -370 -336 -370zM461 767
c-75 0 -130 52 -130 132h66c5 -43 25 -64 65 -64c41 0 65 21 73 64h64c-5 -78 -69 -132 -138 -132z" />
    <glyph glyph-name="gbreve" unicode="&#x11f;" horiz-adv-x="623" 
d="M278 86c104 0 195 85 195 225c0 95 -66 152 -155 152c-112 0 -180 -101 -180 -217c0 -95 48 -160 140 -160zM512 26c-23 -145 -115 -216 -260 -216c-169 0 -222 85 -233 160h84c11 -53 54 -90 147 -90c112 0 162 53 179 154l12 73c-39 -56 -95 -88 -172 -88
c-128 0 -218 91 -218 223c0 157 111 290 264 290c99 0 153 -54 177 -104l15 95h83zM360 619c-75 0 -130 52 -130 132h66c5 -43 25 -64 65 -64c41 0 65 21 73 64h64c-5 -78 -69 -132 -138 -132z" />
    <glyph glyph-name="Gdotaccent" unicode="&#x120;" horiz-adv-x="770" 
d="M400 -9c-208 0 -325 139 -325 323c0 224 158 410 374 410c145 0 268 -72 279 -225h-86c-11 108 -88 156 -195 156c-175 0 -282 -153 -282 -341c0 -153 80 -253 237 -253c144 0 218 96 239 228h-212l12 72h295c-21 -259 -144 -370 -336 -370zM463 787c-31 0 -55 23 -55 54
s25 56 56 56s54 -23 54 -54s-24 -56 -55 -56z" />
    <glyph glyph-name="gdotaccent" unicode="&#x121;" horiz-adv-x="623" 
d="M278 86c104 0 195 85 195 225c0 95 -66 152 -155 152c-112 0 -180 -101 -180 -217c0 -95 48 -160 140 -160zM512 26c-23 -145 -115 -216 -260 -216c-169 0 -222 85 -233 160h84c11 -53 54 -90 147 -90c112 0 162 53 179 154l12 73c-39 -56 -95 -88 -172 -88
c-128 0 -218 91 -218 223c0 157 111 290 264 290c99 0 153 -54 177 -104l15 95h83zM371 632c-31 0 -55 23 -55 54s25 56 56 56s54 -23 54 -54s-24 -56 -55 -56z" />
    <glyph glyph-name="uni0122" unicode="&#x122;" horiz-adv-x="770" 
d="M400 -9c-208 0 -325 139 -325 323c0 224 158 410 374 410c145 0 268 -72 279 -225h-86c-11 108 -88 156 -195 156c-175 0 -282 -153 -282 -341c0 -153 80 -253 237 -253c144 0 218 96 239 228h-212l12 72h295c-21 -259 -144 -370 -336 -370zM238 -194l72 157l78 -24
l-101 -159z" />
    <glyph glyph-name="uni0123" unicode="&#x123;" horiz-adv-x="623" 
d="M278 86c104 0 195 85 195 225c0 95 -66 152 -155 152c-112 0 -180 -101 -180 -217c0 -95 48 -160 140 -160zM512 26c-23 -145 -115 -216 -260 -216c-169 0 -222 85 -233 160h84c11 -53 54 -90 147 -90c112 0 162 53 179 154l12 73c-39 -56 -95 -88 -172 -88
c-128 0 -218 91 -218 223c0 157 111 290 264 290c99 0 153 -54 177 -104l15 95h83zM442 759l-72 -157l-78 24l101 159z" />
    <glyph glyph-name="Hcircumflex" unicode="&#x124;" horiz-adv-x="730" 
d="M167 715h87l-52 -324h376l52 324h87l-113 -715h-87l50 318h-376l-50 -318h-87zM426 898h75l91 -127h-58l-77 58l-93 -58h-62z" />
    <glyph glyph-name="hcircumflex" unicode="&#x125;" horiz-adv-x="592" 
d="M170 773h83l-54 -343c32 51 91 102 176 102c110 0 176 -62 152 -219l-50 -313h-83l53 332c15 88 -18 129 -90 129c-87 0 -162 -58 -178 -157l-48 -304h-83zM364 948h75l91 -127h-58l-77 58l-93 -58h-62z" />
    <glyph glyph-name="Hbar" unicode="&#x126;" horiz-adv-x="730" 
d="M66 560h70l25 155h87l-25 -155h376l25 155h87l-25 -155h70l-10 -67h-70l-78 -493h-87l50 318h-376l-50 -318h-87l78 493h-70zM572 391l16 102h-376l-16 -102h376z" />
    <glyph glyph-name="hbar" unicode="&#x127;" horiz-adv-x="592" 
d="M74 676h74l16 97h83l-16 -97h179l-10 -61h-178l-29 -185c32 51 91 102 176 102c110 0 176 -62 152 -219l-50 -313h-83l53 332c15 93 -15 129 -90 129c-87 0 -162 -58 -178 -157l-48 -304h-83l97 615h-75z" />
    <glyph glyph-name="Itilde" unicode="&#x128;" horiz-adv-x="279" 
d="M172 715h87l-113 -715h-87zM291 774c-48 0 -82 43 -111 43c-19 0 -39 -17 -46 -45h-60c15 73 55 116 107 116c46 0 81 -43 110 -43c19 0 38 17 45 45h60c-15 -73 -54 -116 -105 -116z" />
    <glyph glyph-name="itilde" unicode="&#x129;" horiz-adv-x="255" 
d="M133 523h83l-83 -523h-83zM253 619c-48 0 -82 43 -111 43c-19 0 -39 -17 -46 -45h-60c15 73 55 116 107 116c46 0 81 -43 110 -43c19 0 38 17 45 45h60c-15 -73 -54 -116 -105 -116z" />
    <glyph glyph-name="Imacron" unicode="&#x12a;" horiz-adv-x="279" 
d="M172 715h87l-113 -715h-87zM104 850h266l-10 -64h-266z" />
    <glyph glyph-name="imacron" unicode="&#x12b;" horiz-adv-x="255" 
d="M101 712h194l-10 -64h-194zM127 523h83l-83 -523h-83z" />
    <glyph glyph-name="Ibreve" unicode="&#x12c;" horiz-adv-x="279" 
d="M172 715h87l-113 -715h-87zM227 767c-75 0 -130 52 -130 132h66c5 -43 25 -64 65 -64c41 0 65 21 73 64h64c-5 -78 -69 -132 -138 -132z" />
    <glyph glyph-name="ibreve" unicode="&#x12d;" horiz-adv-x="255" 
d="M133 523h83l-83 -523h-83zM192 619c-75 0 -130 52 -130 132h66c5 -43 25 -64 65 -64c41 0 65 21 73 64h64c-5 -78 -69 -132 -138 -132z" />
    <glyph glyph-name="Iogonek" unicode="&#x12e;" horiz-adv-x="279" 
d="M71 -182c-53 0 -99 22 -99 81c0 47 41 77 80 98l114 718h87l-112 -709c-35 -21 -88 -57 -88 -97c0 -21 12 -31 37 -31c17 0 33 3 48 10l-9 -59c-13 -5 -31 -11 -58 -11z" />
    <glyph glyph-name="iogonek" unicode="&#x12f;" horiz-adv-x="255" 
d="M127 523h83l-82 -517c-35 -21 -86 -51 -86 -97c0 -21 12 -31 35 -31c17 0 33 3 48 10l-9 -59c-13 -5 -31 -11 -58 -11c-51 0 -97 22 -97 81c0 48 45 82 83 101zM192 632c-31 0 -55 23 -55 54s25 56 56 56s54 -23 54 -54s-24 -56 -55 -56z" />
    <glyph glyph-name="Idotaccent" unicode="&#x130;" horiz-adv-x="279" 
d="M172 715h87l-113 -715h-87zM231 787c-31 0 -55 23 -55 54s25 56 56 56s54 -23 54 -54s-24 -56 -55 -56z" />
    <glyph glyph-name="dotlessi" unicode="&#x131;" horiz-adv-x="267" 
d="M133 523h83l-83 -523h-83z" />
    <glyph glyph-name="IJ" unicode="&#x132;" horiz-adv-x="657" 
d="M130 715h87l-113 -715h-87zM314 -9c-68 0 -96 15 -115 26l11 70c25 -12 54 -25 101 -25c72 0 112 38 127 126l83 527h87l-85 -535c-21 -133 -104 -189 -209 -189z" />
    <glyph glyph-name="ij" unicode="&#x133;" horiz-adv-x="255" 
d="M198 632c-31 0 -55 23 -55 54s25 56 56 56s54 -23 54 -54s-24 -56 -55 -56zM133 523h83l-83 -523h-83zM209 -121c60 3 82 31 90 80l89 564h83l-90 -569c-15 -91 -67 -144 -183 -144zM453 632c-31 0 -55 23 -55 54s25 56 56 56s54 -23 54 -54s-24 -56 -55 -56z" />
    <glyph glyph-name="Jcircumflex" unicode="&#x134;" horiz-adv-x="420" 
d="M119 -9c-68 0 -96 15 -115 26l11 70c25 -12 54 -25 101 -25c72 0 112 38 127 126l83 527h87l-85 -535c-21 -133 -104 -189 -209 -189zM355 898h75l91 -127h-58l-77 58l-93 -58h-62z" />
    <glyph glyph-name="jcircumflex" unicode="&#x135;" horiz-adv-x="255" 
d="M-52 -121c60 3 82 31 90 80l89 564h83l-90 -569c-15 -91 -67 -144 -183 -144zM163 757h75l86 -144h-58l-74 75l-96 -75h-62z" />
    <glyph glyph-name="uni0136" unicode="&#x136;" horiz-adv-x="616" 
d="M167 715h87l-54 -340l363 340h101l-373 -345l272 -370h-97l-268 359l-57 -359h-87zM181 -194l72 157l78 -24l-101 -159z" />
    <glyph glyph-name="uni0137" unicode="&#x137;" horiz-adv-x="511" 
d="M170 773h83l-76 -481l249 231h103l-264 -240l195 -283h-95l-190 279l-44 -279h-83zM135 -194l72 157l78 -24l-101 -159z" />
    <glyph glyph-name="Lacute" unicode="&#x139;" horiz-adv-x="535" 
d="M167 715h87l-102 -644h327l-11 -71h-414zM250 898h106l-108 -127h-66z" />
    <glyph glyph-name="lacute" unicode="&#x13a;" horiz-adv-x="256" 
d="M172 773h84l-122 -773h-84zM253 948h106l-108 -127h-66z" />
    <glyph glyph-name="uni013B" unicode="&#x13b;" horiz-adv-x="535" 
d="M167 715h87l-102 -644h327l-11 -71h-414zM147 -194l72 157l78 -24l-101 -159z" />
    <glyph glyph-name="uni013C" unicode="&#x13c;" horiz-adv-x="256" 
d="M172 773h84l-122 -773h-84zM-20 -194l72 157l78 -24l-101 -159z" />
    <glyph glyph-name="Lcaron" unicode="&#x13d;" horiz-adv-x="535" 
d="M427 715h95l-79 -157h-59zM161 715h87l-102 -644h327l-11 -71h-414z" />
    <glyph glyph-name="lcaron" unicode="&#x13e;" horiz-adv-x="256" 
d="M172 773h84l-122 -773h-84zM316 773h91l-70 -175h-59z" />
    <glyph glyph-name="Ldot" unicode="&#x13f;" horiz-adv-x="535" 
d="M167 715h87l-102 -644h327l-11 -71h-414zM454 320c-35 0 -64 28 -64 64s28 64 63 64s65 -28 65 -64s-29 -64 -64 -64z" />
    <glyph glyph-name="ldot" unicode="&#x140;" horiz-adv-x="328" 
d="M172 773h84l-122 -773h-84zM313 303c-35 0 -64 28 -64 64s28 64 63 64s65 -28 65 -64s-29 -64 -64 -64z" />
    <glyph glyph-name="Lslash" unicode="&#x141;" horiz-adv-x="567" 
d="M56 319l72 25l59 371h87l-54 -339l211 73l-11 -71l-211 -73l-37 -234h327l-11 -71h-414l43 273l-72 -25z" />
    <glyph glyph-name="lslash" unicode="&#x142;" horiz-adv-x="288" 
d="M45 384l82 42l55 347h84l-48 -300l88 45l-13 -73l-86 -45l-63 -400h-84l56 353l-83 -42z" />
    <glyph glyph-name="Nacute" unicode="&#x143;" horiz-adv-x="724" 
d="M167 715h111l256 -591l94 591h83l-113 -715h-98l-266 613l-97 -613h-83zM488 898h106l-108 -127h-66z" />
    <glyph glyph-name="nacute" unicode="&#x144;" horiz-adv-x="592" 
d="M106 367c11 71 13 112 14 156h78c0 -29 -2 -69 -6 -104c36 64 98 113 183 113c110 0 176 -62 152 -219l-50 -313h-83l53 332c14 86 -16 129 -90 129c-87 0 -162 -58 -178 -157l-48 -304h-83zM388 760h108l-121 -147h-66z" />
    <glyph glyph-name="uni0145" unicode="&#x145;" horiz-adv-x="724" 
d="M167 715h111l256 -591l94 591h83l-113 -715h-98l-266 613l-97 -613h-83zM219 -194l72 157l78 -24l-101 -159z" />
    <glyph glyph-name="uni0146" unicode="&#x146;" horiz-adv-x="592" 
d="M106 367c11 71 13 112 14 156h78c0 -29 -2 -69 -6 -104c36 64 98 113 183 113c110 0 176 -62 152 -219l-50 -313h-83l53 332c14 86 -16 129 -90 129c-87 0 -162 -58 -178 -157l-48 -304h-83zM142 -194l72 157l78 -24l-101 -159z" />
    <glyph glyph-name="Ncaron" unicode="&#x147;" horiz-adv-x="724" 
d="M167 715h111l256 -591l94 591h83l-113 -715h-98l-266 613l-97 -613h-83zM488 771h-75l-91 127h58l77 -58l93 58h62z" />
    <glyph glyph-name="ncaron" unicode="&#x148;" horiz-adv-x="592" 
d="M106 367c11 71 13 112 14 156h78c0 -29 -2 -69 -6 -104c36 64 98 113 183 113c110 0 176 -62 152 -219l-50 -313h-83l53 332c14 86 -16 129 -90 129c-87 0 -162 -58 -178 -157l-48 -304h-83zM382 613h-75l-86 144h58l74 -75l96 75h62z" />
    <glyph glyph-name="napostrophe" unicode="&#x149;" horiz-adv-x="598" 
d="M112 367c11 71 13 112 14 156h78c0 -29 -2 -69 -6 -104c36 64 98 113 183 113c110 0 176 -62 152 -219l-50 -313h-83l53 332c14 86 -16 129 -90 129c-87 0 -162 -58 -178 -157l-48 -304h-83zM-2 514l103 212l77 -36l-131 -202z" />
    <glyph glyph-name="Eng" unicode="&#x14a;" horiz-adv-x="724" 
d="M374 -122c71 0 113 32 130 113l-276 622l-97 -613h-83l113 715h114l256 -573l91 573h83l-112 -705c-24 -150 -103 -203 -210 -203c-63 0 -94 13 -111 24l11 70c25 -13 48 -23 91 -23z" />
    <glyph glyph-name="eng" unicode="&#x14b;" horiz-adv-x="592" 
d="M100 367c11 71 13 112 14 156h78c0 -29 -2 -69 -6 -104c36 64 98 113 183 113c110 0 176 -62 152 -219l-57 -359c-13 -88 -60 -142 -183 -145l11 70c60 4 82 30 90 82l59 371c15 88 -18 129 -90 129c-87 0 -162 -58 -178 -157l-48 -304h-83z" />
    <glyph glyph-name="Omacron" unicode="&#x14c;" horiz-adv-x="811" 
d="M779 402c0 -237 -167 -411 -378 -411c-198 0 -327 137 -327 321c0 228 167 412 384 412c206 0 321 -146 321 -322zM689 402c0 139 -82 252 -232 252c-180 0 -293 -157 -293 -342c0 -156 98 -250 238 -250c170 0 287 144 287 340zM366 850h266l-10 -64h-266z" />
    <glyph glyph-name="omacron" unicode="&#x14d;" horiz-adv-x="589" 
d="M277 -8c-145 0 -233 99 -233 232c0 175 122 307 278 307c145 0 234 -95 234 -230c0 -179 -115 -309 -279 -309zM281 60c117 0 188 103 188 239c0 100 -52 164 -152 164c-112 0 -187 -103 -187 -239c0 -100 48 -164 151 -164zM227 712h262l-10 -64h-262z" />
    <glyph glyph-name="Obreve" unicode="&#x14e;" horiz-adv-x="811" 
d="M779 402c0 -237 -167 -411 -378 -411c-198 0 -327 137 -327 321c0 228 167 412 384 412c206 0 321 -146 321 -322zM689 402c0 139 -82 252 -232 252c-180 0 -293 -157 -293 -342c0 -156 98 -250 238 -250c170 0 287 144 287 340zM489 767c-75 0 -130 52 -130 132h66
c5 -43 25 -64 65 -64c41 0 65 21 73 64h64c-5 -78 -69 -132 -138 -132z" />
    <glyph glyph-name="obreve" unicode="&#x14f;" horiz-adv-x="589" 
d="M277 -8c-145 0 -233 99 -233 232c0 175 122 307 278 307c145 0 234 -95 234 -230c0 -179 -115 -309 -279 -309zM281 60c117 0 188 103 188 239c0 100 -52 164 -152 164c-112 0 -187 -103 -187 -239c0 -100 48 -164 151 -164zM346 619c-75 0 -130 52 -130 132h66
c5 -43 25 -64 65 -64c41 0 65 21 73 64h64c-5 -78 -69 -132 -138 -132z" />
    <glyph glyph-name="Ohungarumlaut" unicode="&#x150;" horiz-adv-x="811" 
d="M779 402c0 -237 -167 -411 -378 -411c-198 0 -327 137 -327 321c0 228 167 412 384 412c206 0 321 -146 321 -322zM689 402c0 139 -82 252 -232 252c-180 0 -293 -157 -293 -342c0 -156 98 -250 238 -250c170 0 287 144 287 340zM414 898h96l-81 -127h-61zM568 898h96
l-81 -127h-61z" />
    <glyph glyph-name="ohungarumlaut" unicode="&#x151;" horiz-adv-x="589" 
d="M277 -8c-145 0 -233 99 -233 232c0 175 122 307 278 307c145 0 234 -95 234 -230c0 -179 -115 -309 -279 -309zM281 60c117 0 188 103 188 239c0 100 -52 164 -152 164c-112 0 -187 -103 -187 -239c0 -100 48 -164 151 -164zM287 760h96l-88 -147h-61zM441 760h96
l-88 -147h-61z" />
    <glyph glyph-name="OE" unicode="&#x152;" horiz-adv-x="972" 
d="M412 0c-235 0 -338 130 -338 306c0 227 146 409 414 409h486l-12 -71h-310l-38 -243h250l-11 -71h-250l-41 -259h332l-11 -71h-471zM491 644c-205 0 -328 -126 -328 -337c0 -136 73 -237 253 -237h59l90 574h-74z" />
    <glyph glyph-name="oe" unicode="&#x153;" horiz-adv-x="986" 
d="M550 211c0 -96 44 -151 144 -151c73 0 124 31 144 91h83c-32 -109 -123 -160 -230 -160c-103 0 -168 46 -197 122c-47 -76 -122 -121 -217 -121c-145 0 -233 99 -233 232c0 175 122 307 278 307c100 0 170 -49 202 -126c47 79 121 126 214 126c143 0 230 -88 203 -267
l-3 -19h-387c-1 -5 -1 -11 -1 -17v-17zM281 60c117 0 188 103 188 239c0 100 -52 164 -152 164c-112 0 -187 -103 -187 -239c0 -100 48 -164 151 -164zM733 463c-75 0 -145 -44 -172 -151h303c8 105 -35 151 -131 151z" />
    <glyph glyph-name="Racute" unicode="&#x154;" horiz-adv-x="628" 
d="M167 715h211c124 0 221 -61 218 -182c0 -131 -91 -199 -204 -215l175 -318h-94l-170 311h-113l-49 -311h-87zM335 380c117 0 175 51 175 153c1 80 -49 112 -137 112h-130l-42 -265h134zM407 898h106l-108 -127h-66z" />
    <glyph glyph-name="racute" unicode="&#x155;" horiz-adv-x="374" 
d="M106 367c11 71 13 112 14 156h78c0 -29 -2 -67 -6 -107c43 70 91 113 193 116l-12 -78c-106 -5 -178 -49 -199 -182l-43 -272h-83zM310 760h108l-121 -147h-66z" />
    <glyph glyph-name="uni0156" unicode="&#x156;" horiz-adv-x="628" 
d="M167 715h211c124 0 221 -61 218 -182c0 -131 -91 -199 -204 -215l175 -318h-94l-170 311h-113l-49 -311h-87zM335 380c117 0 175 51 175 153c1 80 -49 112 -137 112h-130l-42 -265h134zM186 -194l72 157l78 -24l-101 -159z" />
    <glyph glyph-name="uni0157" unicode="&#x157;" horiz-adv-x="374" 
d="M106 367c11 71 13 112 14 156h78c0 -29 -2 -67 -6 -107c43 70 91 113 193 116l-12 -78c-106 -5 -178 -49 -199 -182l-43 -272h-83zM-26 -194l72 157l78 -24l-101 -159z" />
    <glyph glyph-name="Rcaron" unicode="&#x158;" horiz-adv-x="628" 
d="M167 715h211c124 0 221 -61 218 -182c0 -131 -91 -199 -204 -215l175 -318h-94l-170 311h-113l-49 -311h-87zM335 380c117 0 175 51 175 153c1 80 -49 112 -137 112h-130l-42 -265h134zM400 771h-75l-91 127h58l77 -58l93 58h62z" />
    <glyph glyph-name="rcaron" unicode="&#x159;" horiz-adv-x="374" 
d="M106 367c11 71 13 112 14 156h78c0 -29 -2 -67 -6 -107c43 70 91 113 193 116l-12 -78c-106 -5 -178 -49 -199 -182l-43 -272h-83zM299 613h-75l-86 144h58l74 -75l96 75h62z" />
    <glyph glyph-name="Sacute" unicode="&#x15a;" horiz-adv-x="627" 
d="M306 -9c-179 0 -266 110 -266 227h86c3 -80 55 -157 185 -157c108 -1 168 54 168 141c0 65 -34 96 -154 131c-135 40 -208 83 -208 193c0 107 93 198 240 198c138 0 228 -70 231 -197h-80c-9 95 -70 127 -159 127c-103 0 -149 -55 -149 -125c0 -56 30 -85 155 -122
c142 -43 209 -89 209 -196c0 -126 -99 -220 -258 -220zM413 898h106l-108 -127h-66z" />
    <glyph glyph-name="sacute" unicode="&#x15b;" horiz-adv-x="480" 
d="M235 -9c-139 0 -201 80 -204 170h81c3 -56 34 -101 126 -101c73 0 107 31 107 86c0 45 -27 65 -106 85c-117 29 -159 70 -159 149c0 100 88 152 182 152c101 0 180 -44 185 -151h-78c-3 51 -44 82 -109 82s-102 -29 -102 -78c0 -39 23 -61 106 -80
c104 -27 162 -59 162 -155s-74 -159 -191 -159zM324 760h108l-121 -147h-66z" />
    <glyph glyph-name="Scircumflex" unicode="&#x15c;" horiz-adv-x="627" 
d="M306 -9c-179 0 -266 110 -266 227h86c3 -80 55 -157 185 -157c108 -1 168 54 168 141c0 65 -34 96 -154 131c-135 40 -208 83 -208 193c0 107 93 198 240 198c138 0 228 -70 231 -197h-80c-9 95 -70 127 -159 127c-103 0 -149 -55 -149 -125c0 -56 30 -85 155 -122
c142 -43 209 -89 209 -196c0 -126 -99 -220 -258 -220zM358 898h75l91 -127h-58l-77 58l-93 -58h-62z" />
    <glyph glyph-name="scircumflex" unicode="&#x15d;" horiz-adv-x="480" 
d="M235 -9c-139 0 -201 80 -204 170h81c3 -56 34 -101 126 -101c73 0 107 31 107 86c0 45 -27 65 -106 85c-117 29 -159 70 -159 149c0 100 88 152 182 152c101 0 180 -44 185 -151h-78c-3 51 -44 82 -109 82s-102 -29 -102 -78c0 -39 23 -61 106 -80
c104 -27 162 -59 162 -155s-74 -159 -191 -159zM262 757h75l86 -144h-58l-74 75l-96 -75h-62z" />
    <glyph glyph-name="uni015E" unicode="&#x15e;" horiz-adv-x="627" 
d="M232 -214c-52 0 -94 27 -99 84h56c3 -20 17 -36 42 -36c21 0 40 10 40 38c0 20 -15 32 -35 32c-12 0 -19 -4 -26 -8l-27 30l54 70c-136 21 -203 118 -203 222h86c3 -80 55 -157 185 -157c108 -1 168 54 168 141c0 65 -34 96 -154 131c-135 40 -208 83 -208 193
c0 107 93 198 240 198c138 0 228 -70 231 -197h-80c-9 95 -70 127 -159 127c-103 0 -149 -55 -149 -125c0 -56 30 -85 155 -122c142 -43 209 -89 209 -196c0 -126 -99 -220 -258 -220h-14l-33 -44c40 4 81 -21 81 -72c0 -59 -41 -89 -102 -89z" />
    <glyph glyph-name="uni015F" unicode="&#x15f;" horiz-adv-x="480" 
d="M169 -214c-52 0 -94 27 -99 84h56c3 -20 17 -36 42 -36c21 0 40 10 40 38c0 20 -15 32 -35 32c-12 0 -19 -4 -26 -8l-27 30l53 70c-100 19 -147 88 -148 165h81c3 -56 34 -101 126 -101c73 0 107 31 107 86c0 45 -27 65 -106 85c-117 29 -159 70 -159 149
c0 100 88 152 182 152c101 0 180 -44 185 -151h-78c-3 51 -44 82 -109 82s-102 -29 -102 -78c0 -39 23 -61 106 -80c104 -27 162 -59 162 -155s-74 -159 -191 -159h-6l-33 -44c40 4 81 -21 81 -72c0 -59 -41 -89 -102 -89z" />
    <glyph glyph-name="Scaron" unicode="&#x160;" horiz-adv-x="639" 
d="M306 -9c-179 0 -266 110 -266 227h86c3 -80 55 -157 185 -157c108 -1 168 54 168 141c0 65 -34 96 -154 131c-135 40 -208 83 -208 193c0 107 93 198 240 198c138 0 228 -70 231 -197h-80c-9 95 -70 127 -159 127c-103 0 -149 -55 -149 -125c0 -56 30 -85 155 -122
c142 -43 209 -89 209 -196c0 -126 -99 -220 -258 -220zM402 771h-75l-91 127h58l77 -58l93 58h62z" />
    <glyph glyph-name="scaron" unicode="&#x161;" horiz-adv-x="492" 
d="M235 -9c-139 0 -201 80 -204 170h81c3 -56 34 -101 126 -101c73 0 107 31 107 86c0 45 -27 65 -106 85c-117 29 -159 70 -159 149c0 100 88 152 182 152c101 0 180 -44 185 -151h-78c-3 51 -44 82 -109 82s-102 -29 -102 -78c0 -39 23 -61 106 -80
c104 -27 162 -59 162 -155s-74 -159 -191 -159zM319 613h-75l-86 144h58l74 -75l96 75h62z" />
    <glyph glyph-name="Tcommaaccent" unicode="&#x162;" horiz-adv-x="561" 
d="M301 644h-208l12 71h503l-12 -71h-208l-101 -644h-87zM131 -194l72 157l78 -24l-101 -159z" />
    <glyph glyph-name="tcommaaccent" unicode="&#x163;" horiz-adv-x="343" 
d="M210 -7c-103 0 -140 65 -127 150l49 310h-75l11 70h75l19 119h83l-19 -119h119l-11 -70h-119l-50 -313c-9 -57 11 -77 58 -77c21 0 42 4 62 11l-11 -69c-18 -8 -39 -12 -64 -12zM47 -194l72 157l78 -24l-101 -159z" />
    <glyph glyph-name="Tcaron" unicode="&#x164;" horiz-adv-x="561" 
d="M301 644h-208l12 71h503l-12 -71h-208l-101 -644h-87zM393 771h-75l-91 127h58l77 -58l93 58h62z" />
    <glyph glyph-name="tcaron" unicode="&#x165;" horiz-adv-x="343" 
d="M210 -7c-103 0 -140 65 -127 150l49 310h-75l11 70h75l19 119h83l-19 -119h119l-11 -70h-119l-50 -313c-9 -57 11 -77 58 -77c21 0 42 4 62 11l-11 -69c-18 -8 -39 -12 -64 -12zM355 773h91l-70 -175h-59z" />
    <glyph glyph-name="Tbar" unicode="&#x166;" horiz-adv-x="561" 
d="M114 404h143l38 240h-208l12 71h503l-12 -71h-208l-38 -240h145l-10 -66h-145l-53 -338h-87l53 338h-143z" />
    <glyph glyph-name="tbar" unicode="&#x167;" horiz-adv-x="343" 
d="M33 339h75l18 114h-75l11 70h75l19 119h83l-19 -119h119l-11 -70h-119l-18 -114h119l-9 -59h-120l-22 -140c-9 -57 11 -77 58 -77c21 0 42 4 62 11l-11 -69c-18 -8 -39 -12 -64 -12c-103 0 -140 65 -127 150l21 137h-74z" />
    <glyph glyph-name="Utilde" unicode="&#x168;" horiz-adv-x="696" 
d="M331 -9c-181 0 -270 97 -239 292l69 432h87l-69 -433c-25 -159 29 -219 156 -219c107 0 172 54 195 198l72 454h87l-74 -466c-24 -156 -113 -258 -284 -258zM496 774c-48 0 -82 43 -111 43c-19 0 -39 -17 -46 -45h-60c15 73 55 116 107 116c46 0 81 -43 110 -43
c19 0 38 17 45 45h60c-15 -73 -54 -116 -105 -116z" />
    <glyph glyph-name="utilde" unicode="&#x169;" horiz-adv-x="588" 
d="M493 156c-11 -71 -14 -113 -11 -156h-79c-3 31 0 69 5 104c-37 -64 -97 -113 -182 -113c-109 0 -174 67 -150 219l50 313h83l-53 -332c-13 -83 16 -129 88 -129c87 0 160 58 176 157l48 304h83zM408 619c-48 0 -82 43 -111 43c-19 0 -39 -17 -46 -45h-60
c15 73 55 116 107 116c46 0 81 -43 110 -43c19 0 38 17 45 45h60c-15 -73 -54 -116 -105 -116z" />
    <glyph glyph-name="Umacron" unicode="&#x16a;" horiz-adv-x="696" 
d="M331 -9c-181 0 -270 97 -239 292l69 432h87l-69 -433c-25 -159 29 -219 156 -219c107 0 172 54 195 198l72 454h87l-74 -466c-24 -156 -113 -258 -284 -258zM309 850h266l-10 -64h-266z" />
    <glyph glyph-name="umacron" unicode="&#x16b;" horiz-adv-x="588" 
d="M493 156c-11 -71 -14 -113 -11 -156h-79c-3 31 0 69 5 104c-37 -64 -97 -113 -182 -113c-109 0 -174 67 -150 219l50 313h83l-53 -332c-13 -83 16 -129 88 -129c87 0 160 58 176 157l48 304h83zM229 712h262l-10 -64h-262z" />
    <glyph glyph-name="Ubreve" unicode="&#x16c;" horiz-adv-x="696" 
d="M331 -9c-181 0 -270 97 -239 292l69 432h87l-69 -433c-25 -159 29 -219 156 -219c107 0 172 54 195 198l72 454h87l-74 -466c-24 -156 -113 -258 -284 -258zM432 767c-75 0 -130 52 -130 132h66c5 -43 25 -64 65 -64c41 0 65 21 73 64h64c-5 -78 -69 -132 -138 -132z" />
    <glyph glyph-name="ubreve" unicode="&#x16d;" horiz-adv-x="588" 
d="M493 156c-11 -71 -14 -113 -11 -156h-79c-3 31 0 69 5 104c-37 -64 -97 -113 -182 -113c-109 0 -174 67 -150 219l50 313h83l-53 -332c-13 -83 16 -129 88 -129c87 0 160 58 176 157l48 304h83zM353 619c-75 0 -130 52 -130 132h66c5 -43 25 -64 65 -64c41 0 65 21 73 64
h64c-5 -78 -69 -132 -138 -132z" />
    <glyph glyph-name="Uring" unicode="&#x16e;" horiz-adv-x="696" 
d="M331 -9c-181 0 -270 97 -239 292l69 432h87l-69 -433c-25 -159 29 -219 156 -219c107 0 172 54 195 198l72 454h87l-74 -466c-24 -156 -113 -258 -284 -258zM439 785c31 0 55 25 55 60c0 33 -20 56 -51 56s-55 -25 -55 -60c0 -33 20 -56 51 -56zM439 739
c-59 0 -105 45 -105 102c0 59 49 106 109 106c59 0 105 -45 105 -102c0 -59 -49 -106 -109 -106z" />
    <glyph glyph-name="uring" unicode="&#x16f;" horiz-adv-x="588" 
d="M493 156c-11 -71 -14 -113 -11 -156h-79c-3 31 0 69 5 104c-37 -64 -97 -113 -182 -113c-109 0 -174 67 -150 219l50 313h83l-53 -332c-13 -83 16 -129 88 -129c87 0 160 58 176 157l48 304h83zM353 644c31 0 55 25 55 60c0 33 -20 56 -51 56s-55 -25 -55 -60
c0 -33 20 -56 51 -56zM353 598c-59 0 -105 45 -105 102c0 59 49 106 109 106c59 0 105 -45 105 -102c0 -59 -49 -106 -109 -106z" />
    <glyph glyph-name="Uhungarumlaut" unicode="&#x170;" horiz-adv-x="696" 
d="M331 -9c-181 0 -270 97 -239 292l69 432h87l-69 -433c-25 -159 29 -219 156 -219c107 0 172 54 195 198l72 454h87l-74 -466c-24 -156 -113 -258 -284 -258zM365 898h96l-81 -127h-61zM519 898h96l-81 -127h-61z" />
    <glyph glyph-name="uhungarumlaut" unicode="&#x171;" horiz-adv-x="588" 
d="M493 156c-11 -71 -14 -113 -11 -156h-79c-3 31 0 69 5 104c-37 -64 -97 -113 -182 -113c-109 0 -174 67 -150 219l50 313h83l-53 -332c-13 -83 16 -129 88 -129c87 0 160 58 176 157l48 304h83zM298 760h96l-88 -147h-61zM452 760h96l-88 -147h-61z" />
    <glyph glyph-name="Uogonek" unicode="&#x172;" horiz-adv-x="696" 
d="M344 -182c-53 0 -99 22 -99 81c0 43 34 72 70 92c-175 3 -260 101 -229 292l69 432h87l-69 -433c-25 -159 28 -219 155 -219c107 0 173 54 196 198l72 454h87l-74 -466c-15 -99 -53 -178 -140 -226c-43 -24 -143 -47 -143 -114c0 -21 12 -31 37 -31c17 0 33 3 48 10
l-9 -59c-13 -5 -31 -11 -58 -11z" />
    <glyph glyph-name="uogonek" unicode="&#x173;" horiz-adv-x="588" 
d="M487 156c-11 -71 -14 -113 -11 -156c-31 -18 -83 -48 -83 -91c0 -21 12 -31 37 -31c17 0 33 3 48 10l-9 -59c-13 -5 -31 -11 -58 -11c-53 0 -99 22 -99 81c0 49 45 80 85 101c-3 31 0 69 5 104c-37 -64 -97 -113 -182 -113c-109 0 -174 67 -150 219l50 313h83l-53 -332
c-13 -83 16 -129 88 -129c87 0 160 58 176 157l48 304h83z" />
    <glyph glyph-name="Wcircumflex" unicode="&#x174;" horiz-adv-x="890" 
d="M99 715h87l54 -583l253 583h56l78 -585l235 585h83l-295 -715h-81l-72 561l-247 -561h-78zM501 898h75l91 -127h-58l-77 58l-93 -58h-62z" />
    <glyph glyph-name="wcircumflex" unicode="&#x175;" horiz-adv-x="767" 
d="M70 523h88l48 -426l192 426h72l50 -426l184 426h87l-240 -523h-92l-45 397l-182 -397h-91zM424 757h75l86 -144h-58l-74 75l-96 -75h-62z" />
    <glyph glyph-name="Ycircumflex" unicode="&#x176;" horiz-adv-x="592" 
d="M272 312l-175 403h93l138 -332l232 332h89l-291 -410l-48 -305h-87zM352 898h75l91 -127h-58l-77 58l-93 -58h-62z" />
    <glyph glyph-name="ycircumflex" unicode="&#x177;" horiz-adv-x="505" 
d="M190 59l-124 464h85l94 -375l199 375h89l-395 -705h-88zM286 757h75l86 -144h-58l-74 75l-96 -75h-62z" />
    <glyph glyph-name="Ydieresis" unicode="&#x178;" horiz-adv-x="604" 
d="M272 312l-175 403h93l138 -332l232 332h89l-291 -410l-48 -305h-87zM287 789c-29 0 -53 23 -53 52s25 54 54 54s52 -23 52 -52s-24 -54 -53 -54zM490 789c-29 0 -53 23 -53 52s25 54 54 54s52 -23 52 -52s-24 -54 -53 -54z" />
    <glyph glyph-name="Zacute" unicode="&#x179;" horiz-adv-x="595" 
d="M-6 14l501 633h-365l11 68h489l-2 -13l-492 -631h386l-11 -71h-519zM411 898h106l-108 -127h-66z" />
    <glyph glyph-name="zacute" unicode="&#x17a;" horiz-adv-x="475" 
d="M-13 12l366 441h-269l11 70h399l-3 -15l-357 -435h288l-12 -73h-425zM337 760h108l-121 -147h-66z" />
    <glyph glyph-name="Zdotaccent" unicode="&#x17b;" horiz-adv-x="595" 
d="M-6 14l501 633h-365l11 68h489l-2 -13l-492 -631h386l-11 -71h-519zM389 787c-31 0 -55 23 -55 54s25 56 56 56s54 -23 54 -54s-24 -56 -55 -56z" />
    <glyph glyph-name="zdotaccent" unicode="&#x17c;" horiz-adv-x="475" 
d="M-13 12l366 441h-269l11 70h399l-3 -15l-357 -435h288l-12 -73h-425zM310 632c-31 0 -55 23 -55 54s25 56 56 56s54 -23 54 -54s-24 -56 -55 -56z" />
    <glyph glyph-name="Zcaron" unicode="&#x17d;" horiz-adv-x="607" 
d="M-6 14l501 633h-365l11 68h489l-2 -13l-492 -631h386l-11 -71h-519zM415 771h-75l-91 127h58l77 -58l93 58h62z" />
    <glyph glyph-name="zcaron" unicode="&#x17e;" horiz-adv-x="487" 
d="M-13 12l366 441h-269l11 70h399l-3 -15l-357 -435h288l-12 -73h-425zM328 613h-75l-86 144h58l74 -75l96 75h62z" />
    <glyph glyph-name="uni0192" unicode="&#x192;" horiz-adv-x="397" 
d="M49 413h96l29 152c19 104 78 159 170 159c37 0 58 -7 74 -16l-10 -65c-17 7 -34 12 -63 12c-51 0 -78 -34 -89 -94l-28 -148h132l-11 -68h-133l-99 -527h-83l99 527h-95z" />
    <glyph glyph-name="Aringacute" unicode="&#x1fa;" horiz-adv-x="650" 
d="M469 206h-295l-102 -206h-84l359 715h114l129 -715h-84zM208 275h248l-66 368zM416 795c31 0 55 25 55 60c0 33 -20 56 -51 56s-55 -25 -55 -60c0 -33 20 -56 51 -56zM416 749c-59 0 -105 45 -105 102c0 59 49 106 109 106c59 0 105 -45 105 -102
c0 -59 -49 -106 -109 -106zM465 1113h106l-108 -127h-66z" />
    <glyph glyph-name="aringacute" unicode="&#x1fb;" horiz-adv-x="538" 
d="M203 -8c-108 0 -169 59 -169 148c0 129 117 167 254 167h101l6 38c13 80 -14 118 -98 118c-68 0 -110 -29 -125 -94h-83c24 126 126 163 211 163c117 0 198 -53 177 -194l-29 -182c-11 -68 -14 -112 -9 -156h-78c-3 28 -4 60 -1 83c-37 -60 -93 -91 -157 -91zM214 57
c79 0 141 42 156 134l9 57h-89c-117 0 -174 -28 -174 -108c0 -47 30 -83 98 -83zM332 624c31 0 55 25 55 60c0 33 -20 56 -51 56s-55 -25 -55 -60c0 -33 20 -56 51 -56zM332 578c-59 0 -105 45 -105 102c0 59 49 106 109 106c59 0 105 -45 105 -102
c0 -59 -49 -106 -109 -106zM386 956h106l-108 -127h-66z" />
    <glyph glyph-name="AEacute" unicode="&#x1fc;" horiz-adv-x="950" 
d="M459 715h505l-12 -71h-326l-38 -243h266l-11 -71h-266l-41 -259h348l-11 -71h-435l32 207h-253l-133 -207h-91zM261 275h220l58 369h-40zM736 898h106l-108 -127h-66z" />
    <glyph glyph-name="aeacute" unicode="&#x1fd;" horiz-adv-x="875" 
d="M464 211c0 -96 38 -151 138 -151c73 0 119 30 139 91h81c-32 -108 -116 -160 -223 -160c-100 0 -165 46 -196 118c-40 -76 -110 -117 -198 -117c-111 0 -171 53 -171 142c0 128 120 176 259 176h97l6 35c13 80 -15 118 -99 118c-68 0 -110 -29 -125 -94h-83
c24 126 126 163 211 163c80 0 140 -25 163 -86c47 53 110 85 183 85c143 0 223 -88 196 -267l-3 -17h-374c-1 -6 -1 -12 -1 -18v-18zM212 57c81 0 144 42 159 134l9 56h-90c-117 0 -174 -30 -174 -110c0 -47 31 -80 96 -80zM641 463c-76 0 -142 -44 -167 -153h291
c8 105 -28 153 -124 153zM531 760h108l-121 -147h-66z" />
    <glyph glyph-name="Oslashacute" unicode="&#x1fe;" horiz-adv-x="811" 
d="M36 12l100 102c-40 55 -62 122 -62 198c0 228 167 412 384 412c85 0 155 -25 207 -68l84 86l43 -45l-83 -84c47 -57 70 -131 70 -211c0 -237 -167 -411 -378 -411c-92 0 -167 28 -223 77l-99 -101zM689 402c0 59 -13 110 -38 151l-419 -429c43 -41 99 -62 170 -62
c170 0 287 144 287 340zM164 312c0 -54 10 -100 31 -138l417 427c-39 35 -91 53 -155 53c-180 0 -293 -157 -293 -342zM515 898h106l-108 -127h-66z" />
    <glyph glyph-name="oslashacute" unicode="&#x1ff;" horiz-adv-x="589" 
d="M17 1l72 77c-29 39 -45 89 -45 146c0 175 122 307 278 307c60 0 110 -16 149 -47l67 72l41 -38l-69 -73c31 -39 46 -87 46 -144c0 -179 -115 -309 -279 -309c-60 0 -110 16 -149 47l-71 -76zM281 60c117 0 188 103 188 239c0 33 -5 62 -16 85l-275 -293
c25 -21 59 -31 103 -31zM130 224c0 -33 4 -62 15 -87l275 293c-25 22 -60 33 -103 33c-112 0 -187 -103 -187 -239zM379 760h108l-121 -147h-66z" />
    <glyph glyph-name="uni0218" unicode="&#x218;" horiz-adv-x="627" 
d="M306 -9c-179 0 -266 110 -266 227h86c3 -80 55 -157 185 -157c108 -1 168 54 168 141c0 65 -34 96 -154 131c-135 40 -208 83 -208 193c0 107 93 198 240 198c138 0 228 -70 231 -197h-80c-9 95 -70 127 -159 127c-103 0 -149 -55 -149 -125c0 -56 30 -85 155 -122
c142 -43 209 -89 209 -196c0 -126 -99 -220 -258 -220zM151 -194l72 157l78 -24l-101 -159z" />
    <glyph glyph-name="uni0219" unicode="&#x219;" horiz-adv-x="480" 
d="M235 -9c-139 0 -201 80 -204 170h81c3 -56 34 -101 126 -101c73 0 107 31 107 86c0 45 -27 65 -106 85c-117 29 -159 70 -159 149c0 100 88 152 182 152c101 0 180 -44 185 -151h-78c-3 51 -44 82 -109 82s-102 -29 -102 -78c0 -39 23 -61 106 -80
c104 -27 162 -59 162 -155s-74 -159 -191 -159zM87 -194l72 157l78 -24l-101 -159z" />
    <glyph glyph-name="uni021A" unicode="&#x21a;" horiz-adv-x="561" 
d="M301 644h-208l12 71h503l-12 -71h-208l-101 -644h-87zM131 -194l72 157l78 -24l-101 -159z" />
    <glyph glyph-name="uni021B" unicode="&#x21b;" horiz-adv-x="343" 
d="M210 -7c-103 0 -140 65 -127 150l49 310h-75l11 70h75l19 119h83l-19 -119h119l-11 -70h-119l-50 -313c-9 -57 11 -77 58 -77c21 0 42 4 62 11l-11 -69c-18 -8 -39 -12 -64 -12zM47 -194l72 157l78 -24l-101 -159z" />
    <glyph glyph-name="uni0237" unicode="&#x237;" horiz-adv-x="255" 
d="M-52 -121c60 3 82 31 90 80l89 564h83l-90 -569c-15 -91 -67 -144 -183 -144z" />
    <glyph glyph-name="circumflex" unicode="&#x2c6;" horiz-adv-x="412" 
d="M245 757h75l86 -144h-58l-74 75l-96 -75h-62z" />
    <glyph glyph-name="caron" unicode="&#x2c7;" horiz-adv-x="412" 
d="M299 613h-75l-86 144h58l74 -75l96 75h62z" />
    <glyph glyph-name="breve" unicode="&#x2d8;" horiz-adv-x="412" 
d="M274 619c-75 0 -130 52 -130 132h66c5 -43 25 -64 65 -64c41 0 65 21 73 64h64c-5 -78 -69 -132 -138 -132z" />
    <glyph glyph-name="dotaccent" unicode="&#x2d9;" horiz-adv-x="412" 
d="M272 632c-31 0 -55 23 -55 54s25 56 56 56s54 -23 54 -54s-24 -56 -55 -56z" />
    <glyph glyph-name="ring" unicode="&#x2da;" horiz-adv-x="412" 
d="M273 644c31 0 55 25 55 60c0 33 -20 56 -51 56s-55 -25 -55 -60c0 -33 20 -56 51 -56zM273 598c-59 0 -105 45 -105 102c0 59 49 106 109 106c59 0 105 -45 105 -102c0 -59 -49 -106 -109 -106z" />
    <glyph glyph-name="ogonek" unicode="&#x2db;" horiz-adv-x="412" 
d="M167 -182c-53 0 -99 22 -99 81c0 49 47 80 87 101h78c-31 -18 -84 -45 -84 -91c0 -21 12 -31 37 -31c17 0 33 3 48 10l-9 -59c-13 -5 -31 -11 -58 -11z" />
    <glyph glyph-name="tilde" unicode="&#x2dc;" horiz-adv-x="412" 
d="M325 619c-48 0 -82 43 -111 43c-19 0 -39 -17 -46 -45h-60c15 73 55 116 107 116c46 0 81 -43 110 -43c19 0 38 17 45 45h60c-15 -73 -54 -116 -105 -116z" />
    <glyph glyph-name="hungarumlaut" unicode="&#x2dd;" horiz-adv-x="412" 
d="M205 760h96l-88 -147h-61zM359 760h96l-88 -147h-61z" />
    <glyph glyph-name="uni037E" unicode="&#x37e;" horiz-adv-x="292" 
d="M-18 -95l118 219l75 -38l-143 -209zM174 292c-35 0 -64 28 -64 64s28 64 63 64s65 -28 65 -64s-29 -64 -64 -64z" />
    <glyph glyph-name="tonos" unicode="&#x384;" horiz-adv-x="400" 
d="M299 760h108l-121 -147h-66z" />
    <glyph glyph-name="dieresistonos" unicode="&#x385;" horiz-adv-x="400" 
d="M203 785h97l-101 -147h-59zM330 634c-29 0 -53 24 -53 53s24 53 53 53s53 -24 53 -53s-24 -53 -53 -53zM71 634c-29 0 -53 24 -53 53s24 53 53 53s53 -24 53 -53s-24 -53 -53 -53z" />
    <glyph glyph-name="Alphatonos" unicode="&#x386;" horiz-adv-x="650" 
d="M469 206h-295l-102 -206h-84l359 715h114l129 -715h-84zM208 275h248l-66 368zM119 715h108l-121 -147h-66z" />
    <glyph glyph-name="anoteleia" unicode="&#x387;" horiz-adv-x="282" 
d="M156 263c-35 0 -64 28 -64 64s28 64 63 64s65 -28 65 -64s-29 -64 -64 -64z" />
    <glyph glyph-name="Epsilontonos" unicode="&#x388;" horiz-adv-x="572" 
d="M167 715h413l-12 -71h-326l-38 -243h266l-11 -71h-266l-41 -259h348l-11 -71h-435zM-1 715h108l-121 -147h-66z" />
    <glyph glyph-name="Etatonos" unicode="&#x389;" horiz-adv-x="730" 
d="M167 715h87l-52 -324h376l52 324h87l-113 -715h-87l50 318h-376l-50 -318h-87zM-1 715h108l-121 -147h-66z" />
    <glyph glyph-name="Iotatonos" unicode="&#x38a;" horiz-adv-x="279" 
d="M172 715h87l-113 -715h-87zM-1 715h108l-121 -147h-66z" />
    <glyph glyph-name="Omicrontonos" unicode="&#x38c;" horiz-adv-x="811" 
d="M779 402c0 -237 -167 -411 -378 -411c-198 0 -327 137 -327 321c0 228 167 412 384 412c206 0 321 -146 321 -322zM689 402c0 139 -82 252 -232 252c-180 0 -293 -157 -293 -342c0 -156 98 -250 238 -250c170 0 287 144 287 340zM49 715h108l-121 -147h-66z" />
    <glyph glyph-name="Upsilontonos" unicode="&#x38e;" horiz-adv-x="592" 
d="M272 312l-175 403h93l138 -332l232 332h89l-291 -410l-48 -305h-87zM-41 715h108l-121 -147h-66z" />
    <glyph glyph-name="Omegatonos" unicode="&#x38f;" horiz-adv-x="823" 
d="M454 654c-187 0 -296 -149 -296 -328c0 -129 66 -221 179 -290l-6 -36h-299l11 67h151c-65 41 -126 138 -126 260c0 200 152 397 388 397c216 0 323 -156 323 -320c0 -132 -55 -262 -173 -337h139l-10 -67h-285l6 36c137 70 232 197 232 366c0 127 -66 252 -234 252z
M49 715h108l-121 -147h-66z" />
    <glyph glyph-name="iotadieresistonos" unicode="&#x390;" horiz-adv-x="255" 
d="M127 523h83l-83 -523h-83zM210 785h97l-101 -147h-59zM337 634c-29 0 -53 24 -53 53s24 53 53 53s53 -24 53 -53s-24 -53 -53 -53zM78 634c-29 0 -53 24 -53 53s24 53 53 53s53 -24 53 -53s-24 -53 -53 -53z" />
    <glyph glyph-name="Alpha" unicode="&#x391;" horiz-adv-x="650" 
d="M469 206h-295l-102 -206h-84l359 715h114l129 -715h-84zM208 275h248l-66 368z" />
    <glyph glyph-name="Beta" unicode="&#x392;" horiz-adv-x="622" 
d="M167 715h204c132 0 210 -50 209 -167c0 -89 -42 -147 -135 -176c81 -20 121 -72 122 -156c0 -133 -100 -216 -252 -216h-261zM315 68c113 0 167 62 167 150c0 76 -42 117 -153 117h-137l-43 -267h166zM334 403c107 0 161 47 161 141c0 71 -36 103 -127 103h-127l-39 -244
h132z" />
    <glyph glyph-name="Gamma" unicode="&#x393;" horiz-adv-x="532" 
d="M161 715h412l-11 -71h-326l-101 -644h-87z" />
    <glyph glyph-name="uni0394" unicode="&#x394;" horiz-adv-x="659" 
d="M-11 14l352 701h123l127 -701l-2 -14h-602zM103 74h392l-105 581z" />
    <glyph glyph-name="Epsilon" unicode="&#x395;" horiz-adv-x="572" 
d="M167 715h413l-12 -71h-326l-38 -243h266l-11 -71h-266l-41 -259h348l-11 -71h-435z" />
    <glyph glyph-name="Zeta" unicode="&#x396;" horiz-adv-x="595" 
d="M-6 14l501 633h-365l11 68h489l-2 -13l-492 -631h386l-11 -71h-519z" />
    <glyph glyph-name="Eta" unicode="&#x397;" horiz-adv-x="730" 
d="M167 715h87l-52 -324h376l52 324h87l-113 -715h-87l50 318h-376l-50 -318h-87z" />
    <glyph glyph-name="Theta" unicode="&#x398;" horiz-adv-x="811" 
d="M773 402c0 -237 -167 -411 -378 -411c-198 0 -327 137 -327 321c0 228 167 412 384 412c206 0 321 -146 321 -322zM683 402c0 139 -82 252 -232 252c-180 0 -293 -157 -293 -342c0 -156 98 -250 238 -250c170 0 287 144 287 340zM285 398h281l-11 -73h-281z" />
    <glyph glyph-name="Iota" unicode="&#x399;" horiz-adv-x="279" 
d="M172 715h87l-113 -715h-87z" />
    <glyph glyph-name="Kappa" unicode="&#x39a;" horiz-adv-x="616" 
d="M167 715h87l-54 -340l363 340h101l-373 -345l272 -370h-97l-268 359l-57 -359h-87z" />
    <glyph glyph-name="Lambda" unicode="&#x39b;" horiz-adv-x="643" 
d="M577 0h-84l-115 631l-312 -631h-84l359 715h103z" />
    <glyph glyph-name="Mu" unicode="&#x39c;" horiz-adv-x="856" 
d="M167 715h118l133 -557l302 557h123l-113 -715h-87l95 602l-332 -602h-27l-150 602l-95 -602h-80z" />
    <glyph glyph-name="Nu" unicode="&#x39d;" horiz-adv-x="724" 
d="M167 715h111l256 -591l94 591h83l-113 -715h-98l-266 613l-97 -613h-83z" />
    <glyph glyph-name="Xi" unicode="&#x39e;" horiz-adv-x="588" 
d="M590 715l-12 -75h-476l12 75h476zM495 396l-12 -73h-381l12 73h381zM11 75h491l-12 -75h-491z" />
    <glyph glyph-name="Omicron" unicode="&#x39f;" horiz-adv-x="811" 
d="M779 402c0 -237 -167 -411 -378 -411c-198 0 -327 137 -327 321c0 228 167 412 384 412c206 0 321 -146 321 -322zM689 402c0 139 -82 252 -232 252c-180 0 -293 -157 -293 -342c0 -156 98 -250 238 -250c170 0 287 144 287 340z" />
    <glyph glyph-name="Pi" unicode="&#x3a0;" horiz-adv-x="718" 
d="M161 715h538l-113 -715h-87l102 642h-365l-101 -642h-87z" />
    <glyph glyph-name="Rho" unicode="&#x3a1;" horiz-adv-x="581" 
d="M167 715h199c131 0 220 -61 220 -186c0 -175 -133 -238 -273 -238h-126l-46 -291h-87zM318 360c121 0 182 60 182 168c0 81 -47 117 -143 117h-114l-45 -285h120z" />
    <glyph glyph-name="Sigma" unicode="&#x3a3;" horiz-adv-x="578" 
d="M130 75h372l-12 -75h-476l10 61l280 306l-186 273l12 75h450l-11 -71h-359l188 -276z" />
    <glyph glyph-name="Tau" unicode="&#x3a4;" horiz-adv-x="561" 
d="M301 644h-208l12 71h503l-12 -71h-208l-101 -644h-87z" />
    <glyph glyph-name="Upsilon" unicode="&#x3a5;" horiz-adv-x="592" 
d="M272 312l-175 403h93l138 -332l232 332h89l-291 -410l-48 -305h-87z" />
    <glyph glyph-name="Phi" unicode="&#x3a6;" horiz-adv-x="862" 
d="M439 53l-11 -73h-83l12 74c-189 16 -289 141 -289 278c0 194 165 334 386 334l11 69h83l-11 -71c191 -13 289 -137 289 -274c0 -197 -167 -337 -383 -337h-4zM158 337c0 -113 70 -197 210 -213l75 474c-149 -8 -285 -89 -285 -261zM736 389c0 104 -59 195 -210 208
l-76 -475c153 5 286 93 286 267z" />
    <glyph glyph-name="Chi" unicode="&#x3a7;" horiz-adv-x="607" 
d="M279 373l-163 342h90l137 -285l217 285h90l-274 -355l172 -360h-94l-144 303l-233 -303h-90z" />
    <glyph glyph-name="Psi" unicode="&#x3a8;" horiz-adv-x="780" 
d="M731 438c-24 -148 -104 -248 -316 -251l-29 -187h-83l29 188c-149 12 -239 91 -239 236c0 9 2 45 7 68l35 223h87l-35 -220c-4 -23 -7 -56 -7 -67c0 -96 44 -161 163 -170l72 457h83l-72 -458c120 3 201 52 222 190l42 268h83z" />
    <glyph glyph-name="uni03A9" unicode="&#x3a9;" horiz-adv-x="823" 
d="M454 654c-187 0 -296 -149 -296 -328c0 -129 66 -221 179 -290l-6 -36h-299l11 67h151c-65 41 -126 138 -126 260c0 200 152 397 388 397c216 0 323 -156 323 -320c0 -132 -55 -262 -173 -337h139l-10 -67h-285l6 36c137 70 232 197 232 366c0 127 -66 252 -234 252z" />
    <glyph glyph-name="Iotadieresis" unicode="&#x3aa;" horiz-adv-x="279" 
d="M172 715h87l-113 -715h-87zM133 789c-29 0 -53 23 -53 52s25 54 54 54s52 -23 52 -52s-24 -54 -53 -54zM336 789c-29 0 -53 23 -53 52s25 54 54 54s52 -23 52 -52s-24 -54 -53 -54z" />
    <glyph glyph-name="Upsilondieresis" unicode="&#x3ab;" horiz-adv-x="592" 
d="M272 312l-175 403h93l138 -332l232 332h89l-291 -410l-48 -305h-87zM287 789c-29 0 -53 23 -53 52s25 54 54 54s52 -23 52 -52s-24 -54 -53 -54zM490 789c-29 0 -53 23 -53 52s25 54 54 54s52 -23 52 -52s-24 -54 -53 -54z" />
    <glyph glyph-name="alphatonos" unicode="&#x3ac;" horiz-adv-x="604" 
d="M310 463c-115 0 -177 -101 -177 -236c0 -104 48 -167 141 -167c100 0 181 93 181 240c0 99 -61 163 -145 163zM257 -9c-125 0 -212 92 -212 232c0 167 99 309 262 309c97 0 143 -54 167 -104l15 95h83l-58 -367c-11 -71 -14 -113 -11 -156h-79c-3 31 0 64 4 95
c-37 -64 -92 -104 -171 -104zM389 760h108l-121 -147h-66z" />
    <glyph glyph-name="epsilontonos" unicode="&#x3ad;" horiz-adv-x="545" 
d="M431 383c-3 31 -21 79 -130 79c-56 0 -147 -11 -147 -90c0 -32 25 -69 93 -69h107l-11 -67h-103c-55 0 -120 -24 -120 -99c0 -61 68 -77 136 -77c97 0 147 34 160 94h79c-19 -107 -114 -163 -249 -163c-129 0 -211 51 -211 139c0 73 56 129 128 142c-52 9 -93 52 -93 101
c0 115 121 158 230 158c159 0 206 -79 209 -148h-78zM379 760h108l-121 -147h-66z" />
    <glyph glyph-name="etatonos" unicode="&#x3ae;" horiz-adv-x="592" 
d="M100 367c11 71 13 112 14 156h78c0 -29 -2 -69 -6 -104c36 64 98 113 183 113c110 0 176 -62 152 -219l-79 -495h-83l82 514c14 86 -16 129 -90 129c-87 0 -162 -58 -178 -157l-48 -304h-83zM399 760h108l-121 -147h-66z" />
    <glyph glyph-name="iotatonos" unicode="&#x3af;" horiz-adv-x="255" 
d="M127 523h83l-83 -523h-83zM234 760h108l-121 -147h-66z" />
    <glyph glyph-name="upsilondieresistonos" unicode="&#x3b0;" horiz-adv-x="583" 
d="M154 227c-3 -16 -5 -36 -5 -47c0 -65 33 -118 113 -118c88 0 132 48 145 132l52 329h83l-53 -336c-21 -141 -119 -195 -227 -195c-127 0 -195 78 -195 187c0 15 1 33 4 49l46 295h83zM350 785h97l-101 -147h-59zM477 634c-29 0 -53 24 -53 53s24 53 53 53s53 -24 53 -53
s-24 -53 -53 -53zM218 634c-29 0 -53 24 -53 53s24 53 53 53s53 -24 53 -53s-24 -53 -53 -53z" />
    <glyph glyph-name="alpha" unicode="&#x3b1;" horiz-adv-x="604" 
d="M310 463c-115 0 -177 -101 -177 -236c0 -104 48 -167 141 -167c100 0 181 93 181 240c0 99 -61 163 -145 163zM257 -9c-125 0 -212 92 -212 232c0 167 99 309 262 309c97 0 143 -54 167 -104l15 95h83l-58 -367c-11 -71 -14 -113 -11 -156h-79c-3 31 0 64 4 95
c-37 -64 -92 -104 -171 -104z" />
    <glyph glyph-name="beta" unicode="&#x3b2;" horiz-adv-x="614" 
d="M164 245c-16 -98 50 -187 156 -187c80 0 155 60 155 165c0 96 -62 155 -178 148l12 71c92 0 191 44 191 155c0 72 -45 111 -125 111c-87 0 -145 -53 -162 -154zM96 -182h-83l118 745c21 132 116 212 242 212c111 0 206 -58 206 -179c0 -89 -69 -169 -162 -188
c79 -21 144 -83 144 -184c0 -119 -87 -234 -239 -234c-84 0 -148 44 -180 113z" />
    <glyph glyph-name="gamma" unicode="&#x3b3;" horiz-adv-x="526" 
d="M464 523h88l-287 -516l-30 -189h-83l30 189l-127 516h88l96 -413z" />
    <glyph glyph-name="delta" unicode="&#x3b4;" horiz-adv-x="589" 
d="M555 704h-287l186 -217c56 -65 93 -122 93 -206c0 -148 -108 -289 -277 -289c-141 0 -232 94 -232 242c0 132 96 269 251 269c12 0 35 -1 54 -6l-190 220l9 56h404zM124 226c0 -101 50 -166 150 -166c115 0 186 104 186 216c0 100 -58 163 -150 163
c-113 0 -186 -97 -186 -213z" />
    <glyph glyph-name="epsilon" unicode="&#x3b5;" horiz-adv-x="545" 
d="M431 383c-3 31 -21 79 -130 79c-56 0 -147 -11 -147 -90c0 -32 25 -69 93 -69h107l-11 -67h-103c-55 0 -120 -24 -120 -99c0 -61 68 -77 136 -77c97 0 147 34 160 94h79c-19 -107 -114 -163 -249 -163c-129 0 -211 51 -211 139c0 73 56 129 128 142c-52 9 -93 52 -93 101
c0 115 121 158 230 158c159 0 206 -79 209 -148h-78z" />
    <glyph glyph-name="zeta" unicode="&#x3b6;" horiz-adv-x="492" 
d="M439 -19c0 -38 -22 -91 -41 -135h-74c13 31 33 81 33 112c0 28 -21 42 -56 42h-75c-109 0 -191 76 -191 180c0 193 196 404 356 521h-249l12 72h403l-4 -23c-258 -202 -431 -374 -431 -562c0 -75 53 -115 114 -115h77c87 0 126 -33 126 -92z" />
    <glyph glyph-name="eta" unicode="&#x3b7;" horiz-adv-x="592" 
d="M100 367c11 71 13 112 14 156h78c0 -29 -2 -69 -6 -104c36 64 98 113 183 113c110 0 176 -62 152 -219l-79 -495h-83l82 514c14 86 -16 129 -90 129c-87 0 -162 -58 -178 -157l-48 -304h-83z" />
    <glyph glyph-name="theta" unicode="&#x3b8;" horiz-adv-x="613" 
d="M569 531c0 -102 -24 -236 -64 -338c-55 -133 -136 -201 -251 -201c-127 0 -193 83 -193 246c0 137 27 319 115 436c51 68 123 102 203 102c131 0 190 -81 190 -245zM374 707c-52 0 -96 -24 -132 -71c-36 -49 -62 -119 -79 -210h313c5 37 7 73 7 104
c0 121 -28 177 -109 177zM258 60c51 0 95 25 130 75c35 51 62 124 78 221h-314c-7 -43 -8 -83 -8 -116c0 -121 33 -180 114 -180z" />
    <glyph glyph-name="iota" unicode="&#x3b9;" horiz-adv-x="255" 
d="M127 523h83l-83 -523h-83z" />
    <glyph glyph-name="kappa" unicode="&#x3ba;" horiz-adv-x="514" 
d="M167 265l-42 -265h-83l83 523h83l-39 -246l257 246h100l-268 -252l198 -271h-92z" />
    <glyph glyph-name="lambda" unicode="&#x3bb;" horiz-adv-x="526" 
d="M59 0h-89l276 521l-28 141c-6 30 -23 45 -51 45c-19 0 -46 -5 -63 -9l12 67c24 7 49 11 74 11c59 0 94 -33 106 -98l107 -566c5 -24 16 -46 44 -46c11 0 26 3 38 6l-12 -70c-15 -4 -32 -6 -51 -6c-51 0 -85 28 -96 89l-55 333z" />
    <glyph glyph-name="uni03BC" unicode="&#x3bc;" horiz-adv-x="593" 
d="M492 156c-11 -71 -14 -113 -11 -156h-79c-3 31 0 69 5 104c-35 -61 -98 -110 -175 -110c-39 0 -77 12 -100 49l-36 -225h-83l112 705h83l-53 -334c-15 -88 20 -127 91 -127c85 0 156 61 172 154l49 307h83z" />
    <glyph glyph-name="nu" unicode="&#x3bd;" horiz-adv-x="514" 
d="M66 523h88l81 -443l219 443h88l-267 -523h-106z" />
    <glyph glyph-name="xi" unicode="&#x3be;" horiz-adv-x="525" 
d="M125 704l11 69h421l-11 -69h-112c-102 0 -211 -43 -211 -154c0 -57 54 -104 132 -104h115l-11 -70h-128c-111 0 -209 -61 -209 -180c0 -89 63 -123 143 -123h60c87 0 126 -33 126 -92c0 -38 -22 -91 -41 -135h-74c13 31 33 81 33 112c0 28 -21 42 -56 42h-58
c-113 0 -220 61 -220 194c0 115 79 191 195 226c-59 23 -94 76 -94 128c0 71 40 129 120 156h-131z" />
    <glyph glyph-name="omicron" unicode="&#x3bf;" horiz-adv-x="589" 
d="M277 -8c-145 0 -233 99 -233 232c0 175 122 307 278 307c145 0 234 -95 234 -230c0 -179 -115 -309 -279 -309zM281 60c117 0 188 103 188 239c0 100 -52 164 -152 164c-112 0 -187 -103 -187 -239c0 -100 48 -164 151 -164z" />
    <glyph glyph-name="pi" unicode="&#x3c0;" horiz-adv-x="603" 
d="M466 156c-11 -71 -14 -113 -11 -156h-82c-3 43 1 99 10 158l47 295h-221l-72 -453h-83l72 453h-75l11 70h537l-11 -70h-75z" />
    <glyph glyph-name="rho" unicode="&#x3c1;" horiz-adv-x="608" 
d="M294 59c122 0 185 95 185 236c0 104 -44 169 -140 169c-122 0 -199 -110 -199 -238c0 -108 69 -167 154 -167zM77 -182h-83l75 473c24 142 127 241 267 241c148 0 231 -96 231 -231c0 -173 -91 -310 -270 -310c-84 0 -148 46 -175 107z" />
    <glyph glyph-name="uni03C2" unicode="&#x3c2;" horiz-adv-x="554" 
d="M322 73c87 0 126 -33 126 -92c0 -38 -22 -91 -41 -135h-74c13 31 33 81 33 112c0 28 -21 42 -56 42h-44c-140 0 -227 91 -227 230c0 193 130 301 271 301c115 0 204 -57 212 -184h-79c-11 90 -64 115 -137 115c-104 0 -182 -81 -182 -232c0 -90 43 -157 150 -157h48z" />
    <glyph glyph-name="sigma" unicode="&#x3c3;" horiz-adv-x="624" 
d="M268 -8c-134 0 -230 92 -230 231c0 156 98 300 277 300h298l-12 -70h-139c49 -29 88 -84 88 -156c0 -161 -103 -305 -282 -305zM273 60c128 0 190 116 190 236c0 104 -69 158 -155 158c-124 0 -184 -104 -184 -230c0 -104 52 -164 149 -164z" />
    <glyph glyph-name="tau" unicode="&#x3c4;" horiz-adv-x="467" 
d="M289 -7c-98 0 -135 53 -135 120c0 11 1 26 4 38l48 302h-165l11 70h413l-11 -70h-165l-48 -300c-2 -12 -3 -23 -3 -33c0 -39 16 -57 59 -57c27 0 62 4 81 11l-11 -70c-19 -7 -43 -11 -78 -11z" />
    <glyph glyph-name="upsilon" unicode="&#x3c5;" horiz-adv-x="583" 
d="M154 227c-3 -16 -5 -36 -5 -47c0 -65 33 -118 113 -118c88 0 132 48 145 132l52 329h83l-53 -336c-21 -141 -119 -195 -227 -195c-127 0 -195 78 -195 187c0 15 1 33 4 49l46 295h83z" />
    <glyph glyph-name="phi" unicode="&#x3c6;" horiz-adv-x="729" 
d="M410 532c189 0 280 -111 280 -234c0 -183 -131 -297 -324 -305l-27 -175h-83l28 177c-131 13 -246 83 -246 243c0 140 92 270 241 291l-6 -67c-94 -30 -149 -119 -149 -223c0 -113 58 -162 171 -177l74 468c11 1 25 2 41 2zM377 61c143 7 226 90 226 239
c0 92 -59 151 -163 162z" />
    <glyph glyph-name="chi" unicode="&#x3c7;" horiz-adv-x="530" 
d="M244 104l-191 -286h-89l253 365l-84 247c-9 25 -25 33 -44 33c-11 0 -24 -3 -38 -9l11 68c16 6 34 9 53 9c44 0 73 -16 89 -63l72 -214l172 269h92l-236 -350l81 -239c13 -37 25 -51 53 -51c9 0 20 2 31 5l-11 -68c-15 -4 -35 -7 -48 -7c-51 0 -76 29 -96 86z" />
    <glyph glyph-name="psi" unicode="&#x3c8;" horiz-adv-x="717" 
d="M146 260c-16 -93 8 -184 141 -197l72 460h83l-73 -460c136 13 184 90 200 183l44 277h83l-44 -277c-22 -138 -102 -239 -293 -250l-28 -178h-83l28 180c-179 19 -233 135 -212 268l41 257h83z" />
    <glyph glyph-name="omega" unicode="&#x3c9;" horiz-adv-x="742" 
d="M403 184c-13 -87 18 -124 74 -124c107 0 138 138 138 229c0 84 -16 158 -116 174l11 68c133 -16 191 -110 191 -241c0 -136 -64 -298 -221 -298c-73 0 -120 48 -132 108c-27 -64 -75 -108 -148 -108c-104 0 -163 85 -163 203c0 163 88 317 272 336l-11 -68
c-124 -24 -175 -152 -175 -274c0 -69 23 -129 84 -129c56 0 101 46 114 130l25 161h83z" />
    <glyph glyph-name="iotadieresis" unicode="&#x3ca;" horiz-adv-x="255" 
d="M127 523h83l-83 -523h-83zM101 634c-29 0 -53 23 -53 52s25 54 54 54s52 -23 52 -52s-24 -54 -53 -54zM289 634c-29 0 -53 23 -53 52s25 54 54 54s52 -23 52 -52s-24 -54 -53 -54z" />
    <glyph glyph-name="upsilondieresis" unicode="&#x3cb;" horiz-adv-x="583" 
d="M154 227c-3 -16 -5 -36 -5 -47c0 -65 33 -118 113 -118c88 0 132 48 145 132l52 329h83l-53 -336c-21 -141 -119 -195 -227 -195c-127 0 -195 78 -195 187c0 15 1 33 4 49l46 295h83zM259 634c-29 0 -53 23 -53 52s25 54 54 54s52 -23 52 -52s-24 -54 -53 -54zM447 634
c-29 0 -53 23 -53 52s25 54 54 54s52 -23 52 -52s-24 -54 -53 -54z" />
    <glyph glyph-name="omicrontonos" unicode="&#x3cc;" horiz-adv-x="589" 
d="M277 -8c-145 0 -233 99 -233 232c0 175 122 307 278 307c145 0 234 -95 234 -230c0 -179 -115 -309 -279 -309zM281 60c117 0 188 103 188 239c0 100 -52 164 -152 164c-112 0 -187 -103 -187 -239c0 -100 48 -164 151 -164zM399 760h108l-121 -147h-66z" />
    <glyph glyph-name="upsilontonos" unicode="&#x3cd;" horiz-adv-x="583" 
d="M154 227c-3 -16 -5 -36 -5 -47c0 -65 33 -118 113 -118c88 0 132 48 145 132l52 329h83l-53 -336c-21 -141 -119 -195 -227 -195c-127 0 -195 78 -195 187c0 15 1 33 4 49l46 295h83zM389 760h108l-121 -147h-66z" />
    <glyph glyph-name="omegatonos" unicode="&#x3ce;" horiz-adv-x="742" 
d="M403 184c-13 -87 18 -124 74 -124c107 0 138 138 138 229c0 84 -16 158 -116 174l11 68c133 -16 191 -110 191 -241c0 -136 -64 -298 -221 -298c-73 0 -120 48 -132 108c-27 -64 -75 -108 -148 -108c-104 0 -163 85 -163 203c0 163 88 317 272 336l-11 -68
c-124 -24 -175 -152 -175 -274c0 -69 23 -129 84 -129c56 0 101 46 114 130l25 161h83zM479 760h108l-121 -147h-66z" />
    <glyph glyph-name="uni0401" unicode="&#x401;" horiz-adv-x="572" 
d="M167 715h413l-12 -71h-326l-38 -243h266l-11 -71h-266l-41 -259h348l-11 -71h-435zM284 789c-29 0 -53 23 -53 52s25 54 54 54s52 -23 52 -52s-24 -54 -53 -54zM487 789c-29 0 -53 23 -53 52s25 54 54 54s52 -23 52 -52s-24 -54 -53 -54z" />
    <glyph glyph-name="uni0402" unicode="&#x402;" horiz-adv-x="781" 
d="M514 -9c-44 0 -75 8 -86 12l11 70c8 -3 44 -11 75 -11c75 0 127 51 127 167c0 80 -45 132 -141 132c-91 0 -148 -40 -172 -61l-47 -300h-87l101 644h-208l12 71h513l-12 -71h-218l-41 -259c39 24 91 48 162 48c156 0 224 -88 224 -201c0 -150 -88 -241 -213 -241z" />
    <glyph glyph-name="uni0403" unicode="&#x403;" horiz-adv-x="536" 
d="M161 715h398l-12 -71h-311l-101 -644h-87zM394 898h106l-108 -127h-66z" />
    <glyph glyph-name="uni0404" unicode="&#x404;" horiz-adv-x="728" 
d="M694 237c-37 -152 -158 -246 -308 -246c-197 0 -318 123 -318 313c0 235 156 422 380 422c145 0 255 -80 266 -234h-82c-17 108 -73 165 -188 165c-152 0 -253 -112 -279 -266h351l-11 -73h-347v-14c0 -155 76 -243 229 -243c116 0 191 71 224 176h83z" />
    <glyph glyph-name="uni0405" unicode="&#x405;" horiz-adv-x="627" 
d="M306 -9c-179 0 -266 110 -266 227h86c3 -80 55 -157 185 -157c108 -1 168 54 168 141c0 65 -34 96 -154 131c-135 40 -208 83 -208 193c0 107 93 198 240 198c138 0 228 -70 231 -197h-80c-9 95 -70 127 -159 127c-103 0 -149 -55 -149 -125c0 -56 30 -85 155 -122
c142 -43 209 -89 209 -196c0 -126 -99 -220 -258 -220z" />
    <glyph glyph-name="uni0406" unicode="&#x406;" horiz-adv-x="279" 
d="M172 715h87l-113 -715h-87z" />
    <glyph glyph-name="uni0407" unicode="&#x407;" horiz-adv-x="279" 
d="M172 715h87l-113 -715h-87zM133 789c-29 0 -53 23 -53 52s25 54 54 54s52 -23 52 -52s-24 -54 -53 -54zM336 789c-29 0 -53 23 -53 52s25 54 54 54s52 -23 52 -52s-24 -54 -53 -54z" />
    <glyph glyph-name="uni0408" unicode="&#x408;" horiz-adv-x="420" 
d="M119 -9c-68 0 -96 15 -115 26l11 70c25 -12 54 -25 101 -25c72 0 112 38 127 126l83 527h87l-85 -535c-21 -133 -104 -189 -209 -189z" />
    <glyph glyph-name="uni0409" unicode="&#x409;" horiz-adv-x="991" 
d="M308 642c-24 -110 -73 -318 -105 -441c-46 -166 -107 -207 -182 -207c-21 0 -34 2 -43 5c-5 2 -10 4 -13 6l12 75l10 -3c7 -2 18 -3 33 -3c44 0 77 30 114 160c19 67 47 187 71 291l42 190h421l-46 -291h102c131 0 220 -61 220 -186c0 -175 -133 -238 -273 -238h-203
l101 642h-261zM676 69c121 0 182 60 182 168c0 81 -47 117 -143 117h-104l-45 -285h110z" />
    <glyph glyph-name="uni040A" unicode="&#x40a;" horiz-adv-x="1022" 
d="M707 69c121 0 182 45 182 145c0 75 -47 107 -143 107h-107l-42 -252h110zM48 0l113 715h87l-52 -324h365l51 324h87l-51 -324h107c131 0 220 -57 220 -176c0 -168 -133 -215 -273 -215h-203l50 318h-364l-50 -318h-87z" />
    <glyph glyph-name="uni040B" unicode="&#x40b;" horiz-adv-x="786" 
d="M500 361c-114 0 -163 -60 -174 -71l-45 -290h-87l101 644h-208l12 71h513l-12 -71h-218l-41 -259c39 24 91 48 162 48c172 0 234 -99 210 -254l-29 -179h-87l28 178c20 122 -22 183 -125 183z" />
    <glyph glyph-name="uni040C" unicode="&#x40c;" horiz-adv-x="616" 
d="M167 715h87l-54 -340l363 340h101l-373 -345l272 -370h-97l-268 359l-57 -359h-87zM429 898h106l-108 -127h-66z" />
    <glyph glyph-name="uni040D" unicode="&#x40d;" horiz-adv-x="720" 
d="M48 0l113 715h86l-92 -592l482 592h84l-113 -715h-86l94 592l-484 -592h-84zM348 898h101l39 -127h-60z" />
    <glyph glyph-name="uni040E" unicode="&#x40e;" horiz-adv-x="608" 
d="M368 768c-77 0 -134 53 -134 132h70c7 -48 25 -74 65 -74c43 0 64 26 73 74h69c-5 -78 -71 -132 -143 -132zM145 -6c-19 0 -30 2 -41 5l-15 6l12 75c3 -1 7 -3 12 -4c8 -3 19 -4 31 -4c44 0 79 26 114 85l-178 558h90l142 -462l252 462h89l-316 -564
c-64 -113 -111 -157 -192 -157z" />
    <glyph glyph-name="uni040F" unicode="&#x40f;" horiz-adv-x="720" 
d="M48 0l113 715h87l-101 -642h366l101 642h87l-113 -715h-230l-25 -130h-73l17 130h-229z" />
    <glyph glyph-name="uni0410" unicode="&#x410;" horiz-adv-x="650" 
d="M469 206h-295l-102 -206h-84l359 715h114l129 -715h-84zM208 275h248l-66 368z" />
    <glyph glyph-name="uni0411" unicode="&#x411;" horiz-adv-x="582" 
d="M534 233c0 -175 -133 -233 -273 -233h-213l113 715h398l-12 -71h-311l-36 -230h114c131 0 220 -56 220 -181zM266 69c121 0 182 54 182 163c0 81 -47 112 -143 112h-116l-43 -275h120z" />
    <glyph glyph-name="uni0412" unicode="&#x412;" horiz-adv-x="622" 
d="M167 715h204c132 0 210 -50 209 -167c0 -89 -42 -147 -135 -176c81 -20 121 -72 122 -156c0 -133 -100 -216 -252 -216h-261zM315 68c113 0 167 62 167 150c0 76 -42 117 -153 117h-137l-43 -267h166zM334 403c107 0 161 47 161 141c0 71 -36 103 -127 103h-127l-39 -244
h132z" />
    <glyph glyph-name="uni0413" unicode="&#x413;" horiz-adv-x="536" 
d="M161 715h398l-12 -71h-311l-101 -644h-87z" />
    <glyph glyph-name="uni0414" unicode="&#x414;" horiz-adv-x="704" 
d="M198 226c-23 -76 -46 -124 -75 -153h358l89 569h-260c-29 -109 -80 -309 -112 -416zM22 -130h-73l33 203h44c35 15 64 58 96 161c21 67 53 187 80 291l49 190h418l-101 -642h100l-33 -203h-73l17 130h-531z" />
    <glyph glyph-name="uni0415" unicode="&#x415;" horiz-adv-x="572" 
d="M167 715h413l-12 -71h-326l-38 -243h266l-11 -71h-266l-41 -259h348l-11 -71h-435z" />
    <glyph glyph-name="uni0416" unicode="&#x416;" horiz-adv-x="868" 
d="M408 359l-356 -359h-106l381 377l-234 338h92l225 -341l54 341h85l-54 -342l333 342h100l-350 -346l249 -369h-94l-240 363l-57 -363h-85z" />
    <glyph glyph-name="uni0417" unicode="&#x417;" horiz-adv-x="613" 
d="M295 -9c-141 0 -255 80 -263 240h82c9 -112 76 -172 183 -172c116 0 172 71 172 154c0 81 -40 122 -147 122h-96l10 68h91c104 0 161 48 161 132c0 80 -47 122 -135 122c-96 0 -155 -69 -174 -146h-84c31 137 122 215 261 215c122 0 217 -61 217 -185
c0 -83 -54 -148 -135 -169c73 -24 115 -75 115 -162c0 -127 -97 -219 -258 -219z" />
    <glyph glyph-name="uni0418" unicode="&#x418;" horiz-adv-x="720" 
d="M48 0l113 715h86l-92 -592l482 592h84l-113 -715h-86l94 592l-484 -592h-84z" />
    <glyph glyph-name="uni0419" unicode="&#x419;" horiz-adv-x="720" 
d="M448 768c-77 0 -134 53 -134 132h70c7 -48 25 -74 65 -74c43 0 64 26 73 74h69c-5 -78 -71 -132 -143 -132zM48 0l113 715h86l-92 -592l482 592h84l-113 -715h-86l94 592l-484 -592h-84z" />
    <glyph glyph-name="uni041A" unicode="&#x41a;" horiz-adv-x="616" 
d="M167 715h87l-54 -340l363 340h101l-373 -345l272 -370h-97l-268 359l-57 -359h-87z" />
    <glyph glyph-name="uni041B" unicode="&#x41b;" horiz-adv-x="697" 
d="M207 201c-46 -166 -108 -207 -186 -207c-21 0 -34 2 -43 5c-5 2 -10 4 -13 6l12 75l10 -3c7 -2 18 -3 33 -3c44 0 77 30 114 160c19 67 47 187 71 291l42 190h431l-113 -715h-87l101 642h-267c-24 -110 -73 -318 -105 -441z" />
    <glyph glyph-name="uni041C" unicode="&#x41c;" horiz-adv-x="856" 
d="M167 715h118l133 -557l302 557h123l-113 -715h-87l95 602l-332 -602h-27l-150 602l-95 -602h-80z" />
    <glyph glyph-name="uni041D" unicode="&#x41d;" horiz-adv-x="730" 
d="M167 715h87l-52 -324h376l52 324h87l-113 -715h-87l50 318h-376l-50 -318h-87z" />
    <glyph glyph-name="uni041E" unicode="&#x41e;" horiz-adv-x="811" 
d="M779 402c0 -237 -167 -411 -378 -411c-198 0 -327 137 -327 321c0 228 167 412 384 412c206 0 321 -146 321 -322zM689 402c0 139 -82 252 -232 252c-180 0 -293 -157 -293 -342c0 -156 98 -250 238 -250c170 0 287 144 287 340z" />
    <glyph glyph-name="uni041F" unicode="&#x41f;" horiz-adv-x="720" 
d="M602 642h-366l-101 -642h-87l113 715h540l-113 -715h-87z" />
    <glyph glyph-name="uni0420" unicode="&#x420;" horiz-adv-x="581" 
d="M167 715h199c131 0 220 -61 220 -186c0 -175 -133 -238 -273 -238h-126l-46 -291h-87zM318 360c121 0 182 60 182 168c0 81 -47 117 -143 117h-114l-45 -285h120z" />
    <glyph glyph-name="uni0421" unicode="&#x421;" horiz-adv-x="728" 
d="M392 -9c-197 0 -318 123 -318 313c0 235 156 422 380 422c145 0 255 -80 266 -234h-82c-17 108 -73 165 -188 165c-180 0 -286 -156 -286 -353c0 -155 76 -243 229 -243c116 0 191 71 224 176h83c-37 -152 -158 -246 -308 -246z" />
    <glyph glyph-name="uni0422" unicode="&#x422;" horiz-adv-x="561" 
d="M301 644h-208l12 71h503l-12 -71h-208l-101 -644h-87z" />
    <glyph glyph-name="uni0423" unicode="&#x423;" horiz-adv-x="608" 
d="M145 -6c-19 0 -30 2 -41 5l-15 6l12 75c3 -1 7 -3 12 -4c8 -3 19 -4 31 -4c44 0 79 26 114 85l-178 558h90l142 -462l252 462h89l-316 -564c-64 -113 -111 -157 -192 -157z" />
    <glyph glyph-name="uni0424" unicode="&#x424;" horiz-adv-x="851" 
d="M339 -10l14 89c-179 5 -291 103 -291 253v5c0 196 159 307 379 307l13 81h86l-13 -81c176 -5 291 -100 291 -246v-7c0 -200 -158 -312 -379 -312l-14 -89h-86zM151 331c0 -120 87 -188 212 -188l68 438c-169 -3 -280 -83 -280 -243v-7zM729 392c0 120 -87 188 -212 188
l-68 -438c170 3 280 83 280 243v7z" />
    <glyph glyph-name="uni0425" unicode="&#x425;" horiz-adv-x="607" 
d="M279 373l-163 342h90l137 -285l217 285h90l-274 -355l172 -360h-94l-144 303l-233 -303h-90z" />
    <glyph glyph-name="uni0426" unicode="&#x426;" horiz-adv-x="736" 
d="M593 -130l17 130h-562l113 715h87l-101 -642h366l101 642h87l-101 -642h99l-33 -203h-73z" />
    <glyph glyph-name="uni0427" unicode="&#x427;" horiz-adv-x="654" 
d="M435 0l52 330c-40 -24 -96 -48 -175 -48c-157 0 -244 92 -217 254l29 179h87l-28 -178c-20 -124 21 -183 133 -183c89 0 144 32 185 61l47 300h87l-113 -715h-87z" />
    <glyph glyph-name="uni0428" unicode="&#x428;" horiz-adv-x="1013" 
d="M161 715h87l-101 -642h286l101 642h87l-101 -642h286l101 642h87l-113 -715h-833z" />
    <glyph glyph-name="uni0429" unicode="&#x429;" horiz-adv-x="1029" 
d="M886 -130l17 130h-855l113 715h87l-101 -642h286l101 642h87l-101 -642h286l101 642h87l-101 -642h99l-33 -203h-73z" />
    <glyph glyph-name="uni042A" unicode="&#x42a;" horiz-adv-x="661" 
d="M128 0l102 645h-159l12 70h245l-46 -291h112c131 0 220 -61 220 -186c0 -175 -133 -238 -273 -238h-213zM346 69c121 0 182 60 182 168c0 81 -47 117 -143 117h-114l-45 -285h120z" />
    <glyph glyph-name="uni042B" unicode="&#x42b;" horiz-adv-x="787" 
d="M48 0l113 715h87l-46 -291h112c131 0 220 -61 220 -186c0 -175 -133 -238 -273 -238h-213zM681 715h87l-113 -715h-87zM266 69c121 0 182 60 182 168c0 81 -47 117 -143 117h-114l-45 -285h120z" />
    <glyph glyph-name="uni042C" unicode="&#x42c;" horiz-adv-x="581" 
d="M48 0l113 715h87l-46 -291h112c131 0 220 -61 220 -186c0 -175 -133 -238 -273 -238h-213zM266 69c121 0 182 60 182 168c0 81 -47 117 -143 117h-114l-45 -285h120z" />
    <glyph glyph-name="uni042D" unicode="&#x42d;" horiz-adv-x="733" 
d="M322 -9c-149 0 -274 83 -282 240h82c16 -112 83 -171 204 -171c141 0 240 106 269 258h-348l11 73h346c1 11 1 22 1 33c0 148 -77 232 -205 232c-117 0 -190 -60 -233 -169h-83c48 156 164 239 316 239c172 0 295 -120 295 -301c0 -246 -154 -434 -373 -434z" />
    <glyph glyph-name="uni042E" unicode="&#x42e;" horiz-adv-x="1021" 
d="M615 -9c-198 0 -317 137 -317 321v6h-113l-50 -318h-87l113 715h87l-52 -324h108c32 189 176 333 368 333c206 0 311 -146 311 -322c0 -237 -157 -411 -368 -411zM893 402c0 139 -72 252 -222 252c-180 0 -283 -157 -283 -342c0 -156 89 -250 228 -250
c170 0 277 144 277 340z" />
    <glyph glyph-name="uni042F" unicode="&#x42f;" horiz-adv-x="613" 
d="M452 369l44 277h-120c-121 0 -182 -60 -182 -151c0 -88 47 -126 143 -126h115zM87 0h-99l258 316c-88 16 -138 78 -138 179c0 155 133 220 273 220h213l-113 -715h-87l48 301h-114z" />
    <glyph glyph-name="uni0430" unicode="&#x430;" horiz-adv-x="538" 
d="M203 -8c-108 0 -169 59 -169 148c0 129 117 167 254 167h101l6 38c13 80 -14 118 -98 118c-68 0 -110 -29 -125 -94h-83c24 126 126 163 211 163c117 0 198 -53 177 -194l-29 -182c-11 -68 -14 -112 -9 -156h-78c-3 28 -4 60 -1 83c-37 -60 -93 -91 -157 -91zM214 57
c79 0 141 42 156 134l9 57h-89c-117 0 -174 -28 -174 -108c0 -47 30 -83 98 -83z" />
    <glyph glyph-name="uni0431" unicode="&#x431;" horiz-adv-x="596" 
d="M278 -8c-149 0 -230 105 -230 240c0 48 4 78 9 113c32 208 100 428 385 428c88 0 137 8 161 15l-12 -73c-20 -8 -75 -17 -155 -17c-185 0 -255 -104 -298 -267h4c36 59 105 100 190 100c136 0 225 -98 225 -233c0 -178 -115 -306 -279 -306zM282 60c117 0 188 99 188 236
c0 100 -52 167 -152 167c-112 0 -187 -103 -187 -231c0 -101 49 -172 151 -172z" />
    <glyph glyph-name="uni0432" unicode="&#x432;" horiz-adv-x="526" 
d="M125 523h169c119 0 181 -45 181 -122c0 -72 -46 -114 -121 -129c60 -11 110 -44 110 -108c0 -104 -81 -164 -205 -164h-217zM198 463l-25 -163h87c88 0 126 33 126 94c0 49 -31 69 -104 69h-84zM163 240l-28 -180h115c81 0 125 35 125 99c0 56 -28 81 -116 81h-96z" />
    <glyph glyph-name="uni0433" unicode="&#x433;" horiz-adv-x="445" 
d="M197 453l-72 -453h-83l83 523h319l-11 -70h-236z" />
    <glyph glyph-name="uni0434" unicode="&#x434;" horiz-adv-x="575" 
d="M417 453h-185l-18 -85c-11 -48 -23 -106 -38 -153c-21 -71 -44 -116 -71 -145h251zM-58 -127l32 197h33c44 15 68 67 100 170c16 52 32 122 44 181c7 34 14 68 20 102h340l-72 -453h91l-31 -197h-69l10 127h-398l-31 -127h-69z" />
    <glyph glyph-name="uni0435" unicode="&#x435;" horiz-adv-x="553" 
d="M129 211c0 -96 44 -151 144 -151c73 0 124 31 144 91h83c-32 -109 -123 -160 -230 -160c-141 0 -226 93 -226 224c0 184 118 316 273 316c143 0 230 -88 203 -267l-3 -19h-387c-1 -5 -1 -11 -1 -17v-17zM312 463c-75 0 -145 -44 -172 -151h303c8 105 -35 151 -131 151z
" />
    <glyph glyph-name="uni0436" unicode="&#x436;" horiz-adv-x="708" 
d="M318 274l-247 -274h-102l270 289l-151 234h88l144 -239l38 239h81l-38 -241l220 241h96l-234 -247l165 -276h-88l-161 274l-43 -274h-81z" />
    <glyph glyph-name="uni0437" unicode="&#x437;" horiz-adv-x="504" 
d="M235 -8c-133 0 -208 65 -215 170h81c4 -63 47 -103 131 -103c77 0 117 45 117 94c0 55 -36 82 -107 82h-75l11 67h68c80 0 118 31 118 87c0 45 -30 76 -95 76c-66 0 -107 -29 -124 -86h-80c23 96 99 151 208 151c104 0 180 -52 180 -136c0 -68 -53 -111 -125 -122
c63 -9 110 -53 110 -117c0 -93 -87 -163 -203 -163z" />
    <glyph glyph-name="uni0438" unicode="&#x438;" horiz-adv-x="595" 
d="M42 0l83 523h83l-66 -411l333 411h79l-83 -523h-83l64 408l-331 -408h-79z" />
    <glyph glyph-name="uni0439" unicode="&#x439;" horiz-adv-x="595" 
d="M355 609c-77 0 -134 53 -134 132h70c7 -48 25 -74 65 -74c43 0 64 26 73 74h69c-5 -78 -71 -132 -143 -132zM42 0l83 523h83l-66 -411l333 411h79l-83 -523h-83l64 408l-331 -408h-79z" />
    <glyph glyph-name="uni043A" unicode="&#x43a;" horiz-adv-x="511" 
d="M168 271l-43 -271h-83l83 523h83l-38 -238l250 238h103l-266 -247l197 -276h-95z" />
    <glyph glyph-name="uni043B" unicode="&#x43b;" horiz-adv-x="560" 
d="M189 197c-45 -163 -91 -203 -167 -203c-13 0 -24 2 -32 5l-10 6l12 74l8 -3c5 -2 12 -3 22 -3c44 0 64 29 99 157c19 67 46 190 70 293h328l-83 -523h-83l72 453h-175c-20 -91 -42 -185 -61 -256z" />
    <glyph glyph-name="uni043C" unicode="&#x43c;" horiz-adv-x="723" 
d="M515 0l68 420l-253 -420h-24l-121 420l-68 -420h-75l84 523h110l108 -380l224 380h114l-84 -523h-83z" />
    <glyph glyph-name="uni043D" unicode="&#x43d;" horiz-adv-x="585" 
d="M415 232h-253l-37 -232h-83l83 523h83l-35 -221h253l35 221h83l-83 -523h-83z" />
    <glyph glyph-name="uni043E" unicode="&#x43e;" horiz-adv-x="589" 
d="M277 -8c-145 0 -233 99 -233 232c0 175 122 307 278 307c145 0 234 -95 234 -230c0 -179 -115 -309 -279 -309zM281 60c117 0 188 103 188 239c0 100 -52 164 -152 164c-112 0 -187 -103 -187 -239c0 -100 48 -164 151 -164z" />
    <glyph glyph-name="uni043F" unicode="&#x43f;" horiz-adv-x="575" 
d="M440 453h-243l-72 -453h-83l83 523h409l-83 -523h-83z" />
    <glyph glyph-name="uni0440" unicode="&#x440;" horiz-adv-x="627" 
d="M382 532c123 0 210 -91 210 -230c0 -168 -97 -311 -261 -311c-107 0 -160 57 -184 107l-45 -280h-83l87 549c11 71 13 112 14 156h78c0 -29 -2 -69 -6 -102c37 68 113 111 190 111zM326 59c114 0 178 102 178 238c0 108 -53 167 -138 167c-113 0 -201 -92 -201 -242
c0 -101 61 -163 161 -163z" />
    <glyph glyph-name="uni0441" unicode="&#x441;" horiz-adv-x="554" 
d="M289 -8c-157 0 -244 98 -244 238c0 193 130 301 271 301c115 0 204 -57 212 -184h-79c-11 90 -64 115 -137 115c-104 0 -182 -81 -182 -232c0 -111 53 -170 161 -170c73 0 136 45 151 126h78c-23 -125 -114 -194 -231 -194z" />
    <glyph glyph-name="uni0442" unicode="&#x442;" horiz-adv-x="467" 
d="M298 453l-72 -453h-83l72 453h-168l11 70h419l-11 -70h-168z" />
    <glyph glyph-name="uni0443" unicode="&#x443;" horiz-adv-x="505" 
d="M190 59l-124 464h85l94 -375l199 375h89l-395 -705h-88z" />
    <glyph glyph-name="uni0444" unicode="&#x444;" horiz-adv-x="676" 
d="M226 -182l27 174c-137 20 -215 106 -215 235v9c0 163 127 290 300 295l38 242h83l-38 -242c137 -19 215 -108 215 -236v-8c0 -163 -127 -290 -300 -295l-27 -174h-83zM124 227c0 -99 47 -156 140 -171l64 412c-123 -8 -204 -100 -204 -231v-10zM550 295
c0 97 -46 157 -139 172l-65 -412c124 8 204 101 204 232v8z" />
    <glyph glyph-name="uni0445" unicode="&#x445;" horiz-adv-x="492" 
d="M204 276l-133 247h93l98 -187l153 187h93l-209 -256l144 -267h-94l-107 209l-172 -209h-93z" />
    <glyph glyph-name="uni0446" unicode="&#x446;" horiz-adv-x="595" 
d="M450 -127l10 127h-418l83 523h83l-72 -453h243l72 453h83l-72 -453h88l-31 -197h-69z" />
    <glyph glyph-name="uni0447" unicode="&#x447;" horiz-adv-x="535" 
d="M328 0l38 241c-29 -23 -77 -49 -137 -49c-109 0 -172 65 -151 209l19 122h83l-21 -131c-13 -83 11 -130 88 -129c82 0 125 33 129 37l35 223h83l-83 -523h-83z" />
    <glyph glyph-name="uni0448" unicode="&#x448;" horiz-adv-x="821" 
d="M125 523h83l-72 -453h203l72 453h83l-72 -453h203l72 453h83l-83 -523h-655z" />
    <glyph glyph-name="uni0449" unicode="&#x449;" horiz-adv-x="842" 
d="M697 -127l10 127h-665l83 523h83l-72 -453h203l72 453h83l-72 -453h203l72 453h83l-72 -453h89l-31 -197h-69z" />
    <glyph glyph-name="uni044A" unicode="&#x44a;" horiz-adv-x="562" 
d="M187 453h-140l11 70h223l-31 -193h82c113 0 185 -57 185 -145c0 -136 -106 -185 -229 -185h-173zM239 261l-30 -193h92c81 0 128 36 128 108c0 57 -36 85 -109 85h-81z" />
    <glyph glyph-name="uni044B" unicode="&#x44b;" horiz-adv-x="679" 
d="M555 523h83l-83 -523h-83zM125 523h83l-31 -193h82c113 0 185 -57 185 -145c0 -136 -106 -185 -229 -185h-173zM166 261l-30 -193h92c81 0 128 36 128 108c0 57 -36 85 -109 85h-81z" />
    <glyph glyph-name="uni044C" unicode="&#x44c;" horiz-adv-x="489" 
d="M125 523h83l-31 -193h82c113 0 185 -57 185 -145c0 -136 -106 -185 -229 -185h-173zM166 261l-30 -193h92c81 0 128 36 128 108c0 57 -36 85 -109 85h-81z" />
    <glyph glyph-name="uni044D" unicode="&#x44d;" horiz-adv-x="566" 
d="M256 -8c-116 0 -213 69 -221 194h79c11 -88 73 -125 146 -125c96 0 158 58 177 171h-247l11 70h241v10c-3 100 -56 151 -148 151c-75 0 -139 -40 -160 -116h-78c29 119 122 184 237 184c151 0 234 -98 234 -238c0 -193 -123 -301 -271 -301z" />
    <glyph glyph-name="uni044E" unicode="&#x44e;" horiz-adv-x="787" 
d="M479 -8c-145 0 -223 99 -223 232v8h-94l-37 -232h-83l83 523h83l-35 -221h91c27 135 128 229 260 229c145 0 224 -95 224 -230c0 -179 -105 -309 -269 -309zM483 60c118 0 178 103 178 239c0 100 -42 164 -142 164c-112 0 -177 -103 -177 -239c0 -100 39 -164 141 -164z
" />
    <glyph glyph-name="uni044F" unicode="&#x44f;" horiz-adv-x="516" 
d="M352 274l29 181h-101c-72 0 -123 -30 -123 -98c0 -55 38 -83 113 -83h82zM84 0h-97l183 222c-59 17 -97 63 -97 128c0 125 108 173 215 173h187l-83 -523h-83l33 208h-90z" />
    <glyph glyph-name="uni0451" unicode="&#x451;" horiz-adv-x="553" 
d="M129 211c0 -96 44 -151 144 -151c73 0 124 31 144 91h83c-32 -109 -123 -160 -230 -160c-141 0 -226 93 -226 224c0 184 118 316 273 316c143 0 230 -88 203 -267l-3 -19h-387c-1 -5 -1 -11 -1 -17v-17zM312 463c-75 0 -145 -44 -172 -151h303c8 105 -35 151 -131 151z
M247 634c-29 0 -53 23 -53 52s25 54 54 54s52 -23 52 -52s-24 -54 -53 -54zM435 634c-29 0 -53 23 -53 52s25 54 54 54s52 -23 52 -52s-24 -54 -53 -54z" />
    <glyph glyph-name="uni0452" unicode="&#x452;" horiz-adv-x="592" 
d="M464 -46c-15 -91 -67 -144 -183 -144l11 69c60 3 82 31 90 80l59 373c15 93 -15 129 -90 129c-87 0 -162 -58 -178 -157l-48 -304h-83l97 615h-75l10 61h74l16 97h83l-16 -97h179l-10 -61h-178l-29 -185c32 51 91 102 176 102c110 0 176 -62 152 -219z" />
    <glyph glyph-name="uni0453" unicode="&#x453;" horiz-adv-x="445" 
d="M197 453l-72 -453h-83l83 523h319l-11 -70h-236zM339 760h108l-121 -147h-66z" />
    <glyph glyph-name="uni0454" unicode="&#x454;" horiz-adv-x="554" 
d="M514 186c-23 -125 -114 -194 -231 -194c-157 0 -244 98 -244 238c0 193 130 301 271 301c115 0 204 -57 212 -184h-79c-11 90 -64 115 -137 115c-87 0 -154 -55 -175 -160h242l-11 -70h-238v-2c0 -111 53 -170 161 -170c73 0 136 45 151 126h78z" />
    <glyph glyph-name="uni0455" unicode="&#x455;" horiz-adv-x="480" 
d="M235 -9c-139 0 -201 80 -204 170h81c3 -56 34 -101 126 -101c73 0 107 31 107 86c0 45 -27 65 -106 85c-117 29 -159 70 -159 149c0 100 88 152 182 152c101 0 180 -44 185 -151h-78c-3 51 -44 82 -109 82s-102 -29 -102 -78c0 -39 23 -61 106 -80
c104 -27 162 -59 162 -155s-74 -159 -191 -159z" />
    <glyph glyph-name="uni0456" unicode="&#x456;" horiz-adv-x="255" 
d="M198 632c-31 0 -55 23 -55 54s25 56 56 56s54 -23 54 -54s-24 -56 -55 -56zM133 523h83l-83 -523h-83z" />
    <glyph glyph-name="uni0457" unicode="&#x457;" horiz-adv-x="255" 
d="M111 634c-29 0 -53 23 -53 52s25 54 54 54s52 -23 52 -52s-24 -54 -53 -54zM289 634c-29 0 -53 23 -53 52s25 54 54 54s52 -23 52 -52s-24 -54 -53 -54zM133 523h83l-83 -523h-83z" />
    <glyph glyph-name="uni0458" unicode="&#x458;" horiz-adv-x="255" 
d="M-46 -121c60 3 82 31 90 80l89 564h83l-90 -569c-15 -91 -67 -144 -183 -144zM198 632c-31 0 -55 23 -55 54s25 56 56 56s54 -23 54 -54s-24 -56 -55 -56z" />
    <glyph glyph-name="uni0459" unicode="&#x459;" horiz-adv-x="782" 
d="M189 197c-45 -163 -91 -203 -167 -203c-13 0 -24 2 -32 5l-10 6l12 74l8 -3c5 -2 12 -3 22 -3c44 0 64 29 99 157c19 67 46 190 70 293h320l-31 -193h72c113 0 185 -57 185 -145c0 -136 -106 -185 -229 -185h-163l72 453h-167c-20 -91 -42 -185 -61 -256zM469 261
l-30 -193h82c81 0 128 36 128 108c0 57 -36 85 -109 85h-71z" />
    <glyph glyph-name="uni045A" unicode="&#x45a;" horiz-adv-x="804" 
d="M488 241l-27 -173h82c81 0 128 26 128 98c0 56 -34 75 -109 75h-74zM404 232h-242l-37 -232h-83l83 523h83l-35 -221h242l35 221h83l-34 -213h75c113 0 185 -47 185 -135c0 -136 -106 -175 -229 -175h-163z" />
    <glyph glyph-name="uni045B" unicode="&#x45b;" horiz-adv-x="592" 
d="M74 676h74l16 97h83l-16 -97h179l-10 -61h-178l-29 -185c32 51 91 102 176 102c110 0 176 -62 152 -219l-50 -313h-83l53 332c15 93 -15 129 -90 129c-87 0 -162 -58 -178 -157l-48 -304h-83l97 615h-75z" />
    <glyph glyph-name="uni045C" unicode="&#x45c;" horiz-adv-x="511" 
d="M168 271l-43 -271h-83l83 523h83l-38 -238l250 238h103l-266 -247l197 -276h-95zM359 760h108l-121 -147h-66z" />
    <glyph glyph-name="uni045D" unicode="&#x45d;" horiz-adv-x="595" 
d="M42 0l83 523h83l-66 -411l333 411h79l-83 -523h-83l64 408l-331 -408h-79zM238 760h102l47 -147h-61z" />
    <glyph glyph-name="uni045E" unicode="&#x45e;" horiz-adv-x="505" 
d="M299 609c-77 0 -134 53 -134 132h70c7 -48 25 -74 65 -74c43 0 64 26 73 74h69c-5 -78 -71 -132 -143 -132zM190 59l-124 464h85l94 -375l199 375h89l-395 -705h-88z" />
    <glyph glyph-name="uni045F" unicode="&#x45f;" horiz-adv-x="575" 
d="M42 0l83 523h83l-72 -453h243l72 453h83l-83 -523h-166l-26 -127h-67l16 127h-166z" />
    <glyph glyph-name="uni0490" unicode="&#x490;" horiz-adv-x="556" 
d="M135 0h-87l113 715h323l25 130h73l-32 -204h-314z" />
    <glyph glyph-name="uni0491" unicode="&#x491;" horiz-adv-x="456" 
d="M197 453l-72 -453h-83l83 523h250l31 127h69l-32 -197h-246z" />
    <glyph glyph-name="Wgrave" unicode="&#x1e80;" horiz-adv-x="890" 
d="M99 715h87l54 -583l253 583h56l78 -585l235 585h83l-295 -715h-81l-72 561l-247 -561h-78zM417 898h101l39 -127h-60z" />
    <glyph glyph-name="wgrave" unicode="&#x1e81;" horiz-adv-x="767" 
d="M70 523h88l48 -426l192 426h72l50 -426l184 426h87l-240 -523h-92l-45 397l-182 -397h-91zM323 760h102l47 -147h-61z" />
    <glyph glyph-name="Wacute" unicode="&#x1e82;" horiz-adv-x="890" 
d="M99 715h87l54 -583l253 583h56l78 -585l235 585h83l-295 -715h-81l-72 561l-247 -561h-78zM560 898h106l-108 -127h-66z" />
    <glyph glyph-name="wacute" unicode="&#x1e83;" horiz-adv-x="767" 
d="M70 523h88l48 -426l192 426h72l50 -426l184 426h87l-240 -523h-92l-45 397l-182 -397h-91zM496 760h108l-121 -147h-66z" />
    <glyph glyph-name="Wdieresis" unicode="&#x1e84;" horiz-adv-x="890" 
d="M99 715h87l54 -583l253 583h56l78 -585l235 585h83l-295 -715h-81l-72 561l-247 -561h-78zM433 789c-29 0 -53 23 -53 52s25 54 54 54s52 -23 52 -52s-24 -54 -53 -54zM636 789c-29 0 -53 23 -53 52s25 54 54 54s52 -23 52 -52s-24 -54 -53 -54z" />
    <glyph glyph-name="wdieresis" unicode="&#x1e85;" horiz-adv-x="767" 
d="M70 523h88l48 -426l192 426h72l50 -426l184 426h87l-240 -523h-92l-45 397l-182 -397h-91zM361 634c-29 0 -53 23 -53 52s25 54 54 54s52 -23 52 -52s-24 -54 -53 -54zM549 634c-29 0 -53 23 -53 52s25 54 54 54s52 -23 52 -52s-24 -54 -53 -54z" />
    <glyph glyph-name="Ygrave" unicode="&#x1ef2;" horiz-adv-x="592" 
d="M272 312l-175 403h93l138 -332l232 332h89l-291 -410l-48 -305h-87zM274 898h101l39 -127h-60z" />
    <glyph glyph-name="ygrave" unicode="&#x1ef3;" horiz-adv-x="505" 
d="M190 59l-124 464h85l94 -375l199 375h89l-395 -705h-88zM194 760h102l47 -147h-61z" />
    <glyph glyph-name="uni2009" unicode="&#x2009;" horiz-adv-x="100" 
 />
    <glyph glyph-name="endash" unicode="&#x2013;" horiz-adv-x="538" 
d="M58 311h436l-11 -70h-436z" />
    <glyph glyph-name="emdash" unicode="&#x2014;" horiz-adv-x="897" 
d="M58 311h795l-11 -70h-795z" />
    <glyph glyph-name="quoteleft" unicode="&#x2018;" horiz-adv-x="253" 
d="M86 524l131 202l49 -26l-103 -212z" />
    <glyph glyph-name="quoteright" unicode="&#x2019;" horiz-adv-x="253" 
d="M93 514l103 212l77 -36l-131 -202z" />
    <glyph glyph-name="quotesinglbase" unicode="&#x201a;" horiz-adv-x="253" 
d="M-16 -88l102 212l76 -36l-131 -202z" />
    <glyph glyph-name="quotedblleft" unicode="&#x201c;" horiz-adv-x="430" 
d="M86 524l131 202l49 -26l-103 -212zM263 524l131 202l49 -26l-103 -212z" />
    <glyph glyph-name="quotedblright" unicode="&#x201d;" horiz-adv-x="430" 
d="M93 514l103 212l77 -36l-131 -202zM270 514l103 212l77 -36l-131 -202z" />
    <glyph glyph-name="quotedblbase" unicode="&#x201e;" horiz-adv-x="430" 
d="M-16 -88l102 212l76 -36l-131 -202zM160 -88l103 212l76 -36l-131 -202z" />
    <glyph glyph-name="dagger" unicode="&#x2020;" horiz-adv-x="386" 
d="M196 519h-116l10 67h116l21 129h75l-21 -129h115l-10 -67h-115l-49 -306h-75z" />
    <glyph glyph-name="daggerdbl" unicode="&#x2021;" horiz-adv-x="386" 
d="M196 519h-116l10 67h116l21 129h75l-21 -129h115l-10 -67h-115l-18 -110h115l-10 -67h-115l-21 -129h-75l21 129h-116l10 67h116z" />
    <glyph glyph-name="bullet" unicode="&#x2022;" horiz-adv-x="344" 
d="M174 190c-64 0 -111 51 -111 111c0 67 51 121 120 121c64 0 112 -51 112 -111c0 -67 -49 -121 -121 -121z" />
    <glyph glyph-name="ellipsis" unicode="&#x2026;" horiz-adv-x="818" 
d="M114 -5c-35 0 -64 28 -64 64s28 64 63 64s65 -28 65 -64s-29 -64 -64 -64zM376 -5c-35 0 -64 28 -64 64s28 64 63 64s65 -28 65 -64s-29 -64 -64 -64zM638 -5c-35 0 -64 28 -64 64s28 64 63 64s65 -28 65 -64s-29 -64 -64 -64z" />
    <glyph glyph-name="perthousand" unicode="&#x2030;" horiz-adv-x="1128" 
d="M156 541c0 -41 19 -83 78 -83c56 0 92 48 92 112c0 43 -20 87 -77 87c-61 0 -93 -52 -93 -116zM232 394c-89 0 -151 66 -151 151c0 93 76 176 171 176c91 0 149 -69 149 -154c0 -92 -75 -173 -169 -173zM634 715h79l-547 -715h-79zM465 139c0 -41 19 -83 78 -83
c56 0 92 48 92 112c0 43 -20 87 -77 87c-61 0 -93 -52 -93 -116zM541 -8c-89 0 -151 66 -151 151c0 93 76 176 171 176c91 0 149 -69 149 -154c0 -92 -75 -173 -169 -173zM832 139c0 -41 19 -83 78 -83c56 0 92 48 92 112c0 43 -20 87 -77 87c-61 0 -93 -52 -93 -116z
M908 -8c-89 0 -151 66 -151 151c0 93 76 176 171 176c91 0 149 -69 149 -154c0 -92 -75 -173 -169 -173z" />
    <glyph glyph-name="uni2032" unicode="&#x2032;" horiz-adv-x="224" 
d="M144 715h94l-98 -245h-61z" />
    <glyph glyph-name="uni2033" unicode="&#x2033;" horiz-adv-x="387" 
d="M144 715h94l-98 -245h-61zM307 715h94l-98 -245h-61z" />
    <glyph glyph-name="guilsinglleft" unicode="&#x2039;" horiz-adv-x="334" 
d="M64 262l158 177h85l-156 -181l95 -175h-80z" />
    <glyph glyph-name="guilsinglright" unicode="&#x203a;" horiz-adv-x="334" 
d="M268 260l-158 -177h-85l156 181l-95 175h80z" />
    <glyph glyph-name="fraction" unicode="&#x2044;" horiz-adv-x="125" 
d="M340 715h69l-597 -715h-69z" />
    <glyph glyph-name="Euro" unicode="&#x20ac;" horiz-adv-x="680" 
d="M68 452h72c32 153 126 272 291 272c137 0 219 -78 223 -219h-83c-3 79 -44 151 -144 151c-115 0 -174 -80 -201 -204h232l-18 -58h-224l-12 -78h212l-18 -58h-201c-5 -91 22 -196 161 -196c87 0 156 43 187 164h80c-32 -161 -141 -235 -270 -235
c-175 0 -248 123 -243 267h-74l9 58h71l12 78h-71z" />
    <glyph glyph-name="uni20B4" unicode="&#x20b4;" horiz-adv-x="617" 
d="M559 208c-24 -113 -105 -217 -269 -217c-135 0 -217 70 -217 170c0 39 12 74 35 105h-76l9 58h130c37 25 82 47 137 68c9 3 17 7 25 10h-280l9 58h373c37 31 46 64 46 101c0 56 -35 93 -119 93c-92 0 -137 -46 -157 -121h-80c24 106 96 191 243 191
c125 0 195 -68 195 -159c0 -40 -12 -75 -36 -105h89l-9 -58h-149c-35 -23 -80 -43 -132 -63l-36 -15h306l-9 -58h-387c-35 -33 -42 -66 -42 -101c0 -65 51 -104 135 -104c117 0 162 70 180 147h86z" />
    <glyph glyph-name="uni20B8" unicode="&#x20b8;" horiz-adv-x="541" 
d="M89 657l10 58h483l-10 -58h-483zM264 512h-198l12 71h483l-12 -71h-198l-80 -512h-87z" />
    <glyph glyph-name="uni20BD" unicode="&#x20bd;" horiz-adv-x="611" 
d="M352 360c121 0 182 60 182 168c0 81 -47 117 -143 117h-114l-45 -285h120zM201 166l-26 -166h-87l26 166h-102l9 58h102l13 78h-103l9 58h103l56 355h199c131 0 220 -61 220 -186c0 -175 -133 -238 -273 -238h-126l-11 -67h233l-9 -58h-233z" />
    <glyph glyph-name="uni2116" unicode="&#x2116;" horiz-adv-x="1065" 
d="M886 333c-107 0 -170 70 -170 168c0 128 88 223 204 223c107 0 170 -68 170 -167c0 -131 -84 -224 -204 -224zM891 397c77 0 120 67 120 158c0 64 -32 106 -96 106c-74 0 -120 -68 -120 -159c0 -65 29 -105 96 -105zM161 715h111l217 -588l93 588h83l-113 -715h-98
l-227 610l-96 -610h-83zM701 267h345l-10 -66h-345z" />
    <glyph glyph-name="trademark" unicode="&#x2122;" horiz-adv-x="728" 
d="M409 715h75l54 -226l124 226h80l-51 -322h-56l39 251l-142 -251h-19l-65 251l-39 -251h-51zM192 671h-98l7 44h251l-7 -44h-97l-44 -278h-56z" />
    <glyph glyph-name="Omega" unicode="&#x2126;" horiz-adv-x="823" 
d="M454 654c-187 0 -296 -149 -296 -328c0 -129 66 -221 179 -290l-6 -36h-299l11 67h151c-65 41 -126 138 -126 260c0 200 152 397 388 397c216 0 323 -156 323 -320c0 -132 -55 -262 -173 -337h139l-10 -67h-285l6 36c137 70 232 197 232 366c0 127 -66 252 -234 252z" />
    <glyph glyph-name="onethird" unicode="&#x2153;" horiz-adv-x="744" 
d="M174 647l-89 -54l9 61l99 61h60l-54 -342h-68zM620 715h69l-597 -715h-69zM548 -5c-66 0 -129 27 -129 111h63c3 -35 22 -61 65 -61c33 0 66 18 66 59c0 33 -18 49 -55 49h-24l7 47h27c36 0 60 17 60 50c0 28 -14 46 -49 46s-60 -20 -68 -55h-60c8 67 63 105 130 105
c60 0 112 -24 112 -90c0 -37 -26 -67 -67 -80c31 -7 56 -31 56 -75c0 -68 -64 -106 -134 -106z" />
    <glyph glyph-name="twothirds" unicode="&#x2154;" horiz-adv-x="782" 
d="M35 385l148 131c48 43 72 67 72 106c0 31 -21 45 -46 45c-32 0 -56 -19 -67 -66h-62c12 76 65 118 133 118c55 0 109 -28 109 -96c0 -54 -34 -83 -98 -139l-69 -60h138l-8 -51h-252zM667 715h69l-597 -715h-69zM586 -5c-66 0 -129 27 -129 111h63c3 -35 22 -61 65 -61
c33 0 66 18 66 59c0 33 -18 49 -55 49h-24l7 47h27c36 0 60 17 60 50c0 28 -14 46 -49 46s-60 -20 -68 -55h-60c8 67 63 105 130 105c60 0 112 -24 112 -90c0 -37 -26 -67 -67 -80c31 -7 56 -31 56 -75c0 -68 -64 -106 -134 -106z" />
    <glyph glyph-name="oneeighth" unicode="&#x215b;" horiz-adv-x="734" 
d="M174 647l-89 -54l9 61l99 61h60l-54 -342h-68zM619 715h69l-597 -715h-69zM539 -5c-60 0 -124 28 -124 96c0 51 30 80 77 95c-25 12 -41 35 -41 63c0 61 58 97 122 97c52 0 111 -26 111 -88c0 -40 -23 -62 -60 -77c33 -15 50 -41 50 -77c0 -72 -63 -109 -135 -109z
M483 98c0 -31 19 -53 59 -53c33 0 65 17 65 60c0 33 -21 55 -58 55c-35 0 -66 -21 -66 -62zM515 247c0 -28 22 -44 49 -44c33 0 56 16 56 51c0 25 -20 44 -51 44c-29 0 -54 -18 -54 -51z" />
    <glyph glyph-name="threeeighths" unicode="&#x215c;" horiz-adv-x="770" 
d="M192 368c-66 0 -129 27 -129 111h63c3 -35 22 -61 65 -61c33 0 66 18 66 59c0 33 -18 49 -55 49h-24l7 47h27c36 0 60 17 60 50c0 28 -14 46 -49 46s-60 -20 -68 -55h-60c8 67 63 105 130 105c60 0 112 -24 112 -90c0 -37 -26 -67 -67 -80c31 -7 56 -31 56 -75
c0 -68 -64 -106 -134 -106zM665 715h69l-597 -715h-69zM575 -5c-60 0 -124 28 -124 96c0 51 30 80 77 95c-25 12 -41 35 -41 63c0 61 58 97 122 97c52 0 111 -26 111 -88c0 -40 -23 -62 -60 -77c33 -15 50 -41 50 -77c0 -72 -63 -109 -135 -109zM519 98c0 -31 19 -53 59 -53
c33 0 65 17 65 60c0 33 -21 55 -58 55c-35 0 -66 -21 -66 -62zM551 247c0 -28 22 -44 49 -44c33 0 56 16 56 51c0 25 -20 44 -51 44c-29 0 -54 -18 -54 -51z" />
    <glyph glyph-name="fiveeighths" unicode="&#x215d;" horiz-adv-x="763" 
d="M183 368c-65 0 -119 27 -122 104h63c3 -32 20 -52 59 -52s64 28 64 75c0 36 -19 57 -58 57c-31 0 -50 -10 -67 -29h-35l35 192h210l-8 -52h-159l-15 -86c15 13 36 24 69 24c55 0 98 -36 97 -101c-1 -80 -53 -131 -133 -132zM658 715h69l-597 -715h-69zM568 -5
c-60 0 -124 28 -124 96c0 51 30 80 77 95c-25 12 -41 35 -41 63c0 61 58 97 122 97c52 0 111 -26 111 -88c0 -40 -23 -62 -60 -77c33 -15 50 -41 50 -77c0 -72 -63 -109 -135 -109zM512 98c0 -31 19 -53 59 -53c33 0 65 17 65 60c0 33 -21 55 -58 55c-35 0 -66 -21 -66 -62z
M544 247c0 -28 22 -44 49 -44c33 0 56 16 56 51c0 25 -20 44 -51 44c-29 0 -54 -18 -54 -51z" />
    <glyph glyph-name="seveneighths" unicode="&#x215e;" horiz-adv-x="721" 
d="M242 660h-160l9 55h247l-2 -8l-176 -334h-71zM603 715h69l-597 -715h-69zM526 -5c-60 0 -124 28 -124 96c0 51 30 80 77 95c-25 12 -41 35 -41 63c0 61 58 97 122 97c52 0 111 -26 111 -88c0 -40 -23 -62 -60 -77c33 -15 50 -41 50 -77c0 -72 -63 -109 -135 -109zM470 98
c0 -31 19 -53 59 -53c33 0 65 17 65 60c0 33 -21 55 -58 55c-35 0 -66 -21 -66 -62zM502 247c0 -28 22 -44 49 -44c33 0 56 16 56 51c0 25 -20 44 -51 44c-29 0 -54 -18 -54 -51z" />
    <glyph glyph-name="Delta" unicode="&#x2206;" horiz-adv-x="659" 
d="M-11 14l352 701h123l127 -701l-2 -14h-602zM103 74h392l-105 581z" />
    <glyph glyph-name="minus" unicode="&#x2212;" horiz-adv-x="531" 
d="M59 377h447l-11 -70h-447z" />
    <glyph glyph-name="approxequal" unicode="&#x2248;" horiz-adv-x="510" 
d="M67 343c13 80 62 119 118 119c71 0 136 -44 189 -44c21 0 45 14 50 46h63c-13 -83 -63 -119 -115 -119c-74 0 -140 44 -191 44c-23 0 -43 -15 -51 -46h-63zM38 166c13 80 62 119 118 119c71 0 136 -44 189 -44c21 0 45 14 50 46h63c-13 -83 -63 -119 -115 -119
c-74 0 -140 44 -191 44c-23 0 -43 -15 -51 -46h-63z" />
    <glyph glyph-name="notequal" unicode="&#x2260;" horiz-adv-x="496" 
d="M74 448h210l52 103h76l-52 -103h118l-11 -72h-143l-55 -108h181l-11 -72h-206l-51 -103h-76l51 103h-122l11 72h147l55 108h-185z" />
    <glyph glyph-name="lessequal" unicode="&#x2264;" horiz-adv-x="516" 
d="M68 327l3 20l416 202l-13 -83l-281 -132l238 -138l-12 -77zM28 70h384l-11 -70h-384z" />
    <glyph glyph-name="greaterequal" unicode="&#x2265;" horiz-adv-x="516" 
d="M42 70h384l-11 -70h-384zM468 341l-3 -20l-416 -202l13 83l281 132l-238 138l12 77z" />
    <glyph glyph-name="uni24C5" unicode="&#x24c5;" horiz-adv-x="856" 
d="M321 557h128c91 0 147 -38 147 -122v-3c0 -84 -59 -121 -144 -121h-55v-149h-76v395zM449 366c49 0 74 22 74 66v3c0 45 -27 63 -74 63h-52v-132h52zM438 33c171 0 320 134 320 326c0 189 -146 323 -318 323c-175 0 -320 -134 -320 -325c0 -193 150 -324 318 -324z
M438 -9c-204 0 -366 159 -366 366c0 204 162 367 368 367c208 0 366 -162 366 -365c0 -209 -162 -368 -368 -368z" />
    <glyph glyph-name="zero.tab" unicode="&#xe44f;" 
d="M152 303c-4 -27 -7 -54 -7 -79c0 -89 33 -161 140 -161c106 0 160 62 184 220l20 126c4 27 7 53 7 80c0 91 -32 165 -137 165s-163 -72 -187 -225zM285 -9c-153 0 -226 97 -226 231c0 35 3 61 7 88l20 126c31 195 126 288 274 288c157 0 221 -98 221 -234
c0 -28 -2 -58 -7 -89l-20 -126c-31 -189 -120 -284 -269 -284z" />
    <glyph glyph-name="one.tab" unicode="&#xe450;" 
d="M377 624l-233 -161l13 84l232 168h89l-113 -715h-87z" />
    <glyph glyph-name="two.tab" unicode="&#xe451;" 
d="M1 20l341 296c66 58 131 128 131 221c0 62 -38 117 -114 117c-80 0 -140 -37 -170 -159h-82c24 157 127 229 257 229c109 0 197 -68 197 -185c0 -116 -80 -198 -179 -281l-221 -187h337l-11 -71h-489z" />
    <glyph glyph-name="three.tab" unicode="&#xe452;" 
d="M276 -9c-147 0 -241 86 -241 220h82c3 -82 46 -150 163 -150c107 0 169 50 169 158c0 71 -41 119 -137 119h-46l12 73h62c76 0 139 37 139 130c0 72 -45 112 -121 112c-87 0 -148 -46 -169 -135h-77c19 123 119 206 251 206c100 0 202 -55 202 -180
c0 -83 -51 -148 -136 -172c69 -23 109 -76 109 -153c0 -140 -108 -228 -262 -228z" />
    <glyph glyph-name="four.tab" unicode="&#xe453;" 
d="M376 150h-348l5 28l400 537h118l-78 -494h84l-12 -71h-84l-23 -150h-85zM388 221l66 420l-302 -420h236z" />
    <glyph glyph-name="five.tab" unicode="&#xe454;" 
d="M271 -9c-126 0 -221 70 -226 202h84c5 -80 47 -132 143 -132c109 0 177 76 177 199c0 83 -45 141 -142 141c-76 0 -125 -30 -166 -69h-32l61 383h402l-12 -75h-330l-34 -214c32 25 79 45 140 45c121 0 203 -83 203 -207c0 -155 -109 -273 -268 -273z" />
    <glyph glyph-name="six.tab" unicode="&#xe455;" 
d="M296 -9c-156 0 -238 87 -238 247c0 31 4 62 9 97l5 31c27 173 115 358 318 358c125 0 194 -65 199 -173h-82c-8 60 -37 102 -122 102c-138 0 -199 -137 -226 -279c43 56 108 90 185 90c121 0 212 -83 212 -208c0 -148 -105 -265 -260 -265zM143 211
c0 -83 47 -152 154 -152c103 0 170 85 170 193c0 77 -44 144 -148 144c-100 0 -176 -74 -176 -185z" />
    <glyph glyph-name="seven.tab" unicode="&#xe456;" 
d="M486 645h-369l11 70h481l-2 -12l-389 -703h-89z" />
    <glyph glyph-name="eight.tab" unicode="&#xe457;" 
d="M288 -9c-117 0 -237 67 -237 195c0 105 66 178 165 207c-56 25 -88 77 -88 134c0 116 105 197 232 197c104 0 206 -66 206 -178c0 -89 -53 -135 -133 -162c69 -28 113 -90 113 -165c0 -147 -118 -228 -258 -228zM140 197c0 -83 65 -135 153 -135c97 0 164 56 164 156
c0 81 -62 132 -145 132c-99 0 -172 -53 -172 -153zM215 530c0 -63 51 -111 130 -111c69 0 134 35 134 123c0 64 -50 114 -126 114c-72 0 -138 -41 -138 -126z" />
    <glyph glyph-name="nine.tab" unicode="&#xe458;" 
d="M259 -8c-117 0 -207 55 -218 184h85c12 -85 59 -113 140 -113c108 0 184 88 215 273c-40 -53 -108 -84 -184 -84c-114 0 -211 75 -211 207c0 152 112 266 268 266c149 0 226 -90 227 -243c0 -31 -1 -64 -8 -100l-7 -44c-39 -235 -144 -346 -307 -346zM175 463
c0 -84 46 -143 134 -143c104 0 189 61 189 184c0 79 -40 153 -147 153c-104 0 -176 -81 -176 -194z" />
    <glyph glyph-name="cent.tab" unicode="&#xe459;" 
d="M251 -3c-116 21 -185 107 -185 231c0 191 130 298 269 303l16 98h59l-16 -102c91 -16 158 -71 163 -180h-79c-3 68 -43 100 -95 111l-63 -398c68 3 126 39 146 126h79c-29 -128 -121 -194 -236 -194l-20 -127h-59zM151 228c0 -93 39 -147 111 -163l62 396
c-97 -8 -173 -89 -173 -233z" />
    <glyph glyph-name="dollar.tab" unicode="&#xe45a;" 
d="M292 -9l-20 -126h-59l20 131c-138 21 -204 118 -204 222h84c3 -67 39 -135 131 -153l44 274c-119 37 -181 84 -181 187c0 107 98 198 242 198l14 89h59l-15 -94c105 -17 174 -84 177 -192h-78c-7 75 -50 110 -110 123l-40 -251c131 -40 194 -88 194 -190
c0 -125 -96 -218 -253 -218h-5zM466 201c0 60 -26 89 -122 121l-41 -262c105 1 163 56 163 141zM189 529c0 -50 23 -80 111 -112l38 238c-101 -1 -149 -57 -149 -126z" />
    <glyph glyph-name="Euro.tab" unicode="&#xe45b;" 
d="M50 452h63c33 177 127 272 268 272c133 0 203 -79 204 -216h-82c-3 86 -32 148 -124 148c-99 0 -152 -63 -179 -204h218l-20 -58h-208l-12 -78h193l-20 -58h-181c-8 -104 13 -196 142 -196c78 0 137 43 166 160h80c-37 -171 -133 -231 -247 -231
c-162 0 -239 105 -226 267h-65l9 58h63l12 78h-63z" />
    <glyph glyph-name="a.alt" unicode="&#xe4c0;" horiz-adv-x="616" 
d="M310 463c-115 0 -177 -101 -177 -236c0 -104 48 -167 141 -167c100 0 181 93 181 240c0 99 -61 163 -145 163zM257 -9c-125 0 -212 92 -212 232c0 167 99 309 262 309c97 0 143 -54 167 -104l15 95h83l-58 -367c-11 -71 -14 -113 -11 -156h-79c-3 31 0 64 4 95
c-37 -64 -92 -104 -171 -104z" />
    <glyph glyph-name="t.alt" unicode="&#xe4d3;" horiz-adv-x="350" 
d="M144 453h-82l11 70h82l19 119h83l-19 -119h115l-11 -70h-115l-71 -453h-83z" />
    <glyph glyph-name="f_i" unicode="&#xfb01;" horiz-adv-x="591" 
d="M68 523h74l16 96c17 108 80 157 165 157c35 0 54 -6 69 -13l-10 -66c-12 5 -32 10 -56 10c-49 0 -74 -29 -85 -90l-15 -94h128l-11 -70h-128l-72 -453h-83l71 453h-74zM534 632c-31 0 -55 23 -55 54s25 56 56 56s54 -23 54 -54s-24 -56 -55 -56zM469 523h83l-83 -523h-83
z" />
    <glyph glyph-name="f_l" unicode="&#xfb02;" horiz-adv-x="592" 
d="M68 523h74l16 96c17 108 80 157 165 157c35 0 54 -6 69 -13l-10 -66c-12 5 -32 10 -56 10c-49 0 -74 -29 -85 -90l-15 -94h128l-11 -70h-128l-72 -453h-83l71 453h-74zM508 773h84l-122 -773h-84z" />
    <glyph glyph-name="hyphen.uc" horiz-adv-x="376" 
d="M81 366h244l-12 -78h-244z" />
    <glyph glyph-name="four.old" horiz-adv-x="629" 
d="M370 57h-365l4 28l416 533h116l-78 -494h101l-10 -67h-101l-25 -154h-83zM380 124l68 426l-325 -426h257z" />
    <glyph glyph-name="zero.num" horiz-adv-x="362" 
d="M144 504c0 -39 17 -83 70 -83c67 0 91 83 91 161c0 40 -18 84 -67 84c-76 0 -94 -101 -94 -162zM212 368c-87 0 -135 55 -135 139c0 108 53 212 162 212c83 0 133 -52 133 -141c0 -112 -49 -210 -160 -210z" />
    <glyph glyph-name="nine.oldtab" horiz-adv-x="600" 
d="M460 408c0 88 -40 153 -144 153c-94 0 -165 -82 -165 -186c0 -81 42 -144 137 -144c96 0 172 73 172 177zM320 628c155 0 222 -106 222 -239c0 -32 -3 -62 -8 -93l-5 -31c-41 -257 -144 -370 -305 -370c-124 0 -199 59 -208 180h82c9 -72 47 -111 128 -111
c118 0 178 81 215 284c-39 -51 -97 -84 -177 -84c-120 0 -201 81 -201 206c0 148 115 258 257 258z" />
    <glyph glyph-name="eight.oldtab" horiz-adv-x="600" 
d="M280 -9c-113 0 -227 67 -227 191c0 109 73 179 165 203c-57 27 -88 74 -88 137c0 120 106 202 226 202c98 0 196 -55 196 -176c0 -91 -54 -144 -135 -172c71 -29 113 -82 113 -158c0 -143 -118 -227 -250 -227zM215 521c0 -64 46 -108 122 -108c72 0 130 45 130 132
c0 65 -43 112 -116 112c-76 0 -136 -49 -136 -136zM140 189c0 -73 52 -128 145 -128c80 0 158 51 158 156c0 75 -48 128 -139 128c-89 0 -164 -54 -164 -156z" />
    <glyph glyph-name="seven.oldtab" horiz-adv-x="600" 
d="M468 550h-359l10 68h468l-2 -12l-404 -703h-90z" />
    <glyph glyph-name="six.oldtab" horiz-adv-x="600" 
d="M285 -9c-157 0 -221 105 -221 229c0 43 5 80 10 111l5 31c40 243 159 362 303 362c124 0 194 -57 201 -170h-82c-8 64 -40 101 -121 101c-92 0 -180 -85 -215 -284c39 51 97 84 178 84c124 0 198 -79 198 -206c0 -148 -107 -258 -256 -258zM146 215
c0 -88 38 -157 143 -157c97 0 164 82 164 186c0 79 -35 144 -134 144s-173 -70 -173 -173z" />
    <glyph glyph-name="five.oldtab" horiz-adv-x="600" 
d="M114 90c8 -77 49 -127 144 -127c112 0 171 80 171 194c0 69 -38 139 -135 139c-76 0 -122 -27 -165 -67h-30l62 390h392l-12 -73h-323l-36 -228c32 27 78 46 135 46c120 0 200 -85 200 -201c0 -152 -96 -268 -262 -268c-123 0 -213 64 -221 195h80z" />
    <glyph glyph-name="four.oldtab" horiz-adv-x="600" 
d="M353 57h-345l4 28l394 533h118l-78 -494h94l-10 -67h-94l-25 -154h-83zM363 124l68 426l-308 -426h240z" />
    <glyph glyph-name="three.oldtab" horiz-adv-x="600" 
d="M266 -105c-139 0 -240 75 -243 220h80c5 -101 61 -152 168 -152c93 0 163 51 163 152c0 84 -47 128 -138 128h-46l11 71h50c92 0 145 38 145 133c0 79 -54 112 -125 112c-85 0 -142 -49 -162 -137h-77c19 123 117 206 247 206c105 0 201 -55 201 -177
c0 -83 -42 -145 -131 -174c71 -23 112 -73 112 -158c0 -137 -111 -224 -255 -224z" />
    <glyph glyph-name="two.oldtab" horiz-adv-x="600" 
d="M4 20l290 223c72 56 154 123 154 209c0 72 -44 108 -116 108c-83 0 -137 -49 -160 -153h-78c23 139 116 221 244 221c100 0 200 -55 197 -175c-3 -112 -86 -175 -205 -265l-153 -118h313l-11 -70h-478z" />
    <glyph glyph-name="one.oldtab" horiz-adv-x="600" 
d="M361 531l-227 -146l12 83l235 151h79l-98 -619h-85z" />
    <glyph glyph-name="zero.oldtab" horiz-adv-x="600" 
d="M275 -9c-142 0 -222 91 -222 217c0 27 1 45 4 64l16 102c24 155 127 254 271 254c143 0 217 -97 217 -220c0 -21 -2 -43 -5 -63l-16 -102c-25 -161 -121 -252 -265 -252zM144 269c-3 -21 -5 -42 -5 -61c0 -86 38 -146 139 -146c104 1 157 66 176 187l16 102
c3 21 5 37 5 56c-1 97 -48 152 -135 152c-103 0 -161 -72 -180 -188z" />
    <glyph glyph-name="yen.oldtab" horiz-adv-x="600" 
d="M111 329h152l-139 365h88l112 -315l204 315h84l-244 -365h152l-9 -56h-163l-12 -76h163l-9 -56h-163l-22 -141h-82l22 141h-163l9 56h162l12 76h-163z" />
    <glyph glyph-name="sterling.oldtab" horiz-adv-x="600" 
d="M72 366h68c-3 29 -4 60 -4 91c0 133 74 245 234 245c117 0 195 -59 196 -183h-83c-5 67 -32 114 -117 114c-111 0 -147 -82 -147 -177c0 -33 1 -62 2 -90h205l-10 -60h-191c1 -21 1 -43 1 -67c0 -49 -6 -90 -29 -127c61 -16 124 -50 167 -50c47 0 80 19 91 83h72
c-15 -92 -66 -154 -166 -154c-80 0 -162 61 -217 61c-39 0 -57 -25 -64 -52h-70c8 48 46 107 111 118c19 31 28 68 28 113c0 23 -1 48 -4 75h-83z" />
    <glyph glyph-name="f.short" horiz-adv-x="348" 
d="M68 523h74l16 96c17 108 80 157 165 157c35 0 54 -6 69 -13l-10 -66c-12 5 -32 10 -56 10c-49 0 -74 -29 -85 -90l-15 -94h128l-11 -70h-128l-72 -453h-83l71 453h-74z" />
    <glyph glyph-name="f_f.short" horiz-adv-x="632" 
d="M68 523h74l15 92c16 100 82 151 170 151c35 0 53 -5 69 -13l-10 -66c-15 7 -34 10 -55 10c-55 0 -82 -31 -91 -84l-15 -90h201l16 96c17 108 80 157 165 157c35 0 54 -6 69 -13l-10 -66c-12 5 -32 10 -56 10c-49 0 -74 -29 -85 -90l-15 -94h128l-11 -70h-128l-72 -453
h-83l71 453h-201l-71 -453h-83l71 453h-74z" />
    <glyph glyph-name="Euro.oldtab" horiz-adv-x="600" 
d="M59 438h61c31 172 123 264 260 264c129 0 197 -76 198 -209h-80c-3 84 -32 143 -120 143c-96 0 -149 -62 -174 -198h212l-20 -56h-201l-12 -75h187l-20 -56h-174c-8 -101 11 -191 137 -191c76 0 132 40 161 155h77c-34 -164 -130 -224 -239 -224
c-159 0 -231 103 -220 260h-63l9 56h61l12 75h-61z" />
    <glyph glyph-name="dollar.oldtab" horiz-adv-x="600" 
d="M185 513c0 -50 20 -76 108 -108l37 231c-100 0 -145 -56 -145 -123zM455 193c0 60 -26 87 -119 119l-40 -255c103 1 159 52 159 136zM286 -8l-19 -123h-58l20 128c-135 21 -201 113 -201 214h82c3 -66 38 -130 129 -149l42 266c-116 37 -177 82 -177 182
c0 104 96 192 236 192l14 87h58l-15 -91c104 -16 170 -80 173 -187h-76c-7 72 -47 108 -107 120l-39 -244c129 -40 191 -88 191 -186c0 -123 -95 -209 -248 -209h-5z" />
    <glyph glyph-name="braceright.tab" horiz-adv-x="312" 
d="M123 777c137 -5 183 -83 136 -218l-36 -98c-22 -62 -11 -99 67 -123l-9 -61c-86 -16 -105 -58 -105 -110v-123c3 -148 -72 -192 -201 -192l10 62c78 0 112 25 112 133l2 118c0 86 47 121 118 145c-62 27 -99 65 -70 156l33 96c36 107 17 147 -67 152z" />
    <glyph glyph-name="braceleft.tab" horiz-adv-x="312" 
d="M204 -148c-137 5 -183 83 -136 218l36 98c22 62 11 99 -67 123l9 61c85 17 106 57 105 110v123c-3 148 72 192 201 192l-10 -62c-78 0 -112 -25 -112 -133l-2 -118c0 -86 -47 -121 -118 -145c62 -27 99 -65 70 -156l-33 -96c-36 -107 -17 -147 67 -152z" />
    <glyph glyph-name="bracketright.tab" horiz-adv-x="312" 
d="M-13 -82h111l125 792h-111l10 66h194l-146 -924h-194z" />
    <glyph glyph-name="bracketleft.tab" horiz-adv-x="312" 
d="M156 776h194l-10 -66h-111l-125 -792h111l-11 -66h-194z" />
    <glyph glyph-name="parenright.tab" horiz-adv-x="312" 
d="M194 773c41 -86 78 -184 78 -349c0 -211 -88 -410 -218 -572h-85c129 164 216 365 216 568c1 153 -33 268 -72 353h81z" />
    <glyph glyph-name="parenleft.tab" horiz-adv-x="312" 
d="M132 -148c-40 86 -78 182 -78 349c0 211 88 410 218 572h85c-128 -166 -216 -363 -216 -568c-1 -153 33 -268 72 -353h-81z" />
    <glyph glyph-name="semicolon.tab" horiz-adv-x="312" 
d="M-14 -95l118 219l75 -38l-143 -209zM178 292c-35 0 -64 28 -64 64s28 64 63 64s65 -28 65 -64s-29 -64 -64 -64z" />
    <glyph glyph-name="colon.tab" horiz-adv-x="312" 
d="M124 -5c-35 0 -64 28 -64 64s28 64 63 64s65 -28 65 -64s-29 -64 -64 -64zM172 292c-35 0 -64 28 -64 64s28 64 63 64s65 -28 65 -64s-29 -64 -64 -64z" />
    <glyph glyph-name="comma.tab" horiz-adv-x="312" 
d="M2 -95l118 219l75 -38l-143 -209z" />
    <glyph glyph-name="period.tab" horiz-adv-x="312" 
d="M123 -5c-35 0 -64 28 -64 64s28 64 63 64s65 -28 65 -64s-29 -64 -64 -64z" />
    <glyph glyph-name="greaterequal.tab" 
d="M90 70h384l-11 -70h-384zM516 341l-3 -20l-416 -202l13 83l281 132l-238 138l12 77z" />
    <glyph glyph-name="lessequal.tab" 
d="M116 327l3 20l416 202l-13 -83l-281 -132l238 -138l-12 -77zM76 70h384l-11 -70h-384z" />
    <glyph glyph-name="greater.tab" 
d="M515 328l-3 -20l-418 -213l12 84l288 143l-241 151l12 76z" />
    <glyph glyph-name="less.tab" 
d="M114 316l3 20l418 213l-12 -82l-288 -143l241 -151l-12 -78z" />
    <glyph glyph-name="approxequal.tab" 
d="M119 343c13 80 62 119 118 119c71 0 136 -44 189 -44c21 0 45 14 50 46h63c-13 -83 -63 -119 -115 -119c-74 0 -140 44 -191 44c-23 0 -43 -15 -51 -46h-63zM90 166c13 80 62 119 118 119c71 0 136 -44 189 -44c21 0 45 14 50 46h63c-13 -83 -63 -119 -115 -119
c-74 0 -140 44 -191 44c-23 0 -43 -15 -51 -46h-63z" />
    <glyph glyph-name="notequal.tab" 
d="M132 448h210l52 103h76l-52 -103h118l-11 -72h-143l-55 -108h181l-11 -72h-206l-51 -103h-76l51 103h-122l11 72h147l55 108h-185z" />
    <glyph glyph-name="equal.tab" 
d="M104 268h404l-11 -72h-404zM132 448h404l-11 -72h-404z" />
    <glyph glyph-name="divide.tab" 
d="M100 377h447l-11 -70h-447zM294 89c-35 0 -64 28 -64 64s29 64 64 64s64 -28 64 -64s-29 -64 -64 -64zM342 467c-35 0 -64 28 -64 64s29 64 64 64s64 -28 64 -64s-29 -64 -64 -64z" />
    <glyph glyph-name="multiply.tab" 
d="M99 181l172 154l-132 153l50 47l134 -154l172 154l45 -50l-174 -155l134 -153l-52 -46l-133 153l-173 -153z" />
    <glyph glyph-name="plusminus.tab" 
d="M279 327h-187l11 70h187l29 182h73l-29 -182h187l-11 -70h-187l-29 -182h-73zM52 70h447l-11 -70h-447z" />
    <glyph glyph-name="minus.tab" 
d="M100 377h447l-11 -70h-447z" />
    <glyph glyph-name="plus.tab" 
d="M276 307h-187l11 70h187l32 202h73l-32 -202h187l-11 -70h-187l-32 -202h-73z" />
    <glyph glyph-name="perthousand.tab" horiz-adv-x="1012" 
d="M167 525c0 -41 18 -67 53 -67c60 0 77 78 77 128c0 41 -15 72 -52 72c-61 0 -78 -78 -78 -133zM218 395c-70 0 -124 49 -124 134c0 93 53 192 153 192c72 0 123 -47 123 -135c0 -84 -48 -191 -152 -191zM602 715h79l-547 -715h-79zM435 122c0 -41 18 -67 53 -67
c60 0 77 78 77 128c0 41 -15 72 -52 72c-61 0 -78 -78 -78 -133zM486 -8c-70 0 -124 49 -124 134c0 93 53 192 153 192c72 0 123 -47 123 -135c0 -84 -48 -191 -152 -191zM744 122c0 -41 18 -67 53 -67c60 0 77 78 77 128c0 41 -15 72 -52 72c-61 0 -78 -78 -78 -133z
M795 -8c-70 0 -124 49 -124 134c0 93 53 192 153 192c72 0 123 -47 123 -135c0 -84 -48 -191 -152 -191z" />
    <glyph glyph-name="percent.tab" horiz-adv-x="812" 
d="M166 535c0 -44 19 -88 80 -88c60 0 95 50 95 118c0 44 -19 92 -79 92c-64 0 -96 -54 -96 -122zM244 383c-92 0 -154 68 -154 156c0 96 76 182 175 182c94 0 152 -71 152 -159c0 -96 -76 -179 -173 -179zM654 715h79l-547 -715h-79zM498 144c0 -44 19 -88 80 -88
c60 0 95 50 95 118c0 44 -19 92 -79 92c-64 0 -96 -54 -96 -122zM576 -8c-92 0 -154 68 -154 156c0 96 76 182 175 182c94 0 152 -71 152 -159c0 -96 -76 -179 -173 -179z" />
    <glyph glyph-name="two.num" horiz-adv-x="298" 
d="M32 385l148 131c48 43 72 67 72 106c0 31 -21 45 -46 45c-32 0 -56 -19 -67 -66h-62c12 76 65 118 133 118c55 0 109 -28 109 -96c0 -54 -34 -83 -98 -139l-69 -60h138l-8 -51h-252z" />
    <glyph glyph-name="uni045D.bgr" horiz-adv-x="588" 
d="M493 156c-11 -71 -14 -113 -11 -156h-79c-3 31 0 69 5 104c-37 -64 -97 -113 -182 -113c-109 0 -174 67 -150 219l50 313h83l-53 -332c-13 -83 16 -129 88 -129c87 0 160 58 176 157l48 304h83zM237 760h102l47 -147h-61z" />
    <glyph glyph-name="three.num" horiz-adv-x="323" 
d="M189 368c-66 0 -129 27 -129 111h63c3 -35 22 -61 65 -61c33 0 66 18 66 59c0 33 -18 49 -55 49h-24l7 47h27c36 0 60 17 60 50c0 28 -14 46 -49 46s-60 -20 -68 -55h-60c8 67 63 105 130 105c60 0 112 -24 112 -90c0 -37 -26 -67 -67 -80c31 -7 56 -31 56 -75
c0 -68 -64 -106 -134 -106z" />
    <glyph glyph-name="four.num" horiz-adv-x="329" 
d="M222 442h-172l4 24l192 249h84l-36 -224h46l-8 -49h-45l-11 -69h-65zM231 491l26 169l-125 -169h99z" />
    <glyph glyph-name="uni20B4.old" horiz-adv-x="607" 
d="M539 201c-16 -109 -100 -210 -258 -210c-132 0 -209 70 -209 165c0 38 11 72 33 102h-73l9 56h125c35 24 78 45 133 66c9 3 17 7 25 10h-272l9 56h361c35 31 44 62 44 98c0 53 -35 90 -115 90c-89 0 -133 -45 -152 -117h-78c21 103 93 185 236 185
c121 0 189 -66 189 -154c0 -39 -12 -73 -35 -102h87l-8 -56h-145c-35 -23 -78 -41 -129 -61c-13 -5 -24 -10 -35 -15h298l-9 -56h-376c-32 -32 -40 -63 -40 -98c0 -63 49 -101 130 -101c115 0 158 69 172 142h83z" />
    <glyph glyph-name="uni20B4.oldtab" horiz-adv-x="600" 
d="M566 201c-21 -109 -121 -210 -280 -210c-131 0 -210 68 -210 161c0 39 12 75 35 106h-79l9 56h130c35 24 80 46 133 66c9 3 17 7 25 10h-277l9 56h366c35 31 44 62 44 98c0 53 -35 90 -115 90c-89 0 -133 -45 -152 -117h-78c21 103 93 185 236 185
c121 0 189 -66 189 -154c0 -39 -12 -73 -35 -102h82l-8 -56h-140c-35 -23 -78 -41 -129 -61c-13 -5 -24 -10 -35 -15h293l-9 -56h-371c-33 -33 -41 -67 -41 -102c0 -60 50 -97 131 -97c115 0 175 69 194 142h83z" />
    <glyph glyph-name="uni20B4.tab" horiz-adv-x="600" 
d="M534 208c-22 -113 -100 -217 -257 -217c-129 0 -205 70 -205 170c0 39 11 74 34 105h-66l9 58h118c34 23 78 46 132 67c11 4 19 7 27 11h-265l9 58h350c31 31 38 64 38 101c0 56 -33 93 -109 93c-87 0 -127 -46 -147 -121h-80c24 106 92 191 233 191
c120 0 185 -68 185 -159c0 -40 -11 -75 -33 -105h77l-9 -58h-130c-33 -22 -75 -43 -128 -64l-33 -14h280l-9 -58h-358c-32 -33 -40 -68 -40 -101c0 -67 44 -104 123 -104c111 0 152 70 168 147h86z" />
    <glyph glyph-name="five.num" horiz-adv-x="314" 
d="M180 368c-65 0 -119 27 -122 104h63c3 -32 20 -52 59 -52s64 28 64 75c0 36 -19 57 -58 57c-31 0 -50 -10 -67 -29h-35l35 192h210l-8 -52h-159l-15 -86c15 13 36 24 69 24c55 0 98 -36 97 -101c-1 -80 -53 -131 -133 -132z" />
    <glyph glyph-name="uni20B8.old" horiz-adv-x="531" 
d="M88 637l10 57h469l-10 -57h-469zM258 497h-192l12 69h468l-11 -69h-193l-77 -497h-85z" />
    <glyph glyph-name="uni20B8.oldtab" horiz-adv-x="600" 
d="M122 637l10 57h469l-10 -57h-469zM292 497h-192l12 69h468l-11 -69h-193l-77 -497h-85z" />
    <glyph glyph-name="uni20B8.tab" horiz-adv-x="600" 
d="M118 657l10 58h483l-10 -58h-483zM293 512h-198l12 71h483l-12 -71h-198l-80 -512h-87z" />
    <glyph glyph-name="six.num" horiz-adv-x="332" 
d="M199 368c-77 0 -122 47 -123 123c0 15 1 29 4 45l2 13c17 109 77 170 160 170c57 0 103 -27 107 -91h-61c-5 27 -21 40 -50 40c-45 0 -75 -36 -89 -109c19 23 45 37 84 37c52 0 102 -36 102 -97c0 -80 -56 -131 -136 -131zM141 477c0 -31 19 -60 60 -60c39 0 67 28 67 75
c0 32 -17 58 -57 58c-39 0 -70 -26 -70 -73z" />
    <glyph glyph-name="uni20BD.old" horiz-adv-x="591" 
d="M328 349c113 0 169 59 169 163c0 80 -44 114 -133 114h-106l-42 -277h112zM188 161l-25 -161h-80l24 161h-95l8 56h96l11 76h-95l8 56h96l52 345h184c121 0 205 -58 205 -181c0 -168 -124 -231 -254 -231h-117l-10 -65h216l-8 -56h-216z" />
    <glyph glyph-name="uni20BD.oldtab" horiz-adv-x="600" 
d="M340 349c113 0 169 59 169 163c0 80 -44 114 -133 114h-106l-42 -277h112zM200 161l-25 -161h-80l24 161h-95l8 56h96l11 76h-95l8 56h96l52 345h184c121 0 205 -58 205 -181c0 -168 -124 -231 -254 -231h-117l-10 -65h216l-8 -56h-216z" />
    <glyph glyph-name="uni20BD.tab" horiz-adv-x="600" 
d="M340 360c121 0 182 60 182 168c0 81 -47 117 -143 117h-104l-45 -285h110zM199 166l-26 -166h-87l26 166h-92l9 58h92l13 78h-93l9 58h93l56 355h189c131 0 220 -61 220 -186c0 -175 -133 -238 -273 -238h-116l-11 -67h223l-9 -58h-223z" />
    <glyph glyph-name="seven.num" horiz-adv-x="280" 
d="M239 660h-160l9 55h247l-2 -8l-176 -334h-71z" />
    <glyph glyph-name="eight.num" horiz-adv-x="325" 
d="M192 368c-60 0 -124 28 -124 96c0 51 30 80 77 95c-25 12 -41 35 -41 63c0 61 58 97 122 97c52 0 111 -26 111 -88c0 -40 -23 -62 -60 -77c33 -15 50 -41 50 -77c0 -72 -63 -109 -135 -109zM136 471c0 -31 19 -53 59 -53c33 0 65 17 65 60c0 33 -21 55 -58 55
c-35 0 -66 -21 -66 -62zM168 620c0 -28 22 -44 49 -44c33 0 56 16 56 51c0 25 -20 44 -51 44c-29 0 -54 -18 -54 -51z" />
    <glyph glyph-name="nine.num" horiz-adv-x="332" 
d="M220 720c77 0 121 -45 122 -114c0 -21 -1 -44 -4 -60l-2 -13c-17 -110 -69 -165 -156 -165c-64 0 -111 27 -114 95h61c4 -28 17 -43 57 -43c48 0 74 41 86 109c-19 -23 -45 -37 -84 -37c-52 0 -102 36 -102 97c0 77 59 131 136 131zM278 611c0 31 -18 60 -59 60
c-36 0 -68 -28 -68 -75c0 -32 14 -58 57 -58c39 0 70 26 70 73z" />
    <glyph glyph-name="zero.den" horiz-adv-x="362" 
d="M85 131c0 -39 17 -83 70 -83c67 0 91 83 91 161c0 40 -18 84 -67 84c-76 0 -94 -101 -94 -162zM153 -5c-87 0 -135 55 -135 139c0 108 53 212 162 212c83 0 133 -52 133 -141c0 -112 -49 -210 -160 -210z" />
    <glyph glyph-name="one.den" horiz-adv-x="243" 
d="M112 274l-89 -54l9 61l99 61h60l-54 -342h-68z" />
    <glyph glyph-name="two.den" horiz-adv-x="298" 
d="M-27 12l148 131c48 43 72 67 72 106c0 31 -21 45 -46 45c-32 0 -56 -19 -67 -66h-62c12 76 65 118 133 118c55 0 109 -28 109 -96c0 -54 -34 -83 -98 -139l-69 -60h138l-8 -51h-252z" />
    <glyph glyph-name="uni021B.alt" horiz-adv-x="338" 
d="M-5 -194l72 157l78 -24l-101 -159zM144 453h-82l11 70h82l19 119h83l-19 -119h115l-11 -70h-115l-71 -453h-83z" />
    <glyph glyph-name="uni0437.bgr" horiz-adv-x="488" 
d="M193 -190c-132 0 -206 89 -211 198h82c8 -87 65 -128 135 -128c87 0 136 62 136 151c0 77 -45 128 -125 128h-60l11 67h59c91 0 135 53 135 141c0 60 -40 98 -101 98c-64 0 -107 -33 -122 -96h-80c23 103 101 161 205 161c113 0 178 -75 178 -160
c0 -91 -47 -158 -140 -178c72 -16 118 -73 118 -161c0 -122 -71 -221 -220 -221z" />
    <glyph glyph-name="uni0449.bgr" horiz-adv-x="897" 
d="M752 -127l10 127h-79c-3 31 0 69 5 104c-35 -69 -99 -113 -168 -113c-73 0 -128 33 -143 114c-45 -85 -124 -114 -181 -114c-100 0 -176 58 -149 221l49 311h83l-51 -324c-15 -96 13 -137 86 -137c67 0 143 47 159 151l49 310h83l-52 -330c-15 -88 16 -131 87 -131
s143 51 159 151l49 310h83l-72 -453h93l-31 -197h-69z" />
    <glyph glyph-name="three.den" horiz-adv-x="323" 
d="M130 -5c-66 0 -129 27 -129 111h63c3 -35 22 -61 65 -61c33 0 66 18 66 59c0 33 -18 49 -55 49h-24l7 47h27c36 0 60 17 60 50c0 28 -14 46 -49 46s-60 -20 -68 -55h-60c8 67 63 105 130 105c60 0 112 -24 112 -90c0 -37 -26 -67 -67 -80c31 -7 56 -31 56 -75
c0 -68 -64 -106 -134 -106z" />
    <glyph glyph-name="uni044A.bgr" horiz-adv-x="557" 
d="M47 453l11 70h218l-28 -176c15 0 46 2 82 2c128 0 192 -71 192 -164c0 -128 -97 -195 -205 -195c-130 0 -197 83 -176 211l41 252h-135zM316 58c81 0 118 51 118 118s-33 104 -114 104c-31 0 -63 -1 -83 -2l-14 -84c-13 -85 17 -136 93 -136z" />
    <glyph glyph-name="four.den" horiz-adv-x="329" 
d="M163 69h-172l4 24l192 249h84l-36 -224h46l-8 -49h-45l-11 -69h-65zM172 118l26 169l-125 -169h99z" />
    <glyph glyph-name="five.den" horiz-adv-x="314" 
d="M121 -5c-65 0 -119 27 -122 104h63c3 -32 20 -52 59 -52s64 28 64 75c0 36 -19 57 -58 57c-31 0 -50 -10 -67 -29h-35l35 192h210l-8 -52h-159l-15 -86c15 13 36 24 69 24c55 0 98 -36 97 -101c-1 -80 -53 -131 -133 -132z" />
    <glyph glyph-name="six.den" horiz-adv-x="332" 
d="M140 -5c-77 0 -122 47 -123 123c0 15 1 29 4 45l2 13c17 109 77 170 160 170c57 0 103 -27 107 -91h-61c-5 27 -21 40 -50 40c-45 0 -75 -36 -89 -109c19 23 45 37 84 37c52 0 102 -36 102 -97c0 -80 -56 -131 -136 -131zM82 104c0 -31 19 -60 60 -60c39 0 67 28 67 75
c0 32 -17 58 -57 58c-39 0 -70 -26 -70 -73z" />
    <glyph glyph-name="seven.den" horiz-adv-x="280" 
d="M180 287h-160l9 55h247l-2 -8l-176 -334h-71z" />
    <glyph glyph-name="florin.tab" 
d="M144 413h111l27 141c23 119 96 170 188 170c37 0 63 -7 79 -16l-10 -65c-17 7 -39 12 -68 12c-51 0 -92 -29 -107 -105l-26 -137h147l-11 -68h-148l-99 -527h-83l99 527h-110z" />
    <glyph glyph-name="uni0431.locl" horiz-adv-x="589" 
d="M271 -8c-145 0 -233 99 -233 232c0 180 122 288 278 288h16c-96 48 -205 85 -205 167c0 56 43 94 118 94h185c59 0 107 7 136 14l-12 -70c-17 -7 -71 -19 -131 -19h-181c-35 0 -43 -10 -43 -29c0 -24 35 -44 83 -69c102 -54 268 -127 268 -299
c0 -179 -115 -309 -279 -309zM275 60c117 0 188 103 188 239c0 100 -52 164 -152 164c-112 0 -187 -103 -187 -239c0 -100 48 -164 151 -164z" />
    <glyph glyph-name="yen.tab" 
d="M113 339h157l-142 376h91l113 -324l209 324h87l-251 -376h157l-9 -58h-168l-12 -78h167l-9 -58h-167l-23 -145h-85l23 145h-169l9 58h169l12 78h-168z" />
    <glyph glyph-name="eight.den" horiz-adv-x="325" 
d="M133 -5c-60 0 -124 28 -124 96c0 51 30 80 77 95c-25 12 -41 35 -41 63c0 61 58 97 122 97c52 0 111 -26 111 -88c0 -40 -23 -62 -60 -77c33 -15 50 -41 50 -77c0 -72 -63 -109 -135 -109zM77 98c0 -31 19 -53 59 -53c33 0 65 17 65 60c0 33 -21 55 -58 55
c-35 0 -66 -21 -66 -62zM109 247c0 -28 22 -44 49 -44c33 0 56 16 56 51c0 25 -20 44 -51 44c-29 0 -54 -18 -54 -51z" />
    <glyph glyph-name="nine.den" horiz-adv-x="332" 
d="M161 347c77 0 121 -45 122 -114c0 -21 -1 -44 -4 -60l-2 -13c-17 -110 -69 -165 -156 -165c-64 0 -111 27 -114 95h61c4 -28 17 -43 57 -43c48 0 74 41 86 109c-19 -23 -45 -37 -84 -37c-52 0 -102 36 -102 97c0 77 59 131 136 131zM219 238c0 31 -18 60 -59 60
c-36 0 -68 -28 -68 -75c0 -32 14 -58 57 -58c39 0 70 26 70 73z" />
    <glyph glyph-name="zero.sub" horiz-adv-x="362" 
d="M71 44c0 -39 17 -83 70 -83c67 0 91 83 91 161c0 40 -18 84 -67 84c-76 0 -94 -101 -94 -162zM139 -92c-87 0 -135 55 -135 139c0 108 53 212 162 212c83 0 133 -52 133 -141c0 -112 -49 -210 -160 -210z" />
    <glyph glyph-name="one.sub" horiz-adv-x="243" 
d="M98 187l-89 -54l9 61l99 61h60l-54 -342h-68z" />
    <glyph glyph-name="sterling.tab" 
d="M73 377h70c-3 31 -4 62 -4 94c0 139 77 253 241 253c121 0 201 -61 202 -189h-85c-5 69 -32 118 -121 118c-115 0 -151 -85 -151 -183c0 -35 1 -62 2 -93h211l-10 -62h-197c1 -11 1 -22 1 -33v-36c0 -51 -7 -92 -30 -131c64 -16 128 -51 172 -51c48 0 83 21 94 86h74
c-13 -95 -68 -159 -171 -159c-84 0 -167 63 -224 63c-40 0 -59 -27 -66 -54h-72c8 49 48 111 115 122c19 31 28 70 28 116c0 23 -1 49 -4 77h-85z" />
    <glyph glyph-name="two.sub" horiz-adv-x="298" 
d="M-41 -75l148 131c48 43 72 67 72 106c0 31 -21 45 -46 45c-32 0 -56 -19 -67 -66h-62c12 76 65 118 133 118c55 0 109 -28 109 -96c0 -54 -34 -83 -98 -139l-69 -60h138l-8 -51h-252z" />
    <glyph glyph-name="three.sub" horiz-adv-x="323" 
d="M116 -92c-66 0 -129 27 -129 111h63c3 -35 22 -61 65 -61c33 0 66 18 66 59c0 33 -18 49 -55 49h-24l7 47h27c36 0 60 17 60 50c0 28 -14 46 -49 46s-60 -20 -68 -55h-60c8 67 63 105 130 105c60 0 112 -24 112 -90c0 -37 -26 -67 -67 -80c31 -7 56 -31 56 -75
c0 -68 -64 -106 -134 -106z" />
    <glyph glyph-name="four.sub" horiz-adv-x="329" 
d="M149 -18h-172l4 24l192 249h84l-36 -224h46l-8 -49h-45l-11 -69h-65zM158 31l26 169l-125 -169h99z" />
    <glyph glyph-name="space.tab" horiz-adv-x="300" 
 />
    <glyph glyph-name="uni0433.bgr" horiz-adv-x="459" 
d="M205 -9c-104 0 -183 55 -183 138c0 104 78 141 199 171c98 24 122 46 122 99c0 41 -29 67 -93 67c-59 0 -105 -34 -117 -85h-78c24 107 110 151 200 151c100 0 170 -45 170 -135c0 -85 -54 -135 -193 -162c-96 -19 -126 -52 -126 -108c0 -43 42 -68 99 -68
c80 0 119 41 130 100h81c-18 -98 -95 -168 -211 -168z" />
    <glyph glyph-name="uni043F.bgr" horiz-adv-x="592" 
d="M100 367c11 71 13 112 14 156h78c0 -29 -2 -69 -6 -104c36 64 98 113 183 113c110 0 176 -62 152 -219l-50 -313h-83l53 332c14 86 -16 129 -90 129c-87 0 -162 -58 -178 -157l-48 -304h-83z" />
    <glyph glyph-name="uni0448.bgr" horiz-adv-x="874" 
d="M773 156c-11 -71 -14 -113 -11 -156h-79c-3 31 0 69 5 104c-35 -69 -99 -113 -168 -113c-73 0 -128 33 -143 114c-45 -85 -124 -114 -181 -114c-100 0 -176 58 -149 221l49 311h83l-51 -324c-15 -96 13 -137 86 -137c67 0 143 47 159 151l49 310h83l-52 -330
c-15 -88 16 -131 87 -131s143 51 159 151l49 310h83z" />
    <glyph glyph-name="uni044E.bgr" horiz-adv-x="789" 
d="M481 -8c-145 0 -223 99 -223 232v8h-94l-37 -232h-83l122 773h83l-74 -471h91c27 135 128 229 260 229c145 0 224 -95 224 -230c0 -179 -105 -309 -269 -309zM485 60c118 0 178 103 178 239c0 100 -42 164 -142 164c-112 0 -177 -103 -177 -239c0 -100 39 -164 141 -164z
" />
    <glyph glyph-name="nine.old" horiz-adv-x="623" 
d="M342 628c160 0 229 -106 229 -231c0 -40 -3 -70 -8 -101l-5 -31c-41 -257 -152 -370 -311 -370c-124 0 -199 59 -208 180h82c9 -72 47 -111 128 -111c116 0 184 81 221 284c-39 -51 -102 -84 -183 -84c-123 0 -207 81 -207 206c0 148 113 258 262 258zM489 408
c0 88 -44 153 -151 153c-100 0 -170 -82 -170 -186c0 -79 44 -144 143 -144s178 73 178 177z" />
    <glyph glyph-name="eight.old" horiz-adv-x="607" 
d="M281 -9c-117 0 -234 67 -234 191c0 109 76 180 168 204c-57 27 -91 73 -91 136c0 120 109 202 233 202c101 0 203 -55 203 -176c0 -91 -57 -143 -138 -171c71 -29 116 -83 116 -159c0 -143 -121 -227 -257 -227zM135 189c0 -73 55 -128 151 -128c84 0 164 51 164 156
c0 75 -52 128 -145 128c-91 0 -170 -54 -170 -156zM210 521c0 -64 51 -108 128 -108c74 0 136 46 136 132c0 65 -46 112 -122 112c-78 0 -142 -49 -142 -136z" />
    <glyph glyph-name="seven.old" horiz-adv-x="535" 
d="M439 550h-359l10 68h468l-2 -12l-404 -703h-90z" />
    <glyph glyph-name="six.old" horiz-adv-x="623" 
d="M297 -9c-161 0 -231 106 -231 230c0 35 5 79 10 110l5 31c39 243 156 362 311 362c113 0 191 -57 199 -170h-82c-8 64 -43 101 -124 101c-103 0 -182 -85 -218 -284c39 51 102 84 183 84c123 0 207 -81 207 -206c0 -148 -109 -258 -260 -258zM148 215
c0 -88 46 -157 153 -157c99 0 168 82 168 186c0 79 -44 144 -143 144s-178 -70 -178 -173z" />
    <glyph glyph-name="uni0434.bgr" horiz-adv-x="623" 
d="M272 86c104 0 195 85 195 225c0 95 -66 152 -155 152c-112 0 -180 -101 -180 -217c0 -95 48 -160 140 -160zM506 26c-23 -145 -115 -216 -260 -216c-169 0 -222 85 -233 160h84c11 -53 54 -90 147 -90c112 0 162 53 179 154l12 73c-39 -56 -95 -88 -172 -88
c-128 0 -218 91 -218 223c0 157 111 290 264 290c99 0 153 -54 177 -104l15 95h83z" />
    <glyph glyph-name="five.old" horiz-adv-x="581" 
d="M100 90c8 -77 49 -127 144 -127c112 0 171 80 171 194c0 69 -38 139 -135 139c-76 0 -122 -27 -165 -67h-30l62 390h392l-12 -73h-323l-36 -228c32 27 78 46 135 46c120 0 200 -85 200 -201c0 -152 -96 -268 -262 -268c-123 0 -213 64 -221 195h80z" />
    <glyph glyph-name="uni0438.bgr" horiz-adv-x="588" 
d="M487 156c-11 -71 -14 -113 -11 -156h-79c-3 31 0 69 5 104c-37 -64 -97 -113 -182 -113c-109 0 -174 67 -150 219l50 313h83l-53 -332c-13 -83 16 -129 88 -129c87 0 160 58 176 157l48 304h83z" />
    <glyph glyph-name="uni043F.locl" horiz-adv-x="588" 
d="M193 712h322l-10 -64h-322zM487 156c-11 -71 -14 -113 -11 -156h-79c-3 31 0 69 5 104c-37 -64 -97 -113 -182 -113c-109 0 -174 67 -150 219l50 313h83l-53 -332c-13 -83 16 -129 88 -129c87 0 160 58 176 157l48 304h83z" />
    <glyph glyph-name="one.num" horiz-adv-x="243" 
d="M171 647l-89 -54l9 61l99 61h60l-54 -342h-68z" />
    <glyph glyph-name="five.sub" horiz-adv-x="314" 
d="M107 -92c-65 0 -119 27 -122 104h63c3 -32 20 -52 59 -52s64 28 64 75c0 36 -19 57 -58 57c-31 0 -50 -10 -67 -29h-35l35 192h210l-8 -52h-159l-15 -86c15 13 36 24 69 24c55 0 98 -36 97 -101c-1 -80 -53 -131 -133 -132z" />
    <glyph glyph-name="uni044C.bgr" horiz-adv-x="475" 
d="M235 -10c-130 0 -197 83 -176 211l52 322h83l-28 -176c15 0 46 2 82 2c128 0 192 -71 192 -164c0 -128 -97 -195 -205 -195zM234 58c81 0 118 51 118 118s-33 104 -114 104c-31 0 -63 -1 -83 -2l-14 -84c-13 -85 17 -136 93 -136z" />
    <glyph glyph-name="three.old" horiz-adv-x="605" 
d="M266 -105c-139 0 -240 75 -243 220h80c5 -101 61 -152 168 -152c93 0 163 51 163 152c0 84 -47 128 -138 128h-46l11 71h50c92 0 145 38 145 133c0 79 -54 112 -125 112c-85 0 -142 -49 -162 -137h-77c19 123 117 206 247 206c105 0 201 -55 201 -177
c0 -83 -42 -145 -131 -174c71 -23 112 -73 112 -158c0 -137 -111 -224 -255 -224z" />
    <glyph glyph-name="uni0439.bgr" horiz-adv-x="588" 
d="M348 619c-75 0 -130 52 -130 132h66c5 -43 25 -64 65 -64c41 0 65 21 73 64h64c-5 -78 -69 -132 -138 -132zM487 156c-11 -71 -14 -113 -11 -156h-79c-3 31 0 69 5 104c-37 -64 -97 -113 -182 -113c-109 0 -174 67 -150 219l50 313h83l-53 -332c-13 -83 16 -129 88 -129
c87 0 160 58 176 157l48 304h83z" />
    <glyph glyph-name="uni0414.bgr" horiz-adv-x="685" 
d="M399 643l-282 -570h385zM-6 -130h-73l33 203h80l322 642h114l116 -642h80l-33 -203h-73l17 130h-557z" />
    <glyph glyph-name="uni0416.bgr" horiz-adv-x="868" 
d="M408 359l-356 -359h-106l381 377l-234 338h92l225 -341l54 341h85l-54 -342l333 342h100l-350 -346l249 -369h-94l-240 363l-57 -363h-85z" />
    <glyph glyph-name="uni041A.bgr" horiz-adv-x="616" 
d="M192 359l-57 -359h-87l113 715h87l-54 -340l363 340h101l-373 -345l272 -370h-97z" />
    <glyph glyph-name="uni0436.bgr" horiz-adv-x="708" 
d="M319 274l-248 -274h-102l270 289l-151 234h88l144 -239l78 489h81l-78 -491l220 241h96l-234 -247l165 -276h-88l-160 274l-44 -274h-81z" />
    <glyph glyph-name="two.old" horiz-adv-x="553" 
d="M-18 20l290 223c72 56 154 123 154 209c0 72 -44 108 -116 108c-83 0 -137 -49 -160 -153h-78c23 139 116 221 244 221c100 0 200 -55 197 -175c-3 -112 -86 -175 -205 -265l-153 -118h313l-11 -70h-478z" />
    <glyph glyph-name="one.old" horiz-adv-x="399" 
d="M241 532l-176 -112l13 82l183 117h79l-98 -619h-85z" />
    <glyph glyph-name="uni0432.bgr" horiz-adv-x="492" 
d="M230 -10c-154 0 -203 115 -177 266l55 323c19 115 76 203 216 203c109 0 166 -74 163 -170c-5 -90 -48 -176 -145 -195c77 -19 114 -89 111 -176c-5 -123 -76 -251 -223 -251zM322 717c-87 0 -118 -60 -131 -135l-25 -129h102c90 0 134 71 139 156c3 69 -33 108 -85 108z
M230 58c92 0 138 87 143 183c3 83 -34 145 -117 145h-102l-23 -129c-23 -133 18 -199 99 -199z" />
    <glyph glyph-name="zero.old" horiz-adv-x="655" 
d="M155 304c-3 -23 -5 -45 -5 -65c0 -107 49 -177 164 -177c108 0 171 75 194 216l6 38c4 23 5 49 5 69c0 109 -54 174 -158 174c-108 0 -177 -74 -200 -217zM310 -9c-160 0 -246 104 -246 252c0 21 2 45 5 68l6 38c27 175 140 279 288 279c163 0 243 -100 243 -247
c0 -23 -2 -49 -6 -73l-6 -38c-27 -172 -129 -279 -284 -279z" />
    <glyph glyph-name="uni0424.bgr" horiz-adv-x="853" 
d="M340 -10l10 62c-177 16 -287 113 -287 280v5c0 215 161 322 383 333l9 55h86l-9 -55c173 -16 287 -111 287 -272v-7c0 -217 -159 -328 -383 -339l-10 -62h-86zM152 331c0 -136 84 -204 208 -215l76 491c-171 -13 -284 -91 -284 -269v-7zM730 392c0 135 -84 203 -208 214
l-76 -491c172 13 284 91 284 270v7z" />
    <glyph glyph-name="yen.old" horiz-adv-x="571" 
d="M97 329h151l-146 365h87l120 -315l212 315h85l-251 -365h151l-9 -56h-163l-12 -76h162l-9 -56h-162l-22 -141h-82l22 141h-164l9 56h163l12 76h-163z" />
    <glyph glyph-name="sterling.old" horiz-adv-x="590" 
d="M71 366h68c-3 29 -4 60 -4 91c0 133 74 245 234 245c117 0 195 -59 196 -183h-83c-5 67 -32 114 -117 114c-111 0 -147 -82 -147 -177c0 -33 1 -62 2 -90h205l-10 -60h-191c1 -11 1 -22 1 -33v-34c0 -49 -6 -90 -29 -127c61 -16 124 -50 167 -50c47 0 80 19 91 83h72
c-15 -92 -66 -154 -166 -154c-80 0 -162 61 -217 61c-39 0 -57 -25 -64 -52h-70c8 48 46 107 111 118c19 31 28 68 28 113c0 23 -1 48 -4 75h-83z" />
    <glyph glyph-name="Euro.old" horiz-adv-x="666" 
d="M64 438h70c32 148 122 264 282 264c133 0 213 -75 217 -212h-81c-3 76 -42 146 -140 146c-113 0 -167 -78 -194 -198h224l-17 -56h-217l-12 -75h206l-17 -56h-196c-5 -88 22 -191 156 -191c84 0 153 42 182 159h77c-32 -156 -136 -228 -261 -228
c-171 0 -241 120 -236 260h-72l9 56h69l11 75h-69z" />
    <glyph glyph-name="uni0442.bgr" horiz-adv-x="897" 
d="M100 367c11 71 13 112 14 156h78c0 -29 -1 -64 -5 -99c37 67 97 108 166 108c73 0 128 -33 143 -114c46 84 123 114 181 114c100 0 176 -58 149 -221l-49 -311h-83l51 324c15 96 -13 137 -86 137c-68 0 -143 -47 -159 -151l-49 -310h-83l52 330c15 88 -16 131 -87 131
s-143 -51 -159 -151l-49 -310h-83z" />
    <glyph glyph-name="six.sub" horiz-adv-x="332" 
d="M126 -92c-77 0 -122 47 -123 123c0 15 1 29 4 45l2 13c17 109 77 170 160 170c57 0 103 -27 107 -91h-61c-5 27 -21 40 -50 40c-45 0 -75 -36 -89 -109c19 23 45 37 84 37c52 0 102 -36 102 -97c0 -80 -56 -131 -136 -131zM68 17c0 -31 19 -60 60 -60c39 0 67 28 67 75
c0 32 -17 58 -57 58c-39 0 -70 -26 -70 -73z" />
    <glyph glyph-name="seven.sub" horiz-adv-x="280" 
d="M166 200h-160l9 55h247l-2 -8l-176 -334h-71z" />
    <glyph glyph-name="eight.sub" horiz-adv-x="325" 
d="M119 -92c-60 0 -124 28 -124 96c0 51 30 80 77 95c-25 12 -41 35 -41 63c0 61 58 97 122 97c52 0 111 -26 111 -88c0 -40 -23 -62 -60 -77c33 -15 50 -41 50 -77c0 -72 -63 -109 -135 -109zM63 11c0 -31 19 -53 59 -53c33 0 65 17 65 60c0 33 -21 55 -58 55
c-35 0 -66 -21 -66 -62zM95 160c0 -28 22 -44 49 -44c33 0 56 16 56 51c0 25 -20 44 -51 44c-29 0 -54 -18 -54 -51z" />
    <glyph glyph-name="nine.sub" horiz-adv-x="332" 
d="M147 260c77 0 121 -45 122 -114c0 -21 -1 -44 -4 -60l-2 -13c-17 -110 -69 -165 -156 -165c-64 0 -111 27 -114 95h61c4 -28 17 -43 57 -43c48 0 74 41 86 109c-19 -23 -45 -37 -84 -37c-52 0 -102 36 -102 97c0 77 59 131 136 131zM205 151c0 31 -18 60 -59 60
c-36 0 -68 -28 -68 -75c0 -32 14 -58 57 -58c39 0 70 26 70 73z" />
    <glyph glyph-name="hungarumlaut.uc" horiz-adv-x="412" 
d="M229 898h96l-81 -127h-61zM383 898h96l-81 -127h-61z" />
    <glyph glyph-name="dollar.old" horiz-adv-x="620" 
d="M296 -8l-19 -123h-58l20 128c-135 21 -201 113 -201 214h82c3 -66 38 -130 129 -149l42 266c-116 37 -177 82 -177 182c0 104 96 192 236 192l14 87h58l-15 -91c104 -16 170 -80 173 -187h-76c-7 72 -47 108 -107 120l-39 -244c129 -40 191 -88 191 -186
c0 -123 -95 -209 -248 -209h-5zM465 193c0 60 -26 87 -119 119l-40 -255c103 1 159 52 159 136zM195 513c0 -50 20 -76 108 -108l37 231c-100 0 -145 -56 -145 -123z" />
    <glyph glyph-name="tilde.uc" horiz-adv-x="412" 
d="M351 774c-48 0 -82 43 -111 43c-19 0 -39 -17 -46 -45h-60c15 73 55 116 107 116c46 0 81 -43 110 -43c19 0 38 17 45 45h60c-15 -73 -54 -116 -105 -116z" />
    <glyph glyph-name="ring.uc" horiz-adv-x="412" 
d="M298 805c31 0 55 25 55 60c0 33 -20 56 -51 56s-55 -25 -55 -60c0 -33 20 -56 51 -56zM298 759c-59 0 -105 45 -105 102c0 59 49 106 109 106c59 0 105 -45 105 -102c0 -59 -49 -106 -109 -106z" />
    <glyph glyph-name="dotaccent.uc" horiz-adv-x="412" 
d="M296 787c-31 0 -55 23 -55 54s25 56 56 56s54 -23 54 -54s-24 -56 -55 -56z" />
    <glyph glyph-name="breve.uc" horiz-adv-x="412" 
d="M300 767c-75 0 -130 52 -130 132h66c5 -43 25 -64 65 -64c41 0 65 21 73 64h64c-5 -78 -69 -132 -138 -132z" />
    <glyph glyph-name="caron.uc" horiz-adv-x="412" 
d="M327 771h-75l-91 127h58l77 -58l93 58h62z" />
    <glyph glyph-name="circumflex.uc" horiz-adv-x="412" 
d="M265 898h75l91 -127h-58l-77 58l-93 -58h-62z" />
    <glyph glyph-name="acute.uc" horiz-adv-x="412" 
d="M314 898h106l-108 -127h-66z" />
    <glyph glyph-name="uni041B.bgr" horiz-adv-x="650" 
d="M384 643l-318 -643h-84l359 715h114l129 -715h-84z" />
    <glyph glyph-name="macron.uc" horiz-adv-x="412" 
d="M165 850h266l-10 -64h-266z" />
    <glyph glyph-name="dieresis.uc" horiz-adv-x="412" 
d="M195 789c-29 0 -53 23 -53 52s25 54 54 54s52 -23 52 -52s-24 -54 -53 -54zM398 789c-29 0 -53 23 -53 52s25 54 54 54s52 -23 52 -52s-24 -54 -53 -54z" />
    <glyph glyph-name="grave.uc" horiz-adv-x="412" 
d="M185 898h101l39 -127h-60z" />
    <glyph glyph-name="at.uc" horiz-adv-x="927" 
d="M466 -58c-259 0 -389 189 -389 376c0 256 205 433 429 433c231 0 375 -152 375 -336c0 -203 -115 -266 -193 -266c-79 0 -105 33 -110 84c-31 -51 -89 -91 -149 -91c-95 0 -149 64 -150 156c-3 143 92 238 198 238c69 0 104 -33 116 -66l9 58h83l-38 -244
c-8 -51 6 -77 42 -77c56 0 119 55 119 207c0 153 -105 270 -305 270c-197 0 -348 -140 -348 -369c0 -155 99 -306 314 -306c107 0 170 24 231 75h77c-53 -85 -172 -142 -311 -142zM450 204c60 0 129 57 129 166c0 67 -34 102 -98 102c-60 0 -121 -59 -118 -171
c1 -57 34 -97 87 -97z" />
    <glyph glyph-name="bar.uc" horiz-adv-x="265" 
d="M113 778h67l1 -862h-67z" />
    <glyph glyph-name="backslash.uc" horiz-adv-x="415" 
d="M116 778h74l137 -862h-74z" />
    <glyph glyph-name="slash.uc" horiz-adv-x="415" 
d="M382 778h78l-406 -862h-77z" />
    <glyph glyph-name="braceright.uc" horiz-adv-x="393" 
d="M131 779c149 -8 205 -81 158 -221l-20 -59c-24 -68 -7 -124 95 -127l-10 -61c-103 3 -136 -34 -133 -114l4 -86c8 -148 -74 -201 -231 -198l10 62c110 0 145 34 142 141l-3 81c-3 93 48 134 116 150c-71 19 -93 77 -66 157l19 58c35 107 7 149 -91 154z" />
    <glyph glyph-name="braceleft.uc" horiz-adv-x="393" 
d="M287 -87c-149 8 -205 81 -158 221l20 59c24 68 7 124 -95 127l10 61c103 -3 136 34 133 114l-4 86c-8 148 75 201 231 198l-10 -62c-109 0 -147 -34 -142 -141l3 -81c3 -94 -48 -132 -116 -148c71 -19 93 -79 66 -159l-19 -58c-36 -108 -6 -149 91 -154z" />
    <glyph glyph-name="bracketright.uc" horiz-adv-x="368" 
d="M5 -18h141l115 730h-141l11 66h224l-137 -862h-224z" />
    <glyph glyph-name="bracketleft.uc" horiz-adv-x="368" 
d="M175 778h224l-11 -66h-141l-115 -730h141l-11 -66h-224z" />
    <glyph glyph-name="space_uni0326" horiz-adv-x="412" 
d="M65 -194l72 157l78 -24l-101 -159z" />
    <glyph glyph-name="parenright.uc" horiz-adv-x="334" 
d="M189 783c57 -87 102 -198 102 -342c0 -215 -92 -390 -237 -539h-88c147 160 238 321 238 537c0 137 -42 253 -95 344h80z" />
    <glyph glyph-name="parenleft.uc" horiz-adv-x="334" 
d="M170 -98c-57 87 -102 198 -102 342c0 215 92 390 237 539h88c-147 -160 -238 -321 -238 -537c0 -137 42 -253 95 -344h-80z" />
    <glyph glyph-name="guillemotright.uc" horiz-adv-x="512" 
d="M465 300l-160 -187h-85l159 190l-98 186h80zM287 300l-160 -187h-85l159 190l-98 186h80z" />
    <glyph glyph-name="guillemotleft.uc" horiz-adv-x="512" 
d="M63 302l160 187h85l-159 -190l98 -186h-80zM241 302l160 187h85l-159 -190l98 -186h-80z" />
    <glyph glyph-name="guilsinglright.uc" horiz-adv-x="334" 
d="M287 300l-160 -187h-85l159 190l-98 186h80z" />
    <glyph glyph-name="uni0442.locl" horiz-adv-x="874" 
d="M193 712h592l-10 -64h-592zM773 156c-11 -71 -14 -113 -11 -156h-79c-3 31 0 69 5 104c-35 -69 -99 -113 -168 -113c-73 0 -128 33 -143 114c-45 -85 -124 -114 -181 -114c-100 0 -176 58 -149 221l49 311h83l-51 -324c-15 -96 13 -137 86 -137c67 0 143 47 159 151
l49 310h83l-52 -330c-15 -88 16 -131 87 -131s143 51 159 151l49 310h83z" />
    <glyph glyph-name="guilsinglleft.uc" horiz-adv-x="334" 
d="M63 302l160 187h85l-159 -190l98 -186h-80z" />
    <glyph glyph-name="emdash.uc" horiz-adv-x="897" 
d="M66 361h795l-11 -70h-795z" />
    <glyph glyph-name="idotaccent" horiz-adv-x="255" 
d="M192 632c-31 0 -55 23 -55 54s25 56 56 56s54 -23 54 -54s-24 -56 -55 -56zM127 523h83l-83 -523h-83z" />
    <glyph glyph-name="endash.uc" horiz-adv-x="538" 
d="M66 361h436l-11 -70h-436z" />
    <glyph glyph-name="plus.sub" horiz-adv-x="351" 
d="M114 56h-101l9 53h101l17 106h55l-17 -106h101l-9 -53h-101l-16 -105h-55z" />
    <glyph glyph-name="exclamdown.uc" horiz-adv-x="300" 
d="M154 0h-92l96 513h64zM210 720c35 0 64 -28 64 -64s-28 -64 -63 -64s-65 28 -65 64s29 64 64 64z" />
    <glyph glyph-name="questiondown.uc" horiz-adv-x="501" 
d="M346 462c-16 -97 -81 -138 -139 -182c-49 -38 -84 -68 -84 -130c0 -56 37 -90 105 -90c71 0 125 45 140 130h79c-16 -128 -113 -199 -228 -199c-126 0 -181 75 -181 158c0 97 61 137 128 185c51 35 96 72 107 135l7 44h74zM334 720c35 0 64 -28 64 -64s-28 -64 -63 -64
s-65 28 -65 64s29 64 64 64z" />
    <glyph glyph-name="caron.alt" horiz-adv-x="412" 
d="M280 773h91l-70 -175h-59z" />
    <glyph glyph-name="registered.alt" horiz-adv-x="844" 
d="M298 558h135c88 0 147 -35 147 -116v-2c0 -63 -38 -94 -87 -106l110 -171h-79l-103 159h-48v-159h-75v395zM432 375c49 0 73 21 73 62v3c0 44 -26 60 -73 60h-59v-125h59zM432 33c171 0 320 134 320 326c0 189 -146 323 -318 323c-175 0 -320 -134 -320 -325
c0 -193 150 -324 318 -324zM432 -9c-204 0 -366 159 -366 366c0 204 162 367 368 367c208 0 366 -162 366 -365c0 -209 -162 -368 -368 -368z" />
    <glyph glyph-name="space_uni0326.alt" horiz-adv-x="412" 
d="M367 759l-72 -157l-78 24l101 159z" />
    <glyph glyph-name="tcommaaccent.alt" horiz-adv-x="338" 
d="M-5 -194l72 157l78 -24l-101 -159zM144 453h-82l11 70h82l19 119h83l-19 -119h115l-11 -70h-115l-71 -453h-83z" />
    <glyph glyph-name="tcaron.alt" horiz-adv-x="338" 
d="M144 453h-82l11 70h82l19 119h83l-19 -119h115l-11 -70h-115l-71 -453h-83zM357 773h91l-70 -175h-59z" />
    <glyph glyph-name="tbar.alt" horiz-adv-x="338" 
d="M38 339h82l18 114h-82l11 70h82l19 119h83l-19 -119h115l-11 -70h-115l-18 -114h115l-9 -60h-116l-43 -279h-83l43 279h-81z" />
    <glyph glyph-name="germandbls.alt" horiz-adv-x="627" 
d="M383 -9c-97 0 -158 50 -163 150h81c5 -47 25 -81 84 -81c51 0 94 28 94 85c0 47 -37 75 -81 106c-48 32 -97 73 -97 128c0 120 184 152 184 253c0 51 -39 76 -103 76c-84 0 -146 -45 -163 -152l-88 -556h-83l89 564c21 142 128 212 252 212c88 0 175 -43 175 -140
c0 -133 -183 -171 -183 -243c0 -24 28 -42 91 -89c52 -40 92 -83 92 -155c0 -93 -80 -158 -181 -158z" />
    <glyph glyph-name="uni043A.bgr" horiz-adv-x="511" 
d="M168 271l-43 -271h-83l122 773h83l-77 -488l250 238h103l-266 -247l197 -276h-95z" />
    <glyph glyph-name="uni043D.bgr" horiz-adv-x="585" 
d="M415 232h-253l-37 -232h-83l83 523h83l-35 -221h253l35 221h83l-83 -523h-83z" />
    <glyph glyph-name="atilde.alt" horiz-adv-x="616" 
d="M310 463c-115 0 -177 -101 -177 -236c0 -104 48 -167 141 -167c100 0 181 93 181 240c0 99 -61 163 -145 163zM257 -9c-125 0 -212 92 -212 232c0 167 99 309 262 309c97 0 143 -54 167 -104l15 95h83l-58 -367c-11 -71 -14 -113 -11 -156h-79c-3 31 0 64 4 95
c-37 -64 -92 -104 -171 -104zM407 619c-48 0 -82 43 -111 43c-19 0 -39 -17 -46 -45h-60c15 73 55 116 107 116c46 0 81 -43 110 -43c19 0 38 17 45 45h60c-15 -73 -54 -116 -105 -116z" />
    <glyph glyph-name="aringacute.alt" horiz-adv-x="604" 
d="M310 463c-115 0 -177 -101 -177 -236c0 -104 48 -167 141 -167c100 0 181 93 181 240c0 99 -61 163 -145 163zM257 -9c-125 0 -212 92 -212 232c0 167 99 309 262 309c97 0 143 -54 167 -104l15 95h83l-58 -367c-11 -71 -14 -113 -11 -156h-79c-3 31 0 64 4 95
c-37 -64 -92 -104 -171 -104zM353 624c31 0 55 25 55 60c0 33 -20 56 -51 56s-55 -25 -55 -60c0 -33 20 -56 51 -56zM353 578c-59 0 -105 45 -105 102c0 59 49 106 109 106c59 0 105 -45 105 -102c0 -59 -49 -106 -109 -106zM407 956h106l-108 -127h-66z" />
    <glyph glyph-name="aring.alt" horiz-adv-x="616" 
d="M310 463c-115 0 -177 -101 -177 -236c0 -104 48 -167 141 -167c100 0 181 93 181 240c0 99 -61 163 -145 163zM257 -9c-125 0 -212 92 -212 232c0 167 99 309 262 309c97 0 143 -54 167 -104l15 95h83l-58 -367c-11 -71 -14 -113 -11 -156h-79c-3 31 0 64 4 95
c-37 -64 -92 -104 -171 -104zM355 644c31 0 55 25 55 60c0 33 -20 56 -51 56s-55 -25 -55 -60c0 -33 20 -56 51 -56zM355 598c-59 0 -105 45 -105 102c0 59 49 106 109 106c59 0 105 -45 105 -102c0 -59 -49 -106 -109 -106z" />
    <glyph glyph-name="uni0433.locl" horiz-adv-x="255" 
d="M101 712h194l-10 -64h-194zM127 523h83l-83 -523h-83z" />
    <glyph glyph-name="uni0446.bgr" horiz-adv-x="611" 
d="M466 -127l10 127h-79c-3 31 0 69 5 104c-37 -64 -97 -113 -182 -113c-109 0 -174 67 -150 219l50 313h83l-53 -332c-13 -83 16 -129 88 -129c87 0 160 58 176 157l48 304h83l-72 -453h93l-31 -197h-69z" />
    <glyph glyph-name="uni0447.bgr" horiz-adv-x="543" 
d="M334 0l38 241c-29 -23 -77 -49 -137 -49c-109 0 -174 67 -150 219l18 112h83l-21 -131c-13 -83 16 -129 88 -129c83 0 125 33 129 37l35 223h83l-83 -523h-83z" />
    <glyph glyph-name="aogonek.alt" horiz-adv-x="604" 
d="M497 0c-31 -18 -83 -48 -83 -91c0 -21 12 -31 37 -31c17 0 33 3 48 10l-9 -59c-13 -5 -31 -11 -58 -11c-53 0 -99 22 -99 81c0 49 45 80 85 101c-3 31 0 64 4 95c-37 -64 -92 -104 -171 -104c-125 0 -212 91 -212 232c0 167 99 309 262 309c97 0 143 -54 167 -104l15 95
h83l-58 -367c-11 -71 -14 -113 -11 -156zM304 463c-115 0 -177 -101 -177 -236c0 -104 48 -167 141 -167c100 0 181 93 181 240c0 99 -61 163 -145 163z" />
    <glyph glyph-name="uni043B.bgr" horiz-adv-x="504" 
d="M446 0h-88l-81 443l-219 -443h-88l267 523h106z" />
    <glyph glyph-name="amacron.alt" horiz-adv-x="604" 
d="M310 463c-115 0 -177 -101 -177 -236c0 -104 48 -167 141 -167c100 0 181 93 181 240c0 99 -61 163 -145 163zM257 -9c-125 0 -212 92 -212 232c0 167 99 309 262 309c97 0 143 -54 167 -104l15 95h83l-58 -367c-11 -71 -14 -113 -11 -156h-79c-3 31 0 64 4 95
c-37 -64 -92 -104 -171 -104zM228 712h262l-10 -64h-262z" />
    <glyph glyph-name="agrave.alt" horiz-adv-x="616" 
d="M310 463c-115 0 -177 -101 -177 -236c0 -104 48 -167 141 -167c100 0 181 93 181 240c0 99 -61 163 -145 163zM257 -9c-125 0 -212 92 -212 232c0 167 99 309 262 309c97 0 143 -54 167 -104l15 95h83l-58 -367c-11 -71 -14 -113 -11 -156h-79c-3 31 0 64 4 95
c-37 -64 -92 -104 -171 -104zM226 760h102l47 -147h-61z" />
    <glyph glyph-name="adieresis.alt" horiz-adv-x="616" 
d="M310 463c-115 0 -177 -101 -177 -236c0 -104 48 -167 141 -167c100 0 181 93 181 240c0 99 -61 163 -145 163zM257 -9c-125 0 -212 92 -212 232c0 167 99 309 262 309c97 0 143 -54 167 -104l15 95h83l-58 -367c-11 -71 -14 -113 -11 -156h-79c-3 31 0 64 4 95
c-37 -64 -92 -104 -171 -104zM255 634c-29 0 -53 23 -53 52s25 54 54 54s52 -23 52 -52s-24 -54 -53 -54zM443 634c-29 0 -53 23 -53 52s25 54 54 54s52 -23 52 -52s-24 -54 -53 -54z" />
    <glyph glyph-name="acircumflex.alt" horiz-adv-x="616" 
d="M310 463c-115 0 -177 -101 -177 -236c0 -104 48 -167 141 -167c100 0 181 93 181 240c0 99 -61 163 -145 163zM257 -9c-125 0 -212 92 -212 232c0 167 99 309 262 309c97 0 143 -54 167 -104l15 95h83l-58 -367c-11 -71 -14 -113 -11 -156h-79c-3 31 0 64 4 95
c-37 -64 -92 -104 -171 -104zM318 757h75l86 -144h-58l-74 75l-96 -75h-62z" />
    <glyph glyph-name="abreve.alt" horiz-adv-x="604" 
d="M310 463c-115 0 -177 -101 -177 -236c0 -104 48 -167 141 -167c100 0 181 93 181 240c0 99 -61 163 -145 163zM257 -9c-125 0 -212 92 -212 232c0 167 99 309 262 309c97 0 143 -54 167 -104l15 95h83l-58 -367c-11 -71 -14 -113 -11 -156h-79c-3 31 0 64 4 95
c-37 -64 -92 -104 -171 -104zM347 619c-75 0 -130 52 -130 132h66c5 -43 25 -64 65 -64c41 0 65 21 73 64h64c-5 -78 -69 -132 -138 -132z" />
    <glyph glyph-name="aacute.alt" horiz-adv-x="616" 
d="M310 463c-115 0 -177 -101 -177 -236c0 -104 48 -167 141 -167c100 0 181 93 181 240c0 99 -61 163 -145 163zM257 -9c-125 0 -212 92 -212 232c0 167 99 309 262 309c97 0 143 -54 167 -104l15 95h83l-58 -367c-11 -71 -14 -113 -11 -156h-79c-3 31 0 64 4 95
c-37 -64 -92 -104 -171 -104zM380 760h108l-121 -147h-66z" />
    <glyph glyph-name="minus.sup" horiz-adv-x="351" 
d="M104 627h257l-9 -53h-257z" />
    <glyph glyph-name="plus.sup" horiz-adv-x="351" 
d="M196 574h-101l9 53h101l17 106h55l-17 -106h101l-9 -53h-101l-16 -105h-55z" />
    <glyph glyph-name="nine.sup" horiz-adv-x="332" 
d="M229 778c77 0 121 -45 122 -114c0 -21 -1 -44 -4 -60l-2 -13c-17 -110 -69 -165 -156 -165c-64 0 -111 27 -114 95h61c4 -28 17 -43 57 -43c48 0 74 41 86 109c-19 -23 -45 -37 -84 -37c-52 0 -102 36 -102 97c0 77 59 131 136 131zM287 669c0 31 -18 60 -59 60
c-36 0 -68 -28 -68 -75c0 -32 14 -58 57 -58c39 0 70 26 70 73z" />
    <glyph glyph-name="eight.sup" horiz-adv-x="325" 
d="M201 426c-60 0 -124 28 -124 96c0 51 30 80 77 95c-25 12 -41 35 -41 63c0 61 58 97 122 97c52 0 111 -26 111 -88c0 -40 -23 -62 -60 -77c33 -15 50 -41 50 -77c0 -72 -63 -109 -135 -109zM145 529c0 -31 19 -53 59 -53c33 0 65 17 65 60c0 33 -21 55 -58 55
c-35 0 -66 -21 -66 -62zM177 678c0 -28 22 -44 49 -44c33 0 56 16 56 51c0 25 -20 44 -51 44c-29 0 -54 -18 -54 -51z" />
    <glyph glyph-name="seven.sup" horiz-adv-x="280" 
d="M248 718h-160l9 55h247l-2 -8l-176 -334h-71z" />
    <glyph glyph-name="six.sup" horiz-adv-x="332" 
d="M208 426c-77 0 -122 47 -123 123c0 15 1 29 4 45l2 13c17 109 77 170 160 170c57 0 103 -27 107 -91h-61c-5 27 -21 40 -50 40c-45 0 -75 -36 -89 -109c19 23 45 37 84 37c52 0 102 -36 102 -97c0 -80 -56 -131 -136 -131zM150 535c0 -31 19 -60 60 -60c39 0 67 28 67 75
c0 32 -17 58 -57 58c-39 0 -70 -26 -70 -73z" />
    <glyph glyph-name="uni0430.alt" horiz-adv-x="604" 
d="M310 463c-115 0 -177 -101 -177 -236c0 -104 48 -167 141 -167c100 0 181 93 181 240c0 99 -61 163 -145 163zM257 -9c-125 0 -212 92 -212 232c0 167 99 309 262 309c97 0 143 -54 167 -104l15 95h83l-58 -367c-11 -71 -14 -113 -11 -156h-79c-3 31 0 64 4 95
c-37 -64 -92 -104 -171 -104z" />
    <glyph glyph-name="five.sup" horiz-adv-x="314" 
d="M189 426c-65 0 -119 27 -122 104h63c3 -32 20 -52 59 -52s64 28 64 75c0 36 -19 57 -58 57c-31 0 -50 -10 -67 -29h-35l35 192h210l-8 -52h-159l-15 -86c15 13 36 24 69 24c55 0 98 -36 97 -101c-1 -80 -53 -131 -133 -132z" />
    <glyph glyph-name="uni0434.locl" horiz-adv-x="623" 
d="M272 86c104 0 195 85 195 225c0 95 -66 152 -155 152c-112 0 -180 -101 -180 -217c0 -95 48 -160 140 -160zM506 26c-23 -145 -115 -216 -260 -216c-169 0 -222 85 -233 160h84c11 -53 54 -90 147 -90c112 0 162 53 179 154l12 73c-39 -56 -95 -88 -172 -88
c-128 0 -218 91 -218 223c0 157 111 290 264 290c99 0 153 -54 177 -104l15 95h83z" />
    <glyph glyph-name="four.sup" horiz-adv-x="329" 
d="M231 500h-172l4 24l192 249h84l-36 -224h46l-8 -49h-45l-11 -69h-65zM240 549l26 169l-125 -169h99z" />
    <glyph glyph-name="three.sup" horiz-adv-x="323" 
d="M198 426c-66 0 -129 27 -129 111h63c3 -35 22 -61 65 -61c33 0 66 18 66 59c0 33 -18 49 -55 49h-24l7 47h27c36 0 60 17 60 50c0 28 -14 46 -49 46s-60 -20 -68 -55h-60c8 67 63 105 130 105c60 0 112 -24 112 -90c0 -37 -26 -67 -67 -80c31 -7 56 -31 56 -75
c0 -68 -64 -106 -134 -106z" />
    <glyph glyph-name="two.sup" horiz-adv-x="298" 
d="M41 443l148 131c48 43 72 67 72 106c0 31 -21 45 -46 45c-32 0 -56 -19 -67 -66h-62c12 76 65 118 133 118c55 0 109 -28 109 -96c0 -54 -34 -83 -98 -139l-69 -60h138l-8 -51h-252z" />
    <glyph glyph-name="one.sup" horiz-adv-x="243" 
d="M180 705l-89 -54l9 61l99 61h60l-54 -342h-68z" />
    <glyph glyph-name="zero.sup" horiz-adv-x="362" 
d="M153 562c0 -39 17 -83 70 -83c67 0 91 83 91 161c0 40 -18 84 -67 84c-76 0 -94 -101 -94 -162zM221 426c-87 0 -135 55 -135 139c0 108 53 212 162 212c83 0 133 -52 133 -141c0 -112 -49 -210 -160 -210z" />
    <glyph glyph-name="minus.sub" horiz-adv-x="351" 
d="M22 109h257l-9 -53h-257z" />
    <glyph glyph-name="uni02BC" unicode="&#x2bc;" horiz-adv-x="253" 
d="M93 514l103 212l77 -36l-131 -202z" />
    </font>
</defs>
</svg>
