<?xml version="1.0" standalone="no"?>
<!DOCTYPE svg PUBLIC "-//W3C//DTD SVG 1.1//EN" "http://www.w3.org/Graphics/SVG/1.1/DTD/svg11.dtd" >
<svg xmlns="http://www.w3.org/2000/svg" xmlns:xlink="http://www.w3.org/1999/xlink" version="1.1">
<metadata>
Created by FontForge 20190801 at Mon Jul  4 10:27:00 2016
 By Jimmy Wärting
LCG stand for Latin, Cyrillic and Greek.
</metadata>
<defs>
<font id="GraphikLCG-Regular" horiz-adv-x="612" >
  <font-face 
    font-family="Graphik LCG"
    font-weight="400"
    font-stretch="normal"
    units-per-em="1000"
    panose-1="2 11 5 3 3 2 2 6 2 3"
    ascent="818"
    descent="-182"
    x-height="523"
    cap-height="715"
    bbox="-224 -220 1098 1113"
    underline-thickness="50"
    underline-position="-100"
    stemh="69"
    stemv="83"
    unicode-range="U+000D-FB02"
  />
<missing-glyph horiz-adv-x="500" 
 />
    <glyph glyph-name="f_f" unicode="ff" horiz-adv-x="646" 
d="M108 453h-75v70h75v78c0 107 52 168 156 168c27 0 41 -3 62 -10v-70c-15 7 -36 11 -59 11c-55 0 -76 -37 -76 -90v-87h205v85c0 107 52 168 156 168c27 0 41 -3 62 -10v-70c-15 7 -36 11 -59 11c-55 0 -76 -37 -76 -90v-94h128v-70h-128v-453h-83v453h-205v-453h-83v453z
" />
    <glyph glyph-name=".notdef" horiz-adv-x="500" 
 />
    <glyph glyph-name="NULL" horiz-adv-x="0" 
 />
    <glyph glyph-name="NULL" horiz-adv-x="0" 
 />
    <glyph glyph-name="CR" unicode="&#xd;" horiz-adv-x="265" 
 />
    <glyph glyph-name="space" unicode=" " horiz-adv-x="265" 
 />
    <glyph glyph-name="exclam" unicode="!" horiz-adv-x="298" 
d="M149 -5c-35 0 -64 28 -64 64s29 64 64 64s64 -28 64 -64s-29 -64 -64 -64zM104 715h92l-14 -513h-64z" />
    <glyph glyph-name="quotedbl" unicode="&#x22;" horiz-adv-x="387" 
d="M67 715h90l-15 -245h-60zM230 715h90l-15 -245h-60z" />
    <glyph glyph-name="numbersign" unicode="#" horiz-adv-x="515" 
d="M284 282h-97l-26 -183h-68l26 183h-83v70h94l19 132h-85v70h95l24 161h68l-24 -161h97l24 161h68l-24 -161h87v-70h-97l-19 -132h88v-70h-99l-26 -183h-68zM198 352h97l19 132h-97z" />
    <glyph glyph-name="dollar" unicode="$" horiz-adv-x="639" 
d="M291 -8c-170 11 -229 112 -240 226h84c11 -77 33 -147 156 -158v278c-132 24 -211 73 -211 192c0 104 86 185 211 193v90h59v-91c121 -11 195 -78 208 -195h-78c-15 77 -55 116 -130 127v-250c148 -27 223 -73 223 -202c0 -115 -92 -202 -223 -210v-127h-59v127zM490 196
c0 74 -31 108 -140 132v-268c80 8 140 61 140 136zM159 538c0 -64 21 -100 132 -124v241c-84 -7 -132 -54 -132 -117z" />
    <glyph glyph-name="percent" unicode="%" horiz-adv-x="796" 
d="M204 448c55 0 88 36 88 104c0 64 -33 104 -88 104c-53 0 -88 -37 -88 -105s35 -103 88 -103zM204 383c-85 0 -164 70 -164 167c0 99 77 171 164 171c89 0 164 -73 164 -169c0 -99 -78 -169 -164 -169zM578 715h76l-437 -715h-76zM592 57c55 0 88 36 88 104
c0 64 -33 104 -88 104c-53 0 -88 -37 -88 -105s35 -103 88 -103zM592 -8c-85 0 -164 70 -164 167c0 99 77 171 164 171c89 0 164 -73 164 -169c0 -99 -78 -169 -164 -169z" />
    <glyph glyph-name="ampersand" unicode="&#x26;" horiz-adv-x="698" 
d="M533 146l120 -146h-101l-71 86c-45 -52 -107 -93 -198 -93c-131 0 -226 78 -226 196c0 112 72 170 164 215c-42 54 -63 104 -63 151c0 108 84 164 175 164c88 0 156 -62 156 -147c0 -87 -62 -146 -153 -185l150 -183l87 165h77zM286 61c58 0 109 26 152 78l-178 217
c-70 -35 -119 -75 -119 -159c0 -87 54 -136 145 -136zM238 554c0 -36 23 -72 62 -121c80 36 111 72 111 141c0 47 -33 80 -81 80c-51 0 -92 -29 -92 -100z" />
    <glyph glyph-name="quotesingle" unicode="'" horiz-adv-x="224" 
d="M67 715h90l-15 -245h-60z" />
    <glyph glyph-name="parenleft" unicode="(" horiz-adv-x="334" 
d="M225 -148c-93 106 -166 261 -166 460s73 352 166 461h83c-91 -112 -162 -256 -162 -461c0 -206 72 -348 162 -460h-83z" />
    <glyph glyph-name="parenright" unicode=")" horiz-adv-x="334" 
d="M26 -148c91 112 162 256 162 461c0 206 -72 348 -162 460h83c91 -110 166 -259 166 -460c0 -199 -74 -353 -166 -461h-83z" />
    <glyph glyph-name="asterisk" unicode="*" horiz-adv-x="434" 
d="M88 450l83 111l-123 29l22 67l118 -48l-7 134h73l-7 -134l117 48l22 -67l-124 -29l83 -111l-56 -41l-74 120l-70 -120z" />
    <glyph glyph-name="plus" unicode="+" horiz-adv-x="531" 
d="M229 307h-187v70h187v202h73v-202h187v-70h-187v-202h-73v202z" />
    <glyph glyph-name="comma" unicode="," horiz-adv-x="294" 
d="M42 -95l96 219l81 -38l-123 -209z" />
    <glyph glyph-name="hyphen" unicode="-" horiz-adv-x="346" 
d="M66 314h214v-78h-214v78z" />
    <glyph glyph-name="period" unicode="." horiz-adv-x="294" 
d="M147 -5c-35 0 -64 28 -64 64s29 64 64 64s64 -28 64 -64s-29 -64 -64 -64z" />
    <glyph glyph-name="slash" unicode="/" horiz-adv-x="415" 
d="M303 776h76l-291 -924h-76z" />
    <glyph glyph-name="zero" unicode="0" horiz-adv-x="693" 
d="M350 63c125 0 189 94 189 277v40c0 165 -71 274 -191 274c-121 0 -193 -99 -193 -276v-40c0 -181 76 -275 195 -275zM350 -9c-171 0 -284 138 -284 346v40c0 211 107 347 282 347c176 0 279 -141 279 -345v-40c0 -208 -101 -348 -277 -348z" />
    <glyph glyph-name="one" unicode="1" horiz-adv-x="411" 
d="M199 629l-160 -115v81l166 120h81v-715h-87v629z" />
    <glyph glyph-name="two" unicode="2" horiz-adv-x="566" 
d="M25 20l284 299c65 69 103 134 103 207c0 80 -47 128 -128 128c-84 0 -136 -46 -151 -159h-81c11 140 96 229 232 229c132 0 216 -78 216 -201c0 -88 -56 -173 -144 -260l-197 -192h345v-71h-479v20z" />
    <glyph glyph-name="three" unicode="3" horiz-adv-x="616" 
d="M296 -9c-152 0 -245 96 -250 220h80c8 -85 60 -150 172 -150c113 0 163 54 163 138c0 93 -50 139 -151 139h-54v73h50c93 0 134 43 134 122c0 68 -42 120 -130 120c-89 0 -149 -54 -158 -135h-76c5 112 98 206 234 206s215 -90 215 -189c0 -81 -48 -129 -113 -156
c84 -23 138 -80 138 -180c0 -131 -106 -208 -254 -208z" />
    <glyph glyph-name="four" unicode="4" horiz-adv-x="629" 
d="M403 150h-358v28l327 537h116v-494h99v-71h-99v-150h-85v150zM403 221v428l-248 -428h248z" />
    <glyph glyph-name="five" unicode="5" horiz-adv-x="599" 
d="M287 -9c-155 0 -227 85 -238 202h83c14 -78 46 -132 154 -132c97 0 157 65 157 173c0 101 -58 167 -150 167c-84 0 -130 -26 -169 -69h-32v383h402v-75h-330v-218c29 27 78 49 146 49c128 0 222 -91 222 -237c0 -152 -109 -243 -245 -243z" />
    <glyph glyph-name="six" unicode="6" horiz-adv-x="631" 
d="M323 -9c-196 0 -257 146 -257 325v17c0 257 116 391 280 391c112 0 190 -57 209 -173h-83c-16 67 -52 102 -132 102c-108 0 -184 -97 -188 -286c35 59 100 97 184 97c142 0 234 -102 234 -234c0 -144 -96 -239 -247 -239zM323 59c93 0 158 66 158 167
c0 104 -62 170 -159 170c-96 0 -164 -65 -164 -158c0 -117 69 -179 165 -179z" />
    <glyph glyph-name="seven" unicode="7" horiz-adv-x="537" 
d="M401 645h-363v70h471v-12l-268 -703h-89z" />
    <glyph glyph-name="eight" unicode="8" horiz-adv-x="619" 
d="M310 -9c-117 0 -247 70 -247 212c0 96 59 158 135 185c-68 27 -108 79 -108 150c0 115 111 186 220 186c111 0 219 -72 219 -184c0 -72 -43 -122 -110 -151c84 -31 137 -92 137 -184c0 -143 -125 -214 -246 -214zM310 62c88 0 157 51 157 146c0 93 -71 142 -155 142
c-85 0 -160 -48 -160 -144c0 -93 75 -144 158 -144zM313 419c76 0 128 44 128 120c0 69 -56 117 -131 117s-132 -44 -132 -119s63 -118 135 -118z" />
    <glyph glyph-name="nine" unicode="9" horiz-adv-x="632" 
d="M296 -8c-133 0 -211 68 -230 184h84c16 -71 56 -113 148 -113c115 0 180 93 183 284c-35 -59 -102 -95 -185 -95c-140 0 -235 99 -235 234c0 144 96 239 247 239c171 0 257 -113 257 -320v-45c0 -239 -97 -368 -269 -368zM309 320c96 0 164 62 164 155
c0 117 -69 182 -165 182c-93 0 -158 -66 -158 -167c0 -104 62 -170 159 -170z" />
    <glyph glyph-name="colon" unicode=":" horiz-adv-x="304" 
d="M152 -5c-35 0 -64 28 -64 64s29 64 64 64s64 -28 64 -64s-29 -64 -64 -64zM152 292c-35 0 -64 28 -64 64s29 64 64 64s64 -28 64 -64s-29 -64 -64 -64z" />
    <glyph glyph-name="semicolon" unicode=";" horiz-adv-x="304" 
d="M27 -95l96 219l81 -38l-123 -209zM161 292c-35 0 -64 28 -64 64s29 64 64 64s64 -28 64 -64s-29 -64 -64 -64z" />
    <glyph glyph-name="less" unicode="&#x3c;" horiz-adv-x="516" 
d="M59 312v20l384 217v-80l-263 -147l263 -147v-80z" />
    <glyph glyph-name="equal" unicode="=" horiz-adv-x="496" 
d="M46 268h404v-72h-404v72zM46 448h404v-72h-404v72z" />
    <glyph glyph-name="greater" unicode="&#x3e;" horiz-adv-x="516" 
d="M73 175l263 147l-263 147v80l384 -217v-20l-384 -217v80z" />
    <glyph glyph-name="question" unicode="?" horiz-adv-x="501" 
d="M185 252c0 80 52 132 103 180c39 39 73 75 73 123c0 60 -32 100 -107 100c-76 0 -126 -50 -133 -130h-78c8 117 90 199 212 199c136 0 190 -82 190 -166c0 -74 -50 -122 -98 -167c-46 -43 -88 -85 -88 -146v-43h-74v50zM220 -5c-35 0 -64 28 -64 64s29 64 64 64
s64 -28 64 -64s-29 -64 -64 -64z" />
    <glyph glyph-name="at" unicode="@" horiz-adv-x="927" 
d="M465 -147c-268 0 -414 194 -414 407c0 245 195 428 427 428c239 0 398 -160 398 -366c0 -188 -108 -255 -188 -255c-81 0 -107 34 -115 86c-29 -52 -86 -93 -149 -93c-97 0 -161 66 -161 174c0 133 88 232 197 232c71 0 108 -34 121 -68l7 60h83l-30 -252
c-7 -53 9 -79 48 -79c57 0 115 57 115 193c0 179 -121 302 -326 302c-202 0 -350 -148 -350 -360c0 -182 114 -343 337 -343c108 0 175 28 236 81h77c-51 -88 -169 -147 -313 -147zM442 124c61 0 128 56 128 163c0 76 -39 113 -104 113c-63 0 -118 -60 -118 -165
c0 -71 39 -111 94 -111z" />
    <glyph glyph-name="A" unicode="A" horiz-adv-x="686" 
d="M288 715h114l242 -715h-86l-70 206h-295l-69 -206h-82zM217 275h248l-124 368z" />
    <glyph glyph-name="B" unicode="B" horiz-adv-x="634" 
d="M96 715h215c133 0 230 -44 230 -185v-4c0 -65 -27 -123 -108 -151c104 -25 143 -78 143 -171v-4c0 -135 -92 -200 -235 -200h-245v715zM339 68c104 0 152 45 152 133v4c0 88 -48 130 -164 130h-146v-267h158zM311 403c105 0 145 38 145 126v4c0 81 -47 114 -147 114h-128
v-244h130z" />
    <glyph glyph-name="C" unicode="C" horiz-adv-x="742" 
d="M395 -9c-207 0 -334 142 -334 362v8c0 212 141 365 336 365c149 0 274 -79 290 -234h-86c-19 109 -80 165 -203 165c-148 0 -247 -115 -247 -295v-8c0 -182 92 -292 246 -292c117 0 197 58 216 175h81c-25 -165 -139 -246 -299 -246z" />
    <glyph glyph-name="D" unicode="D" horiz-adv-x="708" 
d="M281 71c183 0 276 110 276 285v8c0 165 -80 281 -277 281h-97v-574h98zM96 715h189c245 0 362 -152 362 -351v-9c0 -198 -113 -355 -364 -355h-187v715z" />
    <glyph glyph-name="E" unicode="E" horiz-adv-x="578" 
d="M96 715h417v-71h-330v-243h266v-71h-266v-259h348v-71h-435v715z" />
    <glyph glyph-name="F" unicode="F" horiz-adv-x="558" 
d="M96 715h418v-71h-331v-253h258v-71h-258v-320h-87v715z" />
    <glyph glyph-name="G" unicode="G" horiz-adv-x="779" 
d="M407 -9c-220 0 -346 153 -346 362v8c0 209 141 365 346 365c141 0 270 -67 291 -227h-87c-20 113 -98 158 -202 158c-165 0 -258 -120 -258 -295v-8c0 -177 88 -293 256 -293c155 0 222 101 225 228h-209v72h294v-53c0 -207 -126 -317 -310 -317z" />
    <glyph glyph-name="H" unicode="H" horiz-adv-x="742" 
d="M96 715h87v-324h376v324h87v-715h-87v318h-376v-318h-87v715z" />
    <glyph glyph-name="I" unicode="I" horiz-adv-x="289" 
d="M101 715h87v-715h-87v715z" />
    <glyph glyph-name="J" unicode="J" horiz-adv-x="432" 
d="M144 -9c-55 0 -81 8 -100 19v72c27 -11 52 -20 95 -20c72 0 116 40 116 136v517h87v-521c0 -143 -89 -203 -198 -203z" />
    <glyph glyph-name="K" unicode="K" horiz-adv-x="628" 
d="M96 715h87v-344l311 345h97l-318 -348l334 -368h-105l-319 349v-349h-87v715z" />
    <glyph glyph-name="L" unicode="L" horiz-adv-x="547" 
d="M96 715h87v-644h327v-71h-414v715z" />
    <glyph glyph-name="M" unicode="M" horiz-adv-x="868" 
d="M96 715h121l221 -557l214 557h120v-715h-87v602l-237 -602h-27l-245 602v-602h-80v715z" />
    <glyph glyph-name="N" unicode="N" horiz-adv-x="736" 
d="M96 715h113l348 -591v591h83v-715h-100l-361 613v-613h-83v715z" />
    <glyph glyph-name="O" unicode="O" horiz-adv-x="823" 
d="M415 63c159 0 257 120 257 293v8c0 160 -95 290 -259 290c-166 0 -262 -121 -262 -292v-8c0 -173 116 -291 264 -291zM415 -9c-212 0 -354 162 -354 362v8c0 204 142 363 352 363s349 -160 349 -361v-8c0 -202 -139 -364 -347 -364z" />
    <glyph glyph-name="P" unicode="P" horiz-adv-x="593" 
d="M96 715h203c136 0 250 -60 250 -209v-4c0 -152 -114 -211 -250 -211h-116v-291h-87v715zM305 360c103 0 157 50 157 142v4c0 101 -60 139 -157 139h-122v-285h122z" />
    <glyph glyph-name="Q" unicode="Q" horiz-adv-x="823" 
d="M565 23c-45 -21 -95 -32 -150 -32c-212 0 -354 162 -354 362v8c0 204 142 363 352 363s349 -160 349 -361v-8c0 -121 -50 -226 -134 -293l90 -100l-53 -51zM415 63c36 0 69 6 98 18l-80 90l53 51l91 -103c61 52 95 134 95 237v8c0 160 -95 290 -259 290
c-166 0 -262 -121 -262 -292v-8c0 -173 116 -291 264 -291z" />
    <glyph glyph-name="R" unicode="R" horiz-adv-x="640" 
d="M96 715h215c136 0 250 -56 250 -199v-4c0 -117 -79 -177 -177 -195l219 -317h-97l-213 311h-110v-311h-87v715zM317 380c103 0 157 44 157 132v4c0 97 -60 129 -157 129h-134v-265h134z" />
    <glyph glyph-name="S" unicode="S" horiz-adv-x="639" 
d="M327 -9c-191 0 -260 105 -273 227h84c11 -85 46 -157 189 -157c92 0 163 54 163 135s-37 116 -173 137c-150 24 -239 69 -239 197c0 109 95 194 230 194c144 0 231 -69 246 -197h-78c-17 91 -68 127 -168 127c-99 0 -149 -48 -149 -116c0 -69 26 -107 172 -128
c159 -24 243 -74 243 -208c0 -120 -105 -211 -247 -211z" />
    <glyph glyph-name="T" unicode="T" horiz-adv-x="573" 
d="M243 644h-208v71h503v-71h-208v-644h-87v644z" />
    <glyph glyph-name="U" unicode="U" horiz-adv-x="708" 
d="M347 -9c-165 0 -257 95 -257 270v454h87v-444c0 -149 52 -208 172 -208c114 0 182 46 182 221v431h87v-443c0 -175 -87 -281 -271 -281z" />
    <glyph glyph-name="V" unicode="V" horiz-adv-x="666" 
d="M36 715h86l213 -631l213 631h82l-247 -715h-104z" />
    <glyph glyph-name="W" unicode="W" horiz-adv-x="940" 
d="M40 715h89l145 -577l168 577h62l168 -579l147 579h81l-186 -715h-80l-162 565l-167 -565h-79z" />
    <glyph glyph-name="X" unicode="X" horiz-adv-x="669" 
d="M287 367l-220 348h96l178 -281l177 281h89l-222 -348l233 -367h-98l-191 301l-191 -301h-87z" />
    <glyph glyph-name="Y" unicode="Y" horiz-adv-x="610" 
d="M268 312l-239 403h98l187 -332l180 332h87l-226 -404v-311h-87v312z" />
    <glyph glyph-name="Z" unicode="Z" horiz-adv-x="607" 
d="M34 14l405 630h-369v71h489v-13l-394 -628h388v-74h-519v14z" />
    <glyph glyph-name="bracketleft" unicode="[" horiz-adv-x="368" 
d="M94 776h224v-66h-141v-792h141v-66h-224v924z" />
    <glyph glyph-name="backslash" unicode="\" horiz-adv-x="415" 
d="M36 776h76l291 -924h-76z" />
    <glyph glyph-name="bracketright" unicode="]" horiz-adv-x="368" 
d="M50 -82h141v792h-141v66h224v-924h-224v66z" />
    <glyph glyph-name="asciicircum" unicode="^" horiz-adv-x="519" 
d="M217 715h85l167 -307h-84l-127 236l-126 -236h-82z" />
    <glyph glyph-name="underscore" unicode="_" horiz-adv-x="406" 
d="M5 -92h396v-66h-396v66z" />
    <glyph glyph-name="grave" unicode="`" horiz-adv-x="412" 
d="M79 760h104l62 -147h-62z" />
    <glyph glyph-name="a" unicode="a" horiz-adv-x="552" 
d="M221 -9c-97 0 -174 47 -174 154c0 120 128 162 262 162h75v38c0 84 -32 118 -112 118c-72 0 -112 -31 -120 -94h-83c11 120 106 163 207 163c100 0 191 -40 191 -187v-345h-83v66c-39 -49 -86 -75 -163 -75zM229 57c88 0 155 46 155 126v65h-72
c-105 0 -182 -27 -182 -103c0 -55 26 -88 99 -88z" />
    <glyph glyph-name="b" unicode="b" horiz-adv-x="639" 
d="M350 -9c-85 0 -146 43 -177 95v-86h-83v773h83v-338c29 51 100 97 177 97c137 0 238 -99 238 -263v-8c0 -160 -94 -270 -238 -270zM342 60c104 0 160 69 160 197v8c0 132 -73 198 -161 198c-97 0 -171 -64 -171 -198v-8c0 -133 70 -197 172 -197z" />
    <glyph glyph-name="c" unicode="c" horiz-adv-x="582" 
d="M307 -9c-146 0 -256 102 -256 265v8c0 160 114 268 254 268c109 0 211 -50 227 -183h-82c-13 83 -73 114 -145 114c-95 0 -168 -76 -168 -199v-8c0 -129 70 -196 171 -196c74 0 142 43 150 128h77c-11 -113 -103 -197 -228 -197z" />
    <glyph glyph-name="d" unicode="d" horiz-adv-x="639" 
d="M287 -9c-137 0 -236 96 -236 260v8c0 160 100 273 244 273c88 0 140 -42 171 -93v334h83v-773h-83v90c-29 -51 -104 -99 -179 -99zM296 60c97 0 173 64 173 198v8c0 135 -63 197 -166 197c-104 0 -166 -72 -166 -200v-8c0 -132 71 -195 159 -195z" />
    <glyph glyph-name="e" unicode="e" horiz-adv-x="580" 
d="M304 -9c-148 0 -253 105 -253 265v8c0 158 101 268 245 268c121 0 235 -73 235 -260v-27h-394c4 -120 60 -185 168 -185c82 0 128 30 139 91h83c-19 -105 -104 -160 -223 -160zM446 312c-8 108 -63 151 -150 151c-85 0 -141 -58 -156 -151h306z" />
    <glyph glyph-name="f" unicode="f" horiz-adv-x="358" 
d="M108 453h-75v70h75v85c0 107 52 168 156 168c27 0 41 -3 62 -10v-70c-15 7 -36 11 -59 11c-55 0 -76 -37 -76 -90v-94h128v-70h-128v-453h-83v453z" />
    <glyph glyph-name="g" unicode="g" horiz-adv-x="639" 
d="M299 -191c-155 0 -224 73 -237 161h85c12 -61 62 -91 151 -91c103 0 168 49 168 161v76c-29 -51 -102 -99 -177 -99c-137 0 -238 104 -238 248v7c0 142 100 260 244 260c88 0 140 -42 171 -93v84h83v-488c0 -152 -105 -226 -250 -226zM298 86c97 0 171 68 171 185v7
c0 117 -63 185 -166 185c-104 0 -166 -78 -166 -187v-8c0 -114 73 -182 161 -182z" />
    <glyph glyph-name="h" unicode="h" horiz-adv-x="610" 
d="M90 773h83v-333c24 49 81 92 168 92c108 0 184 -59 184 -211v-321h-83v327c0 92 -39 133 -123 133c-77 0 -146 -49 -146 -143v-317h-83v773z" />
    <glyph glyph-name="i" unicode="i" horiz-adv-x="267" 
d="M92 523h83v-523h-83v523zM132 632c-31 0 -55 24 -55 55s24 55 55 55s55 -24 55 -55s-24 -55 -55 -55z" />
    <glyph glyph-name="j" unicode="j" horiz-adv-x="267" 
d="M15 -121c60 5 77 34 77 81v563h83v-556c0 -100 -44 -154 -160 -158v70zM132 632c-31 0 -55 24 -55 55s24 55 55 55s55 -24 55 -55s-24 -55 -55 -55z" />
    <glyph glyph-name="k" unicode="k" horiz-adv-x="528" 
d="M90 773h83v-491l217 241h97l-224 -243l243 -280h-101l-232 271v-271h-83v773z" />
    <glyph glyph-name="l" unicode="l" horiz-adv-x="268" 
d="M92 773h84v-773h-84v773z" />
    <glyph glyph-name="m" unicode="m" horiz-adv-x="922" 
d="M90 523h83v-80c24 49 80 89 156 89c68 0 126 -27 153 -98c35 67 116 98 179 98c93 0 176 -56 176 -208v-324h-83v330c0 92 -39 130 -111 130c-68 0 -138 -46 -138 -140v-320h-83v330c0 92 -39 130 -111 130c-68 0 -138 -46 -138 -140v-320h-83v523z" />
    <glyph glyph-name="n" unicode="n" horiz-adv-x="610" 
d="M90 523h83v-83c24 49 81 92 168 92c108 0 184 -59 184 -211v-321h-83v327c0 92 -39 133 -123 133c-77 0 -146 -49 -146 -143v-317h-83v523z" />
    <glyph glyph-name="o" unicode="o" horiz-adv-x="616" 
d="M308 60c105 0 171 79 171 197v7c0 121 -67 199 -171 199c-105 0 -171 -78 -171 -198v-8c0 -120 64 -197 171 -197zM307 -9c-149 0 -256 113 -256 266v8c0 157 109 267 257 267s257 -109 257 -266v-8c0 -158 -110 -267 -258 -267z" />
    <glyph glyph-name="p" unicode="p" horiz-adv-x="639" 
d="M90 523h83v-88c29 51 100 97 177 97c137 0 238 -99 238 -263v-8c0 -160 -94 -270 -238 -270c-87 0 -146 43 -177 95v-268h-83v705zM342 60c104 0 160 69 160 197v8c0 132 -73 198 -161 198c-97 0 -171 -64 -171 -198v-8c0 -133 70 -197 172 -197z" />
    <glyph glyph-name="q" unicode="q" horiz-adv-x="639" 
d="M466 90c-29 -51 -104 -99 -179 -99c-137 0 -236 96 -236 260v8c0 160 100 273 244 273c88 0 140 -42 171 -93v84h83v-705h-83v272zM296 60c97 0 173 64 173 198v8c0 135 -63 197 -166 197c-104 0 -166 -72 -166 -200v-8c0 -132 71 -195 159 -195z" />
    <glyph glyph-name="r" unicode="r" horiz-adv-x="388" 
d="M90 523h83v-94c32 59 78 100 172 103v-78c-105 -5 -172 -38 -172 -167v-287h-83v523z" />
    <glyph glyph-name="s" unicode="s" horiz-adv-x="492" 
d="M252 -9c-125 0 -200 62 -205 170h81c7 -63 39 -101 123 -101c80 0 114 27 114 83c0 55 -41 73 -122 88c-136 24 -182 63 -182 154c0 96 94 147 177 147c93 0 176 -38 189 -151h-80c-12 57 -43 82 -110 82c-60 0 -99 -30 -99 -75c0 -46 26 -67 122 -83
c108 -22 184 -43 184 -155c0 -96 -64 -159 -192 -159z" />
    <glyph glyph-name="t" unicode="t" horiz-adv-x="367" 
d="M249 -7c-96 0 -141 55 -141 138v322h-75v70h75v119h83v-119h122v-70h-122v-314c0 -51 22 -76 65 -76c27 0 45 4 64 11v-70c-17 -7 -36 -11 -71 -11z" />
    <glyph glyph-name="u" unicode="u" horiz-adv-x="606" 
d="M267 -9c-104 0 -182 57 -182 201v331h83v-327c0 -92 38 -133 121 -133c75 0 144 49 144 143v317h83v-523h-83v83c-24 -49 -82 -92 -166 -92z" />
    <glyph glyph-name="v" unicode="v" horiz-adv-x="546" 
d="M31 523h90l155 -439l153 439h86l-188 -523h-106z" />
    <glyph glyph-name="w" unicode="w" horiz-adv-x="806" 
d="M34 523h90l122 -421l127 421h72l119 -421l123 421h85l-163 -523h-92l-109 392l-122 -392h-91z" />
    <glyph glyph-name="x" unicode="x" horiz-adv-x="540" 
d="M221 269l-175 254h97l128 -190l127 190h90l-173 -248l191 -275h-98l-141 211l-144 -211h-89z" />
    <glyph glyph-name="y" unicode="y" horiz-adv-x="541" 
d="M236 54l-205 469h89l160 -375l145 375h85l-289 -705h-84z" />
    <glyph glyph-name="z" unicode="z" horiz-adv-x="495" 
d="M27 12l309 441h-279v70h407v-15l-302 -435h298v-73h-433v12z" />
    <glyph glyph-name="braceleft" unicode="{" horiz-adv-x="393" 
d="M343 -148c-149 0 -225 57 -198 208l19 104c11 59 -16 120 -118 120v62c102 0 129 61 118 120l-19 104c-27 151 49 208 198 208v-63c-98 0 -137 -33 -119 -147l19 -115c12 -76 -30 -121 -98 -138c68 -17 110 -62 98 -138l-19 -115c-18 -114 21 -147 119 -147v-63z" />
    <glyph glyph-name="bar" unicode="|" horiz-adv-x="265" 
d="M99 776h67v-924h-67v924z" />
    <glyph glyph-name="braceright" unicode="}" horiz-adv-x="393" 
d="M50 -85c98 0 137 33 119 147l-19 115c-12 76 30 121 98 138c-68 17 -110 62 -98 138l19 115c18 114 -21 147 -119 147v63c148 0 225 -57 198 -208l-19 -104c-11 -59 16 -120 118 -120v-62c-102 0 -129 -61 -118 -120l19 -104c27 -151 -50 -208 -198 -208v63z" />
    <glyph glyph-name="asciitilde" unicode="~" horiz-adv-x="457" 
d="M50 223c8 87 54 128 106 128c66 0 107 -51 140 -51c21 0 42 17 45 53h66c-5 -89 -56 -128 -103 -128c-70 0 -110 51 -142 51c-23 0 -41 -18 -46 -53h-66z" />
    <glyph glyph-name="uni00A0" unicode="&#xa0;" horiz-adv-x="280" 
 />
    <glyph glyph-name="exclamdown" unicode="&#xa1;" horiz-adv-x="300" 
d="M150 603c35 0 64 -27 64 -63s-29 -64 -64 -64s-64 28 -64 64s29 63 64 63zM195 -116h-92l14 513h64z" />
    <glyph glyph-name="cent" unicode="&#xa2;" horiz-adv-x="577" 
d="M273 -7c-130 13 -222 113 -222 263v8c0 148 97 250 222 266v99h59v-99c99 -8 184 -60 200 -181h-82c-11 71 -59 104 -118 112v-399c64 8 118 51 126 126h77c-11 -105 -91 -184 -203 -195v-128h-59v128zM137 256c0 -115 52 -179 136 -194v398c-80 -15 -136 -87 -136 -196
v-8z" />
    <glyph glyph-name="sterling" unicode="&#xa3;" horiz-adv-x="608" 
d="M54 377h65c-11 43 -18 88 -18 141c0 123 96 206 220 206c129 0 205 -74 214 -189h-84c-13 75 -47 118 -130 118c-77 0 -132 -53 -132 -136c0 -55 8 -97 17 -140h213v-62h-199c8 -40 15 -81 15 -132c0 -23 -4 -44 -13 -65c67 -16 129 -54 172 -54c53 0 87 21 91 86h73
c-7 -92 -59 -159 -154 -159c-88 0 -166 63 -222 63c-44 0 -62 -27 -65 -54h-73c3 45 35 109 103 122c7 17 12 37 12 62c0 44 -11 86 -23 131h-82v62z" />
    <glyph glyph-name="yen" unicode="&#xa5;" horiz-adv-x="588" 
d="M90 339h156l-212 376h94l175 -324l167 324h84l-200 -376h157v-58h-168v-78h168v-58h-168v-145h-85v145h-168v58h168v78h-168v58z" />
    <glyph glyph-name="brokenbar" unicode="&#xa6;" horiz-adv-x="272" 
d="M99 297h67v-445h-67v445zM99 776h67v-409h-67v409z" />
    <glyph glyph-name="section" unicode="&#xa7;" horiz-adv-x="551" 
d="M272 -137c-112 0 -185 59 -188 163h85c5 -57 30 -93 101 -93s102 39 102 90c0 53 -26 77 -141 107c-110 27 -183 71 -183 169c0 67 42 115 113 135c-40 28 -61 64 -61 127c0 95 86 163 178 163c109 0 180 -56 183 -157h-84c-4 53 -26 87 -97 87s-100 -40 -100 -91
s23 -79 134 -105c110 -30 189 -62 189 -172c0 -57 -39 -111 -110 -134c39 -28 59 -67 59 -127c0 -91 -80 -162 -180 -162zM332 185c61 15 89 47 89 94c0 59 -45 80 -125 101l-79 21c-52 -11 -87 -46 -87 -95c0 -53 43 -77 127 -100z" />
    <glyph glyph-name="dieresis" unicode="&#xa8;" horiz-adv-x="412" 
d="M112 634c-29 0 -53 24 -53 53s24 53 53 53s53 -24 53 -53s-24 -53 -53 -53zM300 634c-29 0 -53 24 -53 53s24 53 53 53s53 -24 53 -53s-24 -53 -53 -53z" />
    <glyph glyph-name="copyright" unicode="&#xa9;" horiz-adv-x="856" 
d="M429 155c-121 0 -192 77 -192 198v8c0 119 81 199 192 199c91 0 161 -45 169 -138h-76c-8 52 -39 78 -93 78c-69 0 -113 -51 -113 -139v-7c0 -88 41 -138 113 -138c55 0 93 27 101 83h72c-11 -96 -78 -144 -173 -144zM427 33c171 0 320 134 320 326
c0 189 -146 323 -318 323c-175 0 -320 -134 -320 -325c0 -193 150 -324 318 -324zM427 -9c-204 0 -366 159 -366 366c0 204 162 367 368 367c208 0 366 -162 366 -365c0 -209 -162 -368 -368 -368z" />
    <glyph glyph-name="ordfeminine" unicode="&#xaa;" horiz-adv-x="431" 
d="M176 290c-77 0 -140 39 -140 124c0 96 99 131 212 131h58v26c0 63 -24 90 -85 90c-56 0 -83 -24 -90 -68h-77c8 93 84 131 171 131s159 -36 159 -152v-274h-78v52c-29 -39 -66 -60 -130 -60zM190 351c67 0 116 33 116 94v46h-56c-80 0 -135 -19 -135 -75
c0 -41 19 -65 75 -65z" />
    <glyph glyph-name="guillemotleft" unicode="&#xab;" horiz-adv-x="512" 
d="M65 261l130 178h82l-125 -178l125 -178h-82zM243 261l130 178h82l-125 -178l125 -178h-82z" />
    <glyph glyph-name="uni00AD" unicode="&#xad;" horiz-adv-x="346" 
d="M66 314h214v-78h-214v78z" />
    <glyph glyph-name="registered" unicode="&#xae;" horiz-adv-x="526" 
d="M187 615h77c51 0 84 -21 84 -66v-1c0 -33 -18 -51 -45 -59l58 -93h-50l-53 85h-23v-85h-48v219zM263 514c25 0 38 11 38 32v1c0 23 -14 31 -38 31h-28v-64h28zM263 318c103 0 182 76 182 185s-75 185 -182 185s-182 -77 -182 -186s80 -184 182 -184zM263 282
c-123 0 -222 96 -222 220c0 123 97 222 222 222s222 -97 222 -221c0 -125 -99 -221 -222 -221z" />
    <glyph glyph-name="macron" unicode="&#xaf;" horiz-adv-x="412" 
d="M75 712h262v-64h-262v64z" />
    <glyph glyph-name="degree" unicode="&#xb0;" horiz-adv-x="439" 
d="M220 464c53 0 89 44 89 100c0 59 -36 102 -89 102c-55 0 -93 -43 -93 -102c0 -56 38 -100 93 -100zM220 406c-91 0 -164 72 -164 158c0 88 73 160 164 160c90 0 163 -72 163 -160c0 -86 -73 -158 -163 -158z" />
    <glyph glyph-name="plusminus" unicode="&#xb1;" horiz-adv-x="531" 
d="M229 327h-187v70h187v182h73v-182h187v-70h-187v-182h-73v182zM42 70h447v-70h-447v70z" />
    <glyph glyph-name="twosuperior" unicode="&#xb2;" horiz-adv-x="298" 
d="M14 384l128 136c33 35 54 65 54 97c0 31 -18 50 -50 50c-33 0 -53 -19 -60 -66h-61c4 76 50 118 123 118c72 0 114 -40 114 -101c0 -45 -26 -83 -66 -122l-73 -72h142v-51h-251v11z" />
    <glyph glyph-name="threesuperior" unicode="&#xb3;" horiz-adv-x="323" 
d="M158 368c-84 0 -128 43 -131 111h61c4 -35 23 -61 68 -61c43 0 63 21 63 54c0 36 -20 54 -60 54h-26v47h25c37 0 56 16 56 49c0 27 -17 47 -52 47s-58 -20 -62 -55h-61c4 61 49 105 124 105c73 0 115 -40 115 -92c0 -39 -22 -62 -57 -74c40 -9 67 -37 67 -82
c0 -64 -50 -103 -130 -103z" />
    <glyph glyph-name="acute" unicode="&#xb4;" horiz-adv-x="412" 
d="M229 760h104l-104 -147h-62z" />
    <glyph glyph-name="mu" unicode="&#xb5;" horiz-adv-x="599" 
d="M84 523h83v-334c0 -88 41 -126 121 -126c75 0 144 49 144 143v317h83v-523h-83v83c-24 -49 -78 -89 -158 -89c-39 0 -83 12 -107 55v-231h-83v705z" />
    <glyph glyph-name="paragraph" unicode="&#xb6;" horiz-adv-x="600" 
d="M282 346h-14c-127 0 -217 61 -217 181c0 127 94 188 217 188h232v-815h-69v758h-81v-758h-68v446z" />
    <glyph glyph-name="periodcentered" unicode="&#xb7;" horiz-adv-x="294" 
d="M147 263c-35 0 -64 28 -64 64s29 64 64 64s64 -28 64 -64s-29 -64 -64 -64z" />
    <glyph glyph-name="cedilla" unicode="&#xb8;" horiz-adv-x="412" 
d="M214 -214c-59 0 -96 33 -100 84h54c4 -19 18 -36 43 -36s40 15 40 36s-15 34 -36 34c-13 0 -23 -5 -28 -8l-32 28l42 76h53l-29 -53c46 5 94 -19 94 -81c0 -53 -47 -80 -101 -80z" />
    <glyph glyph-name="onesuperior" unicode="&#xb9;" horiz-adv-x="243" 
d="M111 649l-81 -54v59l89 61h60v-342h-68v276z" />
    <glyph glyph-name="ordmasculine" unicode="&#xba;" horiz-adv-x="505" 
d="M253 354c80 0 127 59 127 150v6c0 92 -48 150 -127 150c-80 0 -128 -58 -128 -150v-6c0 -92 48 -150 128 -150zM252 290c-121 0 -209 89 -209 213v6c0 128 90 215 210 215s209 -86 209 -213v-6c0 -129 -90 -215 -210 -215z" />
    <glyph glyph-name="guillemotright" unicode="&#xbb;" horiz-adv-x="512" 
d="M182 261l-125 178h82l130 -178l-130 -178h-82zM360 261l-125 178h82l130 -178l-130 -178h-82z" />
    <glyph glyph-name="onequarter" unicode="&#xbc;" horiz-adv-x="690" 
d="M114 649l-81 -54v59l89 61h60v-342h-68v276zM562 715h66l-507 -715h-66zM552 69h-172v24l153 249h83v-224h45v-49h-45v-69h-64v69zM553 118v173l-101 -173h101z" />
    <glyph glyph-name="onehalf" unicode="&#xbd;" horiz-adv-x="689" 
d="M114 649l-81 -54v59l89 61h60v-342h-68v276zM549 715h66l-507 -715h-66zM401 11l128 136c33 35 54 65 54 97c0 31 -18 50 -50 50c-33 0 -53 -19 -60 -66h-61c4 76 50 118 123 118c72 0 114 -40 114 -101c0 -45 -26 -83 -66 -122l-73 -72h142v-51h-251v11z" />
    <glyph glyph-name="threequarters" unicode="&#xbe;" horiz-adv-x="693" 
d="M161 368c-84 0 -128 43 -131 111h61c4 -35 23 -61 68 -61c43 0 63 21 63 54c0 36 -20 54 -60 54h-26v47h25c37 0 56 16 56 49c0 27 -17 47 -52 47s-58 -20 -62 -55h-61c4 61 49 105 124 105c73 0 115 -40 115 -92c0 -39 -22 -62 -57 -74c40 -9 67 -37 67 -82
c0 -64 -50 -103 -130 -103zM598 715h66l-507 -715h-66zM552 69h-172v24l153 249h83v-224h45v-49h-45v-69h-64v69zM553 118v173l-101 -173h101z" />
    <glyph glyph-name="questiondown" unicode="&#xbf;" horiz-adv-x="501" 
d="M316 346c0 -80 -52 -132 -103 -180c-39 -39 -73 -75 -73 -123c0 -60 32 -100 107 -100c76 0 126 50 133 130h78c-8 -117 -90 -199 -212 -199c-136 0 -190 82 -190 166c0 74 50 122 98 167c46 43 88 85 88 146v43h74v-50zM281 602c35 0 64 -27 64 -63s-29 -64 -64 -64
s-64 28 -64 64s29 63 64 63z" />
    <glyph glyph-name="Agrave" unicode="&#xc0;" horiz-adv-x="686" 
d="M288 715h114l242 -715h-86l-70 206h-295l-69 -206h-82zM217 275h248l-124 368zM220 898h104l56 -127h-62z" />
    <glyph glyph-name="Aacute" unicode="&#xc1;" horiz-adv-x="686" 
d="M288 715h114l242 -715h-86l-70 206h-295l-69 -206h-82zM217 275h248l-124 368zM362 898h104l-98 -127h-62z" />
    <glyph glyph-name="Acircumflex" unicode="&#xc2;" horiz-adv-x="686" 
d="M288 715h114l242 -715h-86l-70 206h-295l-69 -206h-82zM217 275h248l-124 368zM306 898h75l107 -127h-61l-85 58l-85 -58h-59z" />
    <glyph glyph-name="Atilde" unicode="&#xc3;" horiz-adv-x="686" 
d="M288 715h114l242 -715h-86l-70 206h-295l-69 -206h-82zM217 275h248l-124 368zM397 774c-43 0 -79 43 -108 43c-19 0 -35 -18 -40 -45h-60c8 72 49 116 101 116c42 0 78 -43 107 -43c19 0 35 18 40 45h60c-8 -72 -49 -116 -100 -116z" />
    <glyph glyph-name="Adieresis" unicode="&#xc4;" horiz-adv-x="686" 
d="M288 715h114l242 -715h-86l-70 206h-295l-69 -206h-82zM217 275h248l-124 368zM241 789c-29 0 -53 24 -53 53s24 53 53 53s53 -24 53 -53s-24 -53 -53 -53zM444 789c-29 0 -53 24 -53 53s24 53 53 53s53 -24 53 -53s-24 -53 -53 -53z" />
    <glyph glyph-name="Aring" unicode="&#xc5;" horiz-adv-x="686" 
d="M288 715h114l242 -715h-86l-70 206h-295l-69 -206h-82zM217 275h248l-124 368zM343 805c31 0 53 25 53 58s-22 58 -53 58s-53 -25 -53 -58s22 -58 53 -58zM343 759c-59 0 -107 47 -107 104s48 104 107 104s107 -47 107 -104s-48 -104 -107 -104z" />
    <glyph glyph-name="AE" unicode="&#xc6;" horiz-adv-x="962" 
d="M405 715h492v-71h-330v-243h266v-71h-266v-259h348v-71h-435v207h-252l-105 -207h-88zM262 275h218v369h-31z" />
    <glyph glyph-name="Ccedilla" unicode="&#xc7;" horiz-adv-x="742" 
d="M387 -214c-59 0 -96 33 -100 84h54c4 -19 18 -36 43 -36s40 15 40 36s-15 34 -36 34c-13 0 -23 -5 -28 -8l-32 28l37 68c-189 13 -304 150 -304 361v8c0 212 141 365 336 365c149 0 274 -79 290 -234h-86c-19 109 -80 165 -203 165c-148 0 -247 -115 -247 -295v-8
c0 -182 92 -292 246 -292c117 0 197 58 216 175h81c-24 -157 -127 -238 -276 -245l-24 -45c46 5 94 -19 94 -81c0 -53 -47 -80 -101 -80z" />
    <glyph glyph-name="Egrave" unicode="&#xc8;" horiz-adv-x="578" 
d="M96 715h417v-71h-330v-243h266v-71h-266v-259h348v-71h-435v715zM189 898h104l56 -127h-62z" />
    <glyph glyph-name="Eacute" unicode="&#xc9;" horiz-adv-x="578" 
d="M96 715h417v-71h-330v-243h266v-71h-266v-259h348v-71h-435v715zM331 898h104l-98 -127h-62z" />
    <glyph glyph-name="Ecircumflex" unicode="&#xca;" horiz-adv-x="578" 
d="M96 715h417v-71h-330v-243h266v-71h-266v-259h348v-71h-435v715zM275 898h75l107 -127h-61l-85 58l-85 -58h-59z" />
    <glyph glyph-name="Edieresis" unicode="&#xcb;" horiz-adv-x="578" 
d="M96 715h417v-71h-330v-243h266v-71h-266v-259h348v-71h-435v715zM210 789c-29 0 -53 24 -53 53s24 53 53 53s53 -24 53 -53s-24 -53 -53 -53zM413 789c-29 0 -53 24 -53 53s24 53 53 53s53 -24 53 -53s-24 -53 -53 -53z" />
    <glyph glyph-name="Igrave" unicode="&#xcc;" horiz-adv-x="289" 
d="M101 715h87v-715h-87v715zM21 898h104l56 -127h-62z" />
    <glyph glyph-name="Iacute" unicode="&#xcd;" horiz-adv-x="289" 
d="M101 715h87v-715h-87v715zM163 898h104l-98 -127h-62z" />
    <glyph glyph-name="Icircumflex" unicode="&#xce;" horiz-adv-x="289" 
d="M101 715h87v-715h-87v715zM107 898h75l107 -127h-61l-85 58l-85 -58h-59z" />
    <glyph glyph-name="Idieresis" unicode="&#xcf;" horiz-adv-x="289" 
d="M101 715h87v-715h-87v715zM42 789c-29 0 -53 24 -53 53s24 53 53 53s53 -24 53 -53s-24 -53 -53 -53zM245 789c-29 0 -53 24 -53 53s24 53 53 53s53 -24 53 -53s-24 -53 -53 -53z" />
    <glyph glyph-name="Eth" unicode="&#xd0;" horiz-adv-x="728" 
d="M40 392h76v323h189c245 0 362 -152 362 -351v-9c0 -198 -113 -355 -364 -355h-187v325h-76v67zM301 71c183 0 276 110 276 285v8c0 165 -80 281 -277 281h-97v-253h207v-67h-207v-254h98z" />
    <glyph glyph-name="Ntilde" unicode="&#xd1;" horiz-adv-x="736" 
d="M96 715h113l348 -591v591h83v-715h-100l-361 613v-613h-83v715zM432 774c-43 0 -79 43 -108 43c-19 0 -35 -18 -40 -45h-60c8 72 49 116 101 116c42 0 78 -43 107 -43c19 0 35 18 40 45h60c-8 -72 -49 -116 -100 -116z" />
    <glyph glyph-name="Ograve" unicode="&#xd2;" horiz-adv-x="823" 
d="M415 63c159 0 257 120 257 293v8c0 160 -95 290 -259 290c-166 0 -262 -121 -262 -292v-8c0 -173 116 -291 264 -291zM415 -9c-212 0 -354 162 -354 362v8c0 204 142 363 352 363s349 -160 349 -361v-8c0 -202 -139 -364 -347 -364zM288 898h104l56 -127h-62z" />
    <glyph glyph-name="Oacute" unicode="&#xd3;" horiz-adv-x="823" 
d="M415 63c159 0 257 120 257 293v8c0 160 -95 290 -259 290c-166 0 -262 -121 -262 -292v-8c0 -173 116 -291 264 -291zM415 -9c-212 0 -354 162 -354 362v8c0 204 142 363 352 363s349 -160 349 -361v-8c0 -202 -139 -364 -347 -364zM430 898h104l-98 -127h-62z" />
    <glyph glyph-name="Ocircumflex" unicode="&#xd4;" horiz-adv-x="823" 
d="M415 63c159 0 257 120 257 293v8c0 160 -95 290 -259 290c-166 0 -262 -121 -262 -292v-8c0 -173 116 -291 264 -291zM415 -9c-212 0 -354 162 -354 362v8c0 204 142 363 352 363s349 -160 349 -361v-8c0 -202 -139 -364 -347 -364zM374 898h75l107 -127h-61l-85 58
l-85 -58h-59z" />
    <glyph glyph-name="Otilde" unicode="&#xd5;" horiz-adv-x="823" 
d="M415 63c159 0 257 120 257 293v8c0 160 -95 290 -259 290c-166 0 -262 -121 -262 -292v-8c0 -173 116 -291 264 -291zM415 -9c-212 0 -354 162 -354 362v8c0 204 142 363 352 363s349 -160 349 -361v-8c0 -202 -139 -364 -347 -364zM465 774c-43 0 -79 43 -108 43
c-19 0 -35 -18 -40 -45h-60c8 72 49 116 101 116c42 0 78 -43 107 -43c19 0 35 18 40 45h60c-8 -72 -49 -116 -100 -116z" />
    <glyph glyph-name="Odieresis" unicode="&#xd6;" horiz-adv-x="823" 
d="M415 63c159 0 257 120 257 293v8c0 160 -95 290 -259 290c-166 0 -262 -121 -262 -292v-8c0 -173 116 -291 264 -291zM415 -9c-212 0 -354 162 -354 362v8c0 204 142 363 352 363s349 -160 349 -361v-8c0 -202 -139 -364 -347 -364zM309 789c-29 0 -53 24 -53 53
s24 53 53 53s53 -24 53 -53s-24 -53 -53 -53zM512 789c-29 0 -53 24 -53 53s24 53 53 53s53 -24 53 -53s-24 -53 -53 -53z" />
    <glyph glyph-name="multiply" unicode="&#xd7;" horiz-adv-x="481" 
d="M39 179l154 154l-154 154l47 48l154 -155l154 155l48 -48l-154 -154l154 -154l-48 -48l-154 155l-154 -155z" />
    <glyph glyph-name="Oslash" unicode="&#xd8;" horiz-adv-x="823" 
d="M41 12l98 107c-51 64 -78 145 -78 234v8c0 204 142 363 352 363c84 0 157 -26 214 -70l81 88l45 -45l-79 -87c56 -64 88 -151 88 -247v-8c0 -202 -139 -364 -347 -364c-92 0 -172 31 -232 82l-97 -106zM415 63c159 0 257 120 257 293v8c0 75 -17 137 -52 188l-384 -421
c47 -45 108 -68 179 -68zM151 354c0 -69 16 -126 44 -173l382 418c-43 35 -96 55 -164 55c-166 0 -262 -121 -262 -292v-8z" />
    <glyph glyph-name="Ugrave" unicode="&#xd9;" horiz-adv-x="708" 
d="M347 -9c-165 0 -257 95 -257 270v454h87v-444c0 -149 52 -208 172 -208c114 0 182 46 182 221v431h87v-443c0 -175 -87 -281 -271 -281zM231 898h104l56 -127h-62z" />
    <glyph glyph-name="Uacute" unicode="&#xda;" horiz-adv-x="708" 
d="M347 -9c-165 0 -257 95 -257 270v454h87v-444c0 -149 52 -208 172 -208c114 0 182 46 182 221v431h87v-443c0 -175 -87 -281 -271 -281zM373 898h104l-98 -127h-62z" />
    <glyph glyph-name="Ucircumflex" unicode="&#xdb;" horiz-adv-x="708" 
d="M347 -9c-165 0 -257 95 -257 270v454h87v-444c0 -149 52 -208 172 -208c114 0 182 46 182 221v431h87v-443c0 -175 -87 -281 -271 -281zM317 898h75l107 -127h-61l-85 58l-85 -58h-59z" />
    <glyph glyph-name="Udieresis" unicode="&#xdc;" horiz-adv-x="708" 
d="M347 -9c-165 0 -257 95 -257 270v454h87v-444c0 -149 52 -208 172 -208c114 0 182 46 182 221v431h87v-443c0 -175 -87 -281 -271 -281zM252 789c-29 0 -53 24 -53 53s24 53 53 53s53 -24 53 -53s-24 -53 -53 -53zM455 789c-29 0 -53 24 -53 53s24 53 53 53
s53 -24 53 -53s-24 -53 -53 -53z" />
    <glyph glyph-name="Yacute" unicode="&#xdd;" horiz-adv-x="610" 
d="M268 312l-239 403h98l187 -332l180 332h87l-226 -404v-311h-87v312zM324 898h104l-98 -127h-62z" />
    <glyph glyph-name="Thorn" unicode="&#xde;" horiz-adv-x="593" 
d="M96 715h87v-134h116c136 0 250 -56 250 -205v-4c0 -152 -114 -207 -250 -207h-116v-165h-87v715zM305 234c103 0 157 46 157 138v4c0 101 -60 135 -157 135h-122v-277h122z" />
    <glyph glyph-name="germandbls" unicode="&#xdf;" horiz-adv-x="602" 
d="M341 -9c-43 0 -77 9 -92 16v71c19 -9 49 -18 88 -18c61 0 130 26 130 150v7c0 109 -77 177 -196 174v71c113 -3 149 70 149 131v4c0 72 -42 111 -122 111c-76 0 -125 -54 -125 -138v-570h-83v566c0 128 97 210 209 210c119 0 200 -72 200 -179v-4
c0 -64 -41 -134 -119 -161c103 -26 173 -110 173 -214v-6c0 -168 -104 -221 -212 -221z" />
    <glyph glyph-name="agrave" unicode="&#xe0;" horiz-adv-x="552" 
d="M221 -9c-97 0 -174 47 -174 154c0 120 128 162 262 162h75v38c0 84 -32 118 -112 118c-72 0 -112 -31 -120 -94h-83c11 120 106 163 207 163c100 0 191 -40 191 -187v-345h-83v66c-39 -49 -86 -75 -163 -75zM229 57c88 0 155 46 155 126v65h-72
c-105 0 -182 -27 -182 -103c0 -55 26 -88 99 -88zM148 760h104l62 -147h-62z" />
    <glyph glyph-name="aacute" unicode="&#xe1;" horiz-adv-x="552" 
d="M221 -9c-97 0 -174 47 -174 154c0 120 128 162 262 162h75v38c0 84 -32 118 -112 118c-72 0 -112 -31 -120 -94h-83c11 120 106 163 207 163c100 0 191 -40 191 -187v-345h-83v66c-39 -49 -86 -75 -163 -75zM229 57c88 0 155 46 155 126v65h-72
c-105 0 -182 -27 -182 -103c0 -55 26 -88 99 -88zM302 760h104l-104 -147h-62z" />
    <glyph glyph-name="acircumflex" unicode="&#xe2;" horiz-adv-x="552" 
d="M221 -9c-97 0 -174 47 -174 154c0 120 128 162 262 162h75v38c0 84 -32 118 -112 118c-72 0 -112 -31 -120 -94h-83c11 120 106 163 207 163c100 0 191 -40 191 -187v-345h-83v66c-39 -49 -86 -75 -163 -75zM229 57c88 0 155 46 155 126v65h-72
c-105 0 -182 -27 -182 -103c0 -55 26 -88 99 -88zM229 757h75l107 -144h-61l-85 75l-85 -75h-59z" />
    <glyph glyph-name="atilde" unicode="&#xe3;" horiz-adv-x="552" 
d="M221 -9c-97 0 -174 47 -174 154c0 120 128 162 262 162h75v38c0 84 -32 118 -112 118c-72 0 -112 -31 -120 -94h-83c11 120 106 163 207 163c100 0 191 -40 191 -187v-345h-83v66c-39 -49 -86 -75 -163 -75zM229 57c88 0 155 46 155 126v65h-72
c-105 0 -182 -27 -182 -103c0 -55 26 -88 99 -88zM331 619c-43 0 -79 43 -108 43c-19 0 -35 -18 -40 -45h-60c8 72 49 116 101 116c42 0 78 -43 107 -43c19 0 35 18 40 45h60c-8 -72 -49 -116 -100 -116z" />
    <glyph glyph-name="adieresis" unicode="&#xe4;" horiz-adv-x="552" 
d="M221 -9c-97 0 -174 47 -174 154c0 120 128 162 262 162h75v38c0 84 -32 118 -112 118c-72 0 -112 -31 -120 -94h-83c11 120 106 163 207 163c100 0 191 -40 191 -187v-345h-83v66c-39 -49 -86 -75 -163 -75zM229 57c88 0 155 46 155 126v65h-72
c-105 0 -182 -27 -182 -103c0 -55 26 -88 99 -88zM183 634c-29 0 -53 24 -53 53s24 53 53 53s53 -24 53 -53s-24 -53 -53 -53zM371 634c-29 0 -53 24 -53 53s24 53 53 53s53 -24 53 -53s-24 -53 -53 -53z" />
    <glyph glyph-name="aring" unicode="&#xe5;" horiz-adv-x="552" 
d="M221 -9c-97 0 -174 47 -174 154c0 120 128 162 262 162h75v38c0 84 -32 118 -112 118c-72 0 -112 -31 -120 -94h-83c11 120 106 163 207 163c100 0 191 -40 191 -187v-345h-83v66c-39 -49 -86 -75 -163 -75zM229 57c88 0 155 46 155 126v65h-72
c-105 0 -182 -27 -182 -103c0 -55 26 -88 99 -88zM277 644c31 0 53 25 53 58s-22 58 -53 58s-53 -25 -53 -58s22 -58 53 -58zM277 598c-59 0 -107 47 -107 104s48 104 107 104s107 -47 107 -104s-48 -104 -107 -104z" />
    <glyph glyph-name="ae" unicode="&#xe6;" horiz-adv-x="892" 
d="M622 -9c-88 0 -157 40 -197 108c-48 -76 -108 -108 -204 -108c-97 0 -174 47 -174 154c0 123 125 165 259 165h78v34c0 84 -35 119 -112 119c-72 0 -112 -31 -120 -94h-83c11 120 106 163 207 163c69 0 133 -22 164 -89c40 56 100 89 176 89c116 0 227 -71 227 -260v-25
h-379c4 -120 55 -187 159 -187c78 0 122 30 133 91h83c-19 -105 -104 -160 -217 -160zM229 57c88 0 155 46 155 126v64h-75c-105 0 -179 -25 -179 -102c0 -55 26 -88 99 -88zM758 310c-8 111 -58 153 -142 153c-81 0 -136 -58 -149 -153h291z" />
    <glyph glyph-name="ccedilla" unicode="&#xe7;" horiz-adv-x="582" 
d="M292 -214c-59 0 -96 33 -100 84h54c4 -19 18 -36 43 -36s40 15 40 36s-15 34 -36 34c-13 0 -23 -5 -28 -8l-32 28l38 69c-128 16 -220 113 -220 263v8c0 160 114 268 254 268c109 0 211 -50 227 -183h-82c-13 83 -73 114 -145 114c-95 0 -168 -76 -168 -199v-8
c0 -129 70 -196 171 -196c74 0 142 43 150 128h77c-11 -109 -95 -188 -212 -196l-24 -45c46 5 94 -19 94 -81c0 -53 -47 -80 -101 -80z" />
    <glyph glyph-name="egrave" unicode="&#xe8;" horiz-adv-x="580" 
d="M304 -9c-148 0 -253 105 -253 265v8c0 158 101 268 245 268c121 0 235 -73 235 -260v-27h-394c4 -120 60 -185 168 -185c82 0 128 30 139 91h83c-19 -105 -104 -160 -223 -160zM446 312c-8 108 -63 151 -150 151c-85 0 -141 -58 -156 -151h306zM167 760h104l62 -147h-62z
" />
    <glyph glyph-name="eacute" unicode="&#xe9;" horiz-adv-x="580" 
d="M304 -9c-148 0 -253 105 -253 265v8c0 158 101 268 245 268c121 0 235 -73 235 -260v-27h-394c4 -120 60 -185 168 -185c82 0 128 30 139 91h83c-19 -105 -104 -160 -223 -160zM446 312c-8 108 -63 151 -150 151c-85 0 -141 -58 -156 -151h306zM321 760h104l-104 -147
h-62z" />
    <glyph glyph-name="ecircumflex" unicode="&#xea;" horiz-adv-x="580" 
d="M304 -9c-148 0 -253 105 -253 265v8c0 158 101 268 245 268c121 0 235 -73 235 -260v-27h-394c4 -120 60 -185 168 -185c82 0 128 30 139 91h83c-19 -105 -104 -160 -223 -160zM446 312c-8 108 -63 151 -150 151c-85 0 -141 -58 -156 -151h306zM259 757h75l107 -144h-61
l-85 75l-85 -75h-59z" />
    <glyph glyph-name="edieresis" unicode="&#xeb;" horiz-adv-x="580" 
d="M304 -9c-148 0 -253 105 -253 265v8c0 158 101 268 245 268c121 0 235 -73 235 -260v-27h-394c4 -120 60 -185 168 -185c82 0 128 30 139 91h83c-19 -105 -104 -160 -223 -160zM446 312c-8 108 -63 151 -150 151c-85 0 -141 -58 -156 -151h306zM202 634
c-29 0 -53 24 -53 53s24 53 53 53s53 -24 53 -53s-24 -53 -53 -53zM390 634c-29 0 -53 24 -53 53s24 53 53 53s53 -24 53 -53s-24 -53 -53 -53z" />
    <glyph glyph-name="igrave" unicode="&#xec;" horiz-adv-x="267" 
d="M92 523h83v-523h-83v523zM4 760h104l62 -147h-62z" />
    <glyph glyph-name="iacute" unicode="&#xed;" horiz-adv-x="267" 
d="M92 523h83v-523h-83v523zM158 760h104l-104 -147h-62z" />
    <glyph glyph-name="icircumflex" unicode="&#xee;" horiz-adv-x="267" 
d="M92 523h83v-523h-83v523zM96 757h75l107 -144h-61l-85 75l-85 -75h-59z" />
    <glyph glyph-name="idieresis" unicode="&#xef;" horiz-adv-x="267" 
d="M43 634c-29 0 -53 24 -53 53s24 53 53 53s53 -24 53 -53s-24 -53 -53 -53zM223 634c-29 0 -53 24 -53 53s24 53 53 53s53 -24 53 -53s-24 -53 -53 -53zM92 523h83v-523h-83v523z" />
    <glyph glyph-name="eth" unicode="&#xf0;" horiz-adv-x="616" 
d="M162 621l97 57c-40 35 -83 67 -124 95h107c25 -15 53 -32 84 -55l83 49l29 -49l-67 -39c98 -93 194 -231 194 -395v-22c0 -158 -110 -271 -258 -271c-149 0 -256 113 -256 266v8c0 157 110 267 238 267c69 0 118 -31 151 -72c-32 64 -81 124 -137 179l-112 -66zM308 60
c105 0 171 79 171 197v7c0 121 -66 199 -170 199c-105 0 -172 -78 -172 -198v-8c0 -120 64 -197 171 -197z" />
    <glyph glyph-name="ntilde" unicode="&#xf1;" horiz-adv-x="610" 
d="M90 523h83v-83c24 49 81 92 168 92c108 0 184 -59 184 -211v-321h-83v327c0 92 -39 133 -123 133c-77 0 -146 -49 -146 -143v-317h-83v523zM358 619c-43 0 -79 43 -108 43c-19 0 -35 -18 -40 -45h-60c8 72 49 116 101 116c42 0 78 -43 107 -43c19 0 35 18 40 45h60
c-8 -72 -49 -116 -100 -116z" />
    <glyph glyph-name="ograve" unicode="&#xf2;" horiz-adv-x="616" 
d="M308 60c105 0 171 79 171 197v7c0 121 -67 199 -171 199c-105 0 -171 -78 -171 -198v-8c0 -120 64 -197 171 -197zM307 -9c-149 0 -256 113 -256 266v8c0 157 109 267 257 267s257 -109 257 -266v-8c0 -158 -110 -267 -258 -267zM179 760h104l62 -147h-62z" />
    <glyph glyph-name="oacute" unicode="&#xf3;" horiz-adv-x="616" 
d="M308 60c105 0 171 79 171 197v7c0 121 -67 199 -171 199c-105 0 -171 -78 -171 -198v-8c0 -120 64 -197 171 -197zM307 -9c-149 0 -256 113 -256 266v8c0 157 109 267 257 267s257 -109 257 -266v-8c0 -158 -110 -267 -258 -267zM333 760h104l-104 -147h-62z" />
    <glyph glyph-name="ocircumflex" unicode="&#xf4;" horiz-adv-x="616" 
d="M308 60c105 0 171 79 171 197v7c0 121 -67 199 -171 199c-105 0 -171 -78 -171 -198v-8c0 -120 64 -197 171 -197zM307 -9c-149 0 -256 113 -256 266v8c0 157 109 267 257 267s257 -109 257 -266v-8c0 -158 -110 -267 -258 -267zM271 757h75l107 -144h-61l-85 75l-85 -75
h-59z" />
    <glyph glyph-name="otilde" unicode="&#xf5;" horiz-adv-x="616" 
d="M308 60c105 0 171 79 171 197v7c0 121 -67 199 -171 199c-105 0 -171 -78 -171 -198v-8c0 -120 64 -197 171 -197zM307 -9c-149 0 -256 113 -256 266v8c0 157 109 267 257 267s257 -109 257 -266v-8c0 -158 -110 -267 -258 -267zM362 619c-43 0 -79 43 -108 43
c-19 0 -35 -18 -40 -45h-60c8 72 49 116 101 116c42 0 78 -43 107 -43c19 0 35 18 40 45h60c-8 -72 -49 -116 -100 -116z" />
    <glyph glyph-name="odieresis" unicode="&#xf6;" horiz-adv-x="616" 
d="M308 60c105 0 171 79 171 197v7c0 121 -67 199 -171 199c-105 0 -171 -78 -171 -198v-8c0 -120 64 -197 171 -197zM307 -9c-149 0 -256 113 -256 266v8c0 157 109 267 257 267s257 -109 257 -266v-8c0 -158 -110 -267 -258 -267zM214 634c-29 0 -53 24 -53 53
s24 53 53 53s53 -24 53 -53s-24 -53 -53 -53zM402 634c-29 0 -53 24 -53 53s24 53 53 53s53 -24 53 -53s-24 -53 -53 -53z" />
    <glyph glyph-name="divide" unicode="&#xf7;" horiz-adv-x="531" 
d="M265 89c-35 0 -64 28 -64 64s29 64 64 64s64 -28 64 -64s-29 -64 -64 -64zM42 377h447v-70h-447v70zM265 467c-35 0 -64 28 -64 64s29 64 64 64s64 -28 64 -64s-29 -64 -64 -64z" />
    <glyph glyph-name="oslash" unicode="&#xf8;" horiz-adv-x="616" 
d="M29 1l77 85c-35 45 -55 103 -55 171v8c0 157 109 267 257 267c60 0 113 -18 156 -50l68 74l44 -38l-70 -77c37 -47 59 -106 59 -175v-8c0 -158 -110 -267 -258 -267c-64 0 -117 19 -160 54l-74 -82zM308 60c105 0 171 79 171 197v7c0 47 -10 85 -27 117l-256 -281
c30 -27 67 -40 112 -40zM137 257c0 -43 8 -80 24 -111l253 280c-29 25 -64 37 -106 37c-105 0 -171 -78 -171 -198v-8z" />
    <glyph glyph-name="ugrave" unicode="&#xf9;" horiz-adv-x="606" 
d="M267 -9c-104 0 -182 57 -182 201v331h83v-327c0 -92 38 -133 121 -133c75 0 144 49 144 143v317h83v-523h-83v83c-24 -49 -82 -92 -166 -92zM174 760h104l62 -147h-62z" />
    <glyph glyph-name="uacute" unicode="&#xfa;" horiz-adv-x="606" 
d="M267 -9c-104 0 -182 57 -182 201v331h83v-327c0 -92 38 -133 121 -133c75 0 144 49 144 143v317h83v-523h-83v83c-24 -49 -82 -92 -166 -92zM328 760h104l-104 -147h-62z" />
    <glyph glyph-name="ucircumflex" unicode="&#xfb;" horiz-adv-x="606" 
d="M267 -9c-104 0 -182 57 -182 201v331h83v-327c0 -92 38 -133 121 -133c75 0 144 49 144 143v317h83v-523h-83v83c-24 -49 -82 -92 -166 -92zM266 757h75l107 -144h-61l-85 75l-85 -75h-59z" />
    <glyph glyph-name="udieresis" unicode="&#xfc;" horiz-adv-x="606" 
d="M267 -9c-104 0 -182 57 -182 201v331h83v-327c0 -92 38 -133 121 -133c75 0 144 49 144 143v317h83v-523h-83v83c-24 -49 -82 -92 -166 -92zM209 634c-29 0 -53 24 -53 53s24 53 53 53s53 -24 53 -53s-24 -53 -53 -53zM397 634c-29 0 -53 24 -53 53s24 53 53 53
s53 -24 53 -53s-24 -53 -53 -53z" />
    <glyph glyph-name="yacute" unicode="&#xfd;" horiz-adv-x="541" 
d="M236 54l-205 469h89l160 -375l145 375h85l-289 -705h-84zM303 760h104l-104 -147h-62z" />
    <glyph glyph-name="thorn" unicode="&#xfe;" horiz-adv-x="639" 
d="M90 773h83v-338c29 51 100 97 177 97c137 0 238 -99 238 -263v-8c0 -160 -94 -270 -238 -270c-87 0 -146 43 -177 95v-268h-83v955zM342 60c104 0 160 69 160 197v8c0 132 -73 198 -161 198c-97 0 -171 -64 -171 -198v-8c0 -133 70 -197 172 -197z" />
    <glyph glyph-name="ydieresis" unicode="&#xff;" horiz-adv-x="541" 
d="M236 54l-205 469h89l160 -375l145 375h85l-289 -705h-84zM184 634c-29 0 -53 24 -53 53s24 53 53 53s53 -24 53 -53s-24 -53 -53 -53zM372 634c-29 0 -53 24 -53 53s24 53 53 53s53 -24 53 -53s-24 -53 -53 -53z" />
    <glyph glyph-name="Amacron" unicode="&#x100;" horiz-adv-x="674" 
d="M288 715h114l242 -715h-86l-70 206h-295l-69 -206h-82zM217 275h248l-124 368zM210 850h266v-64h-266v64z" />
    <glyph glyph-name="amacron" unicode="&#x101;" horiz-adv-x="540" 
d="M221 -9c-97 0 -174 47 -174 154c0 120 128 162 262 162h75v38c0 84 -32 118 -112 118c-72 0 -112 -31 -120 -94h-83c11 120 106 163 207 163c100 0 191 -40 191 -187v-345h-83v66c-39 -49 -86 -75 -163 -75zM229 57c88 0 155 46 155 126v65h-72
c-105 0 -182 -27 -182 -103c0 -55 26 -88 99 -88zM146 712h262v-64h-262v64z" />
    <glyph glyph-name="Abreve" unicode="&#x102;" horiz-adv-x="674" 
d="M288 715h114l242 -715h-86l-70 206h-295l-69 -206h-82zM217 275h248l-124 368zM341 767c-71 0 -129 56 -132 132h66c7 -39 26 -64 66 -64c43 0 64 24 72 64h64c-5 -76 -63 -132 -136 -132z" />
    <glyph glyph-name="abreve" unicode="&#x103;" horiz-adv-x="540" 
d="M221 -9c-97 0 -174 47 -174 154c0 120 128 162 262 162h75v38c0 84 -32 118 -112 118c-72 0 -112 -31 -120 -94h-83c11 120 106 163 207 163c100 0 191 -40 191 -187v-345h-83v66c-39 -49 -86 -75 -163 -75zM229 57c88 0 155 46 155 126v65h-72
c-105 0 -182 -27 -182 -103c0 -55 26 -88 99 -88zM275 619c-71 0 -129 56 -132 132h66c7 -39 26 -64 66 -64c43 0 64 24 72 64h64c-5 -76 -63 -132 -136 -132z" />
    <glyph glyph-name="Aogonek" unicode="&#x104;" horiz-adv-x="674" 
d="M585 -182c-63 0 -104 29 -104 80c0 41 32 78 72 99l-71 209h-295l-69 -206h-82l246 715h114l241 -712c-56 -32 -77 -58 -77 -89c0 -24 13 -36 38 -36c17 0 37 3 52 11v-59c-17 -7 -37 -12 -65 -12zM211 275h248l-124 368z" />
    <glyph glyph-name="aogonek" unicode="&#x105;" horiz-adv-x="540" 
d="M407 -182c-63 0 -104 29 -104 80c0 43 32 78 75 101v67c-39 -49 -86 -75 -163 -75c-97 0 -174 47 -174 154c0 120 128 162 262 162h75v38c0 84 -32 118 -112 118c-72 0 -112 -31 -120 -94h-83c11 120 106 163 207 163c100 0 191 -40 191 -187v-341
c-53 -30 -79 -60 -79 -90c0 -24 13 -36 38 -36c17 0 37 3 52 11v-59c-17 -7 -37 -12 -65 -12zM223 57c88 0 155 46 155 126v65h-72c-105 0 -182 -27 -182 -103c0 -55 26 -88 99 -88z" />
    <glyph glyph-name="Cacute" unicode="&#x106;" horiz-adv-x="730" 
d="M395 -9c-207 0 -334 142 -334 362v8c0 212 141 365 336 365c149 0 274 -79 290 -234h-86c-19 109 -80 165 -203 165c-148 0 -247 -115 -247 -295v-8c0 -182 92 -292 246 -292c117 0 197 58 216 175h81c-25 -165 -139 -246 -299 -246zM418 898h104l-98 -127h-62z" />
    <glyph glyph-name="cacute" unicode="&#x107;" horiz-adv-x="570" 
d="M307 -9c-146 0 -256 102 -256 265v8c0 160 114 268 254 268c109 0 211 -50 227 -183h-82c-13 83 -73 114 -145 114c-95 0 -168 -76 -168 -199v-8c0 -129 70 -196 171 -196c74 0 142 43 150 128h77c-11 -113 -103 -197 -228 -197zM329 760h104l-104 -147h-62z" />
    <glyph glyph-name="Ccircumflex" unicode="&#x108;" horiz-adv-x="730" 
d="M395 -9c-207 0 -334 142 -334 362v8c0 212 141 365 336 365c149 0 274 -79 290 -234h-86c-19 109 -80 165 -203 165c-148 0 -247 -115 -247 -295v-8c0 -182 92 -292 246 -292c117 0 197 58 216 175h81c-25 -165 -139 -246 -299 -246zM362 898h75l107 -127h-61l-85 58
l-85 -58h-59z" />
    <glyph glyph-name="ccircumflex" unicode="&#x109;" horiz-adv-x="570" 
d="M307 -9c-146 0 -256 102 -256 265v8c0 160 114 268 254 268c109 0 211 -50 227 -183h-82c-13 83 -73 114 -145 114c-95 0 -168 -76 -168 -199v-8c0 -129 70 -196 171 -196c74 0 142 43 150 128h77c-11 -113 -103 -197 -228 -197zM267 757h75l107 -144h-61l-85 75l-85 -75
h-59z" />
    <glyph glyph-name="Cdotaccent" unicode="&#x10a;" horiz-adv-x="730" 
d="M395 -9c-207 0 -334 142 -334 362v8c0 212 141 365 336 365c149 0 274 -79 290 -234h-86c-19 109 -80 165 -203 165c-148 0 -247 -115 -247 -295v-8c0 -182 92 -292 246 -292c117 0 197 58 216 175h81c-25 -165 -139 -246 -299 -246zM395 787c-31 0 -55 24 -55 55
s24 55 55 55s55 -24 55 -55s-24 -55 -55 -55z" />
    <glyph glyph-name="cdotaccent" unicode="&#x10b;" horiz-adv-x="570" 
d="M307 -9c-146 0 -256 102 -256 265v8c0 160 114 268 254 268c109 0 211 -50 227 -183h-82c-13 83 -73 114 -145 114c-95 0 -168 -76 -168 -199v-8c0 -129 70 -196 171 -196c74 0 142 43 150 128h77c-11 -113 -103 -197 -228 -197zM304 632c-31 0 -55 24 -55 55
s24 55 55 55s55 -24 55 -55s-24 -55 -55 -55z" />
    <glyph glyph-name="Ccaron" unicode="&#x10c;" horiz-adv-x="730" 
d="M395 -9c-207 0 -334 142 -334 362v8c0 212 141 365 336 365c149 0 274 -79 290 -234h-86c-19 109 -80 165 -203 165c-148 0 -247 -115 -247 -295v-8c0 -182 92 -292 246 -292c117 0 197 58 216 175h81c-25 -165 -139 -246 -299 -246zM254 898h61l85 -58l85 58h59
l-108 -127h-75z" />
    <glyph glyph-name="ccaron" unicode="&#x10d;" horiz-adv-x="570" 
d="M307 -9c-146 0 -256 102 -256 265v8c0 160 114 268 254 268c109 0 211 -50 227 -183h-82c-13 83 -73 114 -145 114c-95 0 -168 -76 -168 -199v-8c0 -129 70 -196 171 -196c74 0 142 43 150 128h77c-11 -113 -103 -197 -228 -197zM159 757h61l85 -75l85 75h59l-108 -144
h-75z" />
    <glyph glyph-name="Dcaron" unicode="&#x10e;" horiz-adv-x="696" 
d="M281 71c183 0 276 110 276 285v8c0 165 -80 281 -277 281h-97v-574h98zM96 715h189c245 0 362 -152 362 -351v-9c0 -198 -113 -355 -364 -355h-187v715zM177 898h61l85 -58l85 58h59l-108 -127h-75z" />
    <glyph glyph-name="dcaron" unicode="&#x10f;" horiz-adv-x="627" 
d="M287 -9c-137 0 -236 96 -236 260v8c0 160 100 273 244 273c88 0 140 -42 171 -93v334h83v-773h-83v90c-29 -51 -104 -99 -179 -99zM296 60c97 0 173 64 173 198v8c0 135 -63 197 -166 197c-104 0 -166 -72 -166 -200v-8c0 -132 71 -195 159 -195zM609 773h94l-48 -175
h-58z" />
    <glyph glyph-name="Dcroat" unicode="&#x110;" horiz-adv-x="716" 
d="M34 392h76v323h189c245 0 362 -152 362 -351v-9c0 -198 -113 -355 -364 -355h-187v325h-76v67zM295 71c183 0 276 110 276 285v8c0 165 -80 281 -277 281h-97v-253h207v-67h-207v-254h98z" />
    <glyph glyph-name="dcroat" unicode="&#x111;" horiz-adv-x="627" 
d="M282 676h178v97h83v-97h75v-61h-75v-615h-83v90c-29 -51 -104 -99 -179 -99c-137 0 -236 96 -236 260v8c0 160 100 273 244 273c88 0 140 -42 171 -93v176h-178v61zM290 60c97 0 173 64 173 198v8c0 135 -63 197 -166 197c-104 0 -166 -72 -166 -200v-8
c0 -132 71 -195 159 -195z" />
    <glyph glyph-name="Emacron" unicode="&#x112;" horiz-adv-x="566" 
d="M96 715h417v-71h-330v-243h266v-71h-266v-259h348v-71h-435v715zM179 850h266v-64h-266v64z" />
    <glyph glyph-name="emacron" unicode="&#x113;" horiz-adv-x="568" 
d="M304 -9c-148 0 -253 105 -253 265v8c0 158 101 268 245 268c121 0 235 -73 235 -260v-27h-394c4 -120 60 -185 168 -185c82 0 128 30 139 91h83c-19 -105 -104 -160 -223 -160zM446 312c-8 108 -63 151 -150 151c-85 0 -141 -58 -156 -151h306zM165 712h262v-64h-262v64z
" />
    <glyph glyph-name="Ebreve" unicode="&#x114;" horiz-adv-x="566" 
d="M96 715h417v-71h-330v-243h266v-71h-266v-259h348v-71h-435v715zM317 767c-71 0 -129 56 -132 132h66c7 -39 26 -64 66 -64c43 0 64 24 72 64h64c-5 -76 -63 -132 -136 -132z" />
    <glyph glyph-name="ebreve" unicode="&#x115;" horiz-adv-x="568" 
d="M304 -9c-148 0 -253 105 -253 265v8c0 158 101 268 245 268c121 0 235 -73 235 -260v-27h-394c4 -120 60 -185 168 -185c82 0 128 30 139 91h83c-19 -105 -104 -160 -223 -160zM446 312c-8 108 -63 151 -150 151c-85 0 -141 -58 -156 -151h306zM286 619
c-71 0 -129 56 -132 132h66c7 -39 26 -64 66 -64c43 0 64 24 72 64h64c-5 -76 -63 -132 -136 -132z" />
    <glyph glyph-name="Edotaccent" unicode="&#x116;" horiz-adv-x="566" 
d="M96 715h417v-71h-330v-243h266v-71h-266v-259h348v-71h-435v715zM312 787c-31 0 -55 24 -55 55s24 55 55 55s55 -24 55 -55s-24 -55 -55 -55z" />
    <glyph glyph-name="edotaccent" unicode="&#x117;" horiz-adv-x="568" 
d="M304 -9c-148 0 -253 105 -253 265v8c0 158 101 268 245 268c121 0 235 -73 235 -260v-27h-394c4 -120 60 -185 168 -185c82 0 128 30 139 91h83c-19 -105 -104 -160 -223 -160zM446 312c-8 108 -63 151 -150 151c-85 0 -141 -58 -156 -151h306zM296 632
c-31 0 -55 24 -55 55s24 55 55 55s55 -24 55 -55s-24 -55 -55 -55z" />
    <glyph glyph-name="Eogonek" unicode="&#x118;" horiz-adv-x="566" 
d="M454 -182c-63 0 -104 29 -104 80c0 43 35 81 78 102h-338v715h417v-71h-330v-243h266v-71h-266v-259h348v-71h-28c-45 -31 -68 -55 -68 -86c0 -24 13 -36 38 -36c17 0 37 3 52 11v-59c-17 -7 -37 -12 -65 -12z" />
    <glyph glyph-name="eogonek" unicode="&#x119;" horiz-adv-x="568" 
d="M388 -182c-63 0 -104 29 -104 80c0 40 30 76 69 97c-19 -3 -36 -4 -55 -4c-148 0 -253 105 -253 265v8c0 158 101 268 245 268c121 0 235 -73 235 -260v-27h-394c4 -120 60 -185 168 -185c82 0 128 30 139 91h83c-13 -81 -65 -119 -91 -140c-39 -33 -67 -66 -67 -97
c0 -24 13 -36 38 -36c17 0 37 3 52 11v-59c-17 -7 -37 -12 -65 -12zM440 312c-8 108 -63 151 -150 151c-85 0 -141 -58 -156 -151h306z" />
    <glyph glyph-name="Ecaron" unicode="&#x11a;" horiz-adv-x="566" 
d="M96 715h417v-71h-330v-243h266v-71h-266v-259h348v-71h-435v715zM171 898h61l85 -58l85 58h59l-108 -127h-75z" />
    <glyph glyph-name="ecaron" unicode="&#x11b;" horiz-adv-x="568" 
d="M304 -9c-148 0 -253 105 -253 265v8c0 158 101 268 245 268c121 0 235 -73 235 -260v-27h-394c4 -120 60 -185 168 -185c82 0 128 30 139 91h83c-19 -105 -104 -160 -223 -160zM446 312c-8 108 -63 151 -150 151c-85 0 -141 -58 -156 -151h306zM151 757h61l85 -75l85 75
h59l-108 -144h-75z" />
    <glyph glyph-name="Gcircumflex" unicode="&#x11c;" horiz-adv-x="767" 
d="M407 -9c-220 0 -346 153 -346 362v8c0 209 141 365 346 365c141 0 270 -67 291 -227h-87c-20 113 -98 158 -202 158c-165 0 -258 -120 -258 -295v-8c0 -177 88 -293 256 -293c155 0 222 101 225 228h-209v72h294v-53c0 -207 -126 -317 -310 -317zM364 898h75l107 -127
h-61l-85 58l-85 -58h-59z" />
    <glyph glyph-name="gcircumflex" unicode="&#x11d;" horiz-adv-x="627" 
d="M299 -191c-155 0 -224 73 -237 161h85c12 -61 62 -91 151 -91c103 0 168 49 168 161v76c-29 -51 -102 -99 -177 -99c-137 0 -238 104 -238 248v7c0 142 100 260 244 260c88 0 140 -42 171 -93v84h83v-488c0 -152 -105 -226 -250 -226zM298 86c97 0 171 68 171 185v7
c0 117 -63 185 -166 185c-104 0 -166 -78 -166 -187v-8c0 -114 73 -182 161 -182zM263 757h75l107 -144h-61l-85 75l-85 -75h-59z" />
    <glyph glyph-name="Gbreve" unicode="&#x11e;" horiz-adv-x="767" 
d="M407 -9c-220 0 -346 153 -346 362v8c0 209 141 365 346 365c141 0 270 -67 291 -227h-87c-20 113 -98 158 -202 158c-165 0 -258 -120 -258 -295v-8c0 -177 88 -293 256 -293c155 0 222 101 225 228h-209v72h294v-53c0 -207 -126 -317 -310 -317zM399 767
c-71 0 -129 56 -132 132h66c7 -39 26 -64 66 -64c43 0 64 24 72 64h64c-5 -76 -63 -132 -136 -132z" />
    <glyph glyph-name="gbreve" unicode="&#x11f;" horiz-adv-x="627" 
d="M299 -191c-155 0 -224 73 -237 161h85c12 -61 62 -91 151 -91c103 0 168 49 168 161v76c-29 -51 -102 -99 -177 -99c-137 0 -238 104 -238 248v7c0 142 100 260 244 260c88 0 140 -42 171 -93v84h83v-488c0 -152 -105 -226 -250 -226zM298 86c97 0 171 68 171 185v7
c0 117 -63 185 -166 185c-104 0 -166 -78 -166 -187v-8c0 -114 73 -182 161 -182zM298 619c-71 0 -129 56 -132 132h66c7 -39 26 -64 66 -64c43 0 64 24 72 64h64c-5 -76 -63 -132 -136 -132z" />
    <glyph glyph-name="Gdotaccent" unicode="&#x120;" horiz-adv-x="767" 
d="M407 -9c-220 0 -346 153 -346 362v8c0 209 141 365 346 365c141 0 270 -67 291 -227h-87c-20 113 -98 158 -202 158c-165 0 -258 -120 -258 -295v-8c0 -177 88 -293 256 -293c155 0 222 101 225 228h-209v72h294v-53c0 -207 -126 -317 -310 -317zM401 787
c-31 0 -55 24 -55 55s24 55 55 55s55 -24 55 -55s-24 -55 -55 -55z" />
    <glyph glyph-name="gdotaccent" unicode="&#x121;" horiz-adv-x="627" 
d="M299 -191c-155 0 -224 73 -237 161h85c12 -61 62 -91 151 -91c103 0 168 49 168 161v76c-29 -51 -102 -99 -177 -99c-137 0 -238 104 -238 248v7c0 142 100 260 244 260c88 0 140 -42 171 -93v84h83v-488c0 -152 -105 -226 -250 -226zM298 86c97 0 171 68 171 185v7
c0 117 -63 185 -166 185c-104 0 -166 -78 -166 -187v-8c0 -114 73 -182 161 -182zM300 632c-31 0 -55 24 -55 55s24 55 55 55s55 -24 55 -55s-24 -55 -55 -55z" />
    <glyph glyph-name="uni0122" unicode="&#x122;" horiz-adv-x="767" 
d="M407 -9c-220 0 -346 153 -346 362v8c0 209 141 365 346 365c141 0 270 -67 291 -227h-87c-20 113 -98 158 -202 158c-165 0 -258 -120 -258 -295v-8c0 -177 88 -293 256 -293c155 0 222 101 225 228h-209v72h294v-53c0 -207 -126 -317 -310 -317zM317 -194l58 157l80 -24
l-87 -159z" />
    <glyph glyph-name="uni0123" unicode="&#x123;" horiz-adv-x="627" 
d="M299 -191c-155 0 -224 73 -237 161h85c12 -61 62 -91 151 -91c103 0 168 49 168 161v76c-29 -51 -102 -99 -177 -99c-137 0 -238 104 -238 248v7c0 142 100 260 244 260c88 0 140 -42 171 -93v84h83v-488c0 -152 -105 -226 -250 -226zM298 86c97 0 171 68 171 185v7
c0 117 -63 185 -166 185c-104 0 -166 -78 -166 -187v-8c0 -114 73 -182 161 -182zM260 626l87 159l51 -26l-58 -157z" />
    <glyph glyph-name="Hcircumflex" unicode="&#x124;" horiz-adv-x="730" 
d="M96 715h87v-324h376v324h87v-715h-87v318h-376v-318h-87v715zM334 898h75l107 -127h-61l-85 58l-85 -58h-59z" />
    <glyph glyph-name="hcircumflex" unicode="&#x125;" horiz-adv-x="598" 
d="M90 773h83v-333c24 49 81 92 168 92c108 0 184 -59 184 -211v-321h-83v327c0 92 -39 133 -123 133c-77 0 -146 -49 -146 -143v-317h-83v773zM282 948h75l107 -127h-61l-85 58l-85 -58h-59z" />
    <glyph glyph-name="Hbar" unicode="&#x126;" horiz-adv-x="730" 
d="M20 560h70v155h87v-155h376v155h87v-155h70v-67h-70v-493h-87v318h-376v-318h-87v493h-70v67zM553 391v102h-376v-102h376z" />
    <glyph glyph-name="hbar" unicode="&#x127;" horiz-adv-x="598" 
d="M9 676h75v97h83v-97h178v-61h-178v-175c24 49 81 92 168 92c108 0 184 -59 184 -211v-321h-83v327c0 92 -39 133 -123 133c-77 0 -146 -49 -146 -143v-317h-83v615h-75v61z" />
    <glyph glyph-name="Itilde" unicode="&#x128;" horiz-adv-x="277" 
d="M101 715h87v-715h-87v715zM200 774c-43 0 -79 43 -108 43c-19 0 -35 -18 -40 -45h-60c8 72 49 116 101 116c42 0 78 -43 107 -43c19 0 35 18 40 45h60c-8 -72 -49 -116 -100 -116z" />
    <glyph glyph-name="itilde" unicode="&#x129;" horiz-adv-x="255" 
d="M92 523h83v-523h-83v523zM188 619c-43 0 -79 43 -108 43c-19 0 -35 -18 -40 -45h-60c8 72 49 116 101 116c42 0 78 -43 107 -43c19 0 35 18 40 45h60c-8 -72 -49 -116 -100 -116z" />
    <glyph glyph-name="Imacron" unicode="&#x12a;" horiz-adv-x="277" 
d="M101 715h87v-715h-87v715zM11 850h266v-64h-266v64z" />
    <glyph glyph-name="imacron" unicode="&#x12b;" horiz-adv-x="255" 
d="M30 712h194v-64h-194v64zM86 523h83v-523h-83v523z" />
    <glyph glyph-name="Ibreve" unicode="&#x12c;" horiz-adv-x="277" 
d="M101 715h87v-715h-87v715zM144 767c-71 0 -129 56 -132 132h66c7 -39 26 -64 66 -64c43 0 64 24 72 64h64c-5 -76 -63 -132 -136 -132z" />
    <glyph glyph-name="ibreve" unicode="&#x12d;" horiz-adv-x="255" 
d="M92 523h83v-523h-83v523zM132 619c-71 0 -129 56 -132 132h66c7 -39 26 -64 66 -64c43 0 64 24 72 64h64c-5 -76 -63 -132 -136 -132z" />
    <glyph glyph-name="Iogonek" unicode="&#x12e;" horiz-adv-x="277" 
d="M130 -182c-63 0 -104 29 -104 80c0 40 30 75 69 98v719h87v-711c-55 -31 -77 -59 -77 -90c0 -24 13 -36 38 -36c17 0 37 3 52 11v-59c-17 -7 -37 -12 -65 -12z" />
    <glyph glyph-name="iogonek" unicode="&#x12f;" horiz-adv-x="255" 
d="M120 -182c-63 0 -104 29 -104 80c0 41 30 77 70 98v527h83v-520c-51 -31 -74 -58 -74 -89c0 -24 13 -36 38 -36c17 0 37 3 52 11v-59c-17 -7 -37 -12 -65 -12zM126 632c-31 0 -55 24 -55 55s24 55 55 55s55 -24 55 -55s-24 -55 -55 -55z" />
    <glyph glyph-name="Idotaccent" unicode="&#x130;" horiz-adv-x="277" 
d="M101 715h87v-715h-87v715zM144 787c-31 0 -55 24 -55 55s24 55 55 55s55 -24 55 -55s-24 -55 -55 -55z" />
    <glyph glyph-name="dotlessi" unicode="&#x131;" horiz-adv-x="267" 
d="M92 523h83v-523h-83v523z" />
    <glyph glyph-name="IJ" unicode="&#x132;" horiz-adv-x="657" 
d="M101 715h87v-715h-87v715zM381 -9c-55 0 -81 8 -100 19v72c27 -11 52 -20 95 -20c72 0 116 40 116 136v517h87v-521c0 -143 -89 -203 -198 -203z" />
    <glyph glyph-name="ij" unicode="&#x133;" horiz-adv-x="255" 
d="M92 523h83v-523h-83v523zM132 632c-31 0 -55 24 -55 55s24 55 55 55s55 -24 55 -55s-24 -55 -55 -55zM270 -121c60 5 77 34 77 81v563h83v-556c0 -100 -44 -154 -160 -158v70zM387 632c-31 0 -55 24 -55 55s24 55 55 55s55 -24 55 -55s-24 -55 -55 -55z" />
    <glyph glyph-name="Jcircumflex" unicode="&#x134;" horiz-adv-x="420" 
d="M144 -9c-55 0 -81 8 -100 19v72c27 -11 52 -20 95 -20c72 0 116 40 116 136v517h87v-521c0 -143 -89 -203 -198 -203zM259 898h75l107 -127h-61l-85 58l-85 -58h-59z" />
    <glyph glyph-name="jcircumflex" unicode="&#x135;" horiz-adv-x="255" 
d="M9 -121c60 5 77 34 77 81v563h83v-556c0 -100 -44 -154 -160 -158v70zM95 757h75l107 -144h-61l-85 75l-85 -75h-59z" />
    <glyph glyph-name="uni0136" unicode="&#x136;" horiz-adv-x="616" 
d="M96 715h87v-344l311 345h97l-318 -348l334 -368h-105l-319 349v-349h-87v715zM244 -194l58 157l80 -24l-87 -159z" />
    <glyph glyph-name="uni0137" unicode="&#x137;" horiz-adv-x="516" 
d="M90 773h83v-491l217 241h97l-224 -243l243 -280h-101l-232 271v-271h-83v773zM192 -194l58 157l80 -24l-87 -159z" />
    <glyph glyph-name="Lacute" unicode="&#x139;" horiz-adv-x="535" 
d="M96 715h87v-644h327v-71h-414v715zM160 898h104l-98 -127h-62z" />
    <glyph glyph-name="lacute" unicode="&#x13a;" horiz-adv-x="256" 
d="M92 773h84v-773h-84v773zM154 948h104l-98 -127h-62z" />
    <glyph glyph-name="uni013B" unicode="&#x13b;" horiz-adv-x="535" 
d="M96 715h87v-644h327v-71h-414v715zM220 -194l58 157l80 -24l-87 -159z" />
    <glyph glyph-name="uni013C" unicode="&#x13c;" horiz-adv-x="256" 
d="M92 773h84v-773h-84v773zM50 -194l58 157l80 -24l-87 -159z" />
    <glyph glyph-name="Lcaron" unicode="&#x13d;" horiz-adv-x="535" 
d="M315 715h94l-58 -157h-58zM90 715h87v-644h327v-71h-414v715z" />
    <glyph glyph-name="lcaron" unicode="&#x13e;" horiz-adv-x="256" 
d="M92 773h84v-773h-84v773zM236 773h94l-48 -175h-58z" />
    <glyph glyph-name="Ldot" unicode="&#x13f;" horiz-adv-x="535" 
d="M96 715h87v-644h327v-71h-414v715zM406 320c-35 0 -64 28 -64 64s29 64 64 64s64 -28 64 -64s-29 -64 -64 -64z" />
    <glyph glyph-name="ldot" unicode="&#x140;" horiz-adv-x="328" 
d="M92 773h84v-773h-84v773zM296 303c-35 0 -64 28 -64 64s29 64 64 64s64 -28 64 -64s-29 -64 -64 -64z" />
    <glyph glyph-name="Lslash" unicode="&#x141;" horiz-adv-x="567" 
d="M48 319l68 25v371h87v-339l199 73v-68l-199 -73v-237h327v-71h-414v276l-68 -25v68z" />
    <glyph glyph-name="lslash" unicode="&#x142;" horiz-adv-x="288" 
d="M26 381l76 43v349h84v-301l80 46v-70l-80 -46v-402h-84v354l-76 -43v70z" />
    <glyph glyph-name="Nacute" unicode="&#x143;" horiz-adv-x="724" 
d="M96 715h113l348 -591v591h83v-715h-100l-361 613v-613h-83v715zM397 898h104l-98 -127h-62z" />
    <glyph glyph-name="nacute" unicode="&#x144;" horiz-adv-x="598" 
d="M90 523h83v-83c24 49 81 92 168 92c108 0 184 -59 184 -211v-321h-83v327c0 92 -39 133 -123 133c-77 0 -146 -49 -146 -143v-317h-83v523zM329 760h104l-104 -147h-62z" />
    <glyph glyph-name="uni0145" unicode="&#x145;" horiz-adv-x="724" 
d="M96 715h113l348 -591v591h83v-715h-100l-361 613v-613h-83v715zM272 -194l58 157l80 -24l-87 -159z" />
    <glyph glyph-name="uni0146" unicode="&#x146;" horiz-adv-x="598" 
d="M90 523h83v-83c24 49 81 92 168 92c108 0 184 -59 184 -211v-321h-83v327c0 92 -39 133 -123 133c-77 0 -146 -49 -146 -143v-317h-83v523zM220 -194l58 157l80 -24l-87 -159z" />
    <glyph glyph-name="Ncaron" unicode="&#x147;" horiz-adv-x="724" 
d="M96 715h113l348 -591v591h83v-715h-100l-361 613v-613h-83v715zM233 898h61l85 -58l85 58h59l-108 -127h-75z" />
    <glyph glyph-name="ncaron" unicode="&#x148;" horiz-adv-x="598" 
d="M90 523h83v-83c24 49 81 92 168 92c108 0 184 -59 184 -211v-321h-83v327c0 92 -39 133 -123 133c-77 0 -146 -49 -146 -143v-317h-83v523zM159 757h61l85 -75l85 75h59l-108 -144h-75z" />
    <glyph glyph-name="napostrophe" unicode="&#x149;" horiz-adv-x="598" 
d="M90 523h83v-83c24 49 81 92 168 92c108 0 184 -59 184 -211v-321h-83v327c0 92 -39 133 -123 133c-77 0 -146 -49 -146 -143v-317h-83v523zM-38 514l89 212l79 -36l-117 -202z" />
    <glyph glyph-name="Eng" unicode="&#x14a;" horiz-adv-x="724" 
d="M436 -193c-55 0 -81 8 -100 19v72c27 -11 52 -20 95 -20c71 0 115 38 118 121l-376 614v-613h-83v715h113l348 -568v568h83v-705c0 -143 -89 -203 -198 -203z" />
    <glyph glyph-name="eng" unicode="&#x14b;" horiz-adv-x="598" 
d="M359 -121c60 5 77 34 77 81v367c0 92 -39 133 -123 133c-77 0 -146 -49 -146 -143v-317h-83v523h83v-83c24 49 81 92 168 92c108 0 184 -59 184 -211v-354c0 -100 -44 -154 -160 -158v70z" />
    <glyph glyph-name="Omacron" unicode="&#x14c;" horiz-adv-x="811" 
d="M415 63c159 0 257 120 257 293v8c0 160 -95 290 -259 290c-166 0 -262 -121 -262 -292v-8c0 -173 116 -291 264 -291zM415 -9c-212 0 -354 162 -354 362v8c0 204 142 363 352 363s349 -160 349 -361v-8c0 -202 -139 -364 -347 -364zM278 850h266v-64h-266v64z" />
    <glyph glyph-name="omacron" unicode="&#x14d;" horiz-adv-x="604" 
d="M308 60c105 0 171 79 171 197v7c0 121 -67 199 -171 199c-105 0 -171 -78 -171 -198v-8c0 -120 64 -197 171 -197zM307 -9c-149 0 -256 113 -256 266v8c0 157 109 267 257 267s257 -109 257 -266v-8c0 -158 -110 -267 -258 -267zM177 712h262v-64h-262v64z" />
    <glyph glyph-name="Obreve" unicode="&#x14e;" horiz-adv-x="811" 
d="M415 63c159 0 257 120 257 293v8c0 160 -95 290 -259 290c-166 0 -262 -121 -262 -292v-8c0 -173 116 -291 264 -291zM415 -9c-212 0 -354 162 -354 362v8c0 204 142 363 352 363s349 -160 349 -361v-8c0 -202 -139 -364 -347 -364zM409 767c-71 0 -129 56 -132 132h66
c7 -39 26 -64 66 -64c43 0 64 24 72 64h64c-5 -76 -63 -132 -136 -132z" />
    <glyph glyph-name="obreve" unicode="&#x14f;" horiz-adv-x="604" 
d="M308 60c105 0 171 79 171 197v7c0 121 -67 199 -171 199c-105 0 -171 -78 -171 -198v-8c0 -120 64 -197 171 -197zM307 -9c-149 0 -256 113 -256 266v8c0 157 109 267 257 267s257 -109 257 -266v-8c0 -158 -110 -267 -258 -267zM306 619c-71 0 -129 56 -132 132h66
c7 -39 26 -64 66 -64c43 0 64 24 72 64h64c-5 -76 -63 -132 -136 -132z" />
    <glyph glyph-name="Ohungarumlaut" unicode="&#x150;" horiz-adv-x="811" 
d="M415 63c159 0 257 120 257 293v8c0 160 -95 290 -259 290c-166 0 -262 -121 -262 -292v-8c0 -173 116 -291 264 -291zM415 -9c-212 0 -354 162 -354 362v8c0 204 142 363 352 363s349 -160 349 -361v-8c0 -202 -139 -364 -347 -364zM336 898h95l-72 -127h-60zM490 898h95
l-72 -127h-60z" />
    <glyph glyph-name="ohungarumlaut" unicode="&#x151;" horiz-adv-x="604" 
d="M308 60c105 0 171 79 171 197v7c0 121 -67 199 -171 199c-105 0 -171 -78 -171 -198v-8c0 -120 64 -197 171 -197zM307 -9c-149 0 -256 113 -256 266v8c0 157 109 267 257 267s257 -109 257 -266v-8c0 -158 -110 -267 -258 -267zM236 760h95l-75 -147h-60zM390 760h95
l-75 -147h-60z" />
    <glyph glyph-name="OE" unicode="&#x152;" horiz-adv-x="967" 
d="M61 360c0 198 113 355 364 355h477v-71h-314v-243h250v-71h-250v-259h332v-71h-497c-245 0 -362 152 -362 351v9zM427 644c-185 0 -276 -110 -276 -285v-8c0 -165 80 -281 277 -281h73v574h-74z" />
    <glyph glyph-name="oe" unicode="&#x153;" horiz-adv-x="1007" 
d="M307 -9c-149 0 -256 113 -256 266v8c0 157 109 267 257 267c99 0 173 -47 212 -126c37 79 107 126 203 126c121 0 235 -73 235 -260v-27h-394c4 -120 60 -185 168 -185c82 0 128 30 139 91h83c-19 -105 -104 -160 -223 -160c-100 0 -172 45 -211 125
c-40 -79 -114 -125 -213 -125zM308 60c105 0 171 79 171 197v7c0 121 -67 199 -171 199c-105 0 -171 -78 -171 -198v-8c0 -120 64 -197 171 -197zM873 312c-8 108 -63 151 -150 151c-85 0 -141 -58 -156 -151h306z" />
    <glyph glyph-name="Racute" unicode="&#x154;" horiz-adv-x="628" 
d="M96 715h215c136 0 250 -56 250 -199v-4c0 -117 -79 -177 -177 -195l219 -317h-97l-213 311h-110v-311h-87v715zM317 380c103 0 157 44 157 132v4c0 97 -60 129 -157 129h-134v-265h134zM335 898h104l-98 -127h-62z" />
    <glyph glyph-name="racute" unicode="&#x155;" horiz-adv-x="376" 
d="M90 523h83v-94c32 59 78 100 172 103v-78c-105 -5 -172 -38 -172 -167v-287h-83v523zM236 760h104l-104 -147h-62z" />
    <glyph glyph-name="uni0156" unicode="&#x156;" horiz-adv-x="628" 
d="M96 715h215c136 0 250 -56 250 -199v-4c0 -117 -79 -177 -177 -195l219 -317h-97l-213 311h-110v-311h-87v715zM317 380c103 0 157 44 157 132v4c0 97 -60 129 -157 129h-134v-265h134zM232 -194l58 157l80 -24l-87 -159z" />
    <glyph glyph-name="uni0157" unicode="&#x157;" horiz-adv-x="376" 
d="M90 523h83v-94c32 59 78 100 172 103v-78c-105 -5 -172 -38 -172 -167v-287h-83v523zM45 -194l58 157l80 -24l-87 -159z" />
    <glyph glyph-name="Rcaron" unicode="&#x158;" horiz-adv-x="628" 
d="M96 715h215c136 0 250 -56 250 -199v-4c0 -117 -79 -177 -177 -195l219 -317h-97l-213 311h-110v-311h-87v715zM317 380c103 0 157 44 157 132v4c0 97 -60 129 -157 129h-134v-265h134zM171 898h61l85 -58l85 58h59l-108 -127h-75z" />
    <glyph glyph-name="rcaron" unicode="&#x159;" horiz-adv-x="376" 
d="M90 523h83v-94c32 59 78 100 172 103v-78c-105 -5 -172 -38 -172 -167v-287h-83v523zM66 757h61l85 -75l85 75h59l-108 -144h-75z" />
    <glyph glyph-name="Sacute" unicode="&#x15a;" horiz-adv-x="627" 
d="M327 -9c-191 0 -260 105 -273 227h84c11 -85 46 -157 189 -157c92 0 163 54 163 135s-37 116 -173 137c-150 24 -239 69 -239 197c0 109 95 194 230 194c144 0 231 -69 246 -197h-78c-17 91 -68 127 -168 127c-99 0 -149 -48 -149 -116c0 -69 26 -107 172 -128
c159 -24 243 -74 243 -208c0 -120 -105 -211 -247 -211zM327 898h104l-98 -127h-62z" />
    <glyph glyph-name="sacute" unicode="&#x15b;" horiz-adv-x="480" 
d="M252 -9c-125 0 -200 62 -205 170h81c7 -63 39 -101 123 -101c80 0 114 27 114 83c0 55 -41 73 -122 88c-136 24 -182 63 -182 154c0 96 94 147 177 147c93 0 176 -38 189 -151h-80c-12 57 -43 82 -110 82c-60 0 -99 -30 -99 -75c0 -46 26 -67 122 -83
c108 -22 184 -43 184 -155c0 -96 -64 -159 -192 -159zM269 760h104l-104 -147h-62z" />
    <glyph glyph-name="Scircumflex" unicode="&#x15c;" horiz-adv-x="627" 
d="M327 -9c-191 0 -260 105 -273 227h84c11 -85 46 -157 189 -157c92 0 163 54 163 135s-37 116 -173 137c-150 24 -239 69 -239 197c0 109 95 194 230 194c144 0 231 -69 246 -197h-78c-17 91 -68 127 -168 127c-99 0 -149 -48 -149 -116c0 -69 26 -107 172 -128
c159 -24 243 -74 243 -208c0 -120 -105 -211 -247 -211zM271 898h75l107 -127h-61l-85 58l-85 -58h-59z" />
    <glyph glyph-name="scircumflex" unicode="&#x15d;" horiz-adv-x="480" 
d="M252 -9c-125 0 -200 62 -205 170h81c7 -63 39 -101 123 -101c80 0 114 27 114 83c0 55 -41 73 -122 88c-136 24 -182 63 -182 154c0 96 94 147 177 147c93 0 176 -38 189 -151h-80c-12 57 -43 82 -110 82c-60 0 -99 -30 -99 -75c0 -46 26 -67 122 -83
c108 -22 184 -43 184 -155c0 -96 -64 -159 -192 -159zM207 757h75l107 -144h-61l-85 75l-85 -75h-59z" />
    <glyph glyph-name="uni015E" unicode="&#x15e;" horiz-adv-x="627" 
d="M290 -214c-59 0 -96 33 -100 84h54c4 -19 18 -36 43 -36s40 15 40 36s-15 34 -36 34c-13 0 -23 -5 -28 -8l-32 28l38 70c-151 16 -211 114 -221 224h84c11 -85 46 -157 189 -157c92 0 163 54 163 135s-37 116 -173 137c-150 24 -239 69 -239 197c0 109 95 194 230 194
c144 0 231 -69 246 -197h-78c-17 91 -68 127 -168 127c-99 0 -149 -48 -149 -116c0 -69 26 -107 172 -128c159 -24 243 -74 243 -208c0 -120 -105 -211 -247 -211l-24 -44c46 5 94 -19 94 -81c0 -53 -47 -80 -101 -80z" />
    <glyph glyph-name="uni015F" unicode="&#x15f;" horiz-adv-x="480" 
d="M227 -214c-59 0 -96 33 -100 84h54c4 -19 18 -36 43 -36s40 15 40 36s-15 34 -36 34c-13 0 -23 -5 -28 -8l-32 28l38 70c-101 11 -161 71 -165 167h81c7 -63 39 -101 123 -101c80 0 114 27 114 83c0 55 -41 73 -122 88c-136 24 -182 63 -182 154c0 96 94 147 177 147
c93 0 176 -38 189 -151h-80c-12 57 -43 82 -110 82c-60 0 -99 -30 -99 -75c0 -46 26 -67 122 -83c108 -22 184 -43 184 -155c0 -92 -60 -155 -180 -159l-24 -44c46 5 94 -19 94 -81c0 -53 -47 -80 -101 -80z" />
    <glyph glyph-name="Scaron" unicode="&#x160;" horiz-adv-x="639" 
d="M327 -9c-191 0 -260 105 -273 227h84c11 -85 46 -157 189 -157c92 0 163 54 163 135s-37 116 -173 137c-150 24 -239 69 -239 197c0 109 95 194 230 194c144 0 231 -69 246 -197h-78c-17 91 -68 127 -168 127c-99 0 -149 -48 -149 -116c0 -69 26 -107 172 -128
c159 -24 243 -74 243 -208c0 -120 -105 -211 -247 -211zM163 898h61l85 -58l85 58h59l-108 -127h-75z" />
    <glyph glyph-name="scaron" unicode="&#x161;" horiz-adv-x="492" 
d="M252 -9c-125 0 -200 62 -205 170h81c7 -63 39 -101 123 -101c80 0 114 27 114 83c0 55 -41 73 -122 88c-136 24 -182 63 -182 154c0 96 94 147 177 147c93 0 176 -38 189 -151h-80c-12 57 -43 82 -110 82c-60 0 -99 -30 -99 -75c0 -46 26 -67 122 -83
c108 -22 184 -43 184 -155c0 -96 -64 -159 -192 -159zM99 757h61l85 -75l85 75h59l-108 -144h-75z" />
    <glyph glyph-name="Tcommaaccent" unicode="&#x162;" horiz-adv-x="561" 
d="M243 644h-208v71h503v-71h-208v-644h-87v644zM202 -194l58 157l80 -24l-87 -159z" />
    <glyph glyph-name="tcommaaccent" unicode="&#x163;" horiz-adv-x="355" 
d="M249 -7c-96 0 -141 55 -141 138v322h-75v70h75v119h83v-119h122v-70h-122v-314c0 -51 22 -76 65 -76c27 0 45 4 64 11v-70c-17 -7 -36 -11 -71 -11zM113 -194l58 157l80 -24l-87 -159z" />
    <glyph glyph-name="Tcaron" unicode="&#x164;" horiz-adv-x="561" 
d="M243 644h-208v71h503v-71h-208v-644h-87v644zM141 898h61l85 -58l85 58h59l-108 -127h-75z" />
    <glyph glyph-name="tcaron" unicode="&#x165;" horiz-adv-x="355" 
d="M249 -7c-96 0 -141 55 -141 138v322h-75v70h75v119h83v-119h122v-70h-122v-314c0 -51 22 -76 65 -76c27 0 45 4 64 11v-70c-17 -7 -36 -11 -71 -11zM275 773h94l-48 -175h-58z" />
    <glyph glyph-name="Tbar" unicode="&#x166;" horiz-adv-x="561" 
d="M92 404h145v240h-208v71h503v-71h-208v-240h145v-66h-145v-338h-87v338h-145v66z" />
    <glyph glyph-name="tbar" unicode="&#x167;" horiz-adv-x="355" 
d="M27 339h75v114h-75v70h75v119h83v-119h122v-70h-122v-114h122v-59h-122v-141c0 -51 22 -76 65 -76c27 0 45 4 64 11v-70c-17 -7 -36 -11 -71 -11c-96 0 -141 55 -141 138v149h-75v59z" />
    <glyph glyph-name="Utilde" unicode="&#x168;" horiz-adv-x="696" 
d="M347 -9c-165 0 -257 95 -257 270v454h87v-444c0 -149 52 -208 172 -208c114 0 182 46 182 221v431h87v-443c0 -175 -87 -281 -271 -281zM408 774c-43 0 -79 43 -108 43c-19 0 -35 -18 -40 -45h-60c8 72 49 116 101 116c42 0 78 -43 107 -43c19 0 35 18 40 45h60
c-8 -72 -49 -116 -100 -116z" />
    <glyph glyph-name="utilde" unicode="&#x169;" horiz-adv-x="594" 
d="M267 -9c-104 0 -182 57 -182 201v331h83v-327c0 -92 38 -133 121 -133c75 0 144 49 144 143v317h83v-523h-83v83c-24 -49 -82 -92 -166 -92zM357 619c-43 0 -79 43 -108 43c-19 0 -35 -18 -40 -45h-60c8 72 49 116 101 116c42 0 78 -43 107 -43c19 0 35 18 40 45h60
c-8 -72 -49 -116 -100 -116z" />
    <glyph glyph-name="Umacron" unicode="&#x16a;" horiz-adv-x="696" 
d="M347 -9c-165 0 -257 95 -257 270v454h87v-444c0 -149 52 -208 172 -208c114 0 182 46 182 221v431h87v-443c0 -175 -87 -281 -271 -281zM221 850h266v-64h-266v64z" />
    <glyph glyph-name="umacron" unicode="&#x16b;" horiz-adv-x="594" 
d="M267 -9c-104 0 -182 57 -182 201v331h83v-327c0 -92 38 -133 121 -133c75 0 144 49 144 143v317h83v-523h-83v83c-24 -49 -82 -92 -166 -92zM172 712h262v-64h-262v64z" />
    <glyph glyph-name="Ubreve" unicode="&#x16c;" horiz-adv-x="696" 
d="M347 -9c-165 0 -257 95 -257 270v454h87v-444c0 -149 52 -208 172 -208c114 0 182 46 182 221v431h87v-443c0 -175 -87 -281 -271 -281zM352 767c-71 0 -129 56 -132 132h66c7 -39 26 -64 66 -64c43 0 64 24 72 64h64c-5 -76 -63 -132 -136 -132z" />
    <glyph glyph-name="ubreve" unicode="&#x16d;" horiz-adv-x="594" 
d="M267 -9c-104 0 -182 57 -182 201v331h83v-327c0 -92 38 -133 121 -133c75 0 144 49 144 143v317h83v-523h-83v83c-24 -49 -82 -92 -166 -92zM301 619c-71 0 -129 56 -132 132h66c7 -39 26 -64 66 -64c43 0 64 24 72 64h64c-5 -76 -63 -132 -136 -132z" />
    <glyph glyph-name="Uring" unicode="&#x16e;" horiz-adv-x="696" 
d="M347 -9c-165 0 -257 95 -257 270v454h87v-444c0 -149 52 -208 172 -208c114 0 182 46 182 221v431h87v-443c0 -175 -87 -281 -271 -281zM354 785c31 0 53 25 53 58s-22 58 -53 58s-53 -25 -53 -58s22 -58 53 -58zM354 739c-59 0 -107 47 -107 104s48 104 107 104
s107 -47 107 -104s-48 -104 -107 -104z" />
    <glyph glyph-name="uring" unicode="&#x16f;" horiz-adv-x="594" 
d="M267 -9c-104 0 -182 57 -182 201v331h83v-327c0 -92 38 -133 121 -133c75 0 144 49 144 143v317h83v-523h-83v83c-24 -49 -82 -92 -166 -92zM300 614c31 0 53 25 53 58s-22 58 -53 58s-53 -25 -53 -58s22 -58 53 -58zM300 568c-59 0 -107 47 -107 104s48 104 107 104
s107 -47 107 -104s-48 -104 -107 -104z" />
    <glyph glyph-name="Uhungarumlaut" unicode="&#x170;" horiz-adv-x="696" 
d="M347 -9c-165 0 -257 95 -257 270v454h87v-444c0 -149 52 -208 172 -208c114 0 182 46 182 221v431h87v-443c0 -175 -87 -281 -271 -281zM279 898h95l-72 -127h-60zM433 898h95l-72 -127h-60z" />
    <glyph glyph-name="uhungarumlaut" unicode="&#x171;" horiz-adv-x="594" 
d="M267 -9c-104 0 -182 57 -182 201v331h83v-327c0 -92 38 -133 121 -133c75 0 144 49 144 143v317h83v-523h-83v83c-24 -49 -82 -92 -166 -92zM231 760h95l-75 -147h-60zM385 760h95l-75 -147h-60z" />
    <glyph glyph-name="Uogonek" unicode="&#x172;" horiz-adv-x="696" 
d="M384 -182c-63 0 -104 29 -104 80c0 39 27 70 62 93h-1c-165 0 -257 95 -257 270v454h87v-444c0 -149 52 -208 172 -208c114 0 182 46 182 221v431h87v-443c0 -128 -46 -214 -133 -254c-68 -32 -120 -56 -120 -104c0 -24 13 -36 38 -36c17 0 37 3 52 11v-59
c-17 -7 -37 -12 -65 -12z" />
    <glyph glyph-name="uogonek" unicode="&#x173;" horiz-adv-x="594" 
d="M459 -182c-63 0 -104 29 -104 80c0 41 32 78 72 99v86c-24 -49 -82 -92 -166 -92c-104 0 -182 57 -182 201v331h83v-327c0 -92 38 -133 121 -133c75 0 144 49 144 143v317h83v-518c-55 -35 -76 -60 -76 -91c0 -24 13 -36 38 -36c17 0 37 3 52 11v-59
c-17 -7 -37 -12 -65 -12z" />
    <glyph glyph-name="Wcircumflex" unicode="&#x174;" horiz-adv-x="928" 
d="M40 715h89l145 -577l168 577h62l168 -579l147 579h81l-186 -715h-80l-162 565l-167 -565h-79zM433 898h75l107 -127h-61l-85 58l-85 -58h-59z" />
    <glyph glyph-name="wcircumflex" unicode="&#x175;" horiz-adv-x="794" 
d="M34 523h90l122 -421l127 421h72l119 -421l123 421h85l-163 -523h-92l-109 392l-122 -392h-91zM366 757h75l107 -144h-61l-85 75l-85 -75h-59z" />
    <glyph glyph-name="Ycircumflex" unicode="&#x176;" horiz-adv-x="598" 
d="M268 312l-239 403h98l187 -332l180 332h87l-226 -404v-311h-87v312zM268 898h75l107 -127h-61l-85 58l-85 -58h-59z" />
    <glyph glyph-name="ycircumflex" unicode="&#x177;" horiz-adv-x="529" 
d="M236 54l-205 469h89l160 -375l145 375h85l-289 -705h-84zM233 757h75l107 -144h-61l-85 75l-85 -75h-59z" />
    <glyph glyph-name="Ydieresis" unicode="&#x178;" horiz-adv-x="610" 
d="M268 312l-239 403h98l187 -332l180 332h87l-226 -404v-311h-87v312zM203 789c-29 0 -53 24 -53 53s24 53 53 53s53 -24 53 -53s-24 -53 -53 -53zM406 789c-29 0 -53 24 -53 53s24 53 53 53s53 -24 53 -53s-24 -53 -53 -53z" />
    <glyph glyph-name="Zacute" unicode="&#x179;" horiz-adv-x="595" 
d="M34 14l405 630h-369v71h489v-13l-394 -628h388v-74h-519v14zM320 898h104l-98 -127h-62z" />
    <glyph glyph-name="zacute" unicode="&#x17a;" horiz-adv-x="483" 
d="M27 12l309 441h-279v70h407v-15l-302 -435h298v-73h-433v12zM279 760h104l-104 -147h-62z" />
    <glyph glyph-name="Zdotaccent" unicode="&#x17b;" horiz-adv-x="595" 
d="M34 14l405 630h-369v71h489v-13l-394 -628h388v-74h-519v14zM301 787c-31 0 -55 24 -55 55s24 55 55 55s55 -24 55 -55s-24 -55 -55 -55z" />
    <glyph glyph-name="zdotaccent" unicode="&#x17c;" horiz-adv-x="483" 
d="M27 12l309 441h-279v70h407v-15l-302 -435h298v-73h-433v12zM254 632c-31 0 -55 24 -55 55s24 55 55 55s55 -24 55 -55s-24 -55 -55 -55z" />
    <glyph glyph-name="Zcaron" unicode="&#x17d;" horiz-adv-x="607" 
d="M34 14l405 630h-369v71h489v-13l-394 -628h388v-74h-519v14zM156 898h61l85 -58l85 58h59l-108 -127h-75z" />
    <glyph glyph-name="zcaron" unicode="&#x17e;" horiz-adv-x="495" 
d="M27 12l309 441h-279v70h407v-15l-302 -435h298v-73h-433v12zM109 757h61l85 -75l85 75h59l-108 -144h-75z" />
    <glyph glyph-name="uni0192" unicode="&#x192;" horiz-adv-x="409" 
d="M35 413h97l23 152c16 104 72 159 169 159c29 0 49 -4 68 -11v-70c-15 7 -37 12 -66 12c-56 0 -81 -39 -89 -94l-23 -148h132v-68h-142l-80 -527h-83l80 527h-86v68z" />
    <glyph glyph-name="Aringacute" unicode="&#x1fa;" horiz-adv-x="674" 
d="M288 715h114l242 -715h-86l-70 206h-295l-69 -206h-82zM217 275h248l-124 368zM350 795c31 0 53 25 53 58s-22 58 -53 58s-53 -25 -53 -58s22 -58 53 -58zM350 749c-59 0 -107 47 -107 104s48 104 107 104s107 -47 107 -104s-48 -104 -107 -104zM373 1113h104l-98 -127
h-62z" />
    <glyph glyph-name="aringacute" unicode="&#x1fb;" horiz-adv-x="540" 
d="M221 -9c-97 0 -174 47 -174 154c0 120 128 162 262 162h75v38c0 84 -32 118 -112 118c-72 0 -112 -31 -120 -94h-83c11 120 106 163 207 163c100 0 191 -40 191 -187v-345h-83v66c-39 -49 -86 -75 -163 -75zM229 57c88 0 155 46 155 126v65h-72
c-105 0 -182 -27 -182 -103c0 -55 26 -88 99 -88zM279 624c31 0 53 25 53 58s-22 58 -53 58s-53 -25 -53 -58s22 -58 53 -58zM279 578c-59 0 -107 47 -107 104s48 104 107 104s107 -47 107 -104s-48 -104 -107 -104zM309 956h104l-98 -127h-62z" />
    <glyph glyph-name="AEacute" unicode="&#x1fc;" horiz-adv-x="950" 
d="M405 715h492v-71h-330v-243h266v-71h-266v-259h348v-71h-435v207h-252l-105 -207h-88zM262 275h218v369h-31zM635 898h104l-98 -127h-62z" />
    <glyph glyph-name="aeacute" unicode="&#x1fd;" horiz-adv-x="880" 
d="M622 -9c-88 0 -157 40 -197 108c-48 -76 -108 -108 -204 -108c-97 0 -174 47 -174 154c0 123 125 165 259 165h78v34c0 84 -35 119 -112 119c-72 0 -112 -31 -120 -94h-83c11 120 106 163 207 163c69 0 133 -22 164 -89c40 56 100 89 176 89c116 0 227 -71 227 -260v-25
h-379c4 -120 55 -187 159 -187c78 0 122 30 133 91h83c-19 -105 -104 -160 -217 -160zM229 57c88 0 155 46 155 126v64h-75c-105 0 -179 -25 -179 -102c0 -55 26 -88 99 -88zM758 310c-8 111 -58 153 -142 153c-81 0 -136 -58 -149 -153h291zM475 760h104l-104 -147h-62z
" />
    <glyph glyph-name="Oslashacute" unicode="&#x1fe;" horiz-adv-x="811" 
d="M41 12l98 107c-51 64 -78 145 -78 234v8c0 204 142 363 352 363c84 0 157 -26 214 -70l81 88l45 -45l-79 -87c56 -64 88 -151 88 -247v-8c0 -202 -139 -364 -347 -364c-92 0 -172 31 -232 82l-97 -106zM415 63c159 0 257 120 257 293v8c0 75 -17 137 -52 188l-384 -421
c47 -45 108 -68 179 -68zM151 354c0 -69 16 -126 44 -173l382 418c-43 35 -96 55 -164 55c-166 0 -262 -121 -262 -292v-8zM431 898h104l-98 -127h-62z" />
    <glyph glyph-name="oslashacute" unicode="&#x1ff;" horiz-adv-x="604" 
d="M29 1l77 85c-35 45 -55 103 -55 171v8c0 157 109 267 257 267c60 0 113 -18 156 -50l68 74l44 -38l-70 -77c37 -47 59 -106 59 -175v-8c0 -158 -110 -267 -258 -267c-64 0 -117 19 -160 54l-74 -82zM308 60c105 0 171 79 171 197v7c0 47 -10 85 -27 117l-256 -281
c30 -27 67 -40 112 -40zM137 257c0 -43 8 -80 24 -111l253 280c-29 25 -64 37 -106 37c-105 0 -171 -78 -171 -198v-8zM332 760h104l-104 -147h-62z" />
    <glyph glyph-name="uni0218" unicode="&#x218;" horiz-adv-x="627" 
d="M327 -9c-191 0 -260 105 -273 227h84c11 -85 46 -157 189 -157c92 0 163 54 163 135s-37 116 -173 137c-150 24 -239 69 -239 197c0 109 95 194 230 194c144 0 231 -69 246 -197h-78c-17 91 -68 127 -168 127c-99 0 -149 -48 -149 -116c0 -69 26 -107 172 -128
c159 -24 243 -74 243 -208c0 -120 -105 -211 -247 -211zM224 -194l58 157l80 -24l-87 -159z" />
    <glyph glyph-name="uni0219" unicode="&#x219;" horiz-adv-x="480" 
d="M252 -9c-125 0 -200 62 -205 170h81c7 -63 39 -101 123 -101c80 0 114 27 114 83c0 55 -41 73 -122 88c-136 24 -182 63 -182 154c0 96 94 147 177 147c93 0 176 -38 189 -151h-80c-12 57 -43 82 -110 82c-60 0 -99 -30 -99 -75c0 -46 26 -67 122 -83
c108 -22 184 -43 184 -155c0 -96 -64 -159 -192 -159zM160 -194l58 157l80 -24l-87 -159z" />
    <glyph glyph-name="uni021A" unicode="&#x21a;" horiz-adv-x="561" 
d="M243 644h-208v71h503v-71h-208v-644h-87v644zM202 -194l58 157l80 -24l-87 -159z" />
    <glyph glyph-name="uni021B" unicode="&#x21b;" horiz-adv-x="355" 
d="M249 -7c-96 0 -141 55 -141 138v322h-75v70h75v119h83v-119h122v-70h-122v-314c0 -51 22 -76 65 -76c27 0 45 4 64 11v-70c-17 -7 -36 -11 -71 -11zM113 -194l58 157l80 -24l-87 -159z" />
    <glyph glyph-name="uni0237" unicode="&#x237;" horiz-adv-x="255" 
d="M9 -121c60 5 77 34 77 81v563h83v-556c0 -100 -44 -154 -160 -158v70z" />
    <glyph glyph-name="circumflex" unicode="&#x2c6;" horiz-adv-x="412" 
d="M169 757h75l107 -144h-61l-85 75l-85 -75h-59z" />
    <glyph glyph-name="caron" unicode="&#x2c7;" horiz-adv-x="412" 
d="M61 757h61l85 -75l85 75h59l-108 -144h-75z" />
    <glyph glyph-name="breve" unicode="&#x2d8;" horiz-adv-x="412" 
d="M204 619c-71 0 -129 56 -132 132h66c7 -39 26 -64 66 -64c43 0 64 24 72 64h64c-5 -76 -63 -132 -136 -132z" />
    <glyph glyph-name="dotaccent" unicode="&#x2d9;" horiz-adv-x="412" 
d="M206 632c-31 0 -55 24 -55 55s24 55 55 55s55 -24 55 -55s-24 -55 -55 -55z" />
    <glyph glyph-name="ring" unicode="&#x2da;" horiz-adv-x="412" 
d="M206 644c31 0 53 25 53 58s-22 58 -53 58s-53 -25 -53 -58s22 -58 53 -58zM206 598c-59 0 -107 47 -107 104s48 104 107 104s107 -47 107 -104s-48 -104 -107 -104z" />
    <glyph glyph-name="ogonek" unicode="&#x2db;" horiz-adv-x="412" 
d="M229 -182c-63 0 -104 29 -104 80c0 43 35 81 78 102h69c-45 -31 -68 -55 -68 -86c0 -24 13 -36 38 -36c17 0 37 3 52 11v-59c-17 -7 -37 -12 -65 -12z" />
    <glyph glyph-name="tilde" unicode="&#x2dc;" horiz-adv-x="412" 
d="M260 619c-43 0 -79 43 -108 43c-19 0 -35 -18 -40 -45h-60c8 72 49 116 101 116c42 0 78 -43 107 -43c19 0 35 18 40 45h60c-8 -72 -49 -116 -100 -116z" />
    <glyph glyph-name="hungarumlaut" unicode="&#x2dd;" horiz-adv-x="412" 
d="M142 760h95l-75 -147h-60zM296 760h95l-75 -147h-60z" />
    <glyph glyph-name="uni037E" unicode="&#x37e;" horiz-adv-x="292" 
d="M27 -95l96 219l81 -38l-123 -209zM161 292c-35 0 -64 28 -64 64s29 64 64 64s64 -28 64 -64s-29 -64 -64 -64z" />
    <glyph glyph-name="tonos" unicode="&#x384;" horiz-adv-x="400" 
d="M229 760h104l-104 -147h-62z" />
    <glyph glyph-name="dieresistonos" unicode="&#x385;" horiz-adv-x="400" 
d="M187 785h97l-78 -147h-59zM329 634c-29 0 -53 24 -53 53s24 53 53 53s53 -24 53 -53s-24 -53 -53 -53zM71 634c-29 0 -53 24 -53 53s24 53 53 53s53 -24 53 -53s-24 -53 -53 -53z" />
    <glyph glyph-name="Alphatonos" unicode="&#x386;" horiz-adv-x="674" 
d="M288 715h114l242 -715h-86l-70 206h-295l-69 -206h-82zM217 275h248l-124 368zM79 715h104l-104 -147h-62z" />
    <glyph glyph-name="anoteleia" unicode="&#x387;" horiz-adv-x="282" 
d="M147 263c-35 0 -64 28 -64 64s29 64 64 64s64 -28 64 -64s-29 -64 -64 -64z" />
    <glyph glyph-name="Epsilontonos" unicode="&#x388;" horiz-adv-x="566" 
d="M96 715h417v-71h-330v-243h266v-71h-266v-259h348v-71h-435v715zM-51 715h104l-104 -147h-62z" />
    <glyph glyph-name="Etatonos" unicode="&#x389;" horiz-adv-x="730" 
d="M96 715h87v-324h376v324h87v-715h-87v318h-376v-318h-87v715zM-51 715h104l-104 -147h-62z" />
    <glyph glyph-name="Iotatonos" unicode="&#x38a;" horiz-adv-x="277" 
d="M101 715h87v-715h-87v715zM-51 715h104l-104 -147h-62z" />
    <glyph glyph-name="Omicrontonos" unicode="&#x38c;" horiz-adv-x="811" 
d="M415 63c159 0 257 120 257 293v8c0 160 -95 290 -259 290c-166 0 -262 -121 -262 -292v-8c0 -173 116 -291 264 -291zM415 -9c-212 0 -354 162 -354 362v8c0 204 142 363 352 363s349 -160 349 -361v-8c0 -202 -139 -364 -347 -364zM19 715h104l-104 -147h-62z" />
    <glyph glyph-name="Upsilontonos" unicode="&#x38e;" horiz-adv-x="598" 
d="M268 312l-239 403h98l187 -332l180 332h87l-226 -404v-311h-87v312zM-91 715h104l-104 -147h-62z" />
    <glyph glyph-name="Omegatonos" unicode="&#x38f;" horiz-adv-x="817" 
d="M145 363c0 -149 73 -251 202 -327v-36h-290v67h148c-75 45 -150 155 -150 295v8c0 173 124 354 355 354c230 0 352 -178 352 -354v-8c0 -156 -79 -252 -149 -295h147v-67h-290v36c120 61 202 161 202 327v8c0 137 -81 283 -262 283c-184 0 -265 -139 -265 -283v-8z
M19 715h104l-104 -147h-62z" />
    <glyph glyph-name="iotadieresistonos" unicode="&#x390;" horiz-adv-x="255" 
d="M86 523h83v-523h-83v523zM137 785h97l-78 -147h-59zM279 634c-29 0 -53 24 -53 53s24 53 53 53s53 -24 53 -53s-24 -53 -53 -53zM21 634c-29 0 -53 24 -53 53s24 53 53 53s53 -24 53 -53s-24 -53 -53 -53z" />
    <glyph glyph-name="Alpha" unicode="&#x391;" horiz-adv-x="674" 
d="M288 715h114l242 -715h-86l-70 206h-295l-69 -206h-82zM217 275h248l-124 368z" />
    <glyph glyph-name="Beta" unicode="&#x392;" horiz-adv-x="622" 
d="M96 715h215c133 0 230 -44 230 -185v-4c0 -65 -27 -123 -108 -151c104 -25 143 -78 143 -171v-4c0 -135 -92 -200 -235 -200h-245v715zM339 68c104 0 152 45 152 133v4c0 88 -48 130 -164 130h-146v-267h158zM311 403c105 0 145 38 145 126v4c0 81 -47 114 -147 114h-128
v-244h130z" />
    <glyph glyph-name="Gamma" unicode="&#x393;" horiz-adv-x="531" 
d="M90 715h412v-71h-325v-644h-87v715z" />
    <glyph glyph-name="uni0394" unicode="&#x394;" horiz-adv-x="682" 
d="M41 14l240 701h124l236 -701v-14h-600v14zM143 74h392l-196 581z" />
    <glyph glyph-name="Epsilon" unicode="&#x395;" horiz-adv-x="566" 
d="M96 715h417v-71h-330v-243h266v-71h-266v-259h348v-71h-435v715z" />
    <glyph glyph-name="Zeta" unicode="&#x396;" horiz-adv-x="595" 
d="M34 14l405 630h-369v71h489v-13l-394 -628h388v-74h-519v14z" />
    <glyph glyph-name="Eta" unicode="&#x397;" horiz-adv-x="730" 
d="M96 715h87v-324h376v324h87v-715h-87v318h-376v-318h-87v715z" />
    <glyph glyph-name="Theta" unicode="&#x398;" horiz-adv-x="811" 
d="M409 -9c-212 0 -354 162 -354 362v8c0 204 142 363 352 363s349 -160 349 -361v-8c0 -202 -139 -364 -347 -364zM409 63c159 0 257 120 257 293v8c0 160 -95 290 -259 290c-166 0 -262 -121 -262 -292v-8c0 -173 116 -291 264 -291zM265 398h281v-73h-281v73z" />
    <glyph glyph-name="Iota" unicode="&#x399;" horiz-adv-x="277" 
d="M101 715h87v-715h-87v715z" />
    <glyph glyph-name="Kappa" unicode="&#x39a;" horiz-adv-x="616" 
d="M96 715h87v-344l311 345h97l-318 -348l334 -368h-105l-319 349v-349h-87v715z" />
    <glyph glyph-name="Lambda" unicode="&#x39b;" horiz-adv-x="666" 
d="M630 0h-86l-213 631l-213 -631h-82l247 715h104z" />
    <glyph glyph-name="Mu" unicode="&#x39c;" horiz-adv-x="856" 
d="M96 715h121l221 -557l214 557h120v-715h-87v602l-237 -602h-27l-245 602v-602h-80v715z" />
    <glyph glyph-name="Nu" unicode="&#x39d;" horiz-adv-x="724" 
d="M96 715h113l348 -591v591h83v-715h-100l-361 613v-613h-83v715z" />
    <glyph glyph-name="Xi" unicode="&#x39e;" horiz-adv-x="577" 
d="M529 715v-75h-481v75h481zM479 396v-73h-381v73h381zM40 75h497v-75h-497v75z" />
    <glyph glyph-name="Omicron" unicode="&#x39f;" horiz-adv-x="811" 
d="M415 63c159 0 257 120 257 293v8c0 160 -95 290 -259 290c-166 0 -262 -121 -262 -292v-8c0 -173 116 -291 264 -291zM415 -9c-212 0 -354 162 -354 362v8c0 204 142 363 352 363s349 -160 349 -361v-8c0 -202 -139 -364 -347 -364z" />
    <glyph glyph-name="Pi" unicode="&#x3a0;" horiz-adv-x="718" 
d="M90 715h538v-715h-87v642h-364v-642h-87v715z" />
    <glyph glyph-name="Rho" unicode="&#x3a1;" horiz-adv-x="581" 
d="M96 715h203c136 0 250 -60 250 -209v-4c0 -152 -114 -211 -250 -211h-116v-291h-87v715zM305 360c103 0 157 50 157 142v4c0 101 -60 139 -157 139h-122v-285h122z" />
    <glyph glyph-name="Sigma" unicode="&#x3a3;" horiz-adv-x="573" 
d="M60 640v75h455v-71h-357l223 -274l-224 -295h376v-75h-476v61l227 301z" />
    <glyph glyph-name="Tau" unicode="&#x3a4;" horiz-adv-x="561" 
d="M243 644h-208v71h503v-71h-208v-644h-87v644z" />
    <glyph glyph-name="Upsilon" unicode="&#x3a5;" horiz-adv-x="598" 
d="M268 312l-239 403h98l187 -332l180 332h87l-226 -404v-311h-87v312z" />
    <glyph glyph-name="Phi" unicode="&#x3a6;" horiz-adv-x="865" 
d="M391 53c-217 8 -336 152 -336 303v6c0 155 116 298 336 303v70h83v-70c220 -5 336 -147 336 -301v-6c0 -154 -115 -297 -336 -305v-73h-83v73zM145 357c0 -127 90 -221 246 -234v475c-173 -11 -246 -110 -246 -235v-6zM720 365c0 117 -73 222 -246 233v-476
c168 11 246 107 246 236v7z" />
    <glyph glyph-name="Chi" unicode="&#x3a7;" horiz-adv-x="657" 
d="M287 367l-220 348h96l178 -281l177 281h89l-222 -348l233 -367h-98l-191 301l-191 -301h-87z" />
    <glyph glyph-name="Psi" unicode="&#x3a8;" horiz-adv-x="774" 
d="M345 187c-197 8 -277 123 -277 271v257h87v-250c0 -129 50 -201 190 -208v458h83v-458c128 8 195 61 195 225v233h83v-250c0 -148 -73 -267 -278 -278v-187h-83v187z" />
    <glyph glyph-name="uni03A9" unicode="&#x3a9;" horiz-adv-x="817" 
d="M145 363c0 -149 73 -251 202 -327v-36h-290v67h148c-75 45 -150 155 -150 295v8c0 173 124 354 355 354c230 0 352 -178 352 -354v-8c0 -156 -79 -252 -149 -295h147v-67h-290v36c120 61 202 161 202 327v8c0 137 -81 283 -262 283c-184 0 -265 -139 -265 -283v-8z" />
    <glyph glyph-name="Iotadieresis" unicode="&#x3aa;" horiz-adv-x="277" 
d="M101 715h87v-715h-87v715zM42 789c-29 0 -53 24 -53 53s24 53 53 53s53 -24 53 -53s-24 -53 -53 -53zM245 789c-29 0 -53 24 -53 53s24 53 53 53s53 -24 53 -53s-24 -53 -53 -53z" />
    <glyph glyph-name="Upsilondieresis" unicode="&#x3ab;" horiz-adv-x="598" 
d="M268 312l-239 403h98l187 -332l180 332h87l-226 -404v-311h-87v312zM212 789c-29 0 -53 24 -53 53s24 53 53 53s53 -24 53 -53s-24 -53 -53 -53zM415 789c-29 0 -53 24 -53 53s24 53 53 53s53 -24 53 -53s-24 -53 -53 -53z" />
    <glyph glyph-name="alphatonos" unicode="&#x3ac;" horiz-adv-x="627" 
d="M290 60c97 0 173 64 173 198v8c0 135 -63 197 -166 197c-104 0 -166 -72 -166 -200v-8c0 -132 71 -195 159 -195zM281 -9c-137 0 -236 96 -236 260v8c0 160 100 273 244 273c88 0 140 -42 171 -93v84h83v-523h-83v90c-29 -51 -104 -99 -179 -99zM338 760h104l-104 -147
h-62z" />
    <glyph glyph-name="epsilontonos" unicode="&#x3ad;" horiz-adv-x="554" 
d="M163 272c-60 9 -103 52 -103 109c0 72 56 151 220 151c160 0 216 -63 227 -148h-82c-8 45 -33 79 -143 79c-92 0 -138 -29 -138 -86c0 -33 28 -74 100 -74h102v-67h-103c-77 0 -112 -33 -112 -90c0 -68 62 -86 145 -86c99 0 151 31 157 94h79
c-8 -109 -105 -163 -235 -163c-147 0 -230 56 -230 152c0 68 48 114 116 129zM318 760h104l-104 -147h-62z" />
    <glyph glyph-name="etatonos" unicode="&#x3ae;" horiz-adv-x="598" 
d="M84 523h83v-83c24 49 81 92 168 92c108 0 184 -59 184 -211v-503h-83v509c0 92 -39 133 -123 133c-77 0 -146 -49 -146 -143v-317h-83v523zM338 760h104l-104 -147h-62z" />
    <glyph glyph-name="iotatonos" unicode="&#x3af;" horiz-adv-x="255" 
d="M86 523h83v-523h-83v523zM160 760h104l-104 -147h-62z" />
    <glyph glyph-name="upsilondieresistonos" unicode="&#x3b0;" horiz-adv-x="589" 
d="M294 -9c-116 0 -215 72 -215 216v316h83v-313c0 -92 41 -147 133 -147s132 55 132 147v313h83v-319c0 -144 -100 -213 -216 -213zM287 785h97l-78 -147h-59zM429 634c-29 0 -53 24 -53 53s24 53 53 53s53 -24 53 -53s-24 -53 -53 -53zM171 634c-29 0 -53 24 -53 53
s24 53 53 53s53 -24 53 -53s-24 -53 -53 -53z" />
    <glyph glyph-name="alpha" unicode="&#x3b1;" horiz-adv-x="627" 
d="M290 60c97 0 173 64 173 198v8c0 135 -63 197 -166 197c-104 0 -166 -72 -166 -200v-8c0 -132 71 -195 159 -195zM281 -9c-137 0 -236 96 -236 260v8c0 160 100 273 244 273c88 0 140 -42 171 -93v84h83v-523h-83v90c-29 -51 -104 -99 -179 -99z" />
    <glyph glyph-name="beta" unicode="&#x3b2;" horiz-adv-x="609" 
d="M285 442c113 -3 164 57 164 137v4c0 76 -50 125 -139 125c-85 0 -143 -56 -143 -151v-321c0 -124 87 -176 159 -176c91 0 155 50 155 150v7c0 108 -73 161 -196 154v71zM404 411c84 -16 163 -79 163 -191v-8c0 -136 -105 -221 -236 -221c-71 0 -135 37 -164 93v-266h-83
v735c0 138 90 223 227 223c140 0 222 -82 222 -190v-4c0 -83 -48 -144 -129 -171z" />
    <glyph glyph-name="gamma" unicode="&#x3b3;" horiz-adv-x="541" 
d="M433 523h86l-206 -516v-189h-83v189l-208 516h90l161 -413z" />
    <glyph glyph-name="delta" unicode="&#x3b4;" horiz-adv-x="594" 
d="M117 773h391v-70h-273l188 -203c72 -77 126 -148 126 -246v-7c0 -152 -106 -256 -253 -256c-148 0 -251 107 -251 255v6c0 129 100 239 226 239c13 0 39 0 62 -5l-216 233v54zM463 251c0 103 -63 176 -166 176c-102 0 -166 -74 -166 -175v-6c0 -103 57 -186 166 -186
c104 0 166 73 166 186v5z" />
    <glyph glyph-name="epsilon" unicode="&#x3b5;" horiz-adv-x="554" 
d="M163 272c-60 9 -103 52 -103 109c0 72 56 151 220 151c160 0 216 -63 227 -148h-82c-8 45 -33 79 -143 79c-92 0 -138 -29 -138 -86c0 -33 28 -74 100 -74h102v-67h-103c-77 0 -112 -33 -112 -90c0 -68 62 -86 145 -86c99 0 151 31 157 94h79
c-8 -109 -105 -163 -235 -163c-147 0 -230 56 -230 152c0 68 48 114 116 129z" />
    <glyph glyph-name="zeta" unicode="&#x3b6;" horiz-adv-x="501" 
d="M264 0c-121 0 -219 83 -219 207c0 187 155 380 283 494h-251v72h408v-23c-232 -200 -354 -373 -354 -538c0 -94 64 -139 133 -139h80c96 0 142 -42 142 -114c0 -39 -11 -80 -20 -113h-76c7 31 14 70 14 97c0 38 -20 57 -61 57h-79z" />
    <glyph glyph-name="eta" unicode="&#x3b7;" horiz-adv-x="598" 
d="M84 523h83v-83c24 49 81 92 168 92c108 0 184 -59 184 -211v-503h-83v509c0 92 -39 133 -123 133c-77 0 -146 -49 -146 -143v-317h-83v523z" />
    <glyph glyph-name="theta" unicode="&#x3b8;" horiz-adv-x="618" 
d="M553 359c0 -240 -89 -368 -244 -368s-244 128 -244 368v51c0 240 91 366 244 366c156 0 244 -126 244 -366v-51zM468 426c-4 185 -58 281 -159 281s-155 -96 -160 -281h319zM309 60c104 0 157 100 160 296h-320c3 -196 56 -296 160 -296z" />
    <glyph glyph-name="iota" unicode="&#x3b9;" horiz-adv-x="255" 
d="M86 523h83v-523h-83v523z" />
    <glyph glyph-name="kappa" unicode="&#x3ba;" horiz-adv-x="516" 
d="M167 259v-259h-83v523h83v-253l230 253h97l-237 -255l247 -268h-99z" />
    <glyph glyph-name="lambda" unicode="&#x3bb;" horiz-adv-x="546" 
d="M172 659c-13 35 -32 48 -61 48c-19 0 -43 -6 -60 -11v69c23 7 53 11 78 11c60 0 94 -33 117 -98l200 -559c9 -24 25 -53 53 -53c11 0 26 3 37 6v-70c-14 -4 -30 -6 -49 -6c-51 0 -93 32 -113 93l-111 334l-153 -423h-85l197 520z" />
    <glyph glyph-name="uni03BC" unicode="&#x3bc;" horiz-adv-x="599" 
d="M84 523h83v-334c0 -88 41 -126 121 -126c75 0 144 49 144 143v317h83v-523h-83v83c-24 -49 -78 -89 -158 -89c-39 0 -83 12 -107 55v-231h-83v705z" />
    <glyph glyph-name="nu" unicode="&#x3bd;" horiz-adv-x="534" 
d="M31 523h90l155 -439l153 439h86l-188 -523h-106z" />
    <glyph glyph-name="xi" unicode="&#x3be;" horiz-adv-x="521" 
d="M354 73c96 0 142 -42 142 -114c0 -39 -11 -80 -20 -113h-76c7 31 14 70 14 97c0 38 -20 57 -61 57h-61c-140 0 -247 80 -247 209c0 112 70 185 160 206c-72 27 -105 80 -105 144c0 61 27 119 108 144h-154v70h431v-70h-117c-101 0 -182 -49 -182 -143
c0 -67 52 -114 139 -114h115v-70h-128c-113 0 -181 -67 -181 -167c0 -87 64 -136 163 -136h60z" />
    <glyph glyph-name="omicron" unicode="&#x3bf;" horiz-adv-x="604" 
d="M301 -9c-149 0 -256 113 -256 266v8c0 157 109 267 257 267s257 -109 257 -266v-8c0 -158 -110 -267 -258 -267zM302 60c105 0 171 79 171 197v7c0 121 -67 199 -171 199c-105 0 -171 -78 -171 -198v-8c0 -120 64 -197 171 -197z" />
    <glyph glyph-name="pi" unicode="&#x3c0;" horiz-adv-x="597" 
d="M412 453h-227v-453h-83v453h-75v70h543v-70h-75v-453h-83v453z" />
    <glyph glyph-name="rho" unicode="&#x3c1;" horiz-adv-x="607" 
d="M315 60c105 0 161 78 161 197v7c0 121 -62 199 -166 199c-105 0 -166 -78 -166 -198v-8c0 -127 64 -197 171 -197zM316 -8c-75 0 -136 37 -169 94v-268h-83v450c0 157 98 264 246 264s252 -109 252 -266v-8c0 -157 -97 -266 -246 -266z" />
    <glyph glyph-name="uni03C2" unicode="&#x3c2;" horiz-adv-x="570" 
d="M131 256c0 -101 49 -183 165 -183h48c96 0 142 -42 142 -114c0 -39 -11 -80 -20 -113h-76c7 31 14 70 14 97c0 38 -20 57 -61 57h-49c-149 0 -249 100 -249 256v8c0 160 114 268 254 268c109 0 211 -50 227 -183h-82c-13 83 -73 114 -145 114c-95 0 -168 -76 -168 -199
v-8z" />
    <glyph glyph-name="sigma" unicode="&#x3c3;" horiz-adv-x="617" 
d="M301 -9c-149 0 -256 113 -256 266v8c0 152 100 258 257 258h285v-70h-140c63 -28 112 -95 112 -187v-8c0 -158 -110 -267 -258 -267zM302 60c105 0 171 79 171 197v7c0 121 -67 189 -171 189c-111 0 -171 -71 -171 -188v-8c0 -120 64 -197 171 -197z" />
    <glyph glyph-name="tau" unicode="&#x3c4;" horiz-adv-x="483" 
d="M349 -7c-115 0 -157 80 -157 162v298h-165v70h421v-70h-173v-300c0 -60 26 -90 78 -90c27 0 52 4 71 11v-70c-17 -7 -40 -11 -75 -11z" />
    <glyph glyph-name="upsilon" unicode="&#x3c5;" horiz-adv-x="589" 
d="M294 -9c-116 0 -215 72 -215 216v316h83v-313c0 -92 41 -147 133 -147s132 55 132 147v313h83v-319c0 -144 -100 -213 -216 -213z" />
    <glyph glyph-name="phi" unicode="&#x3c6;" horiz-adv-x="752" 
d="M707 267c0 -175 -118 -271 -291 -274v-175h-83v175c-189 8 -288 114 -288 261v8c0 153 91 246 216 267v-67c-80 -25 -130 -85 -130 -200v-8c0 -113 55 -182 202 -193v468c16 3 49 3 66 3c212 0 308 -121 308 -257v-8zM621 273c0 113 -72 189 -205 190v-402
c145 5 205 81 205 205v7z" />
    <glyph glyph-name="chi" unicode="&#x3c7;" horiz-adv-x="540" 
d="M236 181l-125 245c-13 25 -28 33 -47 33c-12 0 -24 -3 -37 -9v69c15 6 33 9 54 9c44 0 74 -18 98 -65l107 -210l134 270h90l-185 -347l124 -242c16 -31 31 -49 59 -49c9 0 19 2 30 5v-70c-15 -4 -31 -7 -44 -7c-51 0 -88 36 -117 93l-102 199l-148 -287h-89z" />
    <glyph glyph-name="psi" unicode="&#x3c8;" horiz-adv-x="737" 
d="M152 246c0 -93 40 -170 175 -183v460h83v-460c133 13 175 90 175 183v277h83v-277c0 -134 -75 -236 -258 -249v-179h-83v179c-190 13 -258 121 -258 257v269h83v-277z" />
    <glyph glyph-name="omega" unicode="&#x3c9;" horiz-adv-x="761" 
d="M422 190c0 -87 42 -130 98 -130c72 0 110 64 110 175v7c0 94 -27 202 -143 221v70c160 -16 229 -140 229 -291v-8c0 -139 -72 -243 -187 -243c-81 0 -125 42 -148 107c-20 -63 -65 -107 -149 -107c-116 0 -187 104 -187 244v8c0 151 74 274 229 290v-70
c-113 -16 -143 -127 -143 -220v-8c0 -113 38 -175 111 -175c56 0 97 46 97 130v161h83v-161z" />
    <glyph glyph-name="iotadieresis" unicode="&#x3ca;" horiz-adv-x="255" 
d="M86 523h83v-523h-83v523zM40 634c-29 0 -53 24 -53 53s24 53 53 53s53 -24 53 -53s-24 -53 -53 -53zM228 634c-29 0 -53 24 -53 53s24 53 53 53s53 -24 53 -53s-24 -53 -53 -53z" />
    <glyph glyph-name="upsilondieresis" unicode="&#x3cb;" horiz-adv-x="589" 
d="M294 -9c-116 0 -215 72 -215 216v316h83v-313c0 -92 41 -147 133 -147s132 55 132 147v313h83v-319c0 -144 -100 -213 -216 -213zM206 634c-29 0 -53 24 -53 53s24 53 53 53s53 -24 53 -53s-24 -53 -53 -53zM394 634c-29 0 -53 24 -53 53s24 53 53 53s53 -24 53 -53
s-24 -53 -53 -53z" />
    <glyph glyph-name="omicrontonos" unicode="&#x3cc;" horiz-adv-x="604" 
d="M301 -9c-149 0 -256 113 -256 266v8c0 157 109 267 257 267s257 -109 257 -266v-8c0 -158 -110 -267 -258 -267zM302 60c105 0 171 79 171 197v7c0 121 -67 199 -171 199c-105 0 -171 -78 -171 -198v-8c0 -120 64 -197 171 -197zM338 760h104l-104 -147h-62z" />
    <glyph glyph-name="upsilontonos" unicode="&#x3cd;" horiz-adv-x="589" 
d="M294 -9c-116 0 -215 72 -215 216v316h83v-313c0 -92 41 -147 133 -147s132 55 132 147v313h83v-319c0 -144 -100 -213 -216 -213zM326 760h104l-104 -147h-62z" />
    <glyph glyph-name="omegatonos" unicode="&#x3ce;" horiz-adv-x="761" 
d="M422 190c0 -87 42 -130 98 -130c72 0 110 64 110 175v7c0 94 -27 202 -143 221v70c160 -16 229 -140 229 -291v-8c0 -139 -72 -243 -187 -243c-81 0 -125 42 -148 107c-20 -63 -65 -107 -149 -107c-116 0 -187 104 -187 244v8c0 151 74 274 229 290v-70
c-113 -16 -143 -127 -143 -220v-8c0 -113 38 -175 111 -175c56 0 97 46 97 130v161h83v-161zM421 760h104l-104 -147h-62z" />
    <glyph glyph-name="uni0401" unicode="&#x401;" horiz-adv-x="566" 
d="M96 715h417v-71h-330v-243h266v-71h-266v-259h348v-71h-435v715zM214 789c-29 0 -53 24 -53 53s24 53 53 53s53 -24 53 -53s-24 -53 -53 -53zM417 789c-29 0 -53 24 -53 53s24 53 53 53s53 -24 53 -53s-24 -53 -53 -53z" />
    <glyph glyph-name="uni0402" unicode="&#x402;" horiz-adv-x="771" 
d="M324 372c33 31 86 62 174 62c144 0 225 -78 225 -223c0 -160 -84 -220 -175 -220c-47 0 -68 8 -84 19v72c20 -11 40 -20 73 -20c56 0 100 40 100 148c0 101 -43 156 -151 156c-76 0 -130 -44 -162 -81v-285h-87v644h-208v71h513v-71h-218v-272z" />
    <glyph glyph-name="uni0403" unicode="&#x403;" horiz-adv-x="536" 
d="M90 715h408v-74h-321v-641h-87v715zM323 898h104l-98 -127h-62z" />
    <glyph glyph-name="uni0404" unicode="&#x404;" horiz-adv-x="730" 
d="M688 237c-25 -165 -139 -246 -299 -246c-207 0 -334 142 -334 362v8c0 212 141 365 336 365c149 0 274 -79 290 -234h-86c-19 109 -80 165 -203 165c-137 0 -232 -99 -245 -256h346v-71h-347c7 -169 97 -268 245 -268c117 0 197 58 216 175h81z" />
    <glyph glyph-name="uni0405" unicode="&#x405;" horiz-adv-x="627" 
d="M327 -9c-191 0 -260 105 -273 227h84c11 -85 46 -157 189 -157c92 0 163 54 163 135s-37 116 -173 137c-150 24 -239 69 -239 197c0 109 95 194 230 194c144 0 231 -69 246 -197h-78c-17 91 -68 127 -168 127c-99 0 -149 -48 -149 -116c0 -69 26 -107 172 -128
c159 -24 243 -74 243 -208c0 -120 -105 -211 -247 -211z" />
    <glyph glyph-name="uni0406" unicode="&#x406;" horiz-adv-x="277" 
d="M101 715h87v-715h-87v715z" />
    <glyph glyph-name="uni0407" unicode="&#x407;" horiz-adv-x="277" 
d="M101 715h87v-715h-87v715zM44 789c-29 0 -53 24 -53 53s24 53 53 53s53 -24 53 -53s-24 -53 -53 -53zM247 789c-29 0 -53 24 -53 53s24 53 53 53s53 -24 53 -53s-24 -53 -53 -53z" />
    <glyph glyph-name="uni0408" unicode="&#x408;" horiz-adv-x="420" 
d="M144 -9c-55 0 -81 8 -100 19v72c27 -11 52 -20 95 -20c72 0 116 40 116 136v517h87v-521c0 -143 -89 -203 -198 -203z" />
    <glyph glyph-name="uni0409" unicode="&#x409;" horiz-adv-x="983" 
d="M502 642h-253c-3 -93 -8 -253 -16 -391c-8 -136 -44 -259 -169 -259c-15 0 -23 1 -30 4l-9 4v84l9 -2c7 -1 15 -2 30 -2c57 0 77 58 88 178c7 100 11 212 14 303l3 154h420v-291h106c136 0 250 -55 250 -207v-4c0 -148 -114 -213 -250 -213h-193v642zM701 70
c97 0 157 42 157 143v4c0 92 -54 138 -157 138h-112v-285h112z" />
    <glyph glyph-name="uni040A" unicode="&#x40a;" horiz-adv-x="1023" 
d="M741 70c97 0 157 42 157 143v4c0 92 -54 138 -157 138h-112v-285h112zM542 318h-365v-318h-87v715h87v-324h365v324h87v-291h106c136 0 250 -55 250 -207v-4c0 -148 -114 -213 -250 -213h-193v318z" />
    <glyph glyph-name="uni040B" unicode="&#x40b;" horiz-adv-x="781" 
d="M324 373c11 11 24 21 40 30c27 15 67 31 126 31c152 0 224 -81 224 -256v-178h-87v187c0 117 -33 179 -146 179c-57 0 -96 -18 -121 -37c-15 -11 -27 -24 -36 -37v-292h-87v644h-208v71h513v-71h-218v-271z" />
    <glyph glyph-name="uni040C" unicode="&#x40c;" horiz-adv-x="616" 
d="M343 898h104l-98 -127h-62zM96 715h87v-344l311 345h97l-318 -348l334 -368h-105l-319 349v-349h-87v715z" />
    <glyph glyph-name="uni040D" unicode="&#x40d;" horiz-adv-x="740" 
d="M90 0v715h87v-595l386 595h87v-715h-87v595l-386 -595h-87zM245 898h104l56 -127h-62z" />
    <glyph glyph-name="uni040E" unicode="&#x40e;" horiz-adv-x="588" 
d="M309 767c-71 0 -129 56 -132 132h72c3 -39 20 -74 60 -74c43 0 62 34 66 74h70c-5 -76 -63 -132 -136 -132zM131 -8c-15 0 -23 1 -30 4l-9 4v79l9 -2c7 -1 15 -2 30 -2c57 0 95 26 127 94l-238 546h91l191 -446l194 446h82l-241 -546c-42 -98 -92 -177 -206 -177z" />
    <glyph glyph-name="uni040F" unicode="&#x40f;" horiz-adv-x="720" 
d="M90 0v715h87v-642h366v642h87v-715h-232l-2 -130h-72l-2 130h-232z" />
    <glyph glyph-name="uni0410" unicode="&#x410;" horiz-adv-x="674" 
d="M288 715h114l242 -715h-86l-70 206h-295l-69 -206h-82zM217 275h248l-124 368z" />
    <glyph glyph-name="uni0411" unicode="&#x411;" horiz-adv-x="622" 
d="M570 206c0 -136 -92 -206 -235 -206h-245v715h422v-71h-337v-231h159c144 0 236 -60 236 -203v-4zM333 68c104 0 152 50 152 138v4c0 88 -48 135 -160 135h-150v-277h158z" />
    <glyph glyph-name="uni0412" unicode="&#x412;" horiz-adv-x="622" 
d="M96 715h215c133 0 230 -44 230 -185v-4c0 -65 -27 -123 -108 -151c104 -25 143 -78 143 -171v-4c0 -135 -92 -200 -235 -200h-245v715zM339 68c104 0 152 45 152 133v4c0 88 -48 130 -164 130h-146v-267h158zM311 403c105 0 145 38 145 126v4c0 81 -47 114 -147 114h-128
v-244h130z" />
    <glyph glyph-name="uni0413" unicode="&#x413;" horiz-adv-x="536" 
d="M90 715h408v-74h-321v-641h-87v715z" />
    <glyph glyph-name="uni0414" unicode="&#x414;" horiz-adv-x="697" 
d="M211 251c-5 -73 -16 -135 -47 -178h348v571h-280c-5 -92 -10 -255 -21 -393zM82 -130h-72v203h45c51 16 67 80 78 185c8 100 14 212 17 303c2 52 4 103 5 154h442v-642h80v-203h-72l-5 130h-513z" />
    <glyph glyph-name="uni0415" unicode="&#x415;" horiz-adv-x="566" 
d="M96 715h417v-71h-330v-243h266v-71h-266v-259h348v-71h-435v715z" />
    <glyph glyph-name="uni0416" unicode="&#x416;" horiz-adv-x="879" 
d="M395 351l-279 -351h-97l291 363l-283 352h97l271 -346v346h85v-346l271 346h95l-279 -347l293 -368h-101l-279 351v-351h-85v351z" />
    <glyph glyph-name="uni0417" unicode="&#x417;" horiz-adv-x="595" 
d="M293 -9c-170 0 -240 105 -253 227h84c11 -85 46 -157 169 -157c109 0 164 58 164 149c0 87 -44 125 -169 125h-91v66h91c100 0 138 54 138 131c0 76 -42 122 -133 122c-88 0 -131 -36 -148 -127h-78c15 128 93 197 232 197c125 0 212 -75 212 -192
c0 -71 -39 -137 -118 -160c100 -15 150 -74 150 -162c0 -126 -101 -219 -250 -219z" />
    <glyph glyph-name="uni0418" unicode="&#x418;" horiz-adv-x="740" 
d="M90 0v715h87v-595l386 595h87v-715h-87v595l-386 -595h-87z" />
    <glyph glyph-name="uni0419" unicode="&#x419;" horiz-adv-x="740" 
d="M370 767c-71 0 -129 56 -132 132h72c3 -39 20 -74 60 -74c43 0 62 34 66 74h70c-5 -76 -63 -132 -136 -132zM90 0v715h87v-595l386 595h87v-715h-87v595l-386 -595h-87z" />
    <glyph glyph-name="uni041A" unicode="&#x41a;" horiz-adv-x="616" 
d="M96 715h87v-344l311 345h97l-318 -348l334 -368h-105l-319 349v-349h-87v715z" />
    <glyph glyph-name="uni041B" unicode="&#x41b;" horiz-adv-x="689" 
d="M233 251c-8 -136 -44 -259 -169 -259c-15 0 -23 1 -30 4l-9 4v84l9 -2c7 -1 15 -2 30 -2c57 0 77 58 88 178c7 100 11 212 14 303l3 154h430v-715h-87v642h-263c-3 -93 -8 -253 -16 -391z" />
    <glyph glyph-name="uni041C" unicode="&#x41c;" horiz-adv-x="856" 
d="M96 715h121l221 -557l214 557h120v-715h-87v602l-237 -602h-27l-245 602v-602h-80v715z" />
    <glyph glyph-name="uni041D" unicode="&#x41d;" horiz-adv-x="730" 
d="M96 715h87v-324h376v324h87v-715h-87v318h-376v-318h-87v715z" />
    <glyph glyph-name="uni041E" unicode="&#x41e;" horiz-adv-x="811" 
d="M415 63c159 0 257 120 257 293v8c0 160 -95 290 -259 290c-166 0 -262 -121 -262 -292v-8c0 -173 116 -291 264 -291zM415 -9c-212 0 -354 162 -354 362v8c0 204 142 363 352 363s349 -160 349 -361v-8c0 -202 -139 -364 -347 -364z" />
    <glyph glyph-name="uni041F" unicode="&#x41f;" horiz-adv-x="720" 
d="M543 642h-366v-642h-87v715h540v-715h-87v642z" />
    <glyph glyph-name="uni0420" unicode="&#x420;" horiz-adv-x="581" 
d="M96 715h203c136 0 250 -60 250 -209v-4c0 -152 -114 -211 -250 -211h-116v-291h-87v715zM305 360c103 0 157 50 157 142v4c0 101 -60 139 -157 139h-122v-285h122z" />
    <glyph glyph-name="uni0421" unicode="&#x421;" horiz-adv-x="730" 
d="M395 -9c-207 0 -334 142 -334 362v8c0 212 141 365 336 365c149 0 274 -79 290 -234h-86c-19 109 -80 165 -203 165c-148 0 -247 -115 -247 -295v-8c0 -182 92 -292 246 -292c117 0 197 58 216 175h81c-25 -165 -139 -246 -299 -246z" />
    <glyph glyph-name="uni0422" unicode="&#x422;" horiz-adv-x="561" 
d="M243 644h-208v71h503v-71h-208v-644h-87v644z" />
    <glyph glyph-name="uni0423" unicode="&#x423;" horiz-adv-x="588" 
d="M131 -8c-15 0 -23 1 -30 4l-9 4v79l9 -2c7 -1 15 -2 30 -2c57 0 95 26 127 94l-238 546h91l191 -446l194 446h82l-241 -546c-42 -98 -92 -177 -206 -177z" />
    <glyph glyph-name="uni0424" unicode="&#x424;" horiz-adv-x="821" 
d="M453 623c180 -5 319 -72 319 -259v-8c-5 -188 -142 -261 -319 -264v-102h-85v102c-180 3 -319 73 -319 259v5c3 192 142 262 319 267v102h85v-102zM453 158c127 3 227 40 230 199v8c0 145 -95 189 -230 194v-401zM368 557c-128 -5 -227 -39 -230 -202v-5
c0 -143 95 -191 230 -194v401z" />
    <glyph glyph-name="uni0425" unicode="&#x425;" horiz-adv-x="657" 
d="M287 367l-220 348h96l178 -281l177 281h89l-222 -348l233 -367h-98l-191 301l-191 -301h-87z" />
    <glyph glyph-name="uni0426" unicode="&#x426;" horiz-adv-x="730" 
d="M638 -130l-5 130h-543v715h87v-642h366v642h87v-642h80v-203h-72z" />
    <glyph glyph-name="uni0427" unicode="&#x427;" horiz-adv-x="672" 
d="M495 0v346c-15 -13 -32 -24 -52 -33c-35 -16 -82 -32 -145 -32c-141 0 -234 87 -234 256v178h87v-187c0 -117 53 -179 153 -179c72 0 119 21 150 42c17 12 31 26 41 43v281h87v-715h-87z" />
    <glyph glyph-name="uni0428" unicode="&#x428;" horiz-adv-x="973" 
d="M90 715h87v-642h266v642h87v-642h266v642h87v-715h-793v715z" />
    <glyph glyph-name="uni0429" unicode="&#x429;" horiz-adv-x="983" 
d="M891 -130l-5 130h-796v715h87v-642h266v642h87v-642h266v642h87v-642h80v-203h-72z" />
    <glyph glyph-name="uni042A" unicode="&#x42a;" horiz-adv-x="716" 
d="M225 642h-196v73h283v-291h116c136 0 250 -55 250 -207v-4c0 -148 -114 -213 -250 -213h-203v642zM434 70c97 0 157 42 157 143v4c0 92 -54 138 -157 138h-122v-285h122z" />
    <glyph glyph-name="uni042B" unicode="&#x42b;" horiz-adv-x="805" 
d="M715 0h-87v715h87v-715zM90 715h87v-291h111c136 0 250 -55 250 -207v-4c0 -148 -114 -213 -250 -213h-198v715zM294 70c97 0 157 42 157 143v4c0 92 -54 138 -157 138h-117v-285h117z" />
    <glyph glyph-name="uni042C" unicode="&#x42c;" horiz-adv-x="581" 
d="M90 715h87v-291h116c136 0 250 -55 250 -207v-4c0 -148 -114 -213 -250 -213h-203v715zM299 70c97 0 157 42 157 143v4c0 92 -54 138 -157 138h-122v-285h122z" />
    <glyph glyph-name="uni042D" unicode="&#x42d;" horiz-adv-x="730" 
d="M339 -9c-149 0 -281 79 -297 234h86c18 -110 88 -165 210 -165c141 0 238 105 246 270h-347v71h347c-12 160 -96 254 -240 254c-117 0 -192 -58 -211 -175h-81c25 165 134 246 294 246c207 0 329 -142 329 -362v-8c0 -212 -141 -365 -336 -365z" />
    <glyph glyph-name="uni042E" unicode="&#x42e;" horiz-adv-x="1028" 
d="M636 -9c-200 0 -327 143 -343 327h-116v-318h-87v715h87v-324h116c11 189 142 333 341 333c210 0 339 -160 339 -361v-8c0 -202 -129 -364 -337 -364zM636 63c160 0 247 120 247 293v8c0 160 -84 290 -249 290c-166 0 -252 -121 -252 -292v-8c0 -173 105 -291 254 -291z
" />
    <glyph glyph-name="uni042F" unicode="&#x42f;" horiz-adv-x="626" 
d="M327 645c-97 0 -157 -28 -157 -129v-4c0 -92 54 -132 157 -132h122v265h-122zM118 0h-98l234 317c-98 18 -171 73 -171 195v4c0 149 114 199 250 199h203v-715h-87v311h-105z" />
    <glyph glyph-name="uni0430" unicode="&#x430;" horiz-adv-x="540" 
d="M221 -9c-97 0 -174 47 -174 154c0 120 128 162 262 162h75v38c0 84 -32 118 -112 118c-72 0 -112 -31 -120 -94h-83c11 120 106 163 207 163c100 0 191 -40 191 -187v-345h-83v66c-39 -49 -86 -75 -163 -75zM229 57c88 0 155 46 155 126v65h-72
c-105 0 -182 -27 -182 -103c0 -55 26 -88 99 -88z" />
    <glyph glyph-name="uni0431" unicode="&#x431;" 
d="M309 -9c-149 0 -256 91 -256 307v32c0 225 42 427 292 440l20 1c72 4 112 7 149 22l11 -70c-43 -19 -88 -24 -159 -27l-15 -1c-168 -8 -222 -109 -233 -303h4c35 72 109 120 205 120c146 0 240 -105 240 -253v-4c0 -165 -110 -264 -258 -264zM310 60
c105 0 171 69 171 194v2c0 113 -55 187 -162 187c-111 0 -180 -74 -180 -194v-2c0 -113 64 -187 171 -187z" />
    <glyph glyph-name="uni0432" unicode="&#x432;" horiz-adv-x="524" 
d="M84 523h183c98 0 184 -30 184 -133v-3c0 -47 -25 -97 -84 -112c67 -15 109 -50 109 -118v-3c0 -104 -72 -154 -187 -154h-205v523zM167 457v-155h100c69 0 97 24 97 81v3c0 56 -34 71 -98 71h-99zM167 236v-170h114c73 0 108 24 108 83v3c0 60 -36 84 -108 84h-114z" />
    <glyph glyph-name="uni0433" unicode="&#x433;" horiz-adv-x="446" 
d="M167 453v-453h-83v523h332v-70h-249z" />
    <glyph glyph-name="uni0434" unicode="&#x434;" horiz-adv-x="578" 
d="M186 202c-7 -61 -17 -103 -34 -132h245v385h-192c-3 -68 -11 -176 -19 -253zM82 -127h-67v197h37c41 10 50 71 58 137c7 61 13 140 17 204c3 37 5 75 6 112h345v-453h80v-197h-67l-6 127h-397z" />
    <glyph glyph-name="uni0435" unicode="&#x435;" horiz-adv-x="568" 
d="M304 -9c-148 0 -253 105 -253 265v8c0 158 101 268 245 268c121 0 235 -73 235 -260v-27h-394c4 -120 60 -185 168 -185c82 0 128 30 139 91h83c-19 -105 -104 -160 -223 -160zM446 312c-8 108 -63 151 -150 151c-85 0 -141 -58 -156 -151h306z" />
    <glyph glyph-name="uni0436" unicode="&#x436;" horiz-adv-x="709" 
d="M314 269l-202 -269h-93l213 278l-194 245h89l187 -246v246h81v-246l187 246h90l-194 -245l213 -278h-94l-202 269v-269h-81v269z" />
    <glyph glyph-name="uni0437" unicode="&#x437;" horiz-adv-x="494" 
d="M421 387c0 -47 -28 -101 -86 -112c65 -11 111 -50 111 -118v-3c0 -95 -74 -163 -199 -163c-127 0 -201 62 -206 170h81c7 -63 38 -101 125 -101c77 0 112 33 112 89v3c0 60 -36 84 -108 84h-79v66h65c69 0 97 24 97 81v3c0 45 -26 77 -90 77c-57 0 -92 -25 -104 -82h-80
c13 113 96 151 189 151c94 0 172 -49 172 -142v-3z" />
    <glyph glyph-name="uni0438" unicode="&#x438;" horiz-adv-x="591" 
d="M84 0v523h83v-403l267 403h83v-523h-83v403l-267 -403h-83z" />
    <glyph glyph-name="uni0439" unicode="&#x439;" horiz-adv-x="591" 
d="M299 619c-71 0 -129 56 -132 132h72c3 -39 20 -74 60 -74c43 0 62 34 66 74h70c-5 -76 -63 -132 -136 -132zM84 0v523h83v-403l267 403h83v-523h-83v403l-267 -403h-83z" />
    <glyph glyph-name="uni043A" unicode="&#x43a;" horiz-adv-x="516" 
d="M167 267v-267h-83v523h83v-244l217 244h97l-224 -246l243 -277h-101z" />
    <glyph glyph-name="uni043B" unicode="&#x43b;" horiz-adv-x="552" 
d="M184 202c-12 -139 -44 -207 -129 -207c-11 0 -20 1 -27 2l-8 3v79l7 -2c5 -1 10 -2 21 -2c44 0 52 60 60 132c7 61 9 140 12 204l3 112h345v-523h-83v453h-188c-3 -69 -5 -174 -13 -251z" />
    <glyph glyph-name="uni043C" unicode="&#x43c;" horiz-adv-x="703" 
d="M154 441v-441h-69v523h117l149 -393l153 393h114v-523h-82v441l-173 -441h-38z" />
    <glyph glyph-name="uni043D" unicode="&#x43d;" horiz-adv-x="591" 
d="M424 233h-257v-233h-83v523h83v-220h257v220h83v-523h-83v233z" />
    <glyph glyph-name="uni043E" unicode="&#x43e;" horiz-adv-x="604" 
d="M308 60c105 0 171 79 171 197v7c0 121 -67 199 -171 199c-105 0 -171 -78 -171 -198v-8c0 -120 64 -197 171 -197zM307 -9c-149 0 -256 113 -256 266v8c0 157 109 267 257 267s257 -109 257 -266v-8c0 -158 -110 -267 -258 -267z" />
    <glyph glyph-name="uni043F" unicode="&#x43f;" horiz-adv-x="581" 
d="M414 453h-247v-453h-83v523h413v-523h-83v453z" />
    <glyph glyph-name="uni0440" unicode="&#x440;" horiz-adv-x="627" 
d="M90 523h83v-88c29 51 100 97 177 97c137 0 238 -99 238 -263v-8c0 -160 -94 -270 -238 -270c-87 0 -146 43 -177 95v-268h-83v705zM342 60c104 0 160 69 160 197v8c0 132 -73 198 -161 198c-97 0 -171 -64 -171 -198v-8c0 -133 70 -197 172 -197z" />
    <glyph glyph-name="uni0441" unicode="&#x441;" horiz-adv-x="570" 
d="M307 -9c-146 0 -256 102 -256 265v8c0 160 114 268 254 268c109 0 211 -50 227 -183h-82c-13 83 -73 114 -145 114c-95 0 -168 -76 -168 -199v-8c0 -129 70 -196 171 -196c74 0 142 43 150 128h77c-11 -113 -103 -197 -228 -197z" />
    <glyph glyph-name="uni0442" unicode="&#x442;" horiz-adv-x="481" 
d="M451 453h-169v-453h-83v453h-169v70h421v-70z" />
    <glyph glyph-name="uni0443" unicode="&#x443;" horiz-adv-x="529" 
d="M236 54l-205 469h89l160 -375l145 375h85l-289 -705h-84z" />
    <glyph glyph-name="uni0444" unicode="&#x444;" horiz-adv-x="708" 
d="M395 531c148 -8 268 -97 268 -265v-8c0 -169 -119 -258 -268 -266v-174h-82v174c-148 8 -268 97 -268 265v8c0 169 119 258 268 266v242h82v-242zM313 468c-104 -5 -183 -73 -183 -202v-7c0 -131 79 -200 183 -203v412zM395 55c104 3 183 75 183 202v7
c0 133 -79 198 -183 203v-412z" />
    <glyph glyph-name="uni0445" unicode="&#x445;" horiz-adv-x="528" 
d="M221 269l-175 254h97l128 -190l127 190h90l-173 -248l191 -275h-98l-141 211l-144 -211h-89z" />
    <glyph glyph-name="uni0446" unicode="&#x446;" horiz-adv-x="597" 
d="M510 -127l-6 127h-420v523h83v-453h247v453h83v-453h80v-197h-67z" />
    <glyph glyph-name="uni0447" unicode="&#x447;" horiz-adv-x="556" 
d="M389 0v244c-31 -33 -79 -58 -150 -58c-94 0 -175 57 -175 201v136h83v-132c0 -92 41 -133 114 -133c56 0 101 22 128 58v207h83v-523h-83z" />
    <glyph glyph-name="uni0448" unicode="&#x448;" horiz-adv-x="811" 
d="M84 523h83v-453h197v453h83v-453h197v453h83v-523h-643v523z" />
    <glyph glyph-name="uni0449" unicode="&#x449;" horiz-adv-x="827" 
d="M740 -127l-6 127h-650v523h83v-453h197v453h83v-453h197v453h83v-453h80v-197h-67z" />
    <glyph glyph-name="uni044A" unicode="&#x44a;" horiz-adv-x="589" 
d="M179 453h-149v70h232v-183h93c109 0 200 -44 200 -166v-3c0 -120 -91 -171 -200 -171h-176v453zM360 66c79 0 112 33 112 105v3c0 64 -29 101 -112 101h-98v-209h98z" />
    <glyph glyph-name="uni044B" unicode="&#x44b;" horiz-adv-x="701" 
d="M534 523h83v-523h-83v523zM84 523h83v-183h93c109 0 200 -44 200 -166v-3c0 -120 -91 -171 -200 -171h-176v523zM265 66c79 0 112 33 112 105v3c0 64 -29 101 -112 101h-98v-209h98z" />
    <glyph glyph-name="uni044C" unicode="&#x44c;" horiz-adv-x="494" 
d="M84 523h83v-183h93c109 0 200 -51 200 -171v-3c0 -122 -91 -166 -200 -166h-176v523zM265 65c83 0 112 37 112 101v3c0 72 -33 105 -112 105h-98v-209h98z" />
    <glyph glyph-name="uni044D" unicode="&#x44d;" horiz-adv-x="570" 
d="M277 -9c-115 0 -217 50 -233 183h82c13 -83 72 -114 151 -114c85 0 150 68 161 175h-265v65h265c-11 109 -74 163 -170 163c-75 0 -135 -44 -150 -128h-77c11 113 103 197 228 197c153 0 256 -98 256 -260v-8c0 -160 -115 -273 -248 -273z" />
    <glyph glyph-name="uni044E" unicode="&#x44e;" horiz-adv-x="784" 
d="M491 -9c-136 0 -227 93 -243 225c-1 7 -2 12 -2 17h-79v-233h-83v523h83v-220h80c16 137 108 229 245 229c148 0 247 -109 247 -266v-8c0 -158 -100 -267 -248 -267zM492 60c105 0 161 78 161 197v7c0 121 -57 199 -161 199c-105 0 -161 -77 -161 -198v-8
c0 -120 54 -197 161 -197z" />
    <glyph glyph-name="uni044F" unicode="&#x44f;" horiz-adv-x="523" 
d="M258 457c-79 0 -112 -34 -112 -95v-3c0 -57 29 -91 112 -91h98v189h-98zM120 0h-95l159 219c-64 13 -121 52 -121 140v3c0 115 91 161 200 161h176v-523h-83v205h-90z" />
    <glyph glyph-name="uni0451" unicode="&#x451;" horiz-adv-x="568" 
d="M304 -9c-148 0 -253 105 -253 265v8c0 158 101 268 245 268c121 0 235 -73 235 -260v-27h-394c4 -120 60 -185 168 -185c82 0 128 30 139 91h83c-19 -105 -104 -160 -223 -160zM446 312c-8 108 -63 151 -150 151c-85 0 -141 -58 -156 -151h306zM202 634
c-29 0 -53 24 -53 53s24 53 53 53s53 -24 53 -53s-24 -53 -53 -53zM390 634c-29 0 -53 24 -53 53s24 53 53 53s53 -24 53 -53s-24 -53 -53 -53z" />
    <glyph glyph-name="uni0452" unicode="&#x452;" horiz-adv-x="598" 
d="M436 327c0 92 -39 133 -123 133c-77 0 -146 -49 -146 -143v-317h-83v615h-75v61h75v97h83v-97h178v-61h-178v-175c24 49 81 92 168 92c108 0 184 -59 184 -211v-354c0 -100 -44 -154 -160 -158v70c60 5 77 34 77 81v367z" />
    <glyph glyph-name="uni0453" unicode="&#x453;" horiz-adv-x="446" 
d="M167 453v-453h-83v523h332v-70h-249zM279 760h104l-104 -147h-62z" />
    <glyph glyph-name="uni0454" unicode="&#x454;" horiz-adv-x="570" 
d="M529 188c-11 -113 -103 -197 -228 -197c-146 0 -256 102 -256 265v8c0 160 114 268 254 268c109 0 211 -50 227 -183h-82c-13 83 -73 114 -145 114c-85 0 -151 -61 -166 -162h263v-65h-264c7 -116 74 -176 170 -176c74 0 142 43 150 128h77z" />
    <glyph glyph-name="uni0455" unicode="&#x455;" horiz-adv-x="480" 
d="M252 -9c-125 0 -200 62 -205 170h81c7 -63 39 -101 123 -101c80 0 114 27 114 83c0 55 -41 73 -122 88c-136 24 -182 63 -182 154c0 96 94 147 177 147c93 0 176 -38 189 -151h-80c-12 57 -43 82 -110 82c-60 0 -99 -30 -99 -75c0 -46 26 -67 122 -83
c108 -22 184 -43 184 -155c0 -96 -64 -159 -192 -159z" />
    <glyph glyph-name="uni0456" unicode="&#x456;" horiz-adv-x="255" 
d="M92 523h83v-523h-83v523zM132 632c-31 0 -55 24 -55 55s24 55 55 55s55 -24 55 -55s-24 -55 -55 -55z" />
    <glyph glyph-name="uni0457" unicode="&#x457;" horiz-adv-x="255" 
d="M43 634c-29 0 -53 24 -53 53s24 53 53 53s53 -24 53 -53s-24 -53 -53 -53zM223 634c-29 0 -53 24 -53 53s24 53 53 53s53 -24 53 -53s-24 -53 -53 -53zM92 523h83v-523h-83v523z" />
    <glyph glyph-name="uni0458" unicode="&#x458;" horiz-adv-x="255" 
d="M15 -121c60 5 77 34 77 81v563h83v-556c0 -100 -44 -154 -160 -158v70zM132 632c-31 0 -55 24 -55 55s24 55 55 55s55 -24 55 -55s-24 -55 -55 -55z" />
    <glyph glyph-name="uni0459" unicode="&#x459;" horiz-adv-x="774" 
d="M374 453h-177c-3 -69 -5 -174 -13 -251c-12 -139 -44 -207 -129 -207c-11 0 -20 1 -27 2l-8 3v79l7 -2c5 -1 10 -2 21 -2c44 0 52 60 60 132c7 61 9 140 12 204l3 112h334v-183h83c109 0 200 -44 200 -166v-3c0 -120 -91 -171 -200 -171h-166v453zM545 66
c79 0 112 33 112 105v3c0 64 -29 101 -112 101h-88v-209h88z" />
    <glyph glyph-name="uni045A" unicode="&#x45a;" horiz-adv-x="814" 
d="M585 66c79 0 112 33 112 105v3c0 64 -29 101 -112 101h-88v-209h88zM414 233h-247v-233h-83v523h83v-220h247v220h83v-183h83c109 0 200 -44 200 -166v-3c0 -120 -91 -171 -200 -171h-166v233z" />
    <glyph glyph-name="uni045B" unicode="&#x45b;" horiz-adv-x="598" 
d="M9 676h75v97h83v-97h178v-61h-178v-175c24 49 81 92 168 92c108 0 184 -59 184 -211v-321h-83v327c0 92 -39 133 -123 133c-77 0 -146 -49 -146 -143v-317h-83v615h-75v61z" />
    <glyph glyph-name="uni045C" unicode="&#x45c;" horiz-adv-x="516" 
d="M309 760h104l-104 -147h-62zM167 267v-267h-83v523h83v-244l217 244h97l-224 -246l243 -277h-101z" />
    <glyph glyph-name="uni045D" unicode="&#x45d;" horiz-adv-x="591" 
d="M84 0v523h83v-403l267 403h83v-523h-83v403l-267 -403h-83zM169 760h104l62 -147h-62z" />
    <glyph glyph-name="uni045E" unicode="&#x45e;" horiz-adv-x="529" 
d="M274 619c-71 0 -129 56 -132 132h72c3 -39 20 -74 60 -74c43 0 62 34 66 74h70c-5 -76 -63 -132 -136 -132zM236 54l-205 469h89l160 -375l145 375h85l-289 -705h-84z" />
    <glyph glyph-name="uni045F" unicode="&#x45f;" horiz-adv-x="581" 
d="M84 0v523h83v-453h247v453h83v-523h-171l-2 -127h-66l-3 127h-171z" />
    <glyph glyph-name="uni0490" unicode="&#x490;" horiz-adv-x="536" 
d="M177 642v-642h-87v715h331l5 134h72v-207h-321z" />
    <glyph glyph-name="uni0491" unicode="&#x491;" horiz-adv-x="429" 
d="M167 453v-453h-83v523h239l6 134h67v-204h-229z" />
    <glyph glyph-name="Wgrave" unicode="&#x1e80;" horiz-adv-x="928" 
d="M40 715h89l145 -577l168 577h62l168 -579l147 579h81l-186 -715h-80l-162 565l-167 -565h-79zM350 898h104l56 -127h-62z" />
    <glyph glyph-name="wgrave" unicode="&#x1e81;" horiz-adv-x="794" 
d="M34 523h90l122 -421l127 421h72l119 -421l123 421h85l-163 -523h-92l-109 392l-122 -392h-91zM283 760h104l62 -147h-62z" />
    <glyph glyph-name="Wacute" unicode="&#x1e82;" horiz-adv-x="928" 
d="M40 715h89l145 -577l168 577h62l168 -579l147 579h81l-186 -715h-80l-162 565l-167 -565h-79zM502 898h104l-98 -127h-62z" />
    <glyph glyph-name="wacute" unicode="&#x1e83;" horiz-adv-x="794" 
d="M34 523h90l122 -421l127 421h72l119 -421l123 421h85l-163 -523h-92l-109 392l-122 -392h-91zM438 760h104l-104 -147h-62z" />
    <glyph glyph-name="Wdieresis" unicode="&#x1e84;" horiz-adv-x="928" 
d="M40 715h89l145 -577l168 577h62l168 -579l147 579h81l-186 -715h-80l-162 565l-167 -565h-79zM371 789c-29 0 -53 24 -53 53s24 53 53 53s53 -24 53 -53s-24 -53 -53 -53zM574 789c-29 0 -53 24 -53 53s24 53 53 53s53 -24 53 -53s-24 -53 -53 -53z" />
    <glyph glyph-name="wdieresis" unicode="&#x1e85;" horiz-adv-x="794" 
d="M34 523h90l122 -421l127 421h72l119 -421l123 421h85l-163 -523h-92l-109 392l-122 -392h-91zM314 634c-29 0 -53 24 -53 53s24 53 53 53s53 -24 53 -53s-24 -53 -53 -53zM502 634c-29 0 -53 24 -53 53s24 53 53 53s53 -24 53 -53s-24 -53 -53 -53z" />
    <glyph glyph-name="Ygrave" unicode="&#x1ef2;" horiz-adv-x="598" 
d="M268 312l-239 403h98l187 -332l180 332h87l-226 -404v-311h-87v312zM192 898h104l56 -127h-62z" />
    <glyph glyph-name="ygrave" unicode="&#x1ef3;" horiz-adv-x="529" 
d="M236 54l-205 469h89l160 -375l145 375h85l-289 -705h-84zM145 760h104l62 -147h-62z" />
    <glyph glyph-name="uni2009" unicode="&#x2009;" horiz-adv-x="110" 
 />
    <glyph glyph-name="endash" unicode="&#x2013;" horiz-adv-x="538" 
d="M51 311h436v-70h-436v70z" />
    <glyph glyph-name="emdash" unicode="&#x2014;" horiz-adv-x="897" 
d="M51 311h795v-70h-795v70z" />
    <glyph glyph-name="quoteleft" unicode="&#x2018;" horiz-adv-x="267" 
d="M46 524l117 202l51 -26l-89 -212z" />
    <glyph glyph-name="quoteright" unicode="&#x2019;" horiz-adv-x="267" 
d="M53 514l89 212l79 -36l-117 -202z" />
    <glyph glyph-name="quotesinglbase" unicode="&#x201a;" horiz-adv-x="267" 
d="M53 -88l89 212l79 -36l-117 -202z" />
    <glyph glyph-name="quotedblleft" unicode="&#x201c;" horiz-adv-x="444" 
d="M46 524l117 202l51 -26l-89 -212zM223 524l117 202l51 -26l-89 -212z" />
    <glyph glyph-name="quotedblright" unicode="&#x201d;" horiz-adv-x="444" 
d="M53 514l89 212l79 -36l-117 -202zM230 514l89 212l79 -36l-117 -202z" />
    <glyph glyph-name="quotedblbase" unicode="&#x201e;" horiz-adv-x="444" 
d="M53 -88l89 212l79 -36l-117 -202zM230 -88l89 212l79 -36l-117 -202z" />
    <glyph glyph-name="dagger" unicode="&#x2020;" horiz-adv-x="386" 
d="M156 519h-116v67h116v129h75v-129h115v-67h-115v-306h-75v306z" />
    <glyph glyph-name="daggerdbl" unicode="&#x2021;" horiz-adv-x="386" 
d="M156 519h-116v67h116v129h75v-129h115v-67h-115v-110h115v-67h-115v-129h-75v129h-116v67h116v110z" />
    <glyph glyph-name="bullet" unicode="&#x2022;" horiz-adv-x="344" 
d="M172 190c-66 0 -116 52 -116 116s50 116 116 116c68 0 116 -52 116 -116s-48 -116 -116 -116z" />
    <glyph glyph-name="ellipsis" unicode="&#x2026;" horiz-adv-x="818" 
d="M147 -5c-35 0 -64 28 -64 64s29 64 64 64s64 -28 64 -64s-29 -64 -64 -64zM409 -5c-35 0 -64 28 -64 64s29 64 64 64s64 -28 64 -64s-29 -64 -64 -64zM671 -5c-35 0 -64 28 -64 64s29 64 64 64s64 -28 64 -64s-29 -64 -64 -64z" />
    <glyph glyph-name="perthousand" unicode="&#x2030;" horiz-adv-x="1138" 
d="M199 459c51 0 84 36 84 99c0 60 -33 99 -84 99s-84 -36 -84 -100s33 -98 84 -98zM199 395c-82 0 -159 68 -159 161c0 96 75 165 159 165c85 0 159 -70 159 -163c0 -95 -75 -163 -159 -163zM569 715h76l-437 -715h-76zM571 56c51 0 84 36 84 99c0 60 -33 99 -84 99
s-84 -36 -84 -100s33 -98 84 -98zM571 -8c-82 0 -159 68 -159 161c0 96 75 165 159 165c85 0 159 -70 159 -163c0 -95 -75 -163 -159 -163zM939 56c51 0 84 36 84 99c0 60 -33 99 -84 99s-84 -36 -84 -100s33 -98 84 -98zM939 -8c-82 0 -159 68 -159 161
c0 96 75 165 159 165c85 0 159 -70 159 -163c0 -95 -75 -163 -159 -163z" />
    <glyph glyph-name="uni2032" unicode="&#x2032;" horiz-adv-x="224" 
d="M77 715h90l-55 -245h-60z" />
    <glyph glyph-name="uni2033" unicode="&#x2033;" horiz-adv-x="387" 
d="M77 715h90l-55 -245h-60zM240 715h90l-55 -245h-60z" />
    <glyph glyph-name="guilsinglleft" unicode="&#x2039;" horiz-adv-x="334" 
d="M65 261l130 178h82l-125 -178l125 -178h-82z" />
    <glyph glyph-name="guilsinglright" unicode="&#x203a;" horiz-adv-x="334" 
d="M182 261l-125 178h82l130 -178l-130 -178h-82z" />
    <glyph glyph-name="fraction" unicode="&#x2044;" horiz-adv-x="125" 
d="M283 715h66l-507 -715h-66z" />
    <glyph glyph-name="Euro" unicode="&#x20ac;" horiz-adv-x="686" 
d="M38 452h74c16 153 109 272 267 272c137 0 228 -80 244 -219h-82c-15 96 -74 151 -162 151c-107 0 -169 -80 -182 -204h239l-11 -58h-230v-78h215l-11 -58h-201c13 -124 74 -196 183 -196c93 0 153 56 169 164h81c-16 -149 -110 -235 -250 -235c-154 0 -250 112 -269 267
h-74v58h71v78h-71v58z" />
    <glyph glyph-name="uni20B4" unicode="&#x20b4;" horiz-adv-x="600" 
d="M295 -9c-133 0 -232 63 -232 183c0 40 9 74 27 101h-60v58h119c39 25 86 44 142 64c15 5 26 9 38 14h-299v58h392c19 23 23 49 23 88c0 68 -48 97 -131 97c-93 0 -142 -33 -158 -117h-78c13 121 99 187 236 187c123 0 215 -57 215 -166c0 -36 -7 -65 -22 -89h63v-58h-120
c-37 -25 -84 -45 -143 -66l-31 -12h294v-58h-389c-21 -23 -31 -56 -31 -97c0 -83 62 -117 145 -117c124 0 165 67 176 147h84c-13 -117 -88 -217 -260 -217z" />
    <glyph glyph-name="uni20B8" unicode="&#x20b8;" horiz-adv-x="561" 
d="M29 657v58h503v-58h-503zM237 514h-208v71h503v-71h-208v-514h-87v514z" />
    <glyph glyph-name="uni20BD" unicode="&#x20bd;" horiz-adv-x="621" 
d="M339 360c103 0 157 50 157 142v4c0 101 -60 139 -157 139h-122v-285h122zM217 165v-165h-87v165h-100v58h100v78h-100v58h100v356h203c136 0 250 -60 250 -209v-4c0 -152 -114 -211 -250 -211h-116v-68h243v-58h-243z" />
    <glyph glyph-name="uni2116" unicode="&#x2116;" horiz-adv-x="1083" 
d="M867 333c-109 0 -188 81 -188 192v6c0 115 80 193 189 193c108 0 188 -77 188 -192v-5c0 -116 -80 -194 -189 -194zM868 397c68 0 108 50 108 129v5c0 80 -40 130 -108 130s-109 -50 -109 -130v-5c0 -80 41 -129 109 -129zM90 715h113l308 -587v587h83v-715h-100
l-321 609v-609h-83v715zM691 267h353v-66h-353v66z" />
    <glyph glyph-name="trademark" unicode="&#x2122;" horiz-adv-x="728" 
d="M348 715h77l90 -226l88 226h78v-322h-56v251l-103 -251h-19l-104 251v-251h-51v322zM138 671h-98v44h251v-44h-97v-278h-56v278z" />
    <glyph glyph-name="Omega" unicode="&#x2126;" horiz-adv-x="817" 
d="M145 363c0 -149 73 -251 202 -327v-36h-290v67h148c-75 45 -150 155 -150 295v8c0 173 124 354 355 354c230 0 352 -178 352 -354v-8c0 -156 -79 -252 -149 -295h147v-67h-290v36c120 61 202 161 202 327v8c0 137 -81 283 -262 283c-184 0 -265 -139 -265 -283v-8z" />
    <glyph glyph-name="onethird" unicode="&#x2153;" horiz-adv-x="735" 
d="M114 649l-81 -54v59l89 61h60v-342h-68v276zM558 715h66l-507 -715h-66zM566 -5c-84 0 -128 43 -131 111h61c4 -35 23 -61 68 -61c43 0 63 21 63 54c0 36 -20 54 -60 54h-26v47h25c37 0 56 16 56 49c0 27 -17 47 -52 47s-58 -20 -62 -55h-61c4 61 49 105 124 105
c73 0 115 -40 115 -92c0 -39 -22 -62 -57 -74c40 -9 67 -37 67 -82c0 -64 -50 -103 -130 -103z" />
    <glyph glyph-name="twothirds" unicode="&#x2154;" horiz-adv-x="772" 
d="M17 384l128 136c33 35 54 65 54 97c0 31 -18 50 -50 50c-33 0 -53 -19 -60 -66h-61c4 76 50 118 123 118c72 0 114 -40 114 -101c0 -45 -26 -83 -66 -122l-73 -72h142v-51h-251v11zM609 715h66l-507 -715h-66zM603 -5c-84 0 -128 43 -131 111h61c4 -35 23 -61 68 -61
c43 0 63 21 63 54c0 36 -20 54 -60 54h-26v47h25c37 0 56 16 56 49c0 27 -17 47 -52 47s-58 -20 -62 -55h-61c4 61 49 105 124 105c73 0 115 -40 115 -92c0 -39 -22 -62 -57 -74c40 -9 67 -37 67 -82c0 -64 -50 -103 -130 -103z" />
    <glyph glyph-name="oneeighth" unicode="&#x215b;" horiz-adv-x="726" 
d="M114 649l-81 -54v59l89 61h60v-342h-68v276zM558 715h66l-507 -715h-66zM559 -5c-69 0 -129 34 -129 101c0 44 24 74 63 87c-31 13 -50 36 -50 71c0 59 56 92 117 92s116 -34 116 -91c0 -35 -20 -58 -51 -71c40 -15 64 -43 64 -86c0 -68 -58 -103 -130 -103zM560 45
c35 0 62 19 62 58c0 36 -27 57 -62 57s-62 -21 -62 -58s27 -57 62 -57zM560 203c31 0 52 17 52 48c0 29 -23 47 -52 47c-31 0 -53 -17 -53 -48s25 -47 53 -47z" />
    <glyph glyph-name="threeeighths" unicode="&#x215c;" horiz-adv-x="756" 
d="M161 368c-84 0 -128 43 -131 111h61c4 -35 23 -61 68 -61c43 0 63 21 63 54c0 36 -20 54 -60 54h-26v47h25c37 0 56 16 56 49c0 27 -17 47 -52 47s-58 -20 -62 -55h-61c4 61 49 105 124 105c73 0 115 -40 115 -92c0 -39 -22 -62 -57 -74c40 -9 67 -37 67 -82
c0 -64 -50 -103 -130 -103zM600 715h66l-507 -715h-66zM589 -5c-69 0 -129 34 -129 101c0 44 24 74 63 87c-31 13 -50 36 -50 71c0 59 56 92 117 92s116 -34 116 -91c0 -35 -20 -58 -51 -71c40 -15 64 -43 64 -86c0 -68 -58 -103 -130 -103zM590 45c35 0 62 19 62 58
c0 36 -27 57 -62 57s-62 -21 -62 -58s27 -57 62 -57zM590 203c31 0 52 17 52 48c0 29 -23 47 -52 47c-31 0 -53 -17 -53 -48s25 -47 53 -47z" />
    <glyph glyph-name="fiveeighths" unicode="&#x215d;" horiz-adv-x="750" 
d="M154 368c-81 0 -120 44 -124 104h63c5 -31 17 -52 61 -52c37 0 58 26 58 67c0 40 -22 65 -59 65c-35 0 -55 -10 -70 -29h-36l4 192h210v-52h-159l-1 -92c15 16 38 30 75 30c63 0 105 -43 105 -115c0 -73 -51 -118 -127 -118zM593 715h66l-507 -715h-66zM583 -5
c-69 0 -129 34 -129 101c0 44 24 74 63 87c-31 13 -50 36 -50 71c0 59 56 92 117 92s116 -34 116 -91c0 -35 -20 -58 -51 -71c40 -15 64 -43 64 -86c0 -68 -58 -103 -130 -103zM584 45c35 0 62 19 62 58c0 36 -27 57 -62 57s-62 -21 -62 -58s27 -57 62 -57zM584 203
c31 0 52 17 52 48c0 29 -23 47 -52 47c-31 0 -53 -17 -53 -48s25 -47 53 -47z" />
    <glyph glyph-name="seveneighths" unicode="&#x215e;" horiz-adv-x="722" 
d="M183 660h-157v55h241v-8l-124 -334h-68zM546 715h66l-507 -715h-66zM555 -5c-69 0 -129 34 -129 101c0 44 24 74 63 87c-31 13 -50 36 -50 71c0 59 56 92 117 92s116 -34 116 -91c0 -35 -20 -58 -51 -71c40 -15 64 -43 64 -86c0 -68 -58 -103 -130 -103zM556 45
c35 0 62 19 62 58c0 36 -27 57 -62 57s-62 -21 -62 -58s27 -57 62 -57zM556 203c31 0 52 17 52 48c0 29 -23 47 -52 47c-31 0 -53 -17 -53 -48s25 -47 53 -47z" />
    <glyph glyph-name="Delta" unicode="&#x2206;" horiz-adv-x="682" 
d="M41 14l240 701h124l236 -701v-14h-600v14zM143 74h392l-196 581z" />
    <glyph glyph-name="minus" unicode="&#x2212;" horiz-adv-x="531" 
d="M42 377h447v-70h-447v70z" />
    <glyph glyph-name="approxequal" unicode="&#x2248;" horiz-adv-x="510" 
d="M50 166c7 80 55 119 110 119c76 0 140 -44 192 -44c21 0 42 14 45 46h63c-7 -83 -55 -119 -107 -119c-79 0 -142 44 -194 44c-23 0 -41 -15 -46 -46h-63zM50 343c7 80 55 119 110 119c76 0 140 -44 192 -44c21 0 42 14 45 46h63c-7 -83 -55 -119 -107 -119
c-79 0 -142 44 -194 44c-23 0 -41 -15 -46 -46h-63z" />
    <glyph glyph-name="notequal" unicode="&#x2260;" horiz-adv-x="496" 
d="M46 448h215l40 103h76l-40 -103h113v-72h-141l-41 -108h182v-72h-210l-40 -103h-76l40 103h-118v72h146l41 108h-187v72z" />
    <glyph glyph-name="lessequal" unicode="&#x2264;" horiz-adv-x="516" 
d="M59 324v20l384 205v-80l-260 -135l260 -135v-80zM59 70h384v-70h-384v70z" />
    <glyph glyph-name="greaterequal" unicode="&#x2265;" horiz-adv-x="516" 
d="M73 199l260 135l-260 135v80l384 -205v-20l-384 -205v80zM73 70h384v-70h-384v70z" />
    <glyph glyph-name="uni24C5" unicode="&#x24c5;" horiz-adv-x="856" 
d="M310 557h128c91 0 147 -38 147 -122v-3c0 -84 -59 -121 -144 -121h-55v-149h-76v395zM438 366c49 0 74 22 74 66v3c0 45 -27 63 -74 63h-52v-132h52zM427 33c171 0 320 134 320 326c0 189 -146 323 -318 323c-175 0 -320 -134 -320 -325c0 -193 150 -324 318 -324z
M427 -9c-204 0 -366 159 -366 366c0 204 162 367 368 367c208 0 366 -162 366 -365c0 -209 -162 -368 -368 -368z" />
    <glyph glyph-name="zero.tab" unicode="&#xe44f;" 
d="M310 63c112 0 157 65 157 232v130c0 153 -53 229 -159 229c-108 0 -162 -73 -162 -236v-125c0 -167 59 -230 164 -230zM310 -9c-149 0 -253 101 -253 301v125c0 203 98 307 251 307c156 0 247 -103 247 -300v-130c0 -201 -90 -303 -245 -303z" />
    <glyph glyph-name="one.tab" unicode="&#xe450;" 
d="M320 627l-205 -164v81l201 171h91v-715h-87v627z" />
    <glyph glyph-name="two.tab" unicode="&#xe451;" 
d="M48 20l284 299c65 69 103 134 103 207c0 80 -47 128 -128 128c-84 0 -136 -46 -151 -159h-81c11 140 96 229 232 229c132 0 216 -78 216 -201c0 -88 -56 -173 -144 -260l-197 -192h345v-71h-479v20z" />
    <glyph glyph-name="three.tab" unicode="&#xe452;" 
d="M294 -9c-149 0 -239 96 -244 220h80c8 -85 53 -150 166 -150s161 54 161 138c0 93 -50 139 -151 139h-54v73h50c93 0 137 43 137 122c0 68 -40 120 -128 120c-89 0 -147 -54 -156 -135h-76c5 112 96 206 232 206s213 -90 213 -189c0 -81 -48 -129 -116 -156
c84 -23 138 -80 138 -180c0 -131 -104 -208 -252 -208z" />
    <glyph glyph-name="four.tab" unicode="&#xe453;" 
d="M395 150h-348v28l317 537h116v-494h84v-71h-84v-150h-85v150zM395 221v423l-240 -423h240z" />
    <glyph glyph-name="five.tab" unicode="&#xe454;" 
d="M294 -9c-155 0 -227 85 -238 202h83c14 -78 46 -132 154 -132c97 0 157 65 157 173c0 101 -58 167 -150 167c-84 0 -130 -26 -169 -69h-32v383h402v-75h-330v-218c29 27 78 49 146 49c128 0 222 -91 222 -237c0 -152 -109 -243 -245 -243z" />
    <glyph glyph-name="six.tab" unicode="&#xe455;" 
d="M314 -9c-196 0 -257 146 -257 325v17c0 257 116 391 280 391c112 0 190 -57 209 -173h-83c-16 67 -52 102 -132 102c-108 0 -184 -97 -188 -286c35 59 100 97 184 97c142 0 234 -102 234 -234c0 -144 -96 -239 -247 -239zM314 59c93 0 158 66 158 167
c0 104 -62 170 -159 170c-96 0 -164 -65 -164 -158c0 -117 69 -179 165 -179z" />
    <glyph glyph-name="seven.tab" unicode="&#xe456;" 
d="M435 645h-359v70h471v-12l-286 -703h-89z" />
    <glyph glyph-name="eight.tab" unicode="&#xe457;" 
d="M307 -9c-117 0 -247 70 -247 212c0 96 59 158 135 185c-68 27 -108 79 -108 150c0 115 111 186 220 186c111 0 219 -72 219 -184c0 -72 -43 -122 -110 -151c84 -31 137 -92 137 -184c0 -143 -125 -214 -246 -214zM307 62c88 0 157 51 157 146c0 93 -71 142 -155 142
c-85 0 -160 -48 -160 -144c0 -93 75 -144 158 -144zM310 419c76 0 128 44 128 120c0 69 -56 117 -131 117s-132 -44 -132 -119s63 -118 135 -118z" />
    <glyph glyph-name="nine.tab" unicode="&#xe458;" 
d="M286 -8c-133 0 -211 68 -230 184h84c16 -71 56 -113 148 -113c115 0 180 93 183 284c-35 -59 -102 -95 -185 -95c-140 0 -235 99 -235 234c0 144 96 239 247 239c171 0 257 -113 257 -320v-45c0 -239 -97 -368 -269 -368zM299 320c96 0 164 62 164 155
c0 117 -69 182 -165 182c-93 0 -158 -66 -158 -167c0 -104 62 -170 159 -170z" />
    <glyph glyph-name="cent.tab" unicode="&#xe459;" 
d="M291 -7c-130 13 -222 113 -222 263v8c0 148 97 250 222 266v99h59v-99c99 -8 184 -60 200 -181h-82c-11 71 -59 105 -118 112v-399c64 8 118 51 126 126h77c-11 -105 -91 -184 -203 -195v-128h-59v128zM155 256c0 -115 52 -179 136 -194v398c-80 -15 -136 -87 -136 -196
v-8z" />
    <glyph glyph-name="dollar.tab" unicode="&#xe45a;" 
d="M278 -8c-170 11 -229 112 -240 226h84c11 -77 33 -147 156 -158v278c-132 24 -211 73 -211 192c0 104 86 185 211 193v90h59v-91c121 -11 195 -78 208 -195h-78c-15 77 -55 116 -130 127v-250c148 -27 223 -73 223 -202c0 -115 -92 -202 -223 -210v-127h-59v127zM477 196
c0 74 -31 108 -140 132v-268c80 8 140 61 140 136zM146 538c0 -64 21 -100 132 -124v241c-84 -7 -132 -54 -132 -117z" />
    <glyph glyph-name="Euro.tab" unicode="&#xe45b;" 
d="M21 452h61c11 167 98 272 247 272c124 0 201 -77 217 -216h-82c-15 96 -55 148 -135 148c-103 0 -153 -71 -160 -204h220l-11 -58h-210v-78h195l-11 -58h-183c7 -133 58 -196 162 -196c84 0 130 52 146 160h81c-16 -149 -102 -231 -227 -231c-145 0 -237 94 -248 267h-62
v58h61v78h-61v58z" />
    <glyph glyph-name="a.alt" unicode="&#xe4c0;" horiz-adv-x="627" 
d="M282 -9c-125 0 -231 96 -231 260v8c0 160 107 273 239 273c81 0 133 -40 164 -91v82h83v-523h-83v88c-29 -51 -103 -97 -172 -97zM291 60c89 0 166 64 166 198v8c0 135 -64 197 -159 197c-96 0 -161 -72 -161 -200v-8c0 -132 71 -195 154 -195z" />
    <glyph glyph-name="t.alt" unicode="&#xe4d3;" horiz-adv-x="350" 
d="M115 453h-82v70h82v119h83v-119h115v-70h-115v-453h-83v453z" />
    <glyph glyph-name="f_i" unicode="&#xfb01;" horiz-adv-x="597" 
d="M108 453h-75v70h75v85c0 107 50 168 154 168c27 0 41 -1 57 -8v-70c-15 7 -31 9 -54 9c-53 0 -74 -37 -74 -90v-94h128v-70h-128v-453h-83v453zM434 523h83v-523h-83v523zM474 632c-31 0 -55 24 -55 55s24 55 55 55s55 -24 55 -55s-24 -55 -55 -55z" />
    <glyph glyph-name="f_l" unicode="&#xfb02;" horiz-adv-x="598" 
d="M108 453h-75v70h75v85c0 107 50 168 154 168c27 0 41 -1 57 -8v-70c-15 7 -31 9 -54 9c-53 0 -74 -37 -74 -90v-94h128v-70h-128v-453h-83v453zM434 773h84v-773h-84v773z" />
    <glyph glyph-name="nine.den" horiz-adv-x="333" 
d="M157 -5c-71 0 -112 35 -120 95h63c7 -27 21 -43 57 -43c48 0 73 38 74 114c-16 -25 -43 -43 -83 -43c-67 0 -114 43 -114 111c0 72 48 118 128 118c92 0 136 -60 136 -160v-17c0 -113 -49 -175 -141 -175zM162 165c39 0 64 26 64 62c0 44 -25 71 -64 71
c-37 0 -62 -27 -62 -67c0 -39 23 -66 62 -66z" />
    <glyph glyph-name="three.sup" horiz-adv-x="324" 
d="M158 426c-84 0 -128 43 -131 111h61c4 -35 23 -61 68 -61c43 0 63 21 63 54c0 36 -20 54 -60 54h-26v47h25c37 0 56 16 56 49c0 27 -17 47 -52 47s-58 -20 -62 -55h-61c4 61 49 105 124 105c73 0 115 -40 115 -92c0 -39 -22 -62 -57 -74c40 -9 67 -37 67 -82
c0 -64 -50 -103 -130 -103z" />
    <glyph glyph-name="zero.sub" horiz-adv-x="362" 
d="M182 -37c51 0 77 39 77 116v14c0 72 -27 115 -78 115s-77 -40 -77 -116v-14c0 -76 27 -115 78 -115zM181 -91c-91 0 -145 67 -145 168v14c0 104 57 169 145 169s145 -64 145 -167v-14c0 -101 -53 -170 -145 -170z" />
    <glyph glyph-name="one.sup" horiz-adv-x="244" 
d="M111 707l-81 -54v59l89 61h60v-342h-68v276z" />
    <glyph glyph-name="eight.den" horiz-adv-x="326" 
d="M162 -5c-69 0 -129 34 -129 101c0 44 24 74 63 87c-31 13 -50 36 -50 71c0 59 56 92 117 92s116 -34 116 -91c0 -35 -20 -58 -51 -71c40 -15 64 -43 64 -86c0 -68 -58 -103 -130 -103zM163 45c35 0 62 19 62 58c0 36 -27 57 -62 57s-62 -21 -62 -58s27 -57 62 -57z
M163 203c31 0 52 17 52 48c0 29 -23 47 -52 47c-31 0 -53 -17 -53 -48s25 -47 53 -47z" />
    <glyph glyph-name="seven.den" horiz-adv-x="281" 
d="M180 287h-157v55h241v-8l-124 -334h-68z" />
    <glyph glyph-name="six.den" horiz-adv-x="333" 
d="M171 -5c-100 0 -135 69 -135 161v9c0 117 59 181 146 181c61 0 102 -30 110 -91h-62c-7 25 -19 40 -51 40c-47 0 -73 -40 -76 -116c16 27 43 44 84 44c65 0 113 -43 113 -111c0 -71 -49 -117 -129 -117zM171 44c37 0 62 27 62 66c0 40 -23 67 -62 67s-65 -26 -65 -63
c0 -44 26 -70 65 -70z" />
    <glyph glyph-name="five.den" horiz-adv-x="315" 
d="M151 -5c-81 0 -120 44 -124 104h63c5 -31 17 -52 61 -52c37 0 58 26 58 67c0 40 -22 65 -59 65c-35 0 -55 -10 -70 -29h-36l4 192h210v-52h-159l-1 -92c15 16 38 30 75 30c63 0 105 -43 105 -115c0 -73 -51 -118 -127 -118z" />
    <glyph glyph-name="four.den" horiz-adv-x="330" 
d="M195 69h-172v24l153 249h83v-224h45v-49h-45v-69h-64v69zM196 118v173l-101 -173h101z" />
    <glyph glyph-name="three.den" horiz-adv-x="324" 
d="M158 -5c-84 0 -128 43 -131 111h61c4 -35 23 -61 68 -61c43 0 63 21 63 54c0 36 -20 54 -60 54h-26v47h25c37 0 56 16 56 49c0 27 -17 47 -52 47s-58 -20 -62 -55h-61c4 61 49 105 124 105c73 0 115 -40 115 -92c0 -39 -22 -62 -57 -74c40 -9 67 -37 67 -82
c0 -64 -50 -103 -130 -103z" />
    <glyph glyph-name="two.den" horiz-adv-x="299" 
d="M14 11l128 136c33 35 54 65 54 97c0 31 -18 50 -50 50c-33 0 -53 -19 -60 -66h-61c4 76 50 118 123 118c72 0 114 -40 114 -101c0 -45 -26 -83 -66 -122l-73 -72h142v-51h-251v11z" />
    <glyph glyph-name="one.den" horiz-adv-x="244" 
d="M111 276l-81 -54v59l89 61h60v-342h-68v276z" />
    <glyph glyph-name="zero.den" horiz-adv-x="362" 
d="M182 49c51 0 77 39 77 116v14c0 72 -27 115 -78 115s-77 -40 -77 -116v-14c0 -76 27 -115 78 -115zM181 -5c-91 0 -145 67 -145 168v14c0 104 57 169 145 169s145 -64 145 -167v-14c0 -101 -53 -170 -145 -170z" />
    <glyph glyph-name="nine.num" horiz-adv-x="332" 
d="M157 368c-71 0 -112 35 -120 95h63c7 -27 21 -43 57 -43c48 0 73 38 74 114c-16 -25 -43 -43 -83 -43c-67 0 -114 43 -114 111c0 72 48 118 128 118c92 0 136 -60 136 -160v-17c0 -113 -49 -175 -141 -175zM162 538c39 0 64 26 64 62c0 44 -25 71 -64 71
c-37 0 -62 -27 -62 -67c0 -39 23 -66 62 -66z" />
    <glyph glyph-name="eight.num" horiz-adv-x="325" 
d="M162 368c-69 0 -129 34 -129 101c0 44 24 74 63 87c-31 13 -50 36 -50 71c0 59 56 92 117 92s116 -34 116 -91c0 -35 -20 -58 -51 -71c40 -15 64 -43 64 -86c0 -68 -58 -103 -130 -103zM163 418c35 0 62 19 62 58c0 36 -27 57 -62 57s-62 -21 -62 -58s27 -57 62 -57z
M163 576c31 0 52 17 52 48c0 29 -23 47 -52 47c-31 0 -53 -17 -53 -48s25 -47 53 -47z" />
    <glyph glyph-name="seven.num" horiz-adv-x="280" 
d="M180 660h-157v55h241v-8l-124 -334h-68z" />
    <glyph glyph-name="f.short" horiz-adv-x="343" 
d="M108 453h-75v70h75v85c0 107 50 168 154 168c27 0 41 -1 57 -8v-70c-15 7 -31 9 -54 9c-53 0 -74 -37 -74 -90v-94h128v-70h-128v-453h-83v453z" />
    <glyph glyph-name="f_f.short" horiz-adv-x="631" 
d="M108 453h-75v70h75v78c0 107 52 168 156 168c27 0 41 -3 62 -10v-70c-15 7 -36 11 -59 11c-55 0 -76 -37 -76 -90v-87h205v85c0 107 50 168 154 168c27 0 41 -1 57 -8v-70c-15 7 -31 9 -54 9c-53 0 -74 -37 -74 -90v-94h128v-70h-128v-453h-83v453h-205v-453h-83v453z
" />
    <glyph glyph-name="six.num" horiz-adv-x="332" 
d="M171 368c-100 0 -135 69 -135 161v9c0 117 59 181 146 181c61 0 102 -30 110 -91h-62c-7 25 -19 40 -51 40c-47 0 -73 -40 -76 -116c16 27 43 44 84 44c65 0 113 -43 113 -111c0 -71 -49 -117 -129 -117zM171 417c37 0 62 27 62 66c0 40 -23 67 -62 67s-65 -26 -65 -63
c0 -44 26 -70 65 -70z" />
    <glyph glyph-name="five.num" horiz-adv-x="314" 
d="M151 368c-81 0 -120 44 -124 104h63c5 -31 17 -52 61 -52c37 0 58 26 58 67c0 40 -22 65 -59 65c-35 0 -55 -10 -70 -29h-36l4 192h210v-52h-159l-1 -92c15 16 38 30 75 30c63 0 105 -43 105 -115c0 -73 -51 -118 -127 -118z" />
    <glyph glyph-name="four.num" horiz-adv-x="329" 
d="M195 442h-172v24l153 249h83v-224h45v-49h-45v-69h-64v69zM196 491v173l-101 -173h101z" />
    <glyph glyph-name="three.num" horiz-adv-x="323" 
d="M158 368c-84 0 -128 43 -131 111h61c4 -35 23 -61 68 -61c43 0 63 21 63 54c0 36 -20 54 -60 54h-26v47h25c37 0 56 16 56 49c0 27 -17 47 -52 47s-58 -20 -62 -55h-61c4 61 49 105 124 105c73 0 115 -40 115 -92c0 -39 -22 -62 -57 -74c40 -9 67 -37 67 -82
c0 -64 -50 -103 -130 -103z" />
    <glyph glyph-name="two.num" horiz-adv-x="298" 
d="M14 384l128 136c33 35 54 65 54 97c0 31 -18 50 -50 50c-33 0 -53 -19 -60 -66h-61c4 76 50 118 123 118c72 0 114 -40 114 -101c0 -45 -26 -83 -66 -122l-73 -72h142v-51h-251v11z" />
    <glyph glyph-name="one.num" horiz-adv-x="243" 
d="M111 649l-81 -54v59l89 61h60v-342h-68v276z" />
    <glyph glyph-name="zero.num" horiz-adv-x="362" 
d="M182 422c51 0 77 39 77 116v14c0 72 -27 115 -78 115s-77 -40 -77 -116v-14c0 -76 27 -115 78 -115zM181 368c-91 0 -145 67 -145 168v14c0 104 57 169 145 169s145 -64 145 -167v-14c0 -101 -53 -170 -145 -170z" />
    <glyph glyph-name="nine.oldtab" horiz-adv-x="600" 
d="M294 231c88 0 153 64 153 155c0 114 -66 175 -154 175c-86 0 -151 -64 -151 -163c0 -101 63 -167 152 -167zM279 -105c-128 0 -201 71 -218 180h81c16 -63 52 -111 144 -111c113 0 162 95 166 294c-33 -56 -91 -94 -171 -94c-135 0 -226 102 -226 230
c0 140 98 234 238 234c176 0 244 -130 244 -306v-57c0 -239 -81 -370 -258 -370z" />
    <glyph glyph-name="eight.oldtab" horiz-adv-x="600" 
d="M301 -9c-113 0 -237 70 -237 209c0 96 59 155 135 182c-68 25 -108 78 -108 154c0 120 103 188 210 188c108 0 209 -71 209 -186c0 -77 -42 -128 -110 -155c84 -29 137 -89 137 -181c0 -139 -119 -211 -236 -211zM304 413c72 0 120 45 120 124c0 72 -52 120 -123 120
s-124 -46 -124 -122c0 -77 58 -122 127 -122zM301 61c84 0 149 52 149 144c0 91 -65 140 -147 140c-83 0 -152 -51 -152 -142s70 -142 150 -142z" />
    <glyph glyph-name="seven.oldtab" horiz-adv-x="600" 
d="M426 550h-358v68h468v-12l-301 -703h-87z" />
    <glyph glyph-name="six.oldtab" horiz-adv-x="600" 
d="M310 -9c-175 0 -246 134 -246 310v50c0 241 105 373 264 373c107 0 188 -57 207 -170h-81c-16 65 -55 101 -132 101c-104 0 -169 -95 -173 -294c33 56 92 94 173 94c140 0 225 -102 225 -230c0 -140 -93 -234 -237 -234zM310 58c85 0 150 64 150 163
c0 101 -62 167 -151 167c-88 0 -155 -64 -155 -155c0 -114 68 -175 156 -175z" />
    <glyph glyph-name="five.oldtab" horiz-adv-x="600" 
d="M296 -105c-149 0 -222 82 -233 195h79c13 -76 48 -127 153 -127c93 0 152 65 152 170c0 96 -58 163 -145 163c-81 0 -130 -24 -167 -67h-30v390h392v-73h-323v-229c28 27 77 47 144 47c124 0 216 -91 216 -231c0 -147 -107 -238 -238 -238z" />
    <glyph glyph-name="four.oldtab" horiz-adv-x="600" 
d="M383 57h-347v28l312 533h118v-494h93v-67h-93v-154h-83v154zM383 124v428l-243 -428h243z" />
    <glyph glyph-name="three.oldtab" horiz-adv-x="600" 
d="M292 -105c-153 0 -241 96 -246 220h79c8 -88 56 -152 169 -152c112 0 161 56 161 143c0 95 -52 137 -153 137h-50v71h46c93 0 133 46 133 125c0 71 -39 120 -127 120c-89 0 -146 -53 -155 -137h-75c5 112 94 206 230 206s210 -88 210 -187c0 -81 -44 -131 -109 -158
c84 -23 137 -77 137 -177c0 -131 -103 -211 -250 -211z" />
    <glyph glyph-name="two.oldtab" horiz-adv-x="600" 
d="M53 20l251 234c67 65 119 114 119 189c0 72 -46 117 -126 117s-131 -45 -146 -153h-77c11 130 92 221 223 221c128 0 213 -76 213 -185c0 -91 -74 -156 -165 -242l-141 -131h312v-70h-463v20z" />
    <glyph glyph-name="one.oldtab" horiz-adv-x="600" 
d="M319 534l-204 -148v80l210 153h79v-619h-85v534z" />
    <glyph glyph-name="zero.oldtab" horiz-adv-x="600" 
d="M302 -9c-150 0 -248 112 -248 267v103c0 156 96 267 247 267c152 0 245 -113 245 -265v-103c0 -157 -93 -269 -244 -269zM302 62c107 0 157 75 157 198v102c0 117 -54 197 -158 197s-160 -76 -160 -197v-103c0 -123 57 -197 161 -197z" />
    <glyph glyph-name="yen.oldtab" horiz-adv-x="600" 
d="M102 329h151l-196 365h92l160 -315l153 315h81l-184 -365h152v-56h-163v-76h163v-56h-163v-141h-83v141h-163v56h163v76h-163v56z" />
    <glyph glyph-name="sterling.oldtab" horiz-adv-x="600" 
d="M58 366h62c-11 41 -17 85 -17 136c0 119 93 200 214 200c125 0 198 -71 207 -183h-81c-15 75 -46 114 -126 114c-76 0 -128 -52 -128 -132c0 -52 7 -94 16 -135h207v-60h-194c8 -39 15 -79 15 -128c0 -24 -5 -45 -13 -64c64 -16 127 -52 167 -52c52 0 85 19 89 83h70
c-5 -89 -57 -154 -149 -154c-86 0 -159 61 -215 61c-43 0 -60 -27 -63 -52h-71c3 42 33 105 99 118c7 17 12 36 12 60c0 43 -11 84 -23 128h-78v60z" />
    <glyph glyph-name="Euro.oldtab" horiz-adv-x="600" 
d="M35 438h59c9 164 94 264 239 264c121 0 195 -74 211 -209h-80c-13 93 -54 143 -131 143c-99 0 -148 -69 -155 -198h214l-11 -56h-204v-75h189l-10 -57h-178c7 -129 57 -190 157 -190c83 0 126 51 142 155h78c-15 -144 -99 -224 -220 -224c-141 0 -229 92 -240 259h-60v57
h59v75h-59v56z" />
    <glyph glyph-name="dollar.oldtab" horiz-adv-x="600" 
d="M144 522c0 -60 21 -99 128 -120v233c-81 -7 -128 -53 -128 -113zM465 190c0 72 -31 107 -135 128v-260c78 8 135 60 135 132zM272 -8c-165 11 -222 109 -232 219h81c11 -75 33 -142 151 -153v270c-128 24 -204 70 -204 186c0 102 84 179 204 187v88h58v-89
c117 -12 189 -76 201 -189h-75c-15 73 -57 113 -126 122v-242c141 -24 216 -70 216 -195c0 -109 -90 -196 -216 -204v-123h-58v123z" />
    <glyph glyph-name="braceright.tab" horiz-adv-x="312" 
d="M42 -85c78 0 108 33 90 147l-19 115c-12 75 31 111 98 138c-67 27 -110 63 -98 138l19 115c18 114 -12 147 -90 147v63c128 0 196 -57 169 -208l-19 -104c-11 -59 5 -101 88 -120v-62c-82 -21 -99 -59 -88 -120l19 -104c27 -151 -41 -208 -169 -208v63z" />
    <glyph glyph-name="braceleft.tab" horiz-adv-x="312" 
d="M270 -148c-128 0 -196 57 -169 208l19 104c11 61 -6 99 -88 120v62c83 19 99 61 88 120l-19 104c-27 151 41 208 169 208v-63c-78 0 -108 -33 -90 -147l19 -115c12 -75 -31 -111 -98 -138c67 -27 110 -63 98 -138l-19 -115c-18 -114 12 -147 90 -147v-63z" />
    <glyph glyph-name="bracketright.tab" horiz-adv-x="312" 
d="M42 -82h111v792h-111v66h194v-924h-194v66z" />
    <glyph glyph-name="bracketleft.tab" horiz-adv-x="312" 
d="M76 776h194v-66h-111v-792h111v-66h-194v924z" />
    <glyph glyph-name="three.sub" horiz-adv-x="324" 
d="M158 -91c-84 0 -128 43 -131 111h61c4 -35 23 -61 68 -61c43 0 63 21 63 54c0 36 -20 54 -60 54h-26v47h25c37 0 56 16 56 49c0 27 -17 47 -52 47s-58 -20 -62 -55h-61c4 61 49 105 124 105c73 0 115 -40 115 -92c0 -39 -22 -62 -57 -74c40 -9 67 -37 67 -82
c0 -64 -50 -103 -130 -103z" />
    <glyph glyph-name="four.sub" horiz-adv-x="330" 
d="M195 -17h-172v24l153 249h83v-224h45v-49h-45v-69h-64v69zM196 32v173l-101 -173h101z" />
    <glyph glyph-name="uni20B4.old" horiz-adv-x="584" 
d="M287 -9c-129 0 -225 62 -225 178c0 37 8 70 25 97h-57v57h116c36 24 82 43 137 62c13 4 24 9 35 13h-288v57h381c17 23 22 48 22 85c0 65 -48 94 -128 94c-91 0 -138 -33 -153 -113h-75c12 117 95 181 228 181c120 0 209 -54 209 -161c0 -35 -7 -63 -21 -86h61v-57h-117
c-36 -24 -82 -43 -138 -64c-11 -4 -20 -7 -29 -11h284v-57h-378c-20 -22 -30 -53 -30 -94c0 -79 61 -113 141 -113c121 0 160 66 171 142h81c-13 -113 -83 -210 -252 -210z" />
    <glyph glyph-name="uni20B4.oldtab" horiz-adv-x="600" 
d="M295 -9c-129 0 -225 62 -225 178c0 37 8 70 25 97h-57v57h116c36 24 82 43 137 62c13 4 24 9 35 13h-288v57h381c17 23 22 48 22 85c0 65 -48 94 -128 94c-91 0 -138 -33 -153 -113h-75c12 117 95 181 228 181c120 0 209 -54 209 -161c0 -35 -7 -63 -21 -86h61v-57h-117
c-36 -24 -82 -43 -138 -64c-11 -4 -20 -7 -29 -11h284v-57h-378c-20 -22 -30 -53 -30 -94c0 -79 61 -113 141 -113c121 0 160 66 171 142h81c-13 -113 -83 -210 -252 -210z" />
    <glyph glyph-name="uni20B4.tab" horiz-adv-x="600" 
d="M295 -9c-122 0 -212 63 -212 183c0 40 8 74 24 101h-57v58h109c35 27 79 45 132 64c13 5 25 9 36 14h-277v58h357c15 23 18 51 18 88c0 68 -42 97 -111 97c-81 0 -122 -33 -138 -117h-78c13 121 91 187 216 187c112 0 195 -57 195 -166c0 -36 -7 -65 -19 -89h60v-58h-110
c-35 -27 -78 -46 -133 -66c-11 -4 -20 -8 -29 -12h272v-58h-355c-17 -23 -25 -56 -25 -97c0 -83 54 -117 125 -117c109 0 145 67 156 147h84c-13 -117 -80 -217 -240 -217z" />
    <glyph glyph-name="five.sub" horiz-adv-x="315" 
d="M151 -91c-81 0 -120 44 -124 104h63c5 -31 17 -52 61 -52c37 0 58 26 58 67c0 40 -22 65 -59 65c-35 0 -55 -10 -70 -29h-36l4 192h210v-52h-159l-1 -92c15 16 38 30 75 30c63 0 105 -43 105 -115c0 -73 -51 -118 -127 -118z" />
    <glyph glyph-name="uni20B8.old" horiz-adv-x="546" 
d="M29 637v57h488v-57h-488zM231 499h-202v68h488v-68h-202v-499h-84v499z" />
    <glyph glyph-name="uni20B8.oldtab" horiz-adv-x="600" 
d="M56 637v57h488v-57h-488zM258 499h-202v68h488v-68h-202v-499h-84v499z" />
    <glyph glyph-name="uni20B8.tab" horiz-adv-x="600" 
d="M59 653v62h483v-62h-483zM257 514h-198v71h483v-71h-198v-514h-87v514z" />
    <glyph glyph-name="six.sub" horiz-adv-x="333" 
d="M171 -91c-100 0 -135 69 -135 161v9c0 117 59 181 146 181c61 0 102 -30 110 -91h-62c-7 25 -19 40 -51 40c-47 0 -73 -40 -76 -116c16 27 43 44 84 44c65 0 113 -43 113 -111c0 -71 -49 -117 -129 -117zM171 -42c37 0 62 27 62 66c0 40 -23 67 -62 67s-65 -26 -65 -63
c0 -44 26 -70 65 -70z" />
    <glyph glyph-name="uni20BD.old" horiz-adv-x="601" 
d="M339 360c103 0 157 50 157 142v4c0 101 -60 139 -157 139h-122v-285h122zM217 160v-160h-87v160h-100v56h100v76h-100v56h100v367h203c136 0 250 -60 250 -209v-4c0 -152 -114 -211 -250 -211h-116v-75h230v-56h-230z" />
    <glyph glyph-name="uni20BD.oldtab" horiz-adv-x="600" 
d="M319 348c103 0 157 46 157 138v4c0 101 -60 134 -157 134h-102v-276h102zM217 148v-148h-87v148h-100v56h100v76h-100v56h100v358h183c136 0 250 -55 250 -204v-4c0 -152 -114 -207 -250 -207h-96v-75h210v-56h-210z" />
    <glyph glyph-name="uni20BD.tab" horiz-adv-x="600" 
d="M319 360c103 0 157 50 157 142v4c0 101 -60 139 -157 139h-102v-285h102zM217 165v-165h-87v165h-100v58h100v78h-100v58h100v356h183c136 0 250 -60 250 -209v-4c0 -152 -114 -211 -250 -211h-96v-68h223v-58h-223z" />
    <glyph glyph-name="parenright.tab" horiz-adv-x="312" 
d="M35 -148c69 112 132 258 132 460s-62 349 -132 461h83c72 -109 136 -261 136 -461c0 -199 -64 -353 -136 -460h-83z" />
    <glyph glyph-name="parenleft.tab" horiz-adv-x="312" 
d="M194 -148c-72 107 -136 261 -136 460c0 200 64 352 136 461h83c-70 -112 -132 -259 -132 -461s63 -348 132 -460h-83z" />
    <glyph glyph-name="semicolon.tab" horiz-adv-x="312" 
d="M31 -95l96 219l81 -38l-123 -209zM165 292c-35 0 -64 28 -64 64s29 64 64 64s64 -28 64 -64s-29 -64 -64 -64z" />
    <glyph glyph-name="colon.tab" horiz-adv-x="312" 
d="M156 -5c-35 0 -64 28 -64 64s29 64 64 64s64 -28 64 -64s-29 -64 -64 -64zM156 292c-35 0 -64 28 -64 64s29 64 64 64s64 -28 64 -64s-29 -64 -64 -64z" />
    <glyph glyph-name="comma.tab" horiz-adv-x="312" 
d="M51 -95l96 219l81 -38l-123 -209z" />
    <glyph glyph-name="period.tab" horiz-adv-x="312" 
d="M156 -5c-35 0 -64 28 -64 64s29 64 64 64s64 -28 64 -64s-29 -64 -64 -64z" />
    <glyph glyph-name="seven.sub" horiz-adv-x="281" 
d="M180 201h-157v55h241v-8l-124 -334h-68z" />
    <glyph glyph-name="uni021B.alt" horiz-adv-x="338" 
d="M71 -194l58 157l80 -24l-87 -159zM115 453h-82v70h82v119h83v-119h115v-70h-115v-453h-83v453z" />
    <glyph glyph-name="greaterequal.tab" 
d="M121 199l260 135l-260 135v80l384 -205v-20l-384 -205v80zM121 70h384v-70h-384v70z" />
    <glyph glyph-name="uni0448.bgr" horiz-adv-x="910" 
d="M826 0h-83v83c-24 -49 -80 -92 -156 -92c-68 0 -126 27 -153 98c-37 -69 -114 -98 -179 -98c-93 0 -176 56 -176 208v324h83v-330c0 -92 39 -130 111 -130c68 0 138 46 138 140v320h83v-330c0 -92 39 -130 111 -130c68 0 138 49 138 143v317h83v-523z" />
    <glyph glyph-name="lessequal.tab" 
d="M107 324v20l384 205v-80l-260 -135l260 -135v-80zM107 70h384v-70h-384v70z" />
    <glyph glyph-name="greater.tab" 
d="M121 175l263 147l-263 147v80l384 -217v-20l-384 -217v80z" />
    <glyph glyph-name="uni0433.locl" horiz-adv-x="446" 
d="M167 453v-453h-83v523h332v-70h-249z" />
    <glyph glyph-name="uni0431.locl" horiz-adv-x="604" 
d="M301 -9c-149 0 -256 113 -256 256v8c0 147 108 248 244 248h9c-107 56 -196 100 -196 176c0 64 52 93 128 93h132c48 0 102 0 147 9l5 -70c-52 -12 -89 -17 -153 -17h-112c-43 0 -63 -7 -63 -34c0 -36 88 -73 171 -121c115 -69 202 -129 202 -283v-8
c0 -148 -110 -257 -258 -257zM302 60c105 0 171 79 171 187v7c0 111 -67 189 -171 189c-105 0 -171 -79 -171 -188v-8c0 -109 65 -187 171 -187z" />
    <glyph glyph-name="less.tab" 
d="M107 312v20l384 217v-80l-263 -147l263 -147v-80z" />
    <glyph glyph-name="approxequal.tab" 
d="M101 166c7 80 55 119 110 119c76 0 140 -44 192 -44c21 0 42 14 45 46h63c-7 -83 -55 -119 -107 -119c-79 0 -142 44 -194 44c-23 0 -41 -15 -46 -46h-63zM101 343c7 80 55 119 110 119c76 0 140 -44 192 -44c21 0 42 14 45 46h63c-7 -83 -55 -119 -107 -119
c-79 0 -142 44 -194 44c-23 0 -41 -15 -46 -46h-63z" />
    <glyph glyph-name="notequal.tab" 
d="M104 448h215l40 103h76l-40 -103h113v-72h-141l-41 -108h182v-72h-210l-40 -103h-76l40 103h-118v72h146l41 108h-187v72z" />
    <glyph glyph-name="equal.tab" 
d="M104 268h404v-72h-404v72zM104 448h404v-72h-404v72z" />
    <glyph glyph-name="divide.tab" 
d="M306 89c-35 0 -64 28 -64 64s29 64 64 64s64 -28 64 -64s-29 -64 -64 -64zM83 377h447v-70h-447v70zM306 467c-35 0 -64 28 -64 64s29 64 64 64s64 -28 64 -64s-29 -64 -64 -64z" />
    <glyph glyph-name="multiply.tab" 
d="M105 179l154 154l-154 154l47 48l154 -155l154 155l48 -48l-154 -154l154 -154l-48 -48l-154 155l-154 -155z" />
    <glyph glyph-name="uni0447.bgr" horiz-adv-x="556" 
d="M389 0v244c-31 -33 -79 -58 -150 -58c-94 0 -175 57 -175 201v136h83v-132c0 -92 41 -133 114 -133c56 0 101 22 128 58v207h83v-523h-83z" />
    <glyph glyph-name="uni0414.bgr" horiz-adv-x="673" 
d="M142 73h384l-192 570zM72 -130h-72v203h60l221 642h114l217 -642h61v-203h-72l-5 130h-519z" />
    <glyph glyph-name="plusminus.tab" 
d="M270 327h-187v70h187v182h73v-182h187v-70h-187v-182h-73v182zM83 70h447v-70h-447v70z" />
    <glyph glyph-name="minus.tab" 
d="M83 377h447v-70h-447v70z" />
    <glyph glyph-name="plus.tab" 
d="M270 307h-187v70h187v202h73v-202h187v-70h-187v-202h-73v202z" />
    <glyph glyph-name="perthousand.tab" horiz-adv-x="1012" 
d="M186 459c39 0 61 36 61 99c0 60 -22 99 -61 99s-61 -36 -61 -100s22 -98 61 -98zM186 395c-70 0 -135 60 -135 161c0 106 64 165 135 165c72 0 135 -59 135 -163s-64 -163 -135 -163zM534 715h76l-437 -715h-76zM518 56c39 0 61 36 61 99c0 60 -22 99 -61 99
s-61 -36 -61 -100s22 -98 61 -98zM518 -8c-70 0 -135 60 -135 161c0 106 64 165 135 165c72 0 135 -59 135 -163s-64 -163 -135 -163zM826 56c39 0 61 36 61 99c0 60 -22 99 -61 99s-61 -36 -61 -100s22 -98 61 -98zM826 -8c-70 0 -135 60 -135 161c0 106 64 165 135 165
c72 0 135 -59 135 -163s-64 -163 -135 -163z" />
    <glyph glyph-name="uni044E.bgr" horiz-adv-x="784" 
d="M491 -9c-140 0 -237 101 -245 242h-79v-233h-83v773h83v-470h80c16 137 108 229 245 229c148 0 247 -109 247 -266v-8c0 -158 -100 -267 -248 -267zM492 60c105 0 161 78 161 197v7c0 121 -57 199 -161 199c-105 0 -161 -77 -161 -198v-8c0 -120 54 -197 161 -197z" />
    <glyph glyph-name="uni0439.bgr" horiz-adv-x="594" 
d="M295 619c-71 0 -129 56 -132 132h72c3 -39 20 -74 60 -74c43 0 62 34 66 74h70c-5 -76 -63 -132 -136 -132zM261 -9c-104 0 -182 57 -182 201v331h83v-327c0 -92 38 -133 121 -133c75 0 144 49 144 143v317h83v-523h-83v83c-24 -49 -82 -92 -166 -92z" />
    <glyph glyph-name="uni0436.bgr" horiz-adv-x="709" 
d="M314 269l-202 -269h-93l213 278l-194 245h89l187 -246v496h81v-496l187 246h90l-194 -245l213 -278h-94l-202 269v-269h-81v269z" />
    <glyph glyph-name="percent.tab" horiz-adv-x="812" 
d="M212 448c55 0 88 36 88 104c0 64 -33 104 -88 104c-53 0 -88 -37 -88 -105s35 -103 88 -103zM212 383c-85 0 -164 70 -164 167c0 99 77 171 164 171c89 0 164 -73 164 -169c0 -99 -78 -169 -164 -169zM586 715h76l-437 -715h-76zM600 57c55 0 88 36 88 104
c0 64 -33 104 -88 104c-53 0 -88 -37 -88 -105s35 -103 88 -103zM600 -8c-85 0 -164 70 -164 167c0 99 77 171 164 171c89 0 164 -73 164 -169c0 -99 -78 -169 -164 -169z" />
    <glyph glyph-name="eight.sub" horiz-adv-x="326" 
d="M162 -91c-69 0 -129 34 -129 101c0 44 24 74 63 87c-31 13 -50 36 -50 71c0 59 56 92 117 92s116 -34 116 -91c0 -35 -20 -58 -51 -71c40 -15 64 -43 64 -86c0 -68 -58 -103 -130 -103zM163 -41c35 0 62 19 62 58c0 36 -27 57 -62 57s-62 -21 -62 -58s27 -57 62 -57z
M163 117c31 0 52 17 52 48c0 29 -23 47 -52 47c-31 0 -53 -17 -53 -48s25 -47 53 -47z" />
    <glyph glyph-name="nine.sub" horiz-adv-x="333" 
d="M157 -91c-71 0 -112 35 -120 95h63c7 -27 21 -43 57 -43c48 0 73 38 74 114c-16 -25 -43 -43 -83 -43c-67 0 -114 43 -114 111c0 72 48 118 128 118c92 0 136 -60 136 -160v-17c0 -113 -49 -175 -141 -175zM162 79c39 0 64 26 64 62c0 44 -25 71 -64 71
c-37 0 -62 -27 -62 -67c0 -39 23 -66 62 -66z" />
    <glyph glyph-name="plus.sub" horiz-adv-x="351" 
d="M148 56h-101v53h101v106h55v-106h101v-53h-101v-105h-55v105z" />
    <glyph glyph-name="uni0424.bgr" horiz-adv-x="835" 
d="M460 660c180 -5 319 -82 319 -296v-8c0 -210 -143 -290 -319 -293v-73h-85v73c-180 3 -319 82 -319 288v5c0 218 142 299 319 304v65h85v-65zM460 129c127 3 230 48 230 228v8c0 174 -95 226 -230 231v-467zM375 594c-128 -5 -230 -46 -230 -239v-5
c0 -166 95 -220 230 -223v467z" />
    <glyph glyph-name="uni0446.bgr" horiz-adv-x="610" 
d="M523 -127l-6 127h-90v83c-24 -49 -82 -92 -166 -92c-104 0 -182 57 -182 201v331h83v-327c0 -92 38 -133 121 -133c75 0 144 49 144 143v317h83v-453h80v-197h-67z" />
    <glyph glyph-name="minus.sub" horiz-adv-x="351" 
d="M47 109h257v-53h-257v53z" />
    <glyph glyph-name="zero.sup" horiz-adv-x="362" 
d="M182 480c51 0 77 39 77 116v14c0 72 -27 115 -78 115s-77 -40 -77 -116v-14c0 -76 27 -115 78 -115zM181 426c-91 0 -145 67 -145 168v14c0 104 57 169 145 169s145 -64 145 -167v-14c0 -101 -53 -170 -145 -170z" />
    <glyph glyph-name="uni0432.bgr" horiz-adv-x="518" 
d="M62 524c0 157 60 257 197 257c123 0 190 -79 190 -190v-3c0 -75 -47 -152 -123 -166c77 -11 147 -68 147 -193v-3c0 -140 -90 -236 -206 -236c-149 0 -205 110 -205 258v276zM145 453h92c90 0 125 65 125 135v3c0 64 -27 121 -103 121c-88 0 -114 -79 -114 -183v-76z
M264 60c80 0 126 62 126 166v3c0 105 -48 158 -153 158h-92v-146c0 -109 30 -181 119 -181z" />
    <glyph glyph-name="uni0449.bgr" horiz-adv-x="926" 
d="M839 -127l-6 127h-90v83c-24 -49 -80 -92 -156 -92c-68 0 -126 27 -153 98c-37 -69 -114 -98 -179 -98c-93 0 -176 56 -176 208v324h83v-330c0 -92 39 -130 111 -130c68 0 138 46 138 140v320h83v-330c0 -92 39 -130 111 -130c68 0 138 49 138 143v317h83v-453h80v-197
h-67z" />
    <glyph glyph-name="two.sub" horiz-adv-x="299" 
d="M14 -75l128 136c33 35 54 65 54 97c0 31 -18 50 -50 50c-33 0 -53 -19 -60 -66h-61c4 76 50 118 123 118c72 0 114 -40 114 -101c0 -45 -26 -83 -66 -122l-73 -72h142v-51h-251v11z" />
    <glyph glyph-name="two.sup" horiz-adv-x="299" 
d="M14 442l128 136c33 35 54 65 54 97c0 31 -18 50 -50 50c-33 0 -53 -19 -60 -66h-61c4 76 50 118 123 118c72 0 114 -40 114 -101c0 -45 -26 -83 -66 -122l-73 -72h142v-51h-251v11z" />
    <glyph glyph-name="one.sub" horiz-adv-x="244" 
d="M111 189l-81 -54v59l89 61h60v-342h-68v276z" />
    <glyph glyph-name="uni0437.bgr" horiz-adv-x="481" 
d="M438 25c0 -140 -94 -216 -206 -216c-128 0 -188 73 -201 161h85c12 -60 51 -91 114 -91c73 0 125 43 125 146v3c0 101 -47 148 -143 148h-47v66h46c81 0 116 44 116 115v3c0 58 -26 103 -96 103c-51 0 -86 -25 -98 -82h-80c13 113 95 151 182 151c113 0 179 -68 179 -172
v-3c0 -76 -48 -134 -113 -145c75 -13 137 -70 137 -184v-3z" />
    <glyph glyph-name="four.sup" horiz-adv-x="330" 
d="M195 500h-172v24l153 249h83v-224h45v-49h-45v-69h-64v69zM196 549v173l-101 -173h101z" />
    <glyph glyph-name="five.sup" horiz-adv-x="315" 
d="M151 426c-81 0 -120 44 -124 104h63c5 -31 17 -52 61 -52c37 0 58 26 58 67c0 40 -22 65 -59 65c-35 0 -55 -10 -70 -29h-36l4 192h210v-52h-159l-1 -92c15 16 38 30 75 30c63 0 105 -43 105 -115c0 -73 -51 -118 -127 -118z" />
    <glyph glyph-name="six.sup" horiz-adv-x="333" 
d="M171 426c-100 0 -135 69 -135 161v9c0 117 59 181 146 181c61 0 102 -30 110 -91h-62c-7 25 -19 40 -51 40c-47 0 -73 -40 -76 -116c16 27 43 44 84 44c65 0 113 -43 113 -111c0 -71 -49 -117 -129 -117zM171 475c37 0 62 27 62 66c0 40 -23 67 -62 67s-65 -26 -65 -63
c0 -44 26 -70 65 -70z" />
    <glyph glyph-name="seven.sup" horiz-adv-x="281" 
d="M180 718h-157v55h241v-8l-124 -334h-68z" />
    <glyph glyph-name="uni0442.locl" horiz-adv-x="481" 
d="M451 453h-169v-453h-83v453h-169v70h421v-70z" />
    <glyph glyph-name="florin.tab" 
d="M117 413h117l23 152c16 104 72 159 169 159c29 0 49 -4 68 -11v-70c-15 7 -37 12 -66 12c-56 0 -81 -39 -89 -94l-23 -148h142v-68h-152l-80 -527h-83l80 527h-106v68z" />
    <glyph glyph-name="yen.tab" 
d="M102 339h156l-202 376h94l165 -324l157 324h84l-190 -376h157v-58h-168v-78h168v-58h-168v-145h-85v145h-168v58h168v78h-168v58z" />
    <glyph glyph-name="sterling.tab" 
d="M56 377h65c-11 43 -18 88 -18 141c0 123 96 206 220 206c129 0 205 -74 214 -189h-84c-13 75 -47 118 -130 118c-77 0 -132 -53 -132 -136c0 -55 8 -97 17 -140h213v-62h-199c8 -40 15 -81 15 -132c0 -23 -4 -44 -13 -65c67 -16 129 -54 172 -54c53 0 87 21 91 86h73
c-7 -92 -59 -159 -154 -159c-88 0 -166 63 -222 63c-44 0 -62 -27 -65 -54h-73c3 45 35 109 103 122c7 17 12 37 12 62c0 44 -11 86 -23 131h-82v62z" />
    <glyph glyph-name="eight.sup" horiz-adv-x="326" 
d="M162 426c-69 0 -129 34 -129 101c0 44 24 74 63 87c-31 13 -50 36 -50 71c0 59 56 92 117 92s116 -34 116 -91c0 -35 -20 -58 -51 -71c40 -15 64 -43 64 -86c0 -68 -58 -103 -130 -103zM163 476c35 0 62 19 62 58c0 36 -27 57 -62 57s-62 -21 -62 -58s27 -57 62 -57z
M163 634c31 0 52 17 52 48c0 29 -23 47 -52 47c-31 0 -53 -17 -53 -48s25 -47 53 -47z" />
    <glyph glyph-name="nine.sup" horiz-adv-x="333" 
d="M157 426c-71 0 -112 35 -120 95h63c7 -27 21 -43 57 -43c48 0 73 38 74 114c-16 -25 -43 -43 -83 -43c-67 0 -114 43 -114 111c0 72 48 118 128 118c92 0 136 -60 136 -160v-17c0 -113 -49 -175 -141 -175zM162 596c39 0 64 26 64 62c0 44 -25 71 -64 71
c-37 0 -62 -27 -62 -67c0 -39 23 -66 62 -66z" />
    <glyph glyph-name="plus.sup" horiz-adv-x="351" 
d="M148 574h-101v53h101v106h55v-106h101v-53h-101v-105h-55v105z" />
    <glyph glyph-name="space.tab" horiz-adv-x="300" 
 />
    <glyph glyph-name="nine.old" horiz-adv-x="623" 
d="M290 -105c-128 0 -206 71 -223 180h81c16 -63 57 -111 149 -111c127 0 172 97 176 294c-33 -56 -100 -94 -181 -94c-140 0 -231 102 -231 230c0 140 95 234 243 234c191 0 254 -143 254 -319v-30c0 -253 -89 -384 -268 -384zM305 231c93 0 163 64 163 155
c0 114 -71 175 -164 175c-92 0 -156 -64 -156 -163c0 -101 61 -167 157 -167z" />
    <glyph glyph-name="eight.old" horiz-adv-x="607" 
d="M304 -9c-116 0 -245 70 -245 209c0 97 64 156 140 182c-68 25 -113 78 -113 154c0 120 108 188 218 188c111 0 217 -71 217 -186c0 -77 -47 -128 -115 -155c84 -29 142 -89 142 -181c0 -139 -123 -211 -244 -211zM304 61c88 0 157 52 157 144c0 91 -71 140 -155 140
c-85 0 -160 -51 -160 -142s75 -142 158 -142zM307 413c76 0 128 45 128 124c0 72 -56 120 -131 120s-132 -46 -132 -122c0 -77 63 -122 135 -122z" />
    <glyph glyph-name="seven.old" horiz-adv-x="535" 
d="M397 550h-362v68h468v-12l-289 -703h-87z" />
    <glyph glyph-name="six.old" horiz-adv-x="623" 
d="M319 -9c-191 0 -254 143 -254 319v30c0 252 113 384 274 384c109 0 188 -57 207 -170h-81c-16 65 -52 101 -132 101c-107 0 -179 -97 -183 -294c33 56 100 94 181 94c140 0 231 -102 231 -230c0 -140 -95 -234 -243 -234zM319 58c92 0 156 64 156 163
c0 101 -61 167 -157 167c-94 0 -163 -64 -163 -155c0 -114 71 -175 164 -175z" />
    <glyph glyph-name="five.old" horiz-adv-x="581" 
d="M282 -105c-149 0 -222 82 -233 195h79c13 -76 48 -127 153 -127c93 0 152 65 152 170c0 96 -58 163 -145 163c-81 0 -130 -24 -167 -67h-30v390h392v-73h-323v-229c28 27 77 47 144 47c124 0 216 -91 216 -231c0 -147 -107 -238 -238 -238z" />
    <glyph glyph-name="four.old" horiz-adv-x="629" 
d="M403 57h-367v28l336 533h114v-494h101v-67h-101v-154h-83v154zM403 124v428l-260 -428h260z" />
    <glyph glyph-name="three.old" horiz-adv-x="605" 
d="M294 -105c-153 0 -241 96 -246 220h79c8 -88 56 -152 169 -152c112 0 161 56 161 143c0 95 -52 137 -153 137h-50v71h46c93 0 133 46 133 125c0 71 -39 120 -127 120c-89 0 -146 -53 -155 -137h-75c5 112 94 206 230 206s210 -88 210 -187c0 -81 -44 -131 -109 -158
c84 -23 137 -77 137 -177c0 -131 -103 -211 -250 -211z" />
    <glyph glyph-name="two.old" horiz-adv-x="553" 
d="M29 20l251 234c67 65 119 114 119 189c0 72 -46 117 -126 117s-131 -45 -146 -153h-77c11 130 92 221 223 221c128 0 213 -76 213 -185c0 -91 -74 -156 -165 -242l-141 -131h312v-70h-463v20z" />
    <glyph glyph-name="one.old" horiz-adv-x="399" 
d="M199 534l-158 -112v80l164 117h79v-619h-85v534z" />
    <glyph glyph-name="uni0448.locl" horiz-adv-x="811" 
d="M84 523h83v-453h197v453h83v-453h197v453h83v-523h-643v523z" />
    <glyph glyph-name="zero.old" horiz-adv-x="655" 
d="M329 62c116 0 178 80 178 231v36c0 145 -66 230 -179 230s-180 -81 -180 -230v-37c0 -151 68 -230 181 -230zM329 -9c-160 0 -268 120 -268 300v37c0 184 106 300 267 300c162 0 266 -119 266 -298v-37c0 -183 -102 -302 -265 -302z" />
    <glyph glyph-name="uni0430.alt" horiz-adv-x="615" 
d="M282 -9c-125 0 -231 96 -231 260v8c0 160 107 273 239 273c81 0 133 -40 164 -91v82h83v-523h-83v88c-29 -51 -103 -97 -172 -97zM291 60c89 0 166 64 166 198v8c0 135 -64 197 -159 197c-96 0 -161 -72 -161 -200v-8c0 -132 71 -195 154 -195z" />
    <glyph glyph-name="yen.old" horiz-adv-x="571" 
d="M87 329h151l-205 365h91l170 -315l162 315h82l-194 -365h152v-56h-163v-76h163v-56h-163v-141h-83v141h-163v56h163v76h-163v56z" />
    <glyph glyph-name="uni0434.bgr" horiz-adv-x="627" 
d="M292 86c97 0 171 68 171 185v7c0 117 -63 185 -166 185c-104 0 -166 -78 -166 -187v-8c0 -114 73 -182 161 -182zM293 -191c-155 0 -224 73 -237 161h85c12 -61 62 -91 151 -91c103 0 168 49 168 161v76c-29 -51 -102 -99 -177 -99c-137 0 -238 104 -238 248v7
c0 142 100 260 244 260c88 0 140 -42 171 -93v84h83v-488c0 -152 -105 -226 -250 -226z" />
    <glyph glyph-name="uni043B.bgr" horiz-adv-x="534" 
d="M509 0h-90l-155 439l-153 -439h-86l188 523h106z" />
    <glyph glyph-name="uni043F.locl" horiz-adv-x="581" 
d="M414 453h-247v-453h-83v523h413v-523h-83v453z" />
    <glyph glyph-name="sterling.old" horiz-adv-x="590" 
d="M53 366h62c-11 41 -17 85 -17 136c0 119 93 200 214 200c125 0 198 -71 207 -183h-81c-15 75 -46 114 -126 114c-76 0 -128 -52 -128 -132c0 -52 7 -94 16 -135h207v-60h-194c8 -39 15 -79 15 -128c0 -24 -5 -45 -13 -64c64 -16 127 -52 167 -52c52 0 85 19 89 83h70
c-5 -89 -57 -154 -149 -154c-86 0 -159 61 -215 61c-43 0 -60 -27 -63 -52h-71c3 42 33 105 99 118c7 17 12 36 12 60c0 43 -11 84 -23 128h-78v60z" />
    <glyph glyph-name="Euro.old" horiz-adv-x="666" 
d="M37 438h71c16 148 106 264 260 264c133 0 221 -77 236 -212h-79c-15 93 -72 146 -157 146c-105 0 -164 -77 -177 -198h232l-11 -56h-223v-75h209l-11 -57h-195c13 -120 70 -190 178 -190c91 0 148 54 164 159h78c-16 -143 -106 -228 -242 -228c-149 0 -245 107 -261 259
h-72v57h69v75h-69v56z" />
    <glyph glyph-name="dollar.old" horiz-adv-x="620" 
d="M282 -8c-165 11 -222 109 -232 219h81c11 -75 33 -142 151 -153v270c-128 24 -204 70 -204 186c0 101 84 180 204 188v87h58v-89c117 -12 189 -76 201 -189h-75c-15 73 -57 113 -126 122v-242c141 -24 216 -70 216 -195c0 -109 -90 -196 -216 -204v-123h-58v123zM475 190
c0 72 -31 107 -135 128v-260c78 8 135 60 135 132zM154 522c0 -60 21 -99 128 -120v233c-81 -7 -128 -53 -128 -113z" />
    <glyph glyph-name="uni043A.bgr" horiz-adv-x="516" 
d="M167 267v-267h-83v773h83v-494l217 244h97l-224 -246l243 -277h-101z" />
    <glyph glyph-name="uni043F.bgr" horiz-adv-x="598" 
d="M84 523h83v-83c24 49 81 92 168 92c108 0 184 -59 184 -211v-321h-83v327c0 92 -39 133 -123 133c-77 0 -146 -49 -146 -143v-317h-83v523z" />
    <glyph glyph-name="uni0442.bgr" horiz-adv-x="910" 
d="M84 523h83v-80c24 49 80 89 156 89c68 0 126 -27 153 -98c35 67 116 98 179 98c93 0 176 -56 176 -208v-324h-83v330c0 92 -39 130 -111 130c-68 0 -138 -46 -138 -140v-320h-83v330c0 92 -39 130 -111 130c-68 0 -138 -46 -138 -140v-320h-83v523z" />
    <glyph glyph-name="uni041A.bgr" horiz-adv-x="616" 
d="M177 349v-349h-87v715h87v-344l311 344h97l-318 -347l334 -368h-105z" />
    <glyph glyph-name="minus.sup" horiz-adv-x="351" 
d="M47 627h257v-53h-257v53z" />
    <glyph glyph-name="aacute.alt" horiz-adv-x="627" 
d="M282 -9c-125 0 -231 96 -231 260v8c0 160 107 273 239 273c81 0 133 -40 164 -91v82h83v-523h-83v88c-29 -51 -103 -97 -172 -97zM291 60c89 0 166 64 166 198v8c0 135 -64 197 -159 197c-96 0 -161 -72 -161 -200v-8c0 -132 71 -195 154 -195zM329 760h104l-104 -147
h-62z" />
    <glyph glyph-name="abreve.alt" horiz-adv-x="615" 
d="M282 -9c-125 0 -231 96 -231 260v8c0 160 107 273 239 273c81 0 133 -40 164 -91v82h83v-523h-83v88c-29 -51 -103 -97 -172 -97zM291 60c89 0 166 64 166 198v8c0 135 -64 197 -159 197c-96 0 -161 -72 -161 -200v-8c0 -132 71 -195 154 -195zM304 619
c-71 0 -129 56 -132 132h66c7 -39 26 -64 66 -64c43 0 64 24 72 64h64c-5 -76 -63 -132 -136 -132z" />
    <glyph glyph-name="acircumflex.alt" horiz-adv-x="627" 
d="M282 -9c-125 0 -231 96 -231 260v8c0 160 107 273 239 273c81 0 133 -40 164 -91v82h83v-523h-83v88c-29 -51 -103 -97 -172 -97zM291 60c89 0 166 64 166 198v8c0 135 -64 197 -159 197c-96 0 -161 -72 -161 -200v-8c0 -132 71 -195 154 -195zM269 757h75l107 -144h-61
l-85 75l-85 -75h-59z" />
    <glyph glyph-name="hungarumlaut.uc" horiz-adv-x="412" 
d="M139 898h95l-72 -127h-60zM293 898h95l-72 -127h-60z" />
    <glyph glyph-name="tilde.uc" horiz-adv-x="412" 
d="M260 774c-43 0 -79 43 -108 43c-19 0 -35 -18 -40 -45h-60c8 72 49 116 101 116c42 0 78 -43 107 -43c19 0 35 18 40 45h60c-8 -72 -49 -116 -100 -116z" />
    <glyph glyph-name="uni0416.bgr" horiz-adv-x="879" 
d="M395 351l-279 -351h-97l291 363l-283 352h97l271 -346v346h85v-346l271 346h95l-279 -347l293 -368h-101l-279 351v-351h-85v351z" />
    <glyph glyph-name="uni0438.bgr" horiz-adv-x="594" 
d="M261 -9c-104 0 -182 57 -182 201v331h83v-327c0 -92 38 -133 121 -133c75 0 144 49 144 143v317h83v-523h-83v83c-24 -49 -82 -92 -166 -92z" />
    <glyph glyph-name="ring.uc" horiz-adv-x="412" 
d="M206 805c31 0 53 25 53 58s-22 58 -53 58s-53 -25 -53 -58s22 -58 53 -58zM206 759c-59 0 -107 47 -107 104s48 104 107 104s107 -47 107 -104s-48 -104 -107 -104z" />
    <glyph glyph-name="dotaccent.uc" horiz-adv-x="412" 
d="M206 787c-31 0 -55 24 -55 55s24 55 55 55s55 -24 55 -55s-24 -55 -55 -55z" />
    <glyph glyph-name="breve.uc" horiz-adv-x="412" 
d="M204 767c-71 0 -129 56 -132 132h66c7 -39 26 -64 66 -64c43 0 64 24 72 64h64c-5 -76 -63 -132 -136 -132z" />
    <glyph glyph-name="space_uni0326" horiz-adv-x="412" 
d="M134 -194l58 157l80 -24l-87 -159z" />
    <glyph glyph-name="caron.uc" horiz-adv-x="412" 
d="M61 898h61l85 -58l85 58h59l-108 -127h-75z" />
    <glyph glyph-name="circumflex.uc" horiz-adv-x="412" 
d="M169 898h75l107 -127h-61l-85 58l-85 -58h-59z" />
    <glyph glyph-name="acute.uc" horiz-adv-x="412" 
d="M223 898h104l-98 -127h-62z" />
    <glyph glyph-name="macron.uc" horiz-adv-x="412" 
d="M73 850h266v-64h-266v64z" />
    <glyph glyph-name="dieresis.uc" horiz-adv-x="412" 
d="M104 789c-29 0 -53 24 -53 53s24 53 53 53s53 -24 53 -53s-24 -53 -53 -53zM307 789c-29 0 -53 24 -53 53s24 53 53 53s53 -24 53 -53s-24 -53 -53 -53z" />
    <glyph glyph-name="grave.uc" horiz-adv-x="412" 
d="M85 898h104l56 -127h-62z" />
    <glyph glyph-name="adieresis.alt" horiz-adv-x="627" 
d="M282 -9c-125 0 -231 96 -231 260v8c0 160 107 273 239 273c81 0 133 -40 164 -91v82h83v-523h-83v88c-29 -51 -103 -97 -172 -97zM291 60c89 0 166 64 166 198v8c0 135 -64 197 -159 197c-96 0 -161 -72 -161 -200v-8c0 -132 71 -195 154 -195zM214 634
c-29 0 -53 24 -53 53s24 53 53 53s53 -24 53 -53s-24 -53 -53 -53zM402 634c-29 0 -53 24 -53 53s24 53 53 53s53 -24 53 -53s-24 -53 -53 -53z" />
    <glyph glyph-name="bar.uc" horiz-adv-x="265" 
d="M99 778h67v-862h-67v862z" />
    <glyph glyph-name="uni0434.locl" horiz-adv-x="578" 
d="M186 202c-7 -61 -17 -103 -34 -132h245v385h-192c-3 -68 -11 -176 -19 -253zM82 -127h-67v197h37c41 10 50 71 58 137c7 61 13 140 17 204c3 37 5 75 6 112h345v-453h80v-197h-67l-6 127h-397z" />
    <glyph glyph-name="backslash.uc" horiz-adv-x="415" 
d="M36 778h76l272 -862h-76z" />
    <glyph glyph-name="uni044A.bgr" horiz-adv-x="579" 
d="M30 453v70h222v-191c16 3 49 8 90 8c116 0 203 -47 203 -167v-3c0 -123 -97 -178 -190 -178c-117 0 -186 62 -186 189v272h-139zM355 55c72 0 107 47 107 111v3c0 72 -35 106 -119 106c-41 0 -75 -5 -91 -8v-86c0 -80 30 -126 103 -126z" />
    <glyph glyph-name="slash.uc" horiz-adv-x="415" 
d="M303 778h76l-273 -862h-76z" />
    <glyph glyph-name="braceright.uc" horiz-adv-x="393" 
d="M50 -25c96 0 132 27 119 130l-14 106c-11 75 31 117 98 134c-67 17 -109 59 -98 134l14 106c13 103 -23 130 -119 130v63c146 0 219 -50 198 -191l-14 -95c-8 -59 10 -116 113 -116v-62c-103 0 -121 -57 -113 -116l14 -95c21 -141 -52 -191 -198 -191v63z" />
    <glyph glyph-name="braceleft.uc" horiz-adv-x="393" 
d="M343 -88c-146 0 -219 50 -198 191l14 95c8 59 -10 116 -113 116v62c103 0 121 57 113 116l-14 95c-21 141 52 191 198 191v-63c-96 0 -132 -27 -119 -130l14 -106c9 -75 -31 -117 -98 -134c67 -17 107 -59 98 -134l-14 -106c-13 -103 23 -130 119 -130v-63z" />
    <glyph glyph-name="bracketright.uc" horiz-adv-x="368" 
d="M50 -18h141v730h-141v66h224v-862h-224v66z" />
    <glyph glyph-name="bracketleft.uc" horiz-adv-x="368" 
d="M94 778h224v-66h-141v-730h141v-66h-224v862z" />
    <glyph glyph-name="parenright.uc" horiz-adv-x="334" 
d="M26 -98c83 107 158 263 158 441c0 177 -75 332 -158 440h82c85 -101 163 -261 163 -440c0 -181 -77 -339 -163 -441h-82z" />
    <glyph glyph-name="parenleft.uc" horiz-adv-x="334" 
d="M226 -98c-85 101 -163 260 -163 440s78 340 163 441h82c-85 -106 -158 -266 -158 -441s73 -334 158 -440h-82z" />
    <glyph glyph-name="guillemotright.uc" horiz-adv-x="512" 
d="M182 301l-125 188h82l130 -188l-130 -188h-82zM360 301l-125 188h82l130 -188l-130 -188h-82z" />
    <glyph glyph-name="guillemotleft.uc" horiz-adv-x="512" 
d="M65 301l130 188h82l-125 -188l125 -188h-82zM243 301l130 188h82l-125 -188l125 -188h-82z" />
    <glyph glyph-name="guilsinglright.uc" horiz-adv-x="334" 
d="M182 301l-125 188h82l130 -188l-130 -188h-82z" />
    <glyph glyph-name="guilsinglleft.uc" horiz-adv-x="334" 
d="M65 301l130 188h82l-125 -188l125 -188h-82z" />
    <glyph glyph-name="emdash.uc" horiz-adv-x="897" 
d="M51 361h795v-70h-795v70z" />
    <glyph glyph-name="uni0433.bgr" horiz-adv-x="477" 
d="M232 -9c-131 0 -192 65 -192 145c0 113 90 138 170 159c66 16 126 33 126 97c0 41 -30 71 -90 71c-67 0 -98 -25 -110 -82h-80c13 113 96 151 189 151c100 0 177 -46 177 -135c0 -108 -89 -133 -180 -157c-61 -16 -114 -35 -114 -102c0 -52 35 -78 105 -78
c84 0 116 38 123 101h81c-5 -108 -80 -170 -205 -170z" />
    <glyph glyph-name="uni041B.bgr" horiz-adv-x="674" 
d="M335 643l-217 -643h-82l246 715h114l242 -715h-86z" />
    <glyph glyph-name="endash.uc" horiz-adv-x="538" 
d="M51 361h436v-70h-436v70z" />
    <glyph glyph-name="hyphen.uc" horiz-adv-x="376" 
d="M66 366h244v-78h-244v78z" />
    <glyph glyph-name="exclamdown.uc" horiz-adv-x="300" 
d="M150 719c35 0 64 -27 64 -63s-29 -64 -64 -64s-64 28 -64 64s29 63 64 63zM195 0h-92l14 513h64z" />
    <glyph glyph-name="questiondown.uc" horiz-adv-x="501" 
d="M316 463c0 -80 -52 -132 -103 -180c-39 -39 -73 -75 -73 -123c0 -60 32 -100 107 -100c76 0 126 50 133 130h78c-8 -117 -90 -199 -212 -199c-136 0 -190 82 -190 166c0 74 50 122 98 167c46 43 88 85 88 146v43h74v-50zM281 719c35 0 64 -27 64 -63s-29 -64 -64 -64
s-64 28 -64 64s29 63 64 63z" />
    <glyph glyph-name="caron.alt" horiz-adv-x="412" 
d="M200 773h94l-48 -175h-58z" />
    <glyph glyph-name="registered.alt" horiz-adv-x="844" 
d="M287 558h135c88 0 147 -35 147 -116v-2c0 -63 -38 -94 -87 -106l110 -171h-79l-103 159h-48v-159h-75v395zM421 375c49 0 73 21 73 62v3c0 44 -26 60 -73 60h-59v-125h59zM421 33c171 0 320 134 320 326c0 189 -146 323 -318 323c-175 0 -320 -134 -320 -325
c0 -193 150 -324 318 -324zM421 -9c-204 0 -366 159 -366 366c0 204 162 367 368 367c208 0 366 -162 366 -365c0 -209 -162 -368 -368 -368z" />
    <glyph glyph-name="space_uni0326.alt" horiz-adv-x="412" 
d="M156 626l87 159l51 -26l-58 -157z" />
    <glyph glyph-name="tcommaaccent.alt" horiz-adv-x="338" 
d="M71 -194l58 157l80 -24l-87 -159zM115 453h-82v70h82v119h83v-119h115v-70h-115v-453h-83v453z" />
    <glyph glyph-name="tcaron.alt" horiz-adv-x="338" 
d="M115 453h-82v70h82v119h83v-119h115v-70h-115v-453h-83v453zM273 773h94l-48 -175h-58z" />
    <glyph glyph-name="uni043D.bgr" horiz-adv-x="591" 
d="M424 233h-257v-233h-83v523h83v-220h257v220h83v-523h-83v233z" />
    <glyph glyph-name="uni044C.bgr" horiz-adv-x="489" 
d="M265 -8c-117 0 -186 62 -186 189v342h83v-191c16 3 49 8 90 8c116 0 203 -47 203 -167v-3c0 -123 -97 -178 -190 -178zM265 55c72 0 107 47 107 111v3c0 72 -35 106 -119 106c-41 0 -75 -5 -91 -8v-86c0 -80 30 -126 103 -126z" />
    <glyph glyph-name="tbar.alt" horiz-adv-x="338" 
d="M27 339h82v114h-82v70h82v119h83v-119h115v-70h-115v-114h115v-60h-115v-279h-83v279h-82v60z" />
    <glyph glyph-name="germandbls.alt" horiz-adv-x="627" 
d="M413 -9c-96 0 -166 58 -169 150h80c3 -47 32 -81 89 -81c52 0 86 26 86 89c0 50 -46 78 -98 108c-59 35 -120 69 -120 142c0 98 147 139 147 222c0 56 -41 87 -112 87c-89 0 -143 -54 -143 -158v-550h-83v546c0 139 97 230 226 230c107 0 191 -57 191 -152
c0 -117 -147 -150 -147 -222c0 -28 31 -43 106 -88c58 -37 119 -85 119 -163c0 -104 -71 -160 -172 -160z" />
    <glyph glyph-name="atilde.alt" horiz-adv-x="627" 
d="M282 -9c-125 0 -231 96 -231 260v8c0 160 107 273 239 273c81 0 133 -40 164 -91v82h83v-523h-83v88c-29 -51 -103 -97 -172 -97zM291 60c89 0 166 64 166 198v8c0 135 -64 197 -159 197c-96 0 -161 -72 -161 -200v-8c0 -132 71 -195 154 -195zM358 619
c-43 0 -79 43 -108 43c-19 0 -35 -18 -40 -45h-60c8 72 49 116 101 116c42 0 78 -43 107 -43c19 0 35 18 40 45h60c-8 -72 -49 -116 -100 -116z" />
    <glyph glyph-name="aringacute.alt" horiz-adv-x="615" 
d="M282 -9c-125 0 -231 96 -231 260v8c0 160 107 273 239 273c81 0 133 -40 164 -91v82h83v-523h-83v88c-29 -51 -103 -97 -172 -97zM291 60c89 0 166 64 166 198v8c0 135 -64 197 -159 197c-96 0 -161 -72 -161 -200v-8c0 -132 71 -195 154 -195zM300 624c31 0 53 25 53 58
s-22 58 -53 58s-53 -25 -53 -58s22 -58 53 -58zM300 578c-59 0 -107 47 -107 104s48 104 107 104s107 -47 107 -104s-48 -104 -107 -104zM330 956h104l-98 -127h-62z" />
    <glyph glyph-name="aring.alt" horiz-adv-x="627" 
d="M282 -9c-125 0 -231 96 -231 260v8c0 160 107 273 239 273c81 0 133 -40 164 -91v82h83v-523h-83v88c-29 -51 -103 -97 -172 -97zM291 60c89 0 166 64 166 198v8c0 135 -64 197 -159 197c-96 0 -161 -72 -161 -200v-8c0 -132 71 -195 154 -195zM300 644c31 0 53 25 53 58
s-22 58 -53 58s-53 -25 -53 -58s22 -58 53 -58zM300 598c-59 0 -107 47 -107 104s48 104 107 104s107 -47 107 -104s-48 -104 -107 -104z" />
    <glyph glyph-name="aogonek.alt" horiz-adv-x="615" 
d="M479 -182c-63 0 -104 29 -104 80c0 43 32 77 73 100v90c-29 -51 -103 -97 -172 -97c-125 0 -231 96 -231 260v8c0 160 107 273 239 273c81 0 133 -40 164 -91v82h83v-518c-55 -33 -77 -60 -77 -91c0 -24 13 -36 38 -36c17 0 37 3 52 11v-59c-17 -7 -37 -12 -65 -12z
M285 60c89 0 166 64 166 198v8c0 135 -64 197 -159 197c-96 0 -161 -72 -161 -200v-8c0 -132 71 -195 154 -195z" />
    <glyph glyph-name="amacron.alt" horiz-adv-x="615" 
d="M282 -9c-125 0 -231 96 -231 260v8c0 160 107 273 239 273c81 0 133 -40 164 -91v82h83v-523h-83v88c-29 -51 -103 -97 -172 -97zM291 60c89 0 166 64 166 198v8c0 135 -64 197 -159 197c-96 0 -161 -72 -161 -200v-8c0 -132 71 -195 154 -195zM175 712h262v-64h-262v64z
" />
    <glyph glyph-name="agrave.alt" horiz-adv-x="627" 
d="M282 -9c-125 0 -231 96 -231 260v8c0 160 107 273 239 273c81 0 133 -40 164 -91v82h83v-523h-83v88c-29 -51 -103 -97 -172 -97zM291 60c89 0 166 64 166 198v8c0 135 -64 197 -159 197c-96 0 -161 -72 -161 -200v-8c0 -132 71 -195 154 -195zM178 760h104l62 -147h-62z
" />
    <glyph glyph-name="at.uc" horiz-adv-x="927" 
d="M465 -58c-259 0 -402 188 -402 394c0 237 189 415 413 415c232 0 388 -155 388 -355c0 -183 -105 -247 -183 -247s-103 33 -111 84c-28 -51 -85 -91 -145 -91c-95 0 -156 64 -156 169c0 130 85 225 191 225c69 0 104 -33 117 -66l7 58h83l-29 -244c-7 -51 7 -77 44 -77
c56 0 109 55 109 187c0 173 -115 290 -315 290c-196 0 -335 -140 -335 -346c0 -176 107 -329 324 -329c107 0 166 25 227 75h77c-50 -84 -164 -142 -304 -142zM443 204c60 0 124 56 124 159c0 73 -37 109 -101 109c-61 0 -113 -57 -113 -160c0 -68 37 -108 90 -108z" />
    <glyph glyph-name="uni045D.bgr" horiz-adv-x="606" 
d="M267 -9c-104 0 -182 57 -182 201v331h83v-327c0 -92 38 -133 121 -133c75 0 144 49 144 143v317h83v-523h-83v83c-24 -49 -82 -92 -166 -92zM159 760h104l62 -147h-62z" />
    <glyph glyph-name="idotaccent" horiz-adv-x="255" 
d="M92 523h83v-523h-83v523zM134 632c-31 0 -55 24 -55 55s24 55 55 55s55 -24 55 -55s-24 -55 -55 -55z" />
    <glyph glyph-name="uni02BC" unicode="&#x2bc;" horiz-adv-x="267" 
d="M53 514l89 212l79 -36l-117 -202z" />
    </font>
</defs>
</svg>
