<?xml version="1.0" standalone="no"?>
<!DOCTYPE svg PUBLIC "-//W3C//DTD SVG 1.1//EN" "http://www.w3.org/Graphics/SVG/1.1/DTD/svg11.dtd" >
<svg xmlns="http://www.w3.org/2000/svg" xmlns:xlink="http://www.w3.org/1999/xlink" version="1.1">
<metadata>
Created by FontForge 20190801 at Mon Jul  4 10:27:40 2016
 By Jimmy Wärting
LCG stand for Latin, Cyrillic and Greek.
</metadata>
<defs>
<font id="GraphikLCG-MediumItalic" horiz-adv-x="604" >
  <font-face 
    font-family="Graphik LCG"
    font-weight="500"
    font-style="italic"
    font-stretch="normal"
    units-per-em="1000"
    panose-1="2 11 6 3 3 2 2 13 2 3"
    ascent="821"
    descent="-179"
    x-height="523"
    cap-height="715"
    bbox="-261 -225 1130 1123"
    underline-thickness="50"
    underline-position="-100"
    slope="-8"
    stemh="94"
    stemv="132"
    unicode-range="U+000D-FB02"
  />
<missing-glyph horiz-adv-x="512" 
 />
    <glyph glyph-name="f_f" unicode="ff" horiz-adv-x="661" 
d="M417 432h-182l-68 -432h-120l67 432h-70l14 91h71l12 78c19 109 93 160 189 160c39 0 58 -5 77 -13l-14 -92c-13 6 -30 9 -51 9c-48 0 -73 -26 -81 -73l-11 -69h182l14 88c17 109 93 160 189 160c40 0 60 -5 79 -13l-14 -92c-15 7 -30 10 -53 10c-49 0 -74 -28 -81 -73
l-13 -80h119l-14 -91h-119l-69 -432h-121z" />
    <glyph glyph-name=".notdef" horiz-adv-x="512" 
 />
    <glyph glyph-name="NULL" horiz-adv-x="0" 
 />
    <glyph glyph-name="NULL" horiz-adv-x="0" 
 />
    <glyph glyph-name="CR" unicode="&#xd;" horiz-adv-x="242" 
 />
    <glyph glyph-name="space" unicode=" " horiz-adv-x="242" 
 />
    <glyph glyph-name="exclam" unicode="!" horiz-adv-x="309" 
d="M157 715h135l-99 -500h-97zM124 -7c-45 0 -79 34 -79 77c0 44 34 78 79 78c44 0 80 -34 80 -77c0 -44 -36 -78 -80 -78z" />
    <glyph glyph-name="quotedbl" unicode="&#x22;" horiz-adv-x="413" 
d="M123 715h121l-56 -257h-86zM306 715h121l-57 -257h-86z" />
    <glyph glyph-name="numbersign" unicode="#" horiz-adv-x="533" 
d="M292 266h-83l-39 -167h-89l39 167h-83l16 98h90l26 110h-84l14 95h93l35 146h88l-34 -146h83l35 146h89l-35 -146h84l-14 -95h-93l-26 -110h87l-16 -98h-94l-39 -167h-89zM232 364h83l26 110h-83z" />
    <glyph glyph-name="dollar" unicode="$" horiz-adv-x="631" 
d="M304 -10l-20 -125h-66l20 130c-133 21 -212 105 -213 226h123c3 -60 34 -112 106 -129l36 226c-129 36 -195 87 -195 194c0 123 110 209 259 212l14 89h66l-15 -94c110 -16 187 -80 192 -200h-119c-5 61 -39 92 -88 104l-33 -210c132 -38 205 -86 205 -195
c0 -139 -107 -228 -269 -228h-3zM453 202c0 47 -24 74 -100 98l-34 -214c88 3 134 45 134 116zM215 525c0 -42 18 -69 93 -93l31 197c-80 -3 -124 -45 -124 -104z" />
    <glyph glyph-name="percent" unicode="%" horiz-adv-x="805" 
d="M165 532c0 -39 17 -77 70 -77c52 1 82 49 82 109c0 39 -17 79 -68 79c-57 0 -84 -51 -84 -111zM232 375c-95 0 -165 65 -165 158c0 102 79 189 186 189c95 0 162 -67 162 -160c0 -100 -79 -187 -183 -187zM654 715h87l-558 -715h-87zM518 147c0 -39 17 -77 70 -77
c52 1 82 49 82 109c0 37 -17 79 -68 79c-57 0 -84 -51 -84 -111zM585 -10c-95 0 -165 65 -165 158c0 100 79 189 186 189c95 0 162 -67 162 -160c0 -100 -79 -187 -183 -187z" />
    <glyph glyph-name="ampersand" unicode="&#x26;" horiz-adv-x="716" 
d="M494 0l-49 73c-45 -43 -113 -80 -197 -81c-107 0 -218 49 -218 189c0 120 89 188 196 228c-25 41 -39 86 -39 125c0 116 91 187 202 187c91 0 175 -51 175 -151c0 -104 -83 -154 -173 -191l100 -153l93 144h112l-150 -229l92 -141h-144zM159 193c0 -65 41 -103 109 -103
c45 0 92 22 127 59l-124 187c-58 -24 -112 -62 -112 -143zM386 632c-47 0 -81 -34 -81 -91c0 -29 14 -60 38 -97c53 24 111 50 111 119c0 36 -21 69 -68 69z" />
    <glyph glyph-name="quotesingle" unicode="'" horiz-adv-x="233" 
d="M123 715h124l-56 -257h-89z" />
    <glyph glyph-name="parenleft" unicode="(" horiz-adv-x="339" 
d="M149 -148c-60 89 -105 204 -105 353c0 231 100 423 248 569h113c-147 -164 -242 -340 -242 -574c0 -136 33 -251 89 -348h-103z" />
    <glyph glyph-name="parenright" unicode=")" horiz-adv-x="339" 
d="M200 774c60 -89 105 -204 105 -353c0 -234 -98 -422 -248 -569h-113c147 164 242 340 242 574c0 136 -33 251 -89 348h103z" />
    <glyph glyph-name="asterisk" unicode="*" horiz-adv-x="433" 
d="M102 459l100 96l-117 30l42 87l106 -56l7 127h100l-34 -131l122 42l13 -90l-125 -15l70 -107l-85 -50l-49 121l-82 -113z" />
    <glyph glyph-name="plus" unicode="+" horiz-adv-x="543" 
d="M223 294h-183l15 94h183l31 198h101l-31 -198h182l-15 -94h-182l-31 -198h-101z" />
    <glyph glyph-name="comma" unicode="," horiz-adv-x="296" 
d="M-14 -89l113 236l108 -46l-152 -224z" />
    <glyph glyph-name="hyphen" unicode="-" horiz-adv-x="357" 
d="M66 329h240l-16 -100h-240z" />
    <glyph glyph-name="period" unicode="." horiz-adv-x="293" 
d="M113 -7c-45 0 -79 34 -79 78s33 79 78 79s81 -35 81 -79s-35 -78 -80 -78z" />
    <glyph glyph-name="slash" unicode="/" horiz-adv-x="419" 
d="M371 776h105l-441 -924h-104z" />
    <glyph glyph-name="zero" unicode="0" horiz-adv-x="705" 
d="M330 -10c-179 0 -272 117 -272 281c0 28 2 58 7 86l5 34c35 208 160 334 334 334c176 0 267 -119 267 -285c0 -27 -2 -56 -7 -84l-5 -34c-32 -207 -154 -332 -329 -332zM336 96c104 0 166 81 191 237l5 33c4 25 7 53 7 78c0 90 -31 177 -140 177
c-103 0 -171 -84 -196 -237l-5 -34c-4 -27 -8 -55 -8 -82c0 -88 30 -172 146 -172z" />
    <glyph glyph-name="one" unicode="1" horiz-adv-x="423" 
d="M233 582l-167 -104l19 120l184 117h119l-113 -715h-134z" />
    <glyph glyph-name="two" unicode="2" horiz-adv-x="582" 
d="M-31 24l323 283c72 61 137 132 137 216c0 53 -32 98 -96 98c-68 1 -120 -34 -145 -142h-123c24 167 134 246 278 246c123 0 220 -70 220 -195c0 -115 -81 -197 -177 -277l-178 -150h297l-15 -103h-525z" />
    <glyph glyph-name="three" unicode="3" horiz-adv-x="627" 
d="M288 -10c-159 0 -262 83 -262 231h123c0 -73 40 -131 138 -131c88 0 141 43 141 132c0 61 -35 101 -118 101h-47l15 95h63c68 0 119 31 119 111c1 61 -38 95 -102 95c-75 0 -126 -39 -145 -118h-118c19 131 125 219 271 219c112 0 223 -54 223 -184
c0 -83 -49 -147 -137 -171c71 -21 111 -74 111 -150c0 -148 -122 -230 -275 -230z" />
    <glyph glyph-name="four" unicode="4" horiz-adv-x="645" 
d="M365 145h-353l8 47l398 523h167l-75 -471h97l-17 -99h-96l-22 -145h-129zM383 244l57 363l-268 -363h211z" />
    <glyph glyph-name="five" unicode="5" horiz-adv-x="608" 
d="M271 -10c-135 0 -242 68 -245 215h126c4 -68 39 -112 120 -112c92 0 145 64 146 165c0 72 -40 121 -123 121c-68 0 -113 -27 -148 -62h-66l68 398h433l-17 -105h-331l-31 -190c32 31 82 56 150 56c121 0 200 -80 200 -208c0 -163 -111 -278 -282 -278z" />
    <glyph glyph-name="six" unicode="6" horiz-adv-x="645" 
d="M313 -10c-167 0 -259 88 -258 259c0 31 3 62 8 95l5 29c29 181 130 352 332 352c129 0 214 -64 221 -189h-125c-5 52 -30 86 -101 86c-120 0 -171 -117 -195 -242c40 52 98 86 178 86c116 0 213 -78 213 -207c0 -157 -118 -269 -278 -269zM186 216
c0 -68 40 -128 128 -128c87 0 144 72 144 164c0 65 -39 122 -124 122s-148 -69 -148 -158z" />
    <glyph glyph-name="seven" unicode="7" horiz-adv-x="549" 
d="M408 607h-328l17 108h500l-3 -16l-378 -699h-138z" />
    <glyph glyph-name="eight" unicode="8" horiz-adv-x="631" 
d="M296 -10c-131 0 -258 64 -258 197c0 105 67 174 163 203c-53 25 -86 75 -86 132c0 125 115 203 251 203c110 0 228 -61 228 -183c0 -87 -51 -136 -130 -163c69 -28 110 -88 110 -160c0 -150 -124 -229 -278 -229zM173 205c0 -72 54 -115 129 -115c83 0 140 47 140 134
c0 69 -52 112 -123 112c-82 0 -146 -46 -146 -131zM241 519c0 -55 42 -96 110 -96c59 0 116 32 116 108c0 56 -43 98 -107 98s-119 -36 -119 -110z" />
    <glyph glyph-name="nine" unicode="9" horiz-adv-x="646" 
d="M273 -9c-124 0 -229 56 -237 195h126c11 -69 50 -92 118 -92c97 0 160 79 187 237c-39 -51 -97 -82 -177 -82c-112 0 -213 69 -213 205c0 160 119 272 283 272c161 0 251 -92 252 -259c0 -31 -1 -61 -8 -96l-5 -36c-39 -233 -147 -344 -326 -344zM209 463
c0 -72 38 -121 113 -121c88 0 159 53 159 157c0 67 -36 128 -124 128c-87 0 -148 -68 -148 -164z" />
    <glyph glyph-name="colon" unicode=":" horiz-adv-x="301" 
d="M116 -7c-44 0 -79 34 -79 78s34 79 78 79c45 0 81 -35 81 -79s-35 -78 -80 -78zM163 285c-44 0 -79 35 -79 79s34 78 78 78c45 0 82 -34 82 -78s-36 -79 -81 -79z" />
    <glyph glyph-name="semicolon" unicode=";" horiz-adv-x="307" 
d="M-25 -89l113 236l108 -46l-152 -224zM177 285c-44 0 -79 35 -79 79s34 78 78 78c45 0 81 -34 81 -78s-35 -79 -80 -79z" />
    <glyph glyph-name="less" unicode="&#x3c;" horiz-adv-x="511" 
d="M55 314l4 26l435 223l-18 -115l-255 -125l214 -134l-17 -108z" />
    <glyph glyph-name="equal" unicode="=" horiz-adv-x="517" 
d="M41 276h433l-14 -91h-433zM70 463h433l-14 -92h-433z" />
    <glyph glyph-name="greater" unicode="&#x3e;" horiz-adv-x="511" 
d="M469 331l-4 -26l-434 -224l17 117l256 125l-215 134l17 107z" />
    <glyph glyph-name="question" unicode="?" horiz-adv-x="519" 
d="M172 254c13 90 78 137 132 177c49 36 85 64 85 120c0 47 -30 74 -86 74c-60 0 -105 -37 -118 -113h-117c19 140 114 213 242 212c137 0 206 -76 206 -167c0 -93 -58 -139 -119 -184c-51 -37 -105 -68 -116 -132l-4 -26h-111zM203 -7c-45 0 -79 34 -79 77
c0 44 34 79 79 79c44 0 80 -35 80 -78c0 -44 -36 -78 -80 -78z" />
    <glyph glyph-name="at" unicode="@" horiz-adv-x="920" 
d="M644 200c-7 -49 8 -74 45 -74c56 0 118 57 118 197c0 179 -123 299 -328 299c-204 0 -357 -147 -357 -365c0 -184 115 -341 343 -341c112 0 185 33 244 84h82c-55 -90 -181 -151 -328 -151c-268 0 -421 189 -421 408c0 252 203 432 437 432c237 0 403 -154 403 -365
c0 -192 -113 -263 -205 -263c-80 0 -116 33 -127 84c-27 -52 -73 -89 -144 -89c-96 0 -158 64 -158 173c0 139 88 239 204 239c68 0 102 -30 115 -65l9 57h109zM437 141c58 0 113 61 113 152c0 59 -33 89 -82 89c-62 0 -109 -55 -109 -151c0 -59 31 -90 78 -90z" />
    <glyph glyph-name="A" unicode="A" horiz-adv-x="689" 
d="M461 177h-273l-84 -177h-128l352 715h174l123 -715h-135zM234 274h212l-53 332z" />
    <glyph glyph-name="B" unicode="B" horiz-adv-x="649" 
d="M153 715h237c145 0 218 -58 217 -170c0 -92 -48 -149 -137 -174c77 -19 122 -67 123 -154c0 -132 -103 -217 -261 -217h-292zM320 95c96 0 143 52 143 128c0 67 -37 101 -130 101h-112l-37 -229h136zM346 414c91 0 136 39 136 118c0 61 -33 88 -109 88h-105l-33 -206h111
z" />
    <glyph glyph-name="C" unicode="C" horiz-adv-x="745" 
d="M389 -10c-203 0 -330 117 -330 313c0 239 154 423 387 423c160 0 277 -84 285 -250h-130c-15 95 -60 145 -159 145c-156 0 -244 -141 -244 -314c-1 -131 60 -211 192 -211c99 0 164 58 192 153h130c-34 -164 -163 -259 -323 -259z" />
    <glyph glyph-name="D" unicode="D" horiz-adv-x="722" 
d="M153 715h196c239 0 346 -124 346 -305c0 -240 -153 -410 -414 -410h-241zM279 105c177 0 278 112 278 301c0 122 -61 205 -212 205h-75l-80 -506h89z" />
    <glyph glyph-name="E" unicode="E" horiz-adv-x="592" 
d="M153 715h444l-17 -105h-311l-31 -196h252l-15 -100h-252l-34 -209h332l-17 -105h-464z" />
    <glyph glyph-name="F" unicode="F" horiz-adv-x="570" 
d="M153 715h443l-17 -106h-310l-33 -213h243l-16 -103h-244l-46 -293h-133z" />
    <glyph glyph-name="G" unicode="G" horiz-adv-x="781" 
d="M397 -10c-212 0 -337 129 -337 321c0 230 161 413 386 413c155 0 284 -74 295 -239h-133c-8 92 -71 134 -167 134c-153 0 -243 -140 -243 -307c0 -133 66 -218 202 -218c123 0 183 76 202 180h-180l16 100h311c-19 -263 -141 -384 -352 -384z" />
    <glyph glyph-name="H" unicode="H" horiz-adv-x="755" 
d="M153 715h133l-48 -304h320l49 304h134l-113 -715h-134l48 304h-321l-48 -304h-133z" />
    <glyph glyph-name="I" unicode="I" horiz-adv-x="312" 
d="M157 715h134l-113 -715h-134z" />
    <glyph glyph-name="J" unicode="J" horiz-adv-x="447" 
d="M126 -9c-73 0 -107 16 -130 28l16 102c25 -11 54 -23 98 -23c64 0 104 31 116 111l80 506h134l-82 -514c-24 -146 -110 -210 -232 -210z" />
    <glyph glyph-name="K" unicode="K" horiz-adv-x="663" 
d="M153 715h133l-51 -320l325 320h148l-354 -344l249 -371h-146l-230 344l-54 -344h-133z" />
    <glyph glyph-name="L" unicode="L" horiz-adv-x="555" 
d="M153 715h133l-96 -609h305l-17 -106h-438z" />
    <glyph glyph-name="M" unicode="M" horiz-adv-x="893" 
d="M153 715h173l111 -487l261 487h181l-113 -715h-133l85 541l-298 -541h-43l-131 541l-86 -541h-120z" />
    <glyph glyph-name="N" unicode="N" horiz-adv-x="749" 
d="M153 715h159l218 -517l82 517h122l-113 -715h-138l-235 548l-86 -548h-122z" />
    <glyph glyph-name="O" unicode="O" horiz-adv-x="818" 
d="M785 405c0 -242 -167 -415 -392 -415c-195 0 -334 127 -334 318c0 236 166 417 393 417c203 0 333 -134 333 -320zM647 402c0 119 -67 217 -198 217c-158 0 -252 -144 -252 -308c0 -132 80 -215 202 -215c152 0 248 136 248 306z" />
    <glyph glyph-name="P" unicode="P" horiz-adv-x="613" 
d="M153 715h222c147 0 237 -68 237 -193c0 -176 -128 -250 -283 -250h-113l-43 -272h-133zM329 368c103 0 154 52 154 144c0 67 -41 101 -123 101h-90l-39 -245h98z" />
    <glyph glyph-name="Q" unicode="Q" horiz-adv-x="818" 
d="M393 -11c-195 0 -334 127 -334 318c0 236 166 416 393 416c203 0 333 -132 333 -319c0 -141 -55 -257 -147 -330l75 -88l-87 -76l-89 105c-45 -17 -93 -26 -144 -26zM399 93c23 0 44 3 64 9l-61 73l87 76l74 -88c53 56 84 141 84 238c0 120 -67 217 -198 217
c-158 0 -252 -144 -252 -308c0 -131 80 -217 202 -217z" />
    <glyph glyph-name="R" unicode="R" horiz-adv-x="659" 
d="M153 715h235c143 0 238 -67 235 -190c0 -125 -82 -197 -189 -216l160 -309h-139l-149 289h-88l-45 -289h-133zM343 384c99 0 149 44 149 131c1 68 -41 97 -118 97h-104l-37 -228h110z" />
    <glyph glyph-name="S" unicode="S" horiz-adv-x="639" 
d="M306 -10c-187 0 -280 101 -280 232h128c3 -68 45 -132 157 -132c89 -1 138 42 138 114c0 53 -30 78 -133 107c-150 38 -219 86 -219 200c0 118 98 213 258 213c152 0 246 -70 247 -207h-122c-7 79 -57 107 -132 107c-84 0 -123 -42 -123 -101c0 -48 27 -70 134 -99
c149 -40 221 -88 221 -203c0 -134 -101 -231 -274 -231z" />
    <glyph glyph-name="T" unicode="T" horiz-adv-x="587" 
d="M278 610h-199l17 105h532l-18 -105h-198l-96 -610h-134z" />
    <glyph glyph-name="U" unicode="U" horiz-adv-x="727" 
d="M342 -10c-194 0 -294 102 -262 303l67 422h134l-68 -425c-23 -137 22 -193 133 -193c97 0 147 51 167 175l71 443h134l-73 -457c-27 -171 -122 -268 -303 -268z" />
    <glyph glyph-name="V" unicode="V" horiz-adv-x="673" 
d="M87 715h135l95 -580l278 580h129l-355 -715h-155z" />
    <glyph glyph-name="W" unicode="W" horiz-adv-x="932" 
d="M87 715h135l41 -532l221 532h102l63 -535l209 535h124l-291 -715h-128l-60 512l-219 -512h-129z" />
    <glyph glyph-name="X" unicode="X" horiz-adv-x="657" 
d="M264 374l-157 341h141l115 -257l188 257h138l-263 -352l168 -363h-144l-125 281l-208 -281h-139z" />
    <glyph glyph-name="Y" unicode="Y" horiz-adv-x="630" 
d="M258 310l-172 405h140l118 -295l202 295h135l-290 -414l-48 -301h-134z" />
    <glyph glyph-name="Z" unicode="Z" horiz-adv-x="611" 
d="M-18 18l456 594h-325l16 103h517l-2 -17l-450 -593h344l-16 -105h-542z" />
    <glyph glyph-name="bracketleft" unicode="[" horiz-adv-x="381" 
d="M159 776h256l-14 -91h-135l-116 -742h134l-15 -91h-256z" />
    <glyph glyph-name="backslash" unicode="\" horiz-adv-x="419" 
d="M95 776h99l164 -924h-99z" />
    <glyph glyph-name="bracketright" unicode="]" horiz-adv-x="423" 
d="M-9 -57h134l117 742h-134l14 91h256l-146 -924h-256z" />
    <glyph glyph-name="asciicircum" unicode="^" horiz-adv-x="520" 
d="M270 715h113l119 -313h-108l-82 213l-143 -213h-112z" />
    <glyph glyph-name="underscore" unicode="_" horiz-adv-x="414" 
d="M-56 -85h411l-12 -74h-411z" />
    <glyph glyph-name="grave" unicode="`" horiz-adv-x="404" 
d="M129 756h132l44 -155h-87z" />
    <glyph glyph-name="a" unicode="a" horiz-adv-x="558" 
d="M188 -10c-104 0 -168 56 -168 147c0 132 113 174 262 174h92l4 28c11 68 -10 104 -83 104c-60 0 -94 -29 -106 -82h-116c24 126 125 173 227 173c136 0 220 -61 196 -208l-26 -167c-11 -68 -14 -115 -9 -159h-115c-4 27 -5 53 -2 76c-35 -53 -88 -86 -156 -86zM222 77
c68 0 121 38 132 111l7 47h-76c-100 0 -145 -23 -145 -88c0 -39 26 -70 82 -70z" />
    <glyph glyph-name="b" unicode="b" horiz-adv-x="637" 
d="M342 -10c-98 0 -153 50 -177 102l-14 -92h-122l122 765h120l-51 -326c35 56 99 95 178 95c116 0 201 -85 201 -228c0 -181 -101 -316 -257 -316zM319 84c97 0 154 90 154 213c0 92 -44 143 -117 143c-97 0 -171 -83 -171 -215c0 -88 50 -141 134 -141z" />
    <glyph glyph-name="c" unicode="c" horiz-adv-x="568" 
d="M286 -9c-156 0 -253 91 -253 238c0 192 125 304 280 304c122 0 220 -60 225 -196h-114c-8 76 -51 100 -115 100c-93 0 -154 -80 -154 -208c0 -93 43 -146 134 -146c64 0 117 39 130 111h110c-20 -131 -114 -203 -243 -203z" />
    <glyph glyph-name="d" unicode="d" horiz-adv-x="633" 
d="M243 -10c-123 0 -210 85 -210 230c0 179 106 314 267 314c92 0 143 -45 167 -97l52 328h121l-95 -606c-11 -71 -14 -116 -11 -159h-118c-3 27 -1 58 2 89c-39 -63 -96 -99 -175 -99zM280 84c96 0 167 77 167 217c0 88 -52 139 -128 139c-100 0 -160 -89 -160 -213
c0 -89 44 -143 121 -143z" />
    <glyph glyph-name="e" unicode="e" horiz-adv-x="574" 
d="M153 213c0 -81 37 -133 126 -133c65 0 107 27 124 80h117c-31 -113 -125 -170 -245 -170c-146 0 -243 85 -243 229c0 186 122 314 283 314c153 0 247 -96 220 -276l-4 -22h-378v-22zM312 446c-63 0 -123 -37 -147 -130h257c7 87 -29 130 -110 130z" />
    <glyph glyph-name="f" unicode="f" horiz-adv-x="358" 
d="M58 523h71l14 88c19 109 93 160 190 160c40 0 59 -5 78 -13l-14 -92c-15 7 -29 10 -52 10c-49 0 -74 -28 -82 -73l-13 -80h120l-15 -91h-119l-69 -432h-120l68 432h-71z" />
    <glyph glyph-name="g" unicode="g" horiz-adv-x="634" 
d="M281 114c92 0 166 75 166 196c0 81 -53 130 -129 130c-98 0 -155 -90 -155 -189c0 -81 39 -137 118 -137zM523 28c-23 -148 -109 -220 -270 -220c-178 0 -241 87 -249 174h121c8 -45 44 -82 125 -82c99 0 138 49 153 133l12 74c-39 -56 -91 -85 -167 -85
c-123 0 -210 85 -210 222c0 163 109 290 260 290c92 0 144 -45 169 -97l14 86h120z" />
    <glyph glyph-name="h" unicode="h" horiz-adv-x="608" 
d="M151 765h120l-52 -331c33 53 90 100 175 100c105 0 175 -62 151 -220l-50 -314h-121l50 320c13 76 -13 114 -77 114c-76 0 -136 -48 -149 -136l-47 -298h-121z" />
    <glyph glyph-name="i" unicode="i" horiz-adv-x="275" 
d="M198 609c-40 0 -71 30 -71 69s32 70 72 70s71 -30 71 -69s-32 -70 -72 -70zM116 523h121l-83 -523h-121z" />
    <glyph glyph-name="j" unicode="j" horiz-adv-x="275" 
d="M-54 -95c55 3 76 27 83 72l87 546h120l-88 -556c-13 -92 -70 -159 -216 -154zM198 609c-40 0 -71 30 -71 69s32 70 72 70s71 -30 71 -69s-32 -70 -72 -70z" />
    <glyph glyph-name="k" unicode="k" horiz-adv-x="540" 
d="M150 765h121l-73 -466l220 224h139l-245 -241l173 -282h-134l-159 265l-41 -265h-121z" />
    <glyph glyph-name="l" unicode="l" horiz-adv-x="275" 
d="M154 765h121l-121 -765h-121z" />
    <glyph glyph-name="m" unicode="m" horiz-adv-x="913" 
d="M87 361c11 73 13 117 16 162h116c0 -28 -1 -59 -5 -94c36 61 97 105 169 105s124 -32 140 -107c48 77 117 107 180 107c101 0 171 -61 147 -216l-50 -318h-121l50 317c13 80 -12 117 -73 117c-58 0 -120 -41 -133 -128l-48 -306h-120l50 321c12 75 -13 113 -74 113
c-63 0 -119 -44 -132 -128l-48 -306h-121z" />
    <glyph glyph-name="n" unicode="n" horiz-adv-x="608" 
d="M87 361c11 73 13 117 16 162h116c0 -28 -2 -65 -6 -98c37 61 96 109 181 109c105 0 175 -62 151 -220l-50 -314h-121l50 320c13 76 -13 114 -77 114c-76 0 -136 -48 -149 -136l-47 -298h-121z" />
    <glyph glyph-name="o" unicode="o" horiz-adv-x="603" 
d="M279 -10c-144 0 -246 91 -246 235c0 176 122 308 287 308c144 0 247 -87 247 -234c0 -180 -119 -309 -288 -309zM282 84c104 0 161 93 161 216c0 84 -43 139 -127 139c-100 0 -161 -92 -161 -214c0 -83 39 -141 127 -141z" />
    <glyph glyph-name="p" unicode="p" horiz-adv-x="637" 
d="M398 534c116 0 201 -85 201 -228c0 -181 -100 -316 -257 -316c-98 0 -153 50 -177 102l-43 -271h-121l86 540c11 73 13 117 16 162h116c0 -27 -2 -62 -5 -94c39 65 104 105 184 105zM319 84c97 0 154 90 154 213c0 92 -44 143 -117 143c-97 0 -171 -83 -171 -215
c0 -88 50 -141 134 -141z" />
    <glyph glyph-name="q" unicode="q" horiz-adv-x="637" 
d="M411 77c-37 -55 -89 -87 -168 -87c-123 0 -210 85 -210 230c0 179 106 314 267 314c92 0 143 -45 167 -97l14 86h121l-111 -702h-121zM280 84c96 0 167 77 167 217c0 88 -52 139 -128 139c-100 0 -160 -89 -160 -213c0 -89 44 -143 121 -143z" />
    <glyph glyph-name="r" unicode="r" horiz-adv-x="400" 
d="M87 361c11 73 14 117 15 162h116c0 -28 -2 -68 -6 -109c42 74 94 117 192 117l-18 -113c-107 0 -176 -42 -195 -162l-40 -256h-121z" />
    <glyph glyph-name="s" unicode="s" horiz-adv-x="497" 
d="M230 -11c-140 0 -216 73 -216 174h114c3 -48 29 -84 106 -84c59 0 88 23 88 68c0 39 -23 54 -99 71c-117 27 -164 70 -164 153c0 108 94 163 203 163c113 0 192 -46 200 -158h-112c-3 43 -35 70 -91 70s-86 -23 -86 -63c0 -35 25 -50 97 -67c115 -27 171 -61 171 -159
c0 -106 -86 -168 -211 -168z" />
    <glyph glyph-name="t" unicode="t" horiz-adv-x="364" 
d="M212 -9c-111 0 -158 63 -141 168l43 273h-70l14 91h70l19 115h121l-19 -115h113l-14 -91h-113l-43 -272c-8 -53 10 -70 53 -70c19 0 38 3 57 10l-15 -96c-21 -9 -46 -13 -75 -13z" />
    <glyph glyph-name="u" unicode="u" horiz-adv-x="605" 
d="M512 159c-11 -71 -15 -116 -12 -159h-117c-3 28 -1 61 4 94c-39 -60 -92 -104 -176 -104c-110 0 -177 66 -153 219l50 314h121l-52 -324c-11 -73 13 -114 76 -114c76 0 133 48 148 136l47 302h121z" />
    <glyph glyph-name="v" unicode="v" horiz-adv-x="544" 
d="M55 523h126l68 -402l195 402h123l-269 -523h-141z" />
    <glyph glyph-name="w" unicode="w" horiz-adv-x="796" 
d="M58 523h125l39 -382l168 382h101l42 -382l162 382h121l-242 -523h-123l-39 356l-159 -356h-124z" />
    <glyph glyph-name="x" unicode="x" horiz-adv-x="533" 
d="M190 274l-128 249h134l83 -167l132 167h131l-207 -253l141 -270h-135l-91 188l-151 -188h-131z" />
    <glyph glyph-name="y" unicode="y" horiz-adv-x="537" 
d="M180 59l-125 464h124l81 -338l176 338h124l-391 -702h-124z" />
    <glyph glyph-name="z" unicode="z" horiz-adv-x="491" 
d="M-23 14l332 414h-241l14 95h423l-3 -17l-329 -409h260l-16 -97h-442z" />
    <glyph glyph-name="braceleft" unicode="{" horiz-adv-x="400" 
d="M288 -148c-167 7 -238 85 -187 230l31 86c22 62 0 104 -93 109l13 86c93 -3 128 33 125 102l-2 97c-3 162 81 218 260 215l-15 -89c-98 -3 -129 -31 -129 -130v-99c0 -87 -47 -129 -119 -145c72 -19 99 -72 72 -155l-28 -84c-32 -95 -6 -129 86 -134z" />
    <glyph glyph-name="bar" unicode="|" horiz-adv-x="263" 
d="M99 776h90v-924h-90v924z" />
    <glyph glyph-name="braceright" unicode="}" horiz-adv-x="400" 
d="M122 777c168 -7 236 -85 187 -230l-30 -87c-21 -60 0 -105 92 -113l-12 -86c-94 5 -125 -27 -125 -96l2 -98c3 -162 -84 -218 -260 -215l14 89c100 3 129 31 129 130v104c0 88 48 126 120 138c-72 21 -101 77 -74 152l29 89c32 95 7 129 -86 134z" />
    <glyph glyph-name="asciitilde" unicode="~" horiz-adv-x="478" 
d="M33 220c19 109 73 155 133 155c68 0 113 -48 146 -48c23 0 44 17 51 50h86c-16 -107 -76 -156 -132 -156c-72 0 -114 49 -148 49c-24 0 -43 -18 -50 -50h-86z" />
    <glyph glyph-name="uni00A0" unicode="&#xa0;" horiz-adv-x="275" 
 />
    <glyph glyph-name="exclamdown" unicode="&#xa1;" horiz-adv-x="310" 
d="M158 -117h-135l99 500h97zM191 604c45 0 79 -33 79 -76c0 -44 -34 -78 -79 -78c-44 0 -80 34 -80 77c0 44 36 77 80 77z" />
    <glyph glyph-name="cent" unicode="&#xa2;" horiz-adv-x="579" 
d="M224 -4c-117 23 -192 105 -192 230c0 184 125 302 278 307l15 96h67l-16 -100c97 -16 167 -79 174 -192h-112c-4 59 -33 87 -77 98l-56 -355c60 4 111 34 127 113h108c-21 -134 -123 -203 -249 -203l-20 -125h-67zM152 226c0 -75 29 -122 87 -139l56 352
c-83 -11 -143 -85 -143 -213z" />
    <glyph glyph-name="sterling" unicode="&#xa3;" horiz-adv-x="624" 
d="M63 389h62c-3 27 -4 54 -4 82c0 145 93 253 259 253c133 0 226 -62 226 -209h-126c-3 64 -28 106 -103 106c-97 0 -127 -75 -127 -161c0 -25 0 -48 1 -71h201l-14 -85h-183c1 -15 1 -29 1 -45c0 -45 -8 -84 -29 -121c56 -16 106 -40 145 -40c43 0 74 19 83 75h117
c-16 -107 -77 -182 -194 -182c-90 0 -167 59 -221 59c-36 0 -55 -23 -60 -50h-103c9 63 49 126 118 145c17 29 25 65 25 106c0 16 -1 34 -3 53h-84z" />
    <glyph glyph-name="yen" unicode="&#xa5;" horiz-adv-x="608" 
d="M88 349h149l-145 366h141l101 -288l188 288h131l-251 -366h150l-10 -63h-166l-10 -67h164l-9 -64h-165l-25 -155h-132l24 155h-166l10 64h166l11 67h-165z" />
    <glyph glyph-name="brokenbar" unicode="&#xa6;" horiz-adv-x="263" 
d="M99 299h90v-447h-90v447zM99 776h90v-407h-90v407z" />
    <glyph glyph-name="section" unicode="&#xa7;" horiz-adv-x="569" 
d="M234 -137c-107 0 -202 51 -199 171h116c1 -51 26 -81 90 -81c47 0 87 26 87 77c0 37 -26 60 -118 92c-105 35 -174 80 -174 172c0 83 60 129 135 148c-25 27 -38 55 -38 99c0 117 97 183 213 183c106 0 186 -48 189 -167h-117c-1 51 -24 76 -80 77c-49 0 -88 -22 -88 -77
c0 -38 25 -61 109 -90c105 -35 178 -80 178 -177c0 -82 -56 -122 -132 -144c25 -24 41 -61 41 -100c0 -121 -97 -183 -212 -183zM334 196c39 8 82 26 82 76c0 39 -34 63 -95 87l-82 31c-37 -5 -81 -28 -81 -77c0 -37 28 -59 93 -84z" />
    <glyph glyph-name="dieresis" unicode="&#xa8;" horiz-adv-x="404" 
d="M166 613c-37 0 -66 28 -66 64s30 66 67 66c36 0 65 -29 65 -65c0 -35 -30 -65 -66 -65zM363 613c-36 0 -65 28 -65 64s30 66 66 66c37 0 65 -29 65 -65c0 -35 -29 -65 -66 -65z" />
    <glyph glyph-name="copyright" unicode="&#xa9;" horiz-adv-x="847" 
d="M437 153c-131 0 -200 79 -200 200v8c0 121 84 201 198 201c96 0 168 -46 177 -146h-97c-6 47 -33 70 -80 70c-61 0 -99 -44 -99 -125v-7c0 -80 36 -124 100 -124c47 0 81 23 88 74h92c-9 -100 -80 -151 -179 -151zM432 32c172 0 321 133 321 327c0 191 -143 324 -319 324
s-321 -134 -321 -326c0 -195 149 -325 319 -325zM432 -13c-206 0 -372 160 -372 370c0 207 165 371 374 371c212 0 373 -163 373 -369c0 -211 -164 -372 -375 -372z" />
    <glyph glyph-name="ordfeminine" unicode="&#xaa;" horiz-adv-x="448" 
d="M183 289c-79 0 -130 44 -130 115c0 107 90 141 218 141h62l4 21c7 51 -6 77 -61 77c-44 0 -68 -20 -77 -59h-105c19 101 101 140 189 140c116 0 179 -50 159 -173l-19 -125c-9 -55 -10 -93 -6 -128h-105c-3 20 -3 37 -2 54c-29 -40 -71 -63 -127 -63zM219 367
c52 0 90 23 99 78l6 36h-57c-73 0 -106 -18 -106 -65c0 -29 19 -49 58 -49z" />
    <glyph glyph-name="guillemotleft" unicode="&#xab;" horiz-adv-x="496" 
d="M47 263l153 181h98l-151 -184l93 -182h-93zM226 263l153 181h98l-151 -185l92 -181h-93z" />
    <glyph glyph-name="uni00AD" unicode="&#xad;" horiz-adv-x="357" 
d="M66 329h240l-16 -100h-240z" />
    <glyph glyph-name="registered" unicode="&#xae;" horiz-adv-x="519" 
d="M213 615h82c55 0 86 -21 86 -68v-1c0 -32 -17 -50 -41 -59l54 -91h-58l-48 81h-19v-81h-56v219zM292 515c23 0 34 9 34 28v1c0 21 -11 28 -34 28h-23v-57h23zM292 319c104 0 184 75 184 184s-76 184 -184 184c-107 0 -183 -76 -183 -185c0 -110 81 -183 183 -183z
M292 281c-124 0 -225 96 -225 221c0 123 100 223 225 223c128 0 225 -99 225 -222c0 -125 -100 -222 -225 -222z" />
    <glyph glyph-name="macron" unicode="&#xaf;" horiz-adv-x="404" 
d="M130 712h280l-12 -78h-280z" />
    <glyph glyph-name="degree" unicode="&#xb0;" horiz-adv-x="441" 
d="M262 459c53 0 91 40 91 103c0 56 -36 99 -88 99c-55 0 -94 -41 -94 -104c0 -56 38 -98 91 -98zM261 396c-93 0 -167 72 -167 159c0 95 74 169 173 169c92 0 165 -71 165 -161c0 -92 -75 -167 -171 -167z" />
    <glyph glyph-name="plusminus" unicode="&#xb1;" horiz-adv-x="543" 
d="M229 332h-182l14 94h183l28 176h101l-28 -176h182l-14 -94h-183l-28 -175h-101zM8 89h467l-13 -89h-467z" />
    <glyph glyph-name="twosuperior" unicode="&#xb2;" horiz-adv-x="317" 
d="M23 374l149 131c44 39 77 70 77 106c0 27 -16 39 -39 39c-28 0 -48 -18 -59 -61h-86c13 85 72 131 151 131c65 0 125 -28 125 -103c0 -54 -36 -89 -100 -142l-54 -47h126l-10 -68h-282z" />
    <glyph glyph-name="threesuperior" unicode="&#xb3;" horiz-adv-x="340" 
d="M195 354c-77 0 -143 32 -143 120h85c1 -32 17 -54 56 -54c27 0 56 15 56 51c0 27 -17 41 -51 41h-25l8 58h30c33 0 54 15 54 44c0 24 -12 39 -43 39s-52 -17 -59 -48h-82c9 72 67 115 147 115c64 0 125 -24 125 -95c0 -41 -27 -71 -70 -84c33 -7 59 -31 59 -76
c0 -73 -70 -111 -147 -111z" />
    <glyph glyph-name="acute" unicode="&#xb4;" horiz-adv-x="404" 
d="M277 756h136l-122 -155h-91z" />
    <glyph glyph-name="mu" unicode="&#xb5;" horiz-adv-x="606" 
d="M516 159c-11 -71 -14 -116 -11 -159h-117c-3 27 0 63 3 95c-31 -60 -84 -99 -149 -99c-33 0 -65 10 -85 42l-36 -217h-120l111 702h121l-52 -327c-12 -76 17 -111 77 -111c72 0 134 51 147 134l48 304h121z" />
    <glyph glyph-name="paragraph" unicode="&#xb6;" horiz-adv-x="577" 
d="M279 339h-3c-116 0 -199 57 -199 166c0 139 108 210 240 210h243l-129 -815h-72l120 755h-79l-119 -755h-71z" />
    <glyph glyph-name="periodcentered" unicode="&#xb7;" horiz-adv-x="293" 
d="M153 248c-44 0 -79 35 -79 79s34 78 78 78c45 0 81 -34 81 -78s-35 -79 -80 -79z" />
    <glyph glyph-name="cedilla" unicode="&#xb8;" horiz-adv-x="404" 
d="M141 -219c-56 0 -104 28 -109 88h67c3 -19 15 -33 39 -33c19 0 38 9 38 36c0 19 -14 30 -34 30c-13 0 -20 -4 -27 -8l-30 33l57 73h61l-39 -50c45 4 88 -22 88 -75c0 -63 -47 -94 -111 -94z" />
    <glyph glyph-name="onesuperior" unicode="&#xb9;" horiz-adv-x="257" 
d="M160 623l-89 -51l12 80l104 63h82l-57 -355h-93z" />
    <glyph glyph-name="ordmasculine" unicode="&#xba;" horiz-adv-x="508" 
d="M268 289c-123 0 -197 75 -197 186c0 145 106 249 237 249c125 0 197 -77 197 -188c0 -147 -105 -247 -237 -247zM275 373c76 0 119 71 119 163c0 64 -29 103 -93 103c-72 0 -119 -71 -119 -164c0 -64 29 -102 93 -102z" />
    <glyph glyph-name="guillemotright" unicode="&#xbb;" horiz-adv-x="496" 
d="M444 259l-153 -181h-98l151 184l-94 182h93zM264 259l-152 -181h-99l151 185l-92 181h93z" />
    <glyph glyph-name="onequarter" unicode="&#xbc;" horiz-adv-x="734" 
d="M163 623l-89 -51l12 80l104 63h82l-57 -355h-93zM635 715h79l-602 -715h-80zM541 69h-178l6 34l193 252h114l-35 -222h46l-10 -64h-46l-11 -69h-90zM553 133l24 153l-113 -153h89z" />
    <glyph glyph-name="onehalf" unicode="&#xbd;" horiz-adv-x="747" 
d="M163 623l-89 -51l12 80l104 63h82l-57 -355h-93zM622 715h79l-602 -715h-80zM393 14l149 131c44 39 77 70 77 106c0 27 -16 39 -39 39c-28 0 -48 -18 -59 -61h-86c13 85 72 131 151 131c65 0 125 -28 125 -103c0 -54 -36 -89 -100 -142l-54 -47h126l-10 -68h-282z" />
    <glyph glyph-name="threequarters" unicode="&#xbe;" horiz-adv-x="766" 
d="M198 354c-77 0 -143 32 -143 120h85c1 -32 17 -54 56 -54c27 0 56 15 56 51c0 27 -17 41 -51 41h-25l8 58h30c33 0 54 15 54 44c0 24 -12 39 -43 39s-52 -17 -59 -48h-82c9 72 67 115 147 115c64 0 125 -24 125 -95c0 -41 -27 -71 -70 -84c33 -7 59 -31 59 -76
c0 -73 -70 -111 -147 -111zM682 715h79l-602 -715h-80zM572 69h-178l6 34l193 252h114l-35 -222h46l-10 -64h-46l-11 -69h-90zM584 133l24 153l-113 -153h89z" />
    <glyph glyph-name="questiondown" unicode="&#xbf;" horiz-adv-x="519" 
d="M351 344c-13 -90 -78 -137 -132 -177c-49 -36 -85 -64 -85 -120c0 -47 30 -74 86 -74c60 0 105 37 118 113h117c-19 -140 -114 -213 -242 -212c-137 0 -206 76 -206 167c0 93 58 139 119 184c51 37 105 68 116 132l4 26h111zM320 604c45 0 79 -33 79 -76
c0 -44 -34 -79 -79 -79c-44 0 -80 35 -80 78c0 44 36 77 80 77z" />
    <glyph glyph-name="Agrave" unicode="&#xc0;" horiz-adv-x="689" 
d="M461 177h-273l-84 -177h-128l352 715h174l123 -715h-135zM234 274h212l-53 332zM299 901h134l37 -135h-88z" />
    <glyph glyph-name="Aacute" unicode="&#xc1;" horiz-adv-x="689" 
d="M461 177h-273l-84 -177h-128l352 715h174l123 -715h-135zM234 274h212l-53 332zM432 901h138l-111 -135h-94z" />
    <glyph glyph-name="Acircumflex" unicode="&#xc2;" horiz-adv-x="689" 
d="M461 177h-273l-84 -177h-128l352 715h174l123 -715h-135zM234 274h212l-53 332zM376 901h105l92 -135h-85l-67 55l-82 -55h-89z" />
    <glyph glyph-name="Atilde" unicode="&#xc3;" horiz-adv-x="689" 
d="M461 177h-273l-84 -177h-128l352 715h174l123 -715h-135zM234 274h212l-53 332zM483 768c-50 0 -85 39 -114 39c-19 0 -35 -15 -42 -40h-77c16 87 62 131 118 131c51 0 84 -40 115 -40c19 0 34 15 41 40h76c-16 -85 -62 -130 -117 -130z" />
    <glyph glyph-name="Adieresis" unicode="&#xc4;" horiz-adv-x="689" 
d="M461 177h-273l-84 -177h-128l352 715h174l123 -715h-135zM234 274h212l-53 332zM317 777c-36 0 -66 28 -66 64s31 66 67 66s65 -29 65 -65c0 -35 -30 -65 -66 -65zM528 777c-36 0 -66 28 -66 64s30 66 67 66c36 0 65 -29 65 -65c0 -35 -30 -65 -66 -65z" />
    <glyph glyph-name="Aring" unicode="&#xc5;" horiz-adv-x="689" 
d="M461 177h-273l-84 -177h-128l352 715h174l123 -715h-135zM234 274h212l-53 332zM421 807c29 0 51 23 51 56c0 32 -18 54 -49 54c-29 0 -51 -22 -51 -57c0 -31 18 -53 49 -53zM421 753c-62 0 -111 48 -111 107c0 62 52 111 113 111c62 0 111 -48 111 -108
c0 -61 -52 -110 -113 -110z" />
    <glyph glyph-name="AE" unicode="&#xc6;" horiz-adv-x="975" 
d="M430 715h554l-17 -105h-309l-31 -196h250l-16 -100h-249l-34 -209h329l-16 -105h-462l29 183h-231l-113 -183h-134zM285 278h188l52 332h-34z" />
    <glyph glyph-name="Ccedilla" unicode="&#xc7;" horiz-adv-x="745" 
d="M306 -219c-56 0 -104 28 -109 88h67c3 -19 15 -33 39 -33c19 0 38 9 38 36c0 19 -14 30 -34 30c-13 0 -20 -4 -27 -8l-30 33l55 71c-155 28 -246 136 -246 305c0 239 154 423 387 423c160 0 277 -84 285 -250h-130c-15 95 -60 145 -159 145c-156 0 -244 -141 -244 -314
c-1 -131 60 -211 192 -211c99 0 164 58 192 153h130c-34 -164 -163 -259 -323 -259c-11 0 -13 0 -28 1l-32 -41c45 4 88 -22 88 -75c0 -63 -47 -94 -111 -94z" />
    <glyph glyph-name="Egrave" unicode="&#xc8;" horiz-adv-x="592" 
d="M153 715h444l-17 -105h-311l-31 -196h252l-15 -100h-252l-34 -209h332l-17 -105h-464zM267 901h134l37 -135h-88z" />
    <glyph glyph-name="Eacute" unicode="&#xc9;" horiz-adv-x="592" 
d="M153 715h444l-17 -105h-311l-31 -196h252l-15 -100h-252l-34 -209h332l-17 -105h-464zM389 901h138l-111 -135h-94z" />
    <glyph glyph-name="Ecircumflex" unicode="&#xca;" horiz-adv-x="592" 
d="M153 715h444l-17 -105h-311l-31 -196h252l-15 -100h-252l-34 -209h332l-17 -105h-464zM339 901h105l92 -135h-85l-67 55l-82 -55h-89z" />
    <glyph glyph-name="Edieresis" unicode="&#xcb;" horiz-adv-x="592" 
d="M153 715h444l-17 -105h-311l-31 -196h252l-15 -100h-252l-34 -209h332l-17 -105h-464zM281 777c-36 0 -66 28 -66 64s31 66 67 66s65 -29 65 -65c0 -35 -30 -65 -66 -65zM492 777c-36 0 -66 28 -66 64s30 66 67 66c36 0 65 -29 65 -65c0 -35 -30 -65 -66 -65z" />
    <glyph glyph-name="Igrave" unicode="&#xcc;" horiz-adv-x="312" 
d="M157 715h134l-113 -715h-134zM112 901h134l37 -135h-88z" />
    <glyph glyph-name="Iacute" unicode="&#xcd;" horiz-adv-x="312" 
d="M157 715h134l-113 -715h-134zM243 901h138l-111 -135h-94z" />
    <glyph glyph-name="Icircumflex" unicode="&#xce;" horiz-adv-x="312" 
d="M157 715h134l-113 -715h-134zM193 901h105l92 -135h-85l-67 55l-82 -55h-89z" />
    <glyph glyph-name="Idieresis" unicode="&#xcf;" horiz-adv-x="312" 
d="M157 715h134l-113 -715h-134zM138 777c-36 0 -66 28 -66 64s31 66 67 66s65 -29 65 -65c0 -35 -30 -65 -66 -65zM349 777c-36 0 -66 28 -66 64s30 66 67 66c36 0 65 -29 65 -65c0 -35 -30 -65 -66 -65z" />
    <glyph glyph-name="Eth" unicode="&#xd0;" horiz-adv-x="741" 
d="M54 406h69l49 309h197c237 0 345 -124 345 -305c0 -240 -153 -410 -414 -410h-241l49 311h-69zM299 105c177 0 278 110 278 301c0 122 -61 205 -212 205h-77l-33 -205h173l-15 -95h-173l-32 -206h91z" />
    <glyph glyph-name="Ntilde" unicode="&#xd1;" horiz-adv-x="749" 
d="M153 715h159l218 -517l82 517h122l-113 -715h-138l-235 548l-86 -548h-122zM526 768c-50 0 -85 39 -114 39c-19 0 -35 -15 -42 -40h-77c16 87 62 131 118 131c51 0 84 -40 115 -40c19 0 34 15 41 40h76c-16 -85 -62 -130 -117 -130z" />
    <glyph glyph-name="Ograve" unicode="&#xd2;" horiz-adv-x="818" 
d="M785 405c0 -242 -167 -415 -392 -415c-195 0 -334 127 -334 318c0 236 166 417 393 417c203 0 333 -134 333 -320zM647 402c0 119 -67 217 -198 217c-158 0 -252 -144 -252 -308c0 -132 80 -215 202 -215c152 0 248 136 248 306zM348 901h134l37 -135h-88z" />
    <glyph glyph-name="Oacute" unicode="&#xd3;" horiz-adv-x="818" 
d="M785 405c0 -242 -167 -415 -392 -415c-195 0 -334 127 -334 318c0 236 166 417 393 417c203 0 333 -134 333 -320zM647 402c0 119 -67 217 -198 217c-158 0 -252 -144 -252 -308c0 -132 80 -215 202 -215c152 0 248 136 248 306zM481 901h138l-111 -135h-94z" />
    <glyph glyph-name="Ocircumflex" unicode="&#xd4;" horiz-adv-x="818" 
d="M785 405c0 -242 -167 -415 -392 -415c-195 0 -334 127 -334 318c0 236 166 417 393 417c203 0 333 -134 333 -320zM647 402c0 119 -67 217 -198 217c-158 0 -252 -144 -252 -308c0 -132 80 -215 202 -215c152 0 248 136 248 306zM435 901h105l92 -135h-85l-67 55l-82 -55
h-89z" />
    <glyph glyph-name="Otilde" unicode="&#xd5;" horiz-adv-x="818" 
d="M785 405c0 -242 -167 -415 -392 -415c-195 0 -334 127 -334 318c0 236 166 417 393 417c203 0 333 -134 333 -320zM647 402c0 119 -67 217 -198 217c-158 0 -252 -144 -252 -308c0 -132 80 -215 202 -215c152 0 248 136 248 306zM533 768c-50 0 -85 39 -114 39
c-19 0 -35 -15 -42 -40h-77c16 87 62 131 118 131c51 0 84 -40 115 -40c19 0 34 15 41 40h76c-16 -85 -62 -130 -117 -130z" />
    <glyph glyph-name="Odieresis" unicode="&#xd6;" horiz-adv-x="818" 
d="M785 405c0 -242 -167 -415 -392 -415c-195 0 -334 127 -334 318c0 236 166 417 393 417c203 0 333 -134 333 -320zM647 402c0 119 -67 217 -198 217c-158 0 -252 -144 -252 -308c0 -132 80 -215 202 -215c152 0 248 136 248 306zM373 777c-36 0 -66 28 -66 64
s31 66 67 66s65 -29 65 -65c0 -35 -30 -65 -66 -65zM584 777c-36 0 -66 28 -66 64s30 66 67 66c36 0 65 -29 65 -65c0 -35 -30 -65 -66 -65z" />
    <glyph glyph-name="multiply" unicode="&#xd7;" horiz-adv-x="513" 
d="M25 183l173 153l-132 153l72 66l133 -154l173 153l60 -68l-174 -154l133 -153l-73 -65l-133 153l-173 -152z" />
    <glyph glyph-name="Oslash" unicode="&#xd8;" horiz-adv-x="818" 
d="M32 18l91 93c-41 52 -64 118 -64 197c0 236 166 416 393 416c84 0 154 -23 210 -63l79 80l48 -50l-76 -78c47 -55 72 -125 72 -208c0 -242 -167 -415 -392 -415c-88 0 -162 26 -221 71l-92 -94zM649 402c0 45 -9 85 -26 120l-367 -376c35 -33 83 -50 143 -50
c152 0 250 134 250 306zM195 311c0 -41 7 -76 20 -106l365 371c-33 27 -76 43 -131 43c-157 0 -254 -143 -254 -308z" />
    <glyph glyph-name="Ugrave" unicode="&#xd9;" horiz-adv-x="727" 
d="M342 -10c-194 0 -294 102 -262 303l67 422h134l-68 -425c-23 -137 22 -193 133 -193c97 0 147 51 167 175l71 443h134l-73 -457c-27 -171 -122 -268 -303 -268zM312 901h134l37 -135h-88z" />
    <glyph glyph-name="Uacute" unicode="&#xda;" horiz-adv-x="727" 
d="M342 -10c-194 0 -294 102 -262 303l67 422h134l-68 -425c-23 -137 22 -193 133 -193c97 0 147 51 167 175l71 443h134l-73 -457c-27 -171 -122 -268 -303 -268zM449 901h138l-111 -135h-94z" />
    <glyph glyph-name="Ucircumflex" unicode="&#xdb;" horiz-adv-x="727" 
d="M342 -10c-194 0 -294 102 -262 303l67 422h134l-68 -425c-23 -137 22 -193 133 -193c97 0 147 51 167 175l71 443h134l-73 -457c-27 -171 -122 -268 -303 -268zM394 901h105l92 -135h-85l-67 55l-82 -55h-89z" />
    <glyph glyph-name="Udieresis" unicode="&#xdc;" horiz-adv-x="727" 
d="M342 -10c-194 0 -294 102 -262 303l67 422h134l-68 -425c-23 -137 22 -193 133 -193c97 0 147 51 167 175l71 443h134l-73 -457c-27 -171 -122 -268 -303 -268zM338 777c-36 0 -66 28 -66 64s31 66 67 66s65 -29 65 -65c0 -35 -30 -65 -66 -65zM549 777
c-36 0 -66 28 -66 64s30 66 67 66c36 0 65 -29 65 -65c0 -35 -30 -65 -66 -65z" />
    <glyph glyph-name="Yacute" unicode="&#xdd;" horiz-adv-x="630" 
d="M258 310l-172 405h140l118 -295l202 295h135l-290 -414l-48 -301h-134zM404 901h138l-111 -135h-94z" />
    <glyph glyph-name="Thorn" unicode="&#xde;" horiz-adv-x="613" 
d="M266 587h91c147 0 237 -67 237 -190c0 -168 -128 -244 -280 -244h-117l-24 -153h-133l113 715h133zM250 488l-38 -238h102c99 0 151 50 151 141c1 65 -40 97 -123 97h-92z" />
    <glyph glyph-name="germandbls" unicode="&#xdf;" horiz-adv-x="613" 
d="M329 -9c-48 0 -83 9 -111 22l16 92c23 -12 49 -19 81 -19c87 0 130 65 130 154c0 92 -56 144 -152 143l15 95c78 0 145 33 145 118c0 57 -37 90 -97 90c-64 0 -104 -42 -115 -117l-90 -569h-121l90 570c21 133 116 203 240 203c113 0 207 -59 207 -175
c0 -84 -57 -143 -142 -168c88 -27 143 -98 143 -198c0 -147 -90 -241 -239 -241z" />
    <glyph glyph-name="agrave" unicode="&#xe0;" horiz-adv-x="558" 
d="M188 -10c-104 0 -168 56 -168 147c0 132 113 174 262 174h92l4 28c11 68 -10 104 -83 104c-60 0 -94 -29 -106 -82h-116c24 126 125 173 227 173c136 0 220 -61 196 -208l-26 -167c-11 -68 -14 -115 -9 -159h-115c-4 27 -5 53 -2 76c-35 -53 -88 -86 -156 -86zM222 77
c68 0 121 38 132 111l7 47h-76c-100 0 -145 -23 -145 -88c0 -39 26 -70 82 -70zM183 756h132l44 -155h-87z" />
    <glyph glyph-name="aacute" unicode="&#xe1;" horiz-adv-x="558" 
d="M188 -10c-104 0 -168 56 -168 147c0 132 113 174 262 174h92l4 28c11 68 -10 104 -83 104c-60 0 -94 -29 -106 -82h-116c24 126 125 173 227 173c136 0 220 -61 196 -208l-26 -167c-11 -68 -14 -115 -9 -159h-115c-4 27 -5 53 -2 76c-35 -53 -88 -86 -156 -86zM222 77
c68 0 121 38 132 111l7 47h-76c-100 0 -145 -23 -145 -88c0 -39 26 -70 82 -70zM342 756h136l-122 -155h-91z" />
    <glyph glyph-name="acircumflex" unicode="&#xe2;" horiz-adv-x="558" 
d="M188 -10c-104 0 -168 56 -168 147c0 132 113 174 262 174h92l4 28c11 68 -10 104 -83 104c-60 0 -94 -29 -106 -82h-116c24 126 125 173 227 173c136 0 220 -61 196 -208l-26 -167c-11 -68 -14 -115 -9 -159h-115c-4 27 -5 53 -2 76c-35 -53 -88 -86 -156 -86zM222 77
c68 0 121 38 132 111l7 47h-76c-100 0 -145 -23 -145 -88c0 -39 26 -70 82 -70zM284 753h95l91 -151h-83l-66 68l-85 -68h-87z" />
    <glyph glyph-name="atilde" unicode="&#xe3;" horiz-adv-x="558" 
d="M188 -10c-104 0 -168 56 -168 147c0 132 113 174 262 174h92l4 28c11 68 -10 104 -83 104c-60 0 -94 -29 -106 -82h-116c24 126 125 173 227 173c136 0 220 -61 196 -208l-26 -167c-11 -68 -14 -115 -9 -159h-115c-4 27 -5 53 -2 76c-35 -53 -88 -86 -156 -86zM222 77
c68 0 121 38 132 111l7 47h-76c-100 0 -145 -23 -145 -88c0 -39 26 -70 82 -70zM382 606c-51 0 -83 40 -113 40c-19 0 -35 -16 -42 -40h-74c15 85 59 131 115 131c49 0 83 -39 114 -39c19 0 33 15 40 40h75c-15 -87 -59 -132 -115 -132z" />
    <glyph glyph-name="adieresis" unicode="&#xe4;" horiz-adv-x="558" 
d="M188 -10c-104 0 -168 56 -168 147c0 132 113 174 262 174h92l4 28c11 68 -10 104 -83 104c-60 0 -94 -29 -106 -82h-116c24 126 125 173 227 173c136 0 220 -61 196 -208l-26 -167c-11 -68 -14 -115 -9 -159h-115c-4 27 -5 53 -2 76c-35 -53 -88 -86 -156 -86zM222 77
c68 0 121 38 132 111l7 47h-76c-100 0 -145 -23 -145 -88c0 -39 26 -70 82 -70zM223 613c-37 0 -66 28 -66 64s30 66 67 66c36 0 65 -29 65 -65c0 -35 -30 -65 -66 -65zM420 613c-36 0 -65 28 -65 64s30 66 66 66c37 0 65 -29 65 -65c0 -35 -29 -65 -66 -65z" />
    <glyph glyph-name="aring" unicode="&#xe5;" horiz-adv-x="558" 
d="M188 -10c-104 0 -168 56 -168 147c0 132 113 174 262 174h92l4 28c11 68 -10 104 -83 104c-60 0 -94 -29 -106 -82h-116c24 126 125 173 227 173c136 0 220 -61 196 -208l-26 -167c-11 -68 -14 -115 -9 -159h-115c-4 27 -5 53 -2 76c-35 -53 -88 -86 -156 -86zM222 77
c68 0 121 38 132 111l7 47h-76c-100 0 -145 -23 -145 -88c0 -39 26 -70 82 -70zM326 643c29 0 51 24 51 57c0 31 -19 53 -48 53c-31 0 -52 -23 -52 -56c0 -32 18 -54 49 -54zM326 590c-61 0 -110 47 -110 107s52 109 113 109s110 -47 110 -106c0 -61 -52 -110 -113 -110z
" />
    <glyph glyph-name="ae" unicode="&#xe6;" horiz-adv-x="891" 
d="M480 213c0 -81 33 -133 122 -133c65 0 103 28 120 80h115c-29 -113 -118 -170 -239 -170c-100 0 -168 38 -203 110c-36 -65 -98 -110 -197 -110c-112 0 -178 53 -178 145c0 132 117 179 266 179h89l4 26c11 68 -11 103 -84 103c-60 0 -96 -27 -107 -82h-117
c24 128 128 173 229 173c80 0 136 -23 163 -74c47 47 109 73 177 73c153 0 240 -94 213 -276l-4 -20h-369v-24zM221 77c68 0 122 36 134 112l7 47h-77c-99 0 -145 -24 -145 -91c0 -39 25 -68 81 -68zM635 446c-63 0 -121 -39 -144 -132h249c7 87 -24 132 -105 132z" />
    <glyph glyph-name="ccedilla" unicode="&#xe7;" horiz-adv-x="568" 
d="M215 -219c-56 0 -104 28 -109 88h67c3 -19 15 -33 39 -33c19 0 38 9 38 36c0 19 -14 30 -34 30c-13 0 -20 -4 -27 -8l-30 33l55 71c-113 24 -181 108 -181 231c0 192 125 304 280 304c122 0 220 -60 225 -196h-114c-8 76 -51 100 -115 100c-93 0 -154 -80 -154 -208
c0 -93 43 -146 134 -146c64 0 117 39 130 111h110c-20 -131 -114 -203 -243 -203h-16l-32 -41c45 4 88 -22 88 -75c0 -63 -47 -94 -111 -94z" />
    <glyph glyph-name="egrave" unicode="&#xe8;" horiz-adv-x="574" 
d="M153 213c0 -81 37 -133 126 -133c65 0 107 27 124 80h117c-31 -113 -125 -170 -245 -170c-146 0 -243 85 -243 229c0 186 122 314 283 314c153 0 247 -96 220 -276l-4 -22h-378v-22zM312 446c-63 0 -123 -37 -147 -130h257c7 87 -29 130 -110 130zM197 756h132l44 -155
h-87z" />
    <glyph glyph-name="eacute" unicode="&#xe9;" horiz-adv-x="574" 
d="M153 213c0 -81 37 -133 126 -133c65 0 107 27 124 80h117c-31 -113 -125 -170 -245 -170c-146 0 -243 85 -243 229c0 186 122 314 283 314c153 0 247 -96 220 -276l-4 -22h-378v-22zM312 446c-63 0 -123 -37 -147 -130h257c7 87 -29 130 -110 130zM352 756h136l-122 -155
h-91z" />
    <glyph glyph-name="ecircumflex" unicode="&#xea;" horiz-adv-x="574" 
d="M153 213c0 -81 37 -133 126 -133c65 0 107 27 124 80h117c-31 -113 -125 -170 -245 -170c-146 0 -243 85 -243 229c0 186 122 314 283 314c153 0 247 -96 220 -276l-4 -22h-378v-22zM312 446c-63 0 -123 -37 -147 -130h257c7 87 -29 130 -110 130zM295 753h95l91 -151
h-83l-66 68l-85 -68h-87z" />
    <glyph glyph-name="edieresis" unicode="&#xeb;" horiz-adv-x="574" 
d="M153 213c0 -81 37 -133 126 -133c65 0 107 27 124 80h117c-31 -113 -125 -170 -245 -170c-146 0 -243 85 -243 229c0 186 122 314 283 314c153 0 247 -96 220 -276l-4 -22h-378v-22zM312 446c-63 0 -123 -37 -147 -130h257c7 87 -29 130 -110 130zM239 613
c-37 0 -66 28 -66 64s30 66 67 66c36 0 65 -29 65 -65c0 -35 -30 -65 -66 -65zM436 613c-36 0 -65 28 -65 64s30 66 66 66c37 0 65 -29 65 -65c0 -35 -29 -65 -66 -65z" />
    <glyph glyph-name="igrave" unicode="&#xec;" horiz-adv-x="275" 
d="M116 523h121l-83 -523h-121zM59 756h132l44 -155h-87z" />
    <glyph glyph-name="iacute" unicode="&#xed;" horiz-adv-x="275" 
d="M116 523h121l-83 -523h-121zM212 756h136l-122 -155h-91z" />
    <glyph glyph-name="icircumflex" unicode="&#xee;" horiz-adv-x="275" 
d="M116 523h121l-83 -523h-121zM157 753h95l91 -151h-83l-66 68l-85 -68h-87z" />
    <glyph glyph-name="idieresis" unicode="&#xef;" horiz-adv-x="275" 
d="M106 613c-36 0 -66 28 -66 64s30 66 67 66c36 0 65 -29 65 -65c0 -35 -30 -65 -66 -65zM296 613c-36 0 -65 28 -65 64s29 66 66 66c36 0 65 -29 65 -65c0 -35 -29 -65 -66 -65zM116 523h121l-83 -523h-121z" />
    <glyph glyph-name="eth" unicode="&#xf0;" horiz-adv-x="607" 
d="M180 619l113 51c-35 35 -74 64 -115 95h148c23 -13 45 -30 67 -50l101 45l24 -53l-81 -36c72 -83 131 -198 131 -337c0 -193 -102 -344 -291 -344c-141 0 -245 88 -245 238c0 156 103 303 263 303c60 0 104 -20 137 -68c-24 63 -57 115 -97 162l-131 -58zM155 222
c0 -72 33 -138 124 -138c108 0 165 104 165 216c0 73 -35 139 -127 139c-106 0 -162 -101 -162 -217z" />
    <glyph glyph-name="ntilde" unicode="&#xf1;" horiz-adv-x="608" 
d="M87 361c11 73 13 117 16 162h116c0 -28 -2 -65 -6 -98c37 61 96 109 181 109c105 0 175 -62 151 -220l-50 -314h-121l50 320c13 76 -13 114 -77 114c-76 0 -136 -48 -149 -136l-47 -298h-121zM413 606c-51 0 -83 40 -113 40c-19 0 -35 -16 -42 -40h-74
c15 85 59 131 115 131c49 0 83 -39 114 -39c19 0 33 15 40 40h75c-15 -87 -59 -132 -115 -132z" />
    <glyph glyph-name="ograve" unicode="&#xf2;" horiz-adv-x="603" 
d="M279 -10c-144 0 -246 91 -246 235c0 176 122 308 287 308c144 0 247 -87 247 -234c0 -180 -119 -309 -288 -309zM282 84c104 0 161 93 161 216c0 84 -43 139 -127 139c-100 0 -161 -92 -161 -214c0 -83 39 -141 127 -141zM206 756h132l44 -155h-87z" />
    <glyph glyph-name="oacute" unicode="&#xf3;" horiz-adv-x="603" 
d="M279 -10c-144 0 -246 91 -246 235c0 176 122 308 287 308c144 0 247 -87 247 -234c0 -180 -119 -309 -288 -309zM282 84c104 0 161 93 161 216c0 84 -43 139 -127 139c-100 0 -161 -92 -161 -214c0 -83 39 -141 127 -141zM359 756h136l-122 -155h-91z" />
    <glyph glyph-name="ocircumflex" unicode="&#xf4;" horiz-adv-x="603" 
d="M279 -10c-144 0 -246 91 -246 235c0 176 122 308 287 308c144 0 247 -87 247 -234c0 -180 -119 -309 -288 -309zM282 84c104 0 161 93 161 216c0 84 -43 139 -127 139c-100 0 -161 -92 -161 -214c0 -83 39 -141 127 -141zM305 753h95l91 -151h-83l-66 68l-85 -68h-87z
" />
    <glyph glyph-name="otilde" unicode="&#xf5;" horiz-adv-x="603" 
d="M279 -10c-144 0 -246 91 -246 235c0 176 122 308 287 308c144 0 247 -87 247 -234c0 -180 -119 -309 -288 -309zM282 84c104 0 161 93 161 216c0 84 -43 139 -127 139c-100 0 -161 -92 -161 -214c0 -83 39 -141 127 -141zM400 606c-51 0 -83 40 -113 40
c-19 0 -35 -16 -42 -40h-74c15 85 59 131 115 131c49 0 83 -39 114 -39c19 0 33 15 40 40h75c-15 -87 -59 -132 -115 -132z" />
    <glyph glyph-name="odieresis" unicode="&#xf6;" horiz-adv-x="603" 
d="M279 -10c-144 0 -246 91 -246 235c0 176 122 308 287 308c144 0 247 -87 247 -234c0 -180 -119 -309 -288 -309zM282 84c104 0 161 93 161 216c0 84 -43 139 -127 139c-100 0 -161 -92 -161 -214c0 -83 39 -141 127 -141zM245 613c-37 0 -66 28 -66 64s30 66 67 66
c36 0 65 -29 65 -65c0 -35 -30 -65 -66 -65zM442 613c-36 0 -65 28 -65 64s30 66 66 66c37 0 65 -29 65 -65c0 -35 -29 -65 -66 -65z" />
    <glyph glyph-name="divide" unicode="&#xf7;" horiz-adv-x="544" 
d="M55 387h467l-14 -91h-467zM257 71c-43 0 -76 32 -76 75s33 75 76 75s77 -32 77 -75s-34 -75 -77 -75zM305 461c-43 0 -76 32 -76 75s33 76 76 76s77 -33 77 -76s-34 -75 -77 -75z" />
    <glyph glyph-name="oslash" unicode="&#xf8;" horiz-adv-x="603" 
d="M11 4l70 73c-31 39 -49 89 -49 149c0 176 124 307 288 307c59 0 110 -15 153 -44l66 70l44 -42l-66 -69c33 -39 50 -89 50 -150c0 -179 -119 -308 -289 -308c-60 0 -112 16 -153 45l-70 -73zM282 83c104 0 163 93 163 216c0 24 -3 45 -9 63l-241 -253
c21 -17 50 -26 87 -26zM153 226c0 -24 3 -45 9 -64l239 252c-21 17 -49 26 -85 26c-100 0 -163 -90 -163 -214z" />
    <glyph glyph-name="ugrave" unicode="&#xf9;" horiz-adv-x="605" 
d="M512 159c-11 -71 -15 -116 -12 -159h-117c-3 28 -1 61 4 94c-39 -60 -92 -104 -176 -104c-110 0 -177 66 -153 219l50 314h121l-52 -324c-11 -73 13 -114 76 -114c76 0 133 48 148 136l47 302h121zM218 756h132l44 -155h-87z" />
    <glyph glyph-name="uacute" unicode="&#xfa;" horiz-adv-x="605" 
d="M512 159c-11 -71 -15 -116 -12 -159h-117c-3 28 -1 61 4 94c-39 -60 -92 -104 -176 -104c-110 0 -177 66 -153 219l50 314h121l-52 -324c-11 -73 13 -114 76 -114c76 0 133 48 148 136l47 302h121zM371 756h136l-122 -155h-91z" />
    <glyph glyph-name="ucircumflex" unicode="&#xfb;" horiz-adv-x="605" 
d="M512 159c-11 -71 -15 -116 -12 -159h-117c-3 28 -1 61 4 94c-39 -60 -92 -104 -176 -104c-110 0 -177 66 -153 219l50 314h121l-52 -324c-11 -73 13 -114 76 -114c76 0 133 48 148 136l47 302h121zM317 753h95l91 -151h-83l-66 68l-85 -68h-87z" />
    <glyph glyph-name="udieresis" unicode="&#xfc;" horiz-adv-x="605" 
d="M512 159c-11 -71 -15 -116 -12 -159h-117c-3 28 -1 61 4 94c-39 -60 -92 -104 -176 -104c-110 0 -177 66 -153 219l50 314h121l-52 -324c-11 -73 13 -114 76 -114c76 0 133 48 148 136l47 302h121zM254 613c-37 0 -66 28 -66 64s30 66 67 66c36 0 65 -29 65 -65
c0 -35 -30 -65 -66 -65zM451 613c-36 0 -65 28 -65 64s30 66 66 66c37 0 65 -29 65 -65c0 -35 -29 -65 -66 -65z" />
    <glyph glyph-name="yacute" unicode="&#xfd;" horiz-adv-x="537" 
d="M180 59l-125 464h124l81 -338l176 338h124l-391 -702h-124zM343 756h136l-122 -155h-91z" />
    <glyph glyph-name="thorn" unicode="&#xfe;" horiz-adv-x="640" 
d="M150 765h121l-52 -330c35 57 101 99 180 99c115 0 200 -85 200 -229c0 -180 -100 -315 -257 -315c-99 0 -154 50 -176 104l-44 -273h-121zM319 84c97 0 154 90 154 213c0 92 -44 143 -117 143c-97 0 -171 -83 -171 -215c0 -88 50 -141 134 -141z" />
    <glyph glyph-name="ydieresis" unicode="&#xff;" horiz-adv-x="537" 
d="M180 59l-125 464h124l81 -338l176 338h124l-391 -702h-124zM231 613c-37 0 -66 28 -66 64s30 66 67 66c36 0 65 -29 65 -65c0 -35 -30 -65 -66 -65zM428 613c-36 0 -65 28 -65 64s30 66 66 66c37 0 65 -29 65 -65c0 -35 -29 -65 -66 -65z" />
    <glyph glyph-name="Amacron" unicode="&#x100;" horiz-adv-x="689" 
d="M461 177h-273l-84 -177h-128l352 715h174l123 -715h-135zM234 274h212l-53 332zM290 861h288l-13 -81h-288z" />
    <glyph glyph-name="amacron" unicode="&#x101;" horiz-adv-x="558" 
d="M188 -10c-104 0 -168 56 -168 147c0 132 113 174 262 174h92l4 28c11 68 -10 104 -83 104c-60 0 -94 -29 -106 -82h-116c24 126 125 173 227 173c136 0 220 -61 196 -208l-26 -167c-11 -68 -14 -115 -9 -159h-115c-4 27 -5 53 -2 76c-35 -53 -88 -86 -156 -86zM222 77
c68 0 121 38 132 111l7 47h-76c-100 0 -145 -23 -145 -88c0 -39 26 -70 82 -70zM194 712h280l-12 -78h-280z" />
    <glyph glyph-name="Abreve" unicode="&#x102;" horiz-adv-x="689" 
d="M461 177h-273l-84 -177h-128l352 715h174l123 -715h-135zM234 274h212l-53 332zM423 761c-85 0 -142 56 -142 140h85c4 -37 24 -56 59 -56c36 0 58 19 65 56h84c-9 -85 -72 -140 -151 -140z" />
    <glyph glyph-name="abreve" unicode="&#x103;" horiz-adv-x="558" 
d="M188 -10c-104 0 -168 56 -168 147c0 132 113 174 262 174h92l4 28c11 68 -10 104 -83 104c-60 0 -94 -29 -106 -82h-116c24 126 125 173 227 173c136 0 220 -61 196 -208l-26 -167c-11 -68 -14 -115 -9 -159h-115c-4 27 -5 53 -2 76c-35 -53 -88 -86 -156 -86zM222 77
c68 0 121 38 132 111l7 47h-76c-100 0 -145 -23 -145 -88c0 -39 26 -70 82 -70zM324 606c-84 0 -144 56 -141 143h83c4 -39 24 -58 59 -58c38 0 60 19 66 58h83c-9 -88 -71 -143 -150 -143z" />
    <glyph glyph-name="Aogonek" unicode="&#x104;" horiz-adv-x="689" 
d="M461 177h-273l-84 -177h-128l352 715h174l122 -711c-33 -22 -77 -45 -77 -86c0 -19 11 -28 34 -28c15 0 28 3 40 8l-10 -68c-15 -5 -35 -12 -66 -12c-56 0 -104 20 -104 80c0 50 47 83 90 102h-41zM234 274h212l-53 332z" />
    <glyph glyph-name="aogonek" unicode="&#x105;" horiz-adv-x="558" 
d="M389 -182c-56 0 -105 20 -105 80c0 50 48 83 88 102h-26c-4 27 -5 53 -2 76c-35 -53 -88 -86 -156 -86c-104 0 -168 56 -168 147c0 132 113 174 262 174h92l4 28c11 68 -10 104 -83 104c-60 0 -94 -29 -106 -82h-116c24 126 125 173 227 173c136 0 220 -61 196 -208
l-26 -167c-11 -68 -14 -113 -9 -157c-28 -19 -70 -43 -70 -84c0 -19 11 -28 33 -28c15 0 28 3 41 8l-11 -68c-15 -7 -34 -12 -65 -12zM222 77c68 0 121 38 132 111l7 47h-76c-100 0 -145 -23 -145 -88c0 -39 26 -70 82 -70z" />
    <glyph glyph-name="Cacute" unicode="&#x106;" horiz-adv-x="745" 
d="M389 -10c-203 0 -330 117 -330 313c0 239 154 423 387 423c160 0 277 -84 285 -250h-130c-15 95 -60 145 -159 145c-156 0 -244 -141 -244 -314c-1 -131 60 -211 192 -211c99 0 164 58 192 153h130c-34 -164 -163 -259 -323 -259zM468 901h138l-111 -135h-94z" />
    <glyph glyph-name="cacute" unicode="&#x107;" horiz-adv-x="568" 
d="M286 -9c-156 0 -253 91 -253 238c0 192 125 304 280 304c122 0 220 -60 225 -196h-114c-8 76 -51 100 -115 100c-93 0 -154 -80 -154 -208c0 -93 43 -146 134 -146c64 0 117 39 130 111h110c-20 -131 -114 -203 -243 -203zM349 756h136l-122 -155h-91z" />
    <glyph glyph-name="Ccircumflex" unicode="&#x108;" horiz-adv-x="745" 
d="M389 -10c-203 0 -330 117 -330 313c0 239 154 423 387 423c160 0 277 -84 285 -250h-130c-15 95 -60 145 -159 145c-156 0 -244 -141 -244 -314c-1 -131 60 -211 192 -211c99 0 164 58 192 153h130c-34 -164 -163 -259 -323 -259zM417 901h105l92 -135h-85l-67 55
l-82 -55h-89z" />
    <glyph glyph-name="ccircumflex" unicode="&#x109;" horiz-adv-x="568" 
d="M286 -9c-156 0 -253 91 -253 238c0 192 125 304 280 304c122 0 220 -60 225 -196h-114c-8 76 -51 100 -115 100c-93 0 -154 -80 -154 -208c0 -93 43 -146 134 -146c64 0 117 39 130 111h110c-20 -131 -114 -203 -243 -203zM294 753h95l91 -151h-83l-66 68l-85 -68h-87z
" />
    <glyph glyph-name="Cdotaccent" unicode="&#x10a;" horiz-adv-x="745" 
d="M389 -10c-203 0 -330 117 -330 313c0 239 154 423 387 423c160 0 277 -84 285 -250h-130c-15 95 -60 145 -159 145c-156 0 -244 -141 -244 -314c-1 -131 60 -211 192 -211c99 0 164 58 192 153h130c-34 -164 -163 -259 -323 -259zM460 775c-40 0 -71 29 -71 68
s32 69 71 69c40 0 71 -29 71 -68s-32 -69 -71 -69z" />
    <glyph glyph-name="cdotaccent" unicode="&#x10b;" horiz-adv-x="568" 
d="M286 -9c-156 0 -253 91 -253 238c0 192 125 304 280 304c122 0 220 -60 225 -196h-114c-8 76 -51 100 -115 100c-93 0 -154 -80 -154 -208c0 -93 43 -146 134 -146c64 0 117 39 130 111h110c-20 -131 -114 -203 -243 -203zM338 611c-40 0 -71 28 -71 67s32 70 72 70
c39 0 70 -29 70 -68s-32 -69 -71 -69z" />
    <glyph glyph-name="Ccaron" unicode="&#x10c;" horiz-adv-x="745" 
d="M389 -10c-203 0 -330 117 -330 313c0 239 154 423 387 423c160 0 277 -84 285 -250h-130c-15 95 -60 145 -159 145c-156 0 -244 -141 -244 -314c-1 -131 60 -211 192 -211c99 0 164 58 192 153h130c-34 -164 -163 -259 -323 -259zM501 766h-105l-91 135h84l67 -55l82 55
h90z" />
    <glyph glyph-name="ccaron" unicode="&#x10d;" horiz-adv-x="568" 
d="M286 -9c-156 0 -253 91 -253 238c0 192 125 304 280 304c122 0 220 -60 225 -196h-114c-8 76 -51 100 -115 100c-93 0 -154 -80 -154 -208c0 -93 43 -146 134 -146c64 0 117 39 130 111h110c-20 -131 -114 -203 -243 -203zM366 602h-96l-90 151h82l66 -67l85 67h88z" />
    <glyph glyph-name="Dcaron" unicode="&#x10e;" horiz-adv-x="722" 
d="M153 715h196c239 0 346 -124 346 -305c0 -240 -153 -410 -414 -410h-241zM279 105c177 0 278 112 278 301c0 122 -61 205 -212 205h-75l-80 -506h89zM441 766h-105l-91 135h84l67 -55l82 55h90z" />
    <glyph glyph-name="dcaron" unicode="&#x10f;" horiz-adv-x="633" 
d="M243 -10c-123 0 -210 85 -210 230c0 179 106 314 267 314c92 0 143 -45 167 -97l52 328h121l-95 -606c-11 -71 -14 -116 -11 -159h-118c-3 27 -1 58 2 89c-39 -63 -96 -99 -175 -99zM280 84c96 0 167 77 167 217c0 88 -52 139 -128 139c-100 0 -160 -89 -160 -213
c0 -89 44 -143 121 -143zM694 765h107l-72 -175h-72z" />
    <glyph glyph-name="Dcroat" unicode="&#x110;" horiz-adv-x="741" 
d="M54 406h69l49 309h197c237 0 345 -124 345 -305c0 -240 -153 -410 -414 -410h-241l49 311h-69zM299 105c177 0 278 110 278 301c0 122 -61 205 -212 205h-77l-33 -205h173l-15 -95h-173l-32 -206h91z" />
    <glyph glyph-name="dcroat" unicode="&#x111;" horiz-adv-x="633" 
d="M337 679h168l14 86h121l-14 -86h68l-12 -75h-67l-70 -445c-11 -71 -14 -116 -11 -159h-118c-3 27 -1 58 2 89c-39 -63 -96 -99 -175 -99c-123 0 -210 85 -210 230c0 179 106 314 267 314c92 0 143 -45 167 -97l26 167h-168zM319 440c-100 0 -160 -89 -160 -213
c0 -92 41 -143 121 -143c96 0 167 77 167 219c0 88 -49 137 -128 137z" />
    <glyph glyph-name="Emacron" unicode="&#x112;" horiz-adv-x="592" 
d="M153 715h444l-17 -105h-311l-31 -196h252l-15 -100h-252l-34 -209h332l-17 -105h-464zM250 861h288l-13 -81h-288z" />
    <glyph glyph-name="emacron" unicode="&#x113;" horiz-adv-x="574" 
d="M153 213c0 -81 37 -133 126 -133c65 0 107 27 124 80h117c-31 -113 -125 -170 -245 -170c-146 0 -243 85 -243 229c0 186 122 314 283 314c153 0 247 -96 220 -276l-4 -22h-378v-22zM312 446c-63 0 -123 -37 -147 -130h257c7 87 -29 130 -110 130zM205 712h280l-12 -78
h-280z" />
    <glyph glyph-name="Ebreve" unicode="&#x114;" horiz-adv-x="592" 
d="M153 715h444l-17 -105h-311l-31 -196h252l-15 -100h-252l-34 -209h332l-17 -105h-464zM382 761c-85 0 -142 56 -142 140h85c4 -37 24 -56 59 -56c36 0 58 19 65 56h84c-9 -85 -72 -140 -151 -140z" />
    <glyph glyph-name="ebreve" unicode="&#x115;" horiz-adv-x="574" 
d="M153 213c0 -81 37 -133 126 -133c65 0 107 27 124 80h117c-31 -113 -125 -170 -245 -170c-146 0 -243 85 -243 229c0 186 122 314 283 314c153 0 247 -96 220 -276l-4 -22h-378v-22zM312 446c-63 0 -123 -37 -147 -130h257c7 87 -29 130 -110 130zM333 606
c-84 0 -144 56 -141 143h83c4 -39 24 -58 59 -58c38 0 60 19 66 58h83c-9 -88 -71 -143 -150 -143z" />
    <glyph glyph-name="Edotaccent" unicode="&#x116;" horiz-adv-x="592" 
d="M153 715h444l-17 -105h-311l-31 -196h252l-15 -100h-252l-34 -209h332l-17 -105h-464zM385 775c-40 0 -71 29 -71 68s32 69 71 69c40 0 71 -29 71 -68s-32 -69 -71 -69z" />
    <glyph glyph-name="edotaccent" unicode="&#x117;" horiz-adv-x="574" 
d="M153 213c0 -81 37 -133 126 -133c65 0 107 27 124 80h117c-31 -113 -125 -170 -245 -170c-146 0 -243 85 -243 229c0 186 122 314 283 314c153 0 247 -96 220 -276l-4 -22h-378v-22zM312 446c-63 0 -123 -37 -147 -130h257c7 87 -29 130 -110 130zM338 611
c-40 0 -71 28 -71 67s32 70 72 70c39 0 70 -29 70 -68s-32 -69 -71 -69z" />
    <glyph glyph-name="Eogonek" unicode="&#x118;" horiz-adv-x="592" 
d="M153 715h444l-17 -105h-311l-31 -196h252l-15 -100h-252l-34 -209h332l-17 -105h-33c-27 -16 -72 -43 -72 -83c0 -18 11 -27 34 -27c15 0 28 3 40 8l-10 -68c-15 -5 -35 -12 -66 -12c-56 0 -104 21 -104 77c0 50 45 86 85 105h-338z" />
    <glyph glyph-name="eogonek" unicode="&#x119;" horiz-adv-x="574" 
d="M275 -10c-146 0 -243 85 -243 229c0 186 122 314 283 314c153 0 247 -96 220 -276l-4 -22h-378v-22c0 -81 37 -133 126 -133c65 0 107 27 124 80h117c-12 -47 -32 -79 -65 -110c-43 -40 -128 -79 -128 -132c0 -19 11 -28 34 -28c14 0 27 3 40 8l-10 -68
c-15 -7 -35 -12 -66 -12c-56 0 -104 20 -104 79c0 45 41 75 79 94c-8 -1 -17 -1 -25 -1zM312 446c-63 0 -123 -37 -147 -130h257c7 87 -29 130 -110 130z" />
    <glyph glyph-name="Ecaron" unicode="&#x11a;" horiz-adv-x="592" 
d="M153 715h444l-17 -105h-311l-31 -196h252l-15 -100h-252l-34 -209h332l-17 -105h-464zM423 766h-105l-91 135h84l67 -55l82 55h90z" />
    <glyph glyph-name="ecaron" unicode="&#x11b;" horiz-adv-x="574" 
d="M153 213c0 -81 37 -133 126 -133c65 0 107 27 124 80h117c-31 -113 -125 -170 -245 -170c-146 0 -243 85 -243 229c0 186 122 314 283 314c153 0 247 -96 220 -276l-4 -22h-378v-22zM312 446c-63 0 -123 -37 -147 -130h257c7 87 -29 130 -110 130zM369 602h-96l-90 151
h82l66 -67l85 67h88z" />
    <glyph glyph-name="Gcircumflex" unicode="&#x11c;" horiz-adv-x="781" 
d="M397 -10c-212 0 -337 129 -337 321c0 230 161 413 386 413c155 0 284 -74 295 -239h-133c-8 92 -71 134 -167 134c-153 0 -243 -140 -243 -307c0 -133 66 -218 202 -218c123 0 183 76 202 180h-180l16 100h311c-19 -263 -141 -384 -352 -384zM411 901h105l92 -135h-85
l-67 55l-82 -55h-89z" />
    <glyph glyph-name="gcircumflex" unicode="&#x11d;" horiz-adv-x="634" 
d="M281 114c92 0 166 75 166 196c0 81 -53 130 -129 130c-98 0 -155 -90 -155 -189c0 -81 39 -137 118 -137zM523 28c-23 -148 -109 -220 -270 -220c-178 0 -241 87 -249 174h121c8 -45 44 -82 125 -82c99 0 138 49 153 133l12 74c-39 -56 -91 -85 -167 -85
c-123 0 -210 85 -210 222c0 163 109 290 260 290c92 0 144 -45 169 -97l14 86h120zM320 753h95l91 -151h-83l-66 68l-85 -68h-87z" />
    <glyph glyph-name="Gbreve" unicode="&#x11e;" horiz-adv-x="781" 
d="M397 -10c-212 0 -337 129 -337 321c0 230 161 413 386 413c155 0 284 -74 295 -239h-133c-8 92 -71 134 -167 134c-153 0 -243 -140 -243 -307c0 -133 66 -218 202 -218c123 0 183 76 202 180h-180l16 100h311c-19 -263 -141 -384 -352 -384zM454 761
c-85 0 -142 56 -142 140h85c4 -37 24 -56 59 -56c36 0 58 19 65 56h84c-9 -85 -72 -140 -151 -140z" />
    <glyph glyph-name="gbreve" unicode="&#x11f;" horiz-adv-x="634" 
d="M281 114c92 0 166 75 166 196c0 81 -53 130 -129 130c-98 0 -155 -90 -155 -189c0 -81 39 -137 118 -137zM523 28c-23 -148 -109 -220 -270 -220c-178 0 -241 87 -249 174h121c8 -45 44 -82 125 -82c99 0 138 49 153 133l12 74c-39 -56 -91 -85 -167 -85
c-123 0 -210 85 -210 222c0 163 109 290 260 290c92 0 144 -45 169 -97l14 86h120zM357 606c-84 0 -144 56 -141 143h83c4 -39 24 -58 59 -58c38 0 60 19 66 58h83c-9 -88 -71 -143 -150 -143z" />
    <glyph glyph-name="Gdotaccent" unicode="&#x120;" horiz-adv-x="781" 
d="M397 -10c-212 0 -337 129 -337 321c0 230 161 413 386 413c155 0 284 -74 295 -239h-133c-8 92 -71 134 -167 134c-153 0 -243 -140 -243 -307c0 -133 66 -218 202 -218c123 0 183 76 202 180h-180l16 100h311c-19 -263 -141 -384 -352 -384zM455 775
c-40 0 -71 29 -71 68s32 69 71 69c40 0 71 -29 71 -68s-32 -69 -71 -69z" />
    <glyph glyph-name="gdotaccent" unicode="&#x121;" horiz-adv-x="634" 
d="M281 114c92 0 166 75 166 196c0 81 -53 130 -129 130c-98 0 -155 -90 -155 -189c0 -81 39 -137 118 -137zM523 28c-23 -148 -109 -220 -270 -220c-178 0 -241 87 -249 174h121c8 -45 44 -82 125 -82c99 0 138 49 153 133l12 74c-39 -56 -91 -85 -167 -85
c-123 0 -210 85 -210 222c0 163 109 290 260 290c92 0 144 -45 169 -97l14 86h120zM362 611c-40 0 -71 28 -71 67s32 70 72 70c39 0 70 -29 70 -68s-32 -69 -71 -69z" />
    <glyph glyph-name="uni0122" unicode="&#x122;" horiz-adv-x="777" 
d="M397 -10c-212 0 -337 129 -337 321c0 230 161 413 386 413c155 0 284 -74 295 -239h-133c-8 92 -71 134 -167 134c-153 0 -243 -140 -243 -307c0 -133 66 -218 202 -218c123 0 183 76 202 180h-180l16 100h311c-19 -263 -141 -384 -352 -384zM231 -198l63 165l110 -22
l-105 -170z" />
    <glyph glyph-name="uni0123" unicode="&#x123;" horiz-adv-x="630" 
d="M281 114c92 0 166 75 166 196c0 81 -53 130 -129 130c-98 0 -155 -90 -155 -189c0 -81 39 -137 118 -137zM523 28c-23 -148 -109 -220 -270 -220c-178 0 -241 87 -249 174h121c8 -45 44 -82 125 -82c99 0 138 49 153 133l12 74c-39 -56 -91 -85 -167 -85
c-123 0 -210 85 -210 222c0 163 109 290 260 290c92 0 144 -45 169 -97l14 86h120zM450 753l-64 -165l-109 22l104 169z" />
    <glyph glyph-name="Hcircumflex" unicode="&#x124;" horiz-adv-x="755" 
d="M153 715h133l-48 -304h320l49 304h134l-113 -715h-134l48 304h-321l-48 -304h-133zM414 901h105l92 -135h-85l-67 55l-82 -55h-89z" />
    <glyph glyph-name="hcircumflex" unicode="&#x125;" horiz-adv-x="608" 
d="M151 765h120l-52 -331c33 53 90 100 175 100c105 0 175 -62 151 -220l-50 -314h-121l50 320c13 76 -13 114 -77 114c-76 0 -136 -48 -149 -136l-47 -298h-121zM347 944h105l92 -135h-85l-67 55l-82 -55h-89z" />
    <glyph glyph-name="Hbar" unicode="&#x126;" horiz-adv-x="755" 
d="M65 582h67l21 133h133l-21 -133h320l22 133h134l-21 -133h65l-12 -78h-66l-79 -504h-134l48 304h-321l-48 -304h-133l79 504h-66zM558 411l15 93h-321l-14 -93h320z" />
    <glyph glyph-name="hbar" unicode="&#x127;" horiz-adv-x="608" 
d="M69 679h68l14 86h120l-14 -86h170l-12 -75h-170l-26 -170c33 53 90 100 175 100c105 0 175 -62 151 -220l-50 -314h-121l50 320c13 81 -13 114 -77 114c-76 0 -136 -48 -149 -136l-47 -298h-121l95 604h-68z" />
    <glyph glyph-name="Itilde" unicode="&#x128;" horiz-adv-x="312" 
d="M157 715h134l-113 -715h-134zM302 768c-50 0 -85 39 -114 39c-19 0 -35 -15 -42 -40h-77c16 87 62 131 118 131c51 0 84 -40 115 -40c19 0 34 15 41 40h76c-16 -85 -62 -130 -117 -130z" />
    <glyph glyph-name="itilde" unicode="&#x129;" horiz-adv-x="275" 
d="M116 523h121l-83 -523h-121zM256 606c-51 0 -83 40 -113 40c-19 0 -35 -16 -42 -40h-74c15 85 59 131 115 131c49 0 83 -39 114 -39c19 0 33 15 40 40h75c-15 -87 -59 -132 -115 -132z" />
    <glyph glyph-name="Imacron" unicode="&#x12a;" horiz-adv-x="312" 
d="M157 715h134l-113 -715h-134zM103 861h288l-13 -81h-288z" />
    <glyph glyph-name="imacron" unicode="&#x12b;" horiz-adv-x="275" 
d="M99 712h214l-12 -78h-214zM116 523h121l-83 -523h-121z" />
    <glyph glyph-name="Ibreve" unicode="&#x12c;" horiz-adv-x="312" 
d="M157 715h134l-113 -715h-134zM237 761c-85 0 -142 56 -142 140h85c4 -37 24 -56 59 -56c36 0 58 19 65 56h84c-9 -85 -72 -140 -151 -140z" />
    <glyph glyph-name="ibreve" unicode="&#x12d;" horiz-adv-x="275" 
d="M116 523h121l-83 -523h-121zM194 606c-84 0 -144 56 -141 143h83c4 -39 24 -58 59 -58c38 0 60 19 66 58h83c-9 -88 -71 -143 -150 -143z" />
    <glyph glyph-name="Iogonek" unicode="&#x12e;" horiz-adv-x="312" 
d="M98 -182c-56 0 -105 20 -105 80c0 50 49 84 91 102h-40l113 715h134l-111 -706c-37 -24 -80 -55 -80 -91c0 -19 11 -28 34 -28c14 0 27 3 40 8l-11 -68c-15 -5 -34 -12 -65 -12z" />
    <glyph glyph-name="iogonek" unicode="&#x12f;" horiz-adv-x="275" 
d="M116 523h121l-82 -514c-35 -24 -78 -50 -78 -91c0 -19 11 -28 32 -28c15 0 28 3 40 8l-10 -68c-15 -5 -35 -12 -66 -12c-53 0 -103 20 -103 80c0 50 48 83 88 102h-25zM198 609c-40 0 -71 30 -71 69s32 70 72 70s71 -30 71 -69s-32 -70 -72 -70z" />
    <glyph glyph-name="Idotaccent" unicode="&#x130;" horiz-adv-x="312" 
d="M157 715h134l-113 -715h-134zM239 775c-40 0 -71 29 -71 68s32 69 71 69c40 0 71 -29 71 -68s-32 -69 -71 -69z" />
    <glyph glyph-name="dotlessi" unicode="&#x131;" horiz-adv-x="275" 
d="M116 523h121l-83 -523h-121z" />
    <glyph glyph-name="IJ" unicode="&#x132;" horiz-adv-x="719" 
d="M126 715h134l-113 -715h-134zM366 -9c-73 0 -107 16 -130 28l16 102c25 -11 54 -23 98 -23c64 0 104 31 116 111l80 506h134l-82 -514c-24 -146 -110 -210 -232 -210z" />
    <glyph glyph-name="ij" unicode="&#x133;" horiz-adv-x="275" 
d="M198 609c-40 0 -71 30 -71 69s32 70 72 70s71 -30 71 -69s-32 -70 -72 -70zM116 523h121l-83 -523h-121zM216 -95c55 3 76 27 83 72l87 546h120l-88 -556c-13 -92 -70 -159 -216 -154zM468 609c-40 0 -71 30 -71 69s32 70 72 70s71 -30 71 -69s-32 -70 -72 -70z" />
    <glyph glyph-name="Jcircumflex" unicode="&#x134;" horiz-adv-x="447" 
d="M126 -9c-73 0 -107 16 -130 28l16 102c25 -11 54 -23 98 -23c64 0 104 31 116 111l80 506h134l-82 -514c-24 -146 -110 -210 -232 -210zM342 901h105l92 -135h-85l-67 55l-82 -55h-89z" />
    <glyph glyph-name="jcircumflex" unicode="&#x135;" horiz-adv-x="275" 
d="M-54 -95c55 3 76 27 83 72l87 546h120l-88 -556c-13 -92 -70 -159 -216 -154zM155 753h95l91 -151h-83l-66 68l-85 -68h-87z" />
    <glyph glyph-name="uni0136" unicode="&#x136;" horiz-adv-x="659" 
d="M153 715h133l-51 -320l325 320h148l-354 -344l249 -371h-146l-230 344l-54 -344h-133zM185 -198l63 165l110 -22l-105 -170z" />
    <glyph glyph-name="uni0137" unicode="&#x137;" horiz-adv-x="536" 
d="M150 765h121l-73 -466l220 224h139l-245 -241l173 -282h-134l-159 265l-41 -265h-121zM132 -198l63 165l110 -22l-105 -170z" />
    <glyph glyph-name="Lacute" unicode="&#x139;" horiz-adv-x="555" 
d="M153 715h133l-96 -609h305l-17 -106h-438zM240 901h138l-111 -135h-94z" />
    <glyph glyph-name="lacute" unicode="&#x13a;" horiz-adv-x="275" 
d="M154 765h121l-121 -765h-121zM235 944h138l-111 -135h-94z" />
    <glyph glyph-name="uni013B" unicode="&#x13b;" horiz-adv-x="551" 
d="M153 715h133l-96 -609h305l-17 -106h-438zM137 -198l63 165l110 -22l-105 -170z" />
    <glyph glyph-name="uni013C" unicode="&#x13c;" horiz-adv-x="271" 
d="M154 765h121l-121 -765h-121zM-26 -198l63 165l110 -22l-105 -170z" />
    <glyph glyph-name="Lcaron" unicode="&#x13d;" horiz-adv-x="555" 
d="M435 715h116l-83 -165h-76zM153 715h133l-96 -609h305l-17 -106h-438z" />
    <glyph glyph-name="lcaron" unicode="&#x13e;" horiz-adv-x="275" 
d="M154 765h121l-121 -765h-121zM329 765h107l-72 -175h-72z" />
    <glyph glyph-name="Ldot" unicode="&#x13f;" horiz-adv-x="565" 
d="M153 715h133l-96 -609h305l-17 -106h-438zM470 312c-44 0 -79 35 -79 79s34 78 78 78c45 0 81 -34 81 -78s-35 -79 -80 -79z" />
    <glyph glyph-name="ldot" unicode="&#x140;" horiz-adv-x="382" 
d="M154 765h121l-121 -765h-121zM338 285c-44 0 -79 35 -79 79s34 78 78 78c45 0 81 -34 81 -78s-35 -79 -80 -79z" />
    <glyph glyph-name="Lslash" unicode="&#x141;" horiz-adv-x="574" 
d="M44 327l70 23l58 365h134l-51 -317l203 68l-14 -87l-203 -68l-32 -205h305l-16 -106h-439l41 263l-69 -23z" />
    <glyph glyph-name="lslash" unicode="&#x142;" horiz-adv-x="303" 
d="M37 382l75 36l55 347h122l-45 -283l80 38l-15 -91l-79 -38l-62 -391h-121l51 327l-75 -36z" />
    <glyph glyph-name="Nacute" unicode="&#x143;" horiz-adv-x="749" 
d="M153 715h159l218 -517l82 517h122l-113 -715h-138l-235 548l-86 -548h-122zM474 901h138l-111 -135h-94z" />
    <glyph glyph-name="nacute" unicode="&#x144;" horiz-adv-x="608" 
d="M87 361c11 73 13 117 16 162h116c0 -28 -2 -65 -6 -98c37 61 96 109 181 109c105 0 175 -62 151 -220l-50 -314h-121l50 320c13 76 -13 114 -77 114c-76 0 -136 -48 -149 -136l-47 -298h-121zM371 756h136l-122 -155h-91z" />
    <glyph glyph-name="uni0145" unicode="&#x145;" horiz-adv-x="745" 
d="M153 715h159l218 -517l82 517h122l-113 -715h-138l-235 548l-86 -548h-122zM214 -198l63 165l110 -22l-105 -170z" />
    <glyph glyph-name="uni0146" unicode="&#x146;" horiz-adv-x="603" 
d="M87 361c11 73 13 117 16 162h116c0 -28 -2 -65 -6 -98c37 61 96 109 181 109c105 0 175 -62 151 -220l-50 -314h-121l50 320c13 76 -13 114 -77 114c-76 0 -136 -48 -149 -136l-47 -298h-121zM137 -198l63 165l110 -22l-105 -170z" />
    <glyph glyph-name="Ncaron" unicode="&#x147;" horiz-adv-x="749" 
d="M153 715h159l218 -517l82 517h122l-113 -715h-138l-235 548l-86 -548h-122zM508 766h-105l-91 135h84l67 -55l82 55h90z" />
    <glyph glyph-name="ncaron" unicode="&#x148;" horiz-adv-x="608" 
d="M87 361c11 73 13 117 16 162h116c0 -28 -2 -65 -6 -98c37 61 96 109 181 109c105 0 175 -62 151 -220l-50 -314h-121l50 320c13 76 -13 114 -77 114c-76 0 -136 -48 -149 -136l-47 -298h-121zM389 602h-96l-90 151h82l66 -67l85 67h88z" />
    <glyph glyph-name="napostrophe" unicode="&#x149;" horiz-adv-x="658" 
d="M137 361c11 73 13 117 16 162h116c0 -28 -2 -65 -6 -98c37 61 96 109 181 109c105 0 175 -62 151 -220l-50 -314h-121l50 320c13 76 -13 114 -77 114c-76 0 -136 -48 -149 -136l-47 -298h-121zM-5 495l102 232l108 -43l-141 -220z" />
    <glyph glyph-name="Eng" unicode="&#x14a;" horiz-adv-x="749" 
d="M375 -89c60 0 97 25 113 89l-238 551l-87 -551h-123l113 715h161l217 -506l80 506h123l-111 -702c-23 -144 -102 -206 -229 -206c-65 0 -100 13 -120 25l16 99c23 -11 45 -20 85 -20z" />
    <glyph glyph-name="eng" unicode="&#x14b;" horiz-adv-x="608" 
d="M87 361c11 73 13 117 16 162h116c0 -28 -2 -65 -6 -98c37 61 96 109 181 109c105 0 175 -62 151 -220l-55 -347c-16 -93 -65 -155 -217 -155l14 93c55 4 76 26 84 73l53 342c13 76 -13 114 -77 114c-76 0 -136 -48 -149 -136l-47 -298h-121z" />
    <glyph glyph-name="Omacron" unicode="&#x14c;" horiz-adv-x="818" 
d="M785 405c0 -242 -167 -415 -392 -415c-195 0 -334 127 -334 318c0 236 166 417 393 417c203 0 333 -134 333 -320zM647 402c0 119 -67 217 -198 217c-158 0 -252 -144 -252 -308c0 -132 80 -215 202 -215c152 0 248 136 248 306zM346 861h288l-13 -81h-288z" />
    <glyph glyph-name="omacron" unicode="&#x14d;" horiz-adv-x="603" 
d="M279 -10c-144 0 -246 91 -246 235c0 176 122 308 287 308c144 0 247 -87 247 -234c0 -180 -119 -309 -288 -309zM282 84c104 0 161 93 161 216c0 84 -43 139 -127 139c-100 0 -161 -92 -161 -214c0 -83 39 -141 127 -141zM214 712h280l-12 -78h-280z" />
    <glyph glyph-name="Obreve" unicode="&#x14e;" horiz-adv-x="818" 
d="M785 405c0 -242 -167 -415 -392 -415c-195 0 -334 127 -334 318c0 236 166 417 393 417c203 0 333 -134 333 -320zM647 402c0 119 -67 217 -198 217c-158 0 -252 -144 -252 -308c0 -132 80 -215 202 -215c152 0 248 136 248 306zM480 761c-85 0 -142 56 -142 140h85
c4 -37 24 -56 59 -56c36 0 58 19 65 56h84c-9 -85 -72 -140 -151 -140z" />
    <glyph glyph-name="obreve" unicode="&#x14f;" horiz-adv-x="603" 
d="M279 -10c-144 0 -246 91 -246 235c0 176 122 308 287 308c144 0 247 -87 247 -234c0 -180 -119 -309 -288 -309zM282 84c104 0 161 93 161 216c0 84 -43 139 -127 139c-100 0 -161 -92 -161 -214c0 -83 39 -141 127 -141zM341 606c-84 0 -144 56 -141 143h83
c4 -39 24 -58 59 -58c38 0 60 19 66 58h83c-9 -88 -71 -143 -150 -143z" />
    <glyph glyph-name="Ohungarumlaut" unicode="&#x150;" horiz-adv-x="818" 
d="M785 405c0 -242 -167 -415 -392 -415c-195 0 -334 127 -334 318c0 236 166 417 393 417c203 0 333 -134 333 -320zM647 402c0 119 -67 217 -198 217c-158 0 -252 -144 -252 -308c0 -132 80 -215 202 -215c152 0 248 136 248 306zM390 901h119l-84 -135h-84zM560 901h119
l-84 -135h-85z" />
    <glyph glyph-name="ohungarumlaut" unicode="&#x151;" horiz-adv-x="603" 
d="M279 -10c-144 0 -246 91 -246 235c0 176 122 308 287 308c144 0 247 -87 247 -234c0 -180 -119 -309 -288 -309zM282 84c104 0 161 93 161 216c0 84 -43 139 -127 139c-100 0 -161 -92 -161 -214c0 -83 39 -141 127 -141zM271 756h113l-91 -155h-79zM434 756h113
l-91 -155h-79z" />
    <glyph glyph-name="OE" unicode="&#x152;" horiz-adv-x="973" 
d="M405 0c-237 0 -346 123 -346 304c0 240 154 411 415 411h509l-18 -105h-295l-31 -196h236l-15 -100h-236l-34 -209h316l-16 -105h-485zM476 610c-176 0 -280 -113 -280 -302c0 -123 64 -204 216 -204h46l79 506h-61z" />
    <glyph glyph-name="oe" unicode="&#x153;" horiz-adv-x="980" 
d="M559 213c0 -81 37 -133 126 -133c65 0 107 27 124 80h117c-31 -113 -124 -170 -245 -170c-92 0 -160 36 -196 100c-48 -64 -119 -100 -207 -100c-143 0 -246 92 -246 236c0 176 124 307 288 307c89 0 158 -37 197 -104c48 65 119 104 204 104c154 0 250 -96 220 -276
l-3 -22h-379v-22zM282 84c104 0 161 93 161 216c0 84 -43 139 -127 139c-100 0 -161 -92 -161 -215c0 -81 38 -140 127 -140zM718 446c-63 0 -122 -37 -147 -130h257c7 87 -26 130 -110 130z" />
    <glyph glyph-name="Racute" unicode="&#x154;" horiz-adv-x="659" 
d="M153 715h235c143 0 238 -67 235 -190c0 -125 -82 -197 -189 -216l160 -309h-139l-149 289h-88l-45 -289h-133zM343 384c99 0 149 44 149 131c1 68 -41 97 -118 97h-104l-37 -228h110zM392 901h138l-111 -135h-94z" />
    <glyph glyph-name="racute" unicode="&#x155;" horiz-adv-x="400" 
d="M87 361c11 73 14 117 15 162h116c0 -28 -2 -68 -6 -109c42 74 94 117 192 117l-18 -113c-107 0 -176 -42 -195 -162l-40 -256h-121zM299 756h136l-122 -155h-91z" />
    <glyph glyph-name="uni0156" unicode="&#x156;" horiz-adv-x="655" 
d="M153 715h235c143 0 238 -67 235 -190c0 -125 -82 -197 -189 -216l160 -309h-139l-149 289h-88l-45 -289h-133zM343 384c99 0 149 44 149 131c1 68 -41 97 -118 97h-104l-37 -228h110zM184 -198l63 165l110 -22l-105 -170z" />
    <glyph glyph-name="uni0157" unicode="&#x157;" horiz-adv-x="396" 
d="M87 361c11 73 14 117 15 162h116c0 -28 -2 -68 -6 -109c42 74 94 117 192 117l-18 -113c-107 0 -176 -42 -195 -162l-40 -256h-121zM-32 -198l63 165l110 -22l-105 -170z" />
    <glyph glyph-name="Rcaron" unicode="&#x158;" horiz-adv-x="659" 
d="M153 715h235c143 0 238 -67 235 -190c0 -125 -82 -197 -189 -216l160 -309h-139l-149 289h-88l-45 -289h-133zM343 384c99 0 149 44 149 131c1 68 -41 97 -118 97h-104l-37 -228h110zM421 766h-105l-91 135h84l67 -55l82 55h90z" />
    <glyph glyph-name="rcaron" unicode="&#x159;" horiz-adv-x="400" 
d="M87 361c11 73 14 117 15 162h116c0 -28 -2 -68 -6 -109c42 74 94 117 192 117l-18 -113c-107 0 -176 -42 -195 -162l-40 -256h-121zM313 602h-96l-90 151h82l66 -67l85 67h88z" />
    <glyph glyph-name="Sacute" unicode="&#x15a;" horiz-adv-x="639" 
d="M306 -10c-187 0 -280 101 -280 232h128c3 -68 45 -132 157 -132c89 -1 138 42 138 114c0 53 -30 78 -133 107c-150 38 -219 86 -219 200c0 118 98 213 258 213c152 0 246 -70 247 -207h-122c-7 79 -57 107 -132 107c-84 0 -123 -42 -123 -101c0 -48 27 -70 134 -99
c149 -40 221 -88 221 -203c0 -134 -101 -231 -274 -231zM392 901h138l-111 -135h-94z" />
    <glyph glyph-name="sacute" unicode="&#x15b;" horiz-adv-x="497" 
d="M230 -11c-140 0 -216 73 -216 174h114c3 -48 29 -84 106 -84c59 0 88 23 88 68c0 39 -23 54 -99 71c-117 27 -164 70 -164 153c0 108 94 163 203 163c113 0 192 -46 200 -158h-112c-3 43 -35 70 -91 70s-86 -23 -86 -63c0 -35 25 -50 97 -67c115 -27 171 -61 171 -159
c0 -106 -86 -168 -211 -168zM307 756h136l-122 -155h-91z" />
    <glyph glyph-name="Scircumflex" unicode="&#x15c;" horiz-adv-x="639" 
d="M306 -10c-187 0 -280 101 -280 232h128c3 -68 45 -132 157 -132c89 -1 138 42 138 114c0 53 -30 78 -133 107c-150 38 -219 86 -219 200c0 118 98 213 258 213c152 0 246 -70 247 -207h-122c-7 79 -57 107 -132 107c-84 0 -123 -42 -123 -101c0 -48 27 -70 134 -99
c149 -40 221 -88 221 -203c0 -134 -101 -231 -274 -231zM341 901h105l92 -135h-85l-67 55l-82 -55h-89z" />
    <glyph glyph-name="scircumflex" unicode="&#x15d;" horiz-adv-x="497" 
d="M230 -11c-140 0 -216 73 -216 174h114c3 -48 29 -84 106 -84c59 0 88 23 88 68c0 39 -23 54 -99 71c-117 27 -164 70 -164 153c0 108 94 163 203 163c113 0 192 -46 200 -158h-112c-3 43 -35 70 -91 70s-86 -23 -86 -63c0 -35 25 -50 97 -67c115 -27 171 -61 171 -159
c0 -106 -86 -168 -211 -168zM252 753h95l91 -151h-83l-66 68l-85 -68h-87z" />
    <glyph glyph-name="uni015E" unicode="&#x15e;" horiz-adv-x="635" 
d="M240 -219c-56 0 -104 28 -109 88h67c3 -19 15 -33 39 -33c19 0 38 9 38 36c0 19 -14 30 -34 30c-13 0 -20 -4 -27 -8l-30 33l53 68c-141 23 -211 112 -211 227h128c3 -68 45 -132 157 -132c89 -1 138 42 138 114c0 53 -30 78 -133 107c-150 38 -219 86 -219 200
c0 118 98 213 258 213c152 0 246 -70 247 -207h-122c-7 79 -57 107 -132 107c-84 0 -123 -42 -123 -101c0 -48 27 -70 134 -99c149 -40 221 -88 221 -203c0 -134 -101 -231 -274 -231h-12l-31 -40c45 4 88 -22 88 -75c0 -63 -47 -94 -111 -94z" />
    <glyph glyph-name="uni015F" unicode="&#x15f;" horiz-adv-x="493" 
d="M178 -219c-56 0 -104 28 -109 88h67c3 -19 15 -33 39 -33c19 0 38 9 38 36c0 19 -14 30 -34 30c-13 0 -20 -4 -27 -8l-30 33l51 66c-104 17 -158 82 -159 170h114c3 -48 29 -84 106 -84c59 0 88 23 88 68c0 39 -23 54 -99 71c-117 27 -164 70 -164 153
c0 108 94 163 203 163c113 0 192 -46 200 -158h-112c-3 43 -35 70 -91 70s-86 -23 -86 -63c0 -35 25 -50 97 -67c115 -27 171 -61 171 -159c0 -106 -85 -168 -210 -168l-30 -39c45 4 88 -22 88 -75c0 -63 -47 -94 -111 -94z" />
    <glyph glyph-name="Scaron" unicode="&#x160;" horiz-adv-x="639" 
d="M306 -10c-187 0 -280 101 -280 232h128c3 -68 45 -132 157 -132c89 -1 138 42 138 114c0 53 -30 78 -133 107c-150 38 -219 86 -219 200c0 118 98 213 258 213c152 0 246 -70 247 -207h-122c-7 79 -57 107 -132 107c-84 0 -123 -42 -123 -101c0 -48 27 -70 134 -99
c149 -40 221 -88 221 -203c0 -134 -101 -231 -274 -231zM414 766h-105l-91 135h84l67 -55l82 55h90z" />
    <glyph glyph-name="scaron" unicode="&#x161;" horiz-adv-x="497" 
d="M230 -11c-140 0 -216 73 -216 174h114c3 -48 29 -84 106 -84c59 0 88 23 88 68c0 39 -23 54 -99 71c-117 27 -164 70 -164 153c0 108 94 163 203 163c113 0 192 -46 200 -158h-112c-3 43 -35 70 -91 70s-86 -23 -86 -63c0 -35 25 -50 97 -67c115 -27 171 -61 171 -159
c0 -106 -86 -168 -211 -168zM325 602h-96l-90 151h82l66 -67l85 67h88z" />
    <glyph glyph-name="Tcommaaccent" unicode="&#x162;" horiz-adv-x="588" 
d="M278 610h-199l17 105h532l-18 -105h-198l-96 -610h-134zM131 -198l63 165l110 -22l-105 -170z" />
    <glyph glyph-name="tcommaaccent" unicode="&#x163;" horiz-adv-x="364" 
d="M212 -9c-111 0 -158 63 -141 168l43 273h-70l14 91h70l19 115h121l-19 -115h113l-14 -91h-113l-43 -272c-8 -53 10 -70 53 -70c19 0 38 3 57 10l-15 -96c-21 -9 -46 -13 -75 -13zM44 -198l63 165l110 -22l-105 -170z" />
    <glyph glyph-name="Tcaron" unicode="&#x164;" horiz-adv-x="587" 
d="M278 610h-199l17 105h532l-18 -105h-198l-96 -610h-134zM413 766h-105l-91 135h84l67 -55l82 55h90z" />
    <glyph glyph-name="tcaron" unicode="&#x165;" horiz-adv-x="364" 
d="M212 -9c-111 0 -158 63 -141 168l43 273h-70l14 91h70l19 115h121l-19 -115h113l-14 -91h-113l-43 -272c-8 -53 10 -70 53 -70c19 0 38 3 57 10l-15 -96c-21 -9 -46 -13 -75 -13zM364 765h107l-72 -175h-72z" />
    <glyph glyph-name="Tbar" unicode="&#x166;" horiz-adv-x="587" 
d="M109 405h136l33 205h-199l17 105h532l-18 -105h-198l-33 -205h138l-14 -90h-138l-49 -315h-134l49 315h-136z" />
    <glyph glyph-name="tbar" unicode="&#x167;" horiz-adv-x="364" 
d="M29 336h70l15 96h-70l14 91h70l19 115h121l-19 -115h113l-14 -91h-113l-15 -96h112l-12 -75h-112l-16 -101c-8 -53 10 -70 53 -70c19 0 38 3 57 10l-15 -96c-21 -9 -46 -13 -75 -13c-111 0 -158 63 -141 168l16 102h-70z" />
    <glyph glyph-name="Utilde" unicode="&#x168;" horiz-adv-x="727" 
d="M342 -10c-194 0 -294 102 -262 303l67 422h134l-68 -425c-23 -137 22 -193 133 -193c97 0 147 51 167 175l71 443h134l-73 -457c-27 -171 -122 -268 -303 -268zM501 768c-50 0 -85 39 -114 39c-19 0 -35 -15 -42 -40h-77c16 87 62 131 118 131c51 0 84 -40 115 -40
c19 0 34 15 41 40h76c-16 -85 -62 -130 -117 -130z" />
    <glyph glyph-name="utilde" unicode="&#x169;" horiz-adv-x="605" 
d="M512 159c-11 -71 -15 -116 -12 -159h-117c-3 28 -1 61 4 94c-39 -60 -92 -104 -176 -104c-110 0 -177 66 -153 219l50 314h121l-52 -324c-11 -73 13 -114 76 -114c76 0 133 48 148 136l47 302h121zM408 606c-51 0 -83 40 -113 40c-19 0 -35 -16 -42 -40h-74
c15 85 59 131 115 131c49 0 83 -39 114 -39c19 0 33 15 40 40h75c-15 -87 -59 -132 -115 -132z" />
    <glyph glyph-name="Umacron" unicode="&#x16a;" horiz-adv-x="727" 
d="M342 -10c-194 0 -294 102 -262 303l67 422h134l-68 -425c-23 -137 22 -193 133 -193c97 0 147 51 167 175l71 443h134l-73 -457c-27 -171 -122 -268 -303 -268zM308 861h288l-13 -81h-288z" />
    <glyph glyph-name="umacron" unicode="&#x16b;" horiz-adv-x="605" 
d="M512 159c-11 -71 -15 -116 -12 -159h-117c-3 28 -1 61 4 94c-39 -60 -92 -104 -176 -104c-110 0 -177 66 -153 219l50 314h121l-52 -324c-11 -73 13 -114 76 -114c76 0 133 48 148 136l47 302h121zM219 712h280l-12 -78h-280z" />
    <glyph glyph-name="Ubreve" unicode="&#x16c;" horiz-adv-x="727" 
d="M342 -10c-194 0 -294 102 -262 303l67 422h134l-68 -425c-23 -137 22 -193 133 -193c97 0 147 51 167 175l71 443h134l-73 -457c-27 -171 -122 -268 -303 -268zM439 761c-85 0 -142 56 -142 140h85c4 -37 24 -56 59 -56c36 0 58 19 65 56h84c-9 -85 -72 -140 -151 -140z
" />
    <glyph glyph-name="ubreve" unicode="&#x16d;" horiz-adv-x="605" 
d="M512 159c-11 -71 -15 -116 -12 -159h-117c-3 28 -1 61 4 94c-39 -60 -92 -104 -176 -104c-110 0 -177 66 -153 219l50 314h121l-52 -324c-11 -73 13 -114 76 -114c76 0 133 48 148 136l47 302h121zM352 606c-84 0 -144 56 -141 143h83c4 -39 24 -58 59 -58
c38 0 60 19 66 58h83c-9 -88 -71 -143 -150 -143z" />
    <glyph glyph-name="Uring" unicode="&#x16e;" horiz-adv-x="727" 
d="M342 -10c-194 0 -294 102 -262 303l67 422h134l-68 -425c-23 -137 22 -193 133 -193c97 0 147 51 167 175l71 443h134l-73 -457c-27 -171 -122 -268 -303 -268zM444 787c29 0 51 23 51 56c0 32 -18 54 -49 54c-29 0 -51 -22 -51 -57c0 -31 18 -53 49 -53zM444 733
c-62 0 -111 48 -111 107c0 62 52 111 113 111c62 0 111 -48 111 -108c0 -61 -52 -110 -113 -110z" />
    <glyph glyph-name="uring" unicode="&#x16f;" horiz-adv-x="605" 
d="M512 159c-11 -71 -15 -116 -12 -159h-117c-3 28 -1 61 4 94c-39 -60 -92 -104 -176 -104c-110 0 -177 66 -153 219l50 314h121l-52 -324c-11 -73 13 -114 76 -114c76 0 133 48 148 136l47 302h121zM350 643c29 0 51 24 51 57c0 31 -19 53 -48 53c-31 0 -52 -23 -52 -56
c0 -32 18 -54 49 -54zM350 590c-61 0 -110 47 -110 107s52 109 113 109s110 -47 110 -106c0 -61 -52 -110 -113 -110z" />
    <glyph glyph-name="Uhungarumlaut" unicode="&#x170;" horiz-adv-x="727" 
d="M342 -10c-194 0 -294 102 -262 303l67 422h134l-68 -425c-23 -137 22 -193 133 -193c97 0 147 51 167 175l71 443h134l-73 -457c-27 -171 -122 -268 -303 -268zM356 901h119l-84 -135h-84zM526 901h119l-84 -135h-85z" />
    <glyph glyph-name="uhungarumlaut" unicode="&#x171;" horiz-adv-x="605" 
d="M512 159c-11 -71 -15 -116 -12 -159h-117c-3 28 -1 61 4 94c-39 -60 -92 -104 -176 -104c-110 0 -177 66 -153 219l50 314h121l-52 -324c-11 -73 13 -114 76 -114c76 0 133 48 148 136l47 302h121zM283 756h113l-91 -155h-79zM446 756h113l-91 -155h-79z" />
    <glyph glyph-name="Uogonek" unicode="&#x172;" horiz-adv-x="727" 
d="M354 -182c-56 0 -104 20 -104 80c0 44 34 74 73 93c-183 5 -275 107 -243 302l67 422h134l-68 -425c-23 -137 21 -193 132 -193c97 0 148 51 168 175l71 443h134l-73 -457c-17 -113 -61 -193 -161 -241c-43 -21 -128 -41 -128 -99c0 -19 11 -28 34 -28c15 0 28 3 40 8
l-10 -68c-15 -5 -35 -12 -66 -12z" />
    <glyph glyph-name="uogonek" unicode="&#x173;" horiz-adv-x="605" 
d="M512 159c-11 -72 -15 -116 -12 -156c-28 -21 -72 -46 -72 -85c0 -19 11 -28 33 -28c15 0 28 3 41 8l-11 -68c-15 -5 -34 -12 -65 -12c-56 0 -105 20 -105 80c0 51 48 83 89 102h-27c-3 28 0 68 4 101c-39 -64 -97 -111 -181 -111c-105 0 -172 66 -148 219l50 314h121
l-52 -324c-11 -73 13 -114 76 -114c76 0 134 48 147 136l48 302h121z" />
    <glyph glyph-name="Wcircumflex" unicode="&#x174;" horiz-adv-x="932" 
d="M87 715h135l41 -532l221 532h102l63 -535l209 535h124l-291 -715h-128l-60 512l-219 -512h-129zM499 901h105l92 -135h-85l-67 55l-82 -55h-89z" />
    <glyph glyph-name="wcircumflex" unicode="&#x175;" horiz-adv-x="796" 
d="M58 523h125l39 -382l168 382h101l42 -382l162 382h121l-242 -523h-123l-39 356l-159 -356h-124zM417 753h95l91 -151h-83l-66 68l-85 -68h-87z" />
    <glyph glyph-name="Ycircumflex" unicode="&#x176;" horiz-adv-x="630" 
d="M258 310l-172 405h140l118 -295l202 295h135l-290 -414l-48 -301h-134zM348 901h105l92 -135h-85l-67 55l-82 -55h-89z" />
    <glyph glyph-name="ycircumflex" unicode="&#x177;" horiz-adv-x="537" 
d="M180 59l-125 464h124l81 -338l176 338h124l-391 -702h-124zM285 753h95l91 -151h-83l-66 68l-85 -68h-87z" />
    <glyph glyph-name="Ydieresis" unicode="&#x178;" horiz-adv-x="630" 
d="M258 310l-172 405h140l118 -295l202 295h135l-290 -414l-48 -301h-134zM293 777c-36 0 -66 28 -66 64s31 66 67 66s65 -29 65 -65c0 -35 -30 -65 -66 -65zM504 777c-36 0 -66 28 -66 64s30 66 67 66c36 0 65 -29 65 -65c0 -35 -30 -65 -66 -65z" />
    <glyph glyph-name="Zacute" unicode="&#x179;" horiz-adv-x="611" 
d="M-18 18l456 594h-325l16 103h517l-2 -17l-450 -593h344l-16 -105h-542zM393 901h138l-111 -135h-94z" />
    <glyph glyph-name="zacute" unicode="&#x17a;" horiz-adv-x="491" 
d="M-23 14l332 414h-241l14 95h423l-3 -17l-329 -409h260l-16 -97h-442zM322 756h136l-122 -155h-91z" />
    <glyph glyph-name="Zdotaccent" unicode="&#x17b;" horiz-adv-x="611" 
d="M-18 18l456 594h-325l16 103h517l-2 -17l-450 -593h344l-16 -105h-542zM389 775c-40 0 -71 29 -71 68s32 69 71 69c40 0 71 -29 71 -68s-32 -69 -71 -69z" />
    <glyph glyph-name="zdotaccent" unicode="&#x17c;" horiz-adv-x="491" 
d="M-23 14l332 414h-241l14 95h423l-3 -17l-329 -409h260l-16 -97h-442zM305 611c-40 0 -71 28 -71 67s32 70 72 70c39 0 70 -29 70 -68s-32 -69 -71 -69z" />
    <glyph glyph-name="Zcaron" unicode="&#x17d;" horiz-adv-x="611" 
d="M-18 18l456 594h-325l16 103h517l-2 -17l-450 -593h344l-16 -105h-542zM431 766h-105l-91 135h84l67 -55l82 55h90z" />
    <glyph glyph-name="zcaron" unicode="&#x17e;" horiz-adv-x="491" 
d="M-23 14l332 414h-241l14 95h423l-3 -17l-329 -409h260l-16 -97h-442zM337 602h-96l-90 151h82l66 -67l85 67h88z" />
    <glyph glyph-name="uni0192" unicode="&#x192;" horiz-adv-x="417" 
d="M50 414h92l27 141c21 116 95 169 195 169c40 0 60 -6 79 -14l-14 -92c-16 7 -31 10 -59 10c-45 0 -73 -28 -83 -83l-25 -131h126l-14 -90h-129l-94 -506h-120l94 506h-89z" />
    <glyph glyph-name="Aringacute" unicode="&#x1fa;" horiz-adv-x="689" 
d="M461 177h-273l-84 -177h-128l352 715h174l123 -715h-135zM234 274h212l-53 332zM424 800c29 0 51 23 51 56c0 32 -18 54 -49 54c-29 0 -51 -22 -51 -57c0 -31 18 -53 49 -53zM424 746c-62 0 -111 48 -111 107c0 62 52 111 113 111c62 0 111 -48 111 -108
c0 -61 -52 -110 -113 -110zM457 1123h138l-111 -135h-94z" />
    <glyph glyph-name="aringacute" unicode="&#x1fb;" horiz-adv-x="558" 
d="M188 -10c-104 0 -168 56 -168 147c0 132 113 174 262 174h92l4 28c11 68 -10 104 -83 104c-60 0 -94 -29 -106 -82h-116c24 126 125 173 227 173c136 0 220 -61 196 -208l-26 -167c-11 -68 -14 -115 -9 -159h-115c-4 27 -5 53 -2 76c-35 -53 -88 -86 -156 -86zM222 77
c68 0 121 38 132 111l7 47h-76c-100 0 -145 -23 -145 -88c0 -39 26 -70 82 -70zM333 629c29 0 51 24 51 57c0 31 -19 53 -48 53c-31 0 -52 -23 -52 -56c0 -32 18 -54 49 -54zM333 576c-61 0 -110 47 -110 107s52 109 113 109s110 -47 110 -106c0 -61 -52 -110 -113 -110z
M370 963h138l-111 -135h-94z" />
    <glyph glyph-name="AEacute" unicode="&#x1fc;" horiz-adv-x="975" 
d="M430 715h554l-17 -105h-309l-31 -196h250l-16 -100h-249l-34 -209h329l-16 -105h-462l29 183h-231l-113 -183h-134zM285 278h188l52 332h-34zM711 901h138l-111 -135h-94z" />
    <glyph glyph-name="aeacute" unicode="&#x1fd;" horiz-adv-x="891" 
d="M480 213c0 -81 33 -133 122 -133c65 0 103 28 120 80h115c-29 -113 -118 -170 -239 -170c-100 0 -168 38 -203 110c-36 -65 -98 -110 -197 -110c-112 0 -178 53 -178 145c0 132 117 179 266 179h89l4 26c11 68 -11 103 -84 103c-60 0 -96 -27 -107 -82h-117
c24 128 128 173 229 173c80 0 136 -23 163 -74c47 47 109 73 177 73c153 0 240 -94 213 -276l-4 -20h-369v-24zM221 77c68 0 122 36 134 112l7 47h-77c-99 0 -145 -24 -145 -91c0 -39 25 -68 81 -68zM635 446c-63 0 -121 -39 -144 -132h249c7 87 -24 132 -105 132zM514 756
h136l-122 -155h-91z" />
    <glyph glyph-name="Oslashacute" unicode="&#x1fe;" horiz-adv-x="818" 
d="M32 18l91 93c-41 52 -64 118 -64 197c0 236 166 416 393 416c84 0 154 -23 210 -63l79 80l48 -50l-76 -78c47 -55 72 -125 72 -208c0 -242 -167 -415 -392 -415c-88 0 -162 26 -221 71l-92 -94zM649 402c0 45 -9 85 -26 120l-367 -376c35 -33 83 -50 143 -50
c152 0 250 134 250 306zM195 311c0 -41 7 -76 20 -106l365 371c-33 27 -76 43 -131 43c-157 0 -254 -143 -254 -308zM487 901h138l-111 -135h-94z" />
    <glyph glyph-name="oslashacute" unicode="&#x1ff;" horiz-adv-x="603" 
d="M11 4l70 73c-31 39 -49 89 -49 149c0 176 124 307 288 307c59 0 110 -15 153 -44l66 70l44 -42l-66 -69c33 -39 50 -89 50 -150c0 -179 -119 -308 -289 -308c-60 0 -112 16 -153 45l-70 -73zM282 83c104 0 163 93 163 216c0 24 -3 45 -9 63l-241 -253
c21 -17 50 -26 87 -26zM153 226c0 -24 3 -45 9 -64l239 252c-21 17 -49 26 -85 26c-100 0 -163 -90 -163 -214zM359 756h136l-122 -155h-91z" />
    <glyph glyph-name="uni0218" unicode="&#x218;" horiz-adv-x="635" 
d="M306 -10c-187 0 -280 101 -280 232h128c3 -68 45 -132 157 -132c89 -1 138 42 138 114c0 53 -30 78 -133 107c-150 38 -219 86 -219 200c0 118 98 213 258 213c152 0 246 -70 247 -207h-122c-7 79 -57 107 -132 107c-84 0 -123 -42 -123 -101c0 -48 27 -70 134 -99
c149 -40 221 -88 221 -203c0 -134 -101 -231 -274 -231zM147 -198l63 165l110 -22l-105 -170z" />
    <glyph glyph-name="uni0219" unicode="&#x219;" horiz-adv-x="493" 
d="M230 -11c-140 0 -216 73 -216 174h114c3 -48 29 -84 106 -84c59 0 88 23 88 68c0 39 -23 54 -99 71c-117 27 -164 70 -164 153c0 108 94 163 203 163c113 0 192 -46 200 -158h-112c-3 43 -35 70 -91 70s-86 -23 -86 -63c0 -35 25 -50 97 -67c115 -27 171 -61 171 -159
c0 -106 -86 -168 -211 -168zM83 -198l63 165l110 -22l-105 -170z" />
    <glyph glyph-name="uni021A" unicode="&#x21a;" horiz-adv-x="588" 
d="M278 610h-199l17 105h532l-18 -105h-198l-96 -610h-134zM131 -198l63 165l110 -22l-105 -170z" />
    <glyph glyph-name="uni021B" unicode="&#x21b;" horiz-adv-x="364" 
d="M212 -9c-111 0 -158 63 -141 168l43 273h-70l14 91h70l19 115h121l-19 -115h113l-14 -91h-113l-43 -272c-8 -53 10 -70 53 -70c19 0 38 3 57 10l-15 -96c-21 -9 -46 -13 -75 -13zM44 -198l63 165l110 -22l-105 -170z" />
    <glyph glyph-name="uni0237" unicode="&#x237;" horiz-adv-x="275" 
d="M-54 -95c55 3 76 27 83 72l87 546h120l-88 -556c-13 -92 -70 -159 -216 -154z" />
    <glyph glyph-name="circumflex" unicode="&#x2c6;" horiz-adv-x="404" 
d="M228 753h95l91 -151h-83l-66 68l-85 -68h-87z" />
    <glyph glyph-name="caron" unicode="&#x2c7;" horiz-adv-x="404" 
d="M302 602h-96l-90 151h82l66 -67l85 67h88z" />
    <glyph glyph-name="breve" unicode="&#x2d8;" horiz-adv-x="404" 
d="M267 606c-84 0 -144 56 -141 143h83c4 -39 24 -58 59 -58c38 0 60 19 66 58h83c-9 -88 -71 -143 -150 -143z" />
    <glyph glyph-name="dotaccent" unicode="&#x2d9;" horiz-adv-x="404" 
d="M265 611c-40 0 -71 28 -71 67s32 70 72 70c39 0 70 -29 70 -68s-32 -69 -71 -69z" />
    <glyph glyph-name="ring" unicode="&#x2da;" horiz-adv-x="404" 
d="M267 643c29 0 51 24 51 57c0 31 -19 53 -48 53c-31 0 -52 -23 -52 -56c0 -32 18 -54 49 -54zM267 590c-61 0 -110 47 -110 107s52 109 113 109s110 -47 110 -106c0 -61 -52 -110 -113 -110z" />
    <glyph glyph-name="ogonek" unicode="&#x2db;" horiz-adv-x="404" 
d="M153 -182c-56 0 -104 20 -104 80c0 50 47 83 90 102h88c-27 -16 -72 -42 -72 -82c0 -19 11 -28 34 -28c15 0 28 3 40 8l-10 -68c-15 -5 -35 -12 -66 -12z" />
    <glyph glyph-name="tilde" unicode="&#x2dc;" horiz-adv-x="404" 
d="M320 606c-51 0 -83 40 -113 40c-19 0 -35 -16 -42 -40h-74c15 85 59 131 115 131c49 0 83 -39 114 -39c19 0 33 15 40 40h75c-15 -87 -59 -132 -115 -132z" />
    <glyph glyph-name="hungarumlaut" unicode="&#x2dd;" horiz-adv-x="404" 
d="M186 756h113l-91 -155h-79zM349 756h113l-91 -155h-79z" />
    <glyph glyph-name="uni037E" unicode="&#x37e;" horiz-adv-x="303" 
d="M-25 -89l113 236l108 -46l-152 -224zM177 285c-44 0 -79 35 -79 79s34 78 78 78c45 0 81 -34 81 -78s-35 -79 -80 -79z" />
    <glyph glyph-name="tonos" unicode="&#x384;" horiz-adv-x="400" 
d="M277 756h136l-122 -155h-91z" />
    <glyph glyph-name="dieresistonos" unicode="&#x385;" horiz-adv-x="400" 
d="M216 779h111l-101 -159h-74zM367 616c-35 0 -62 26 -62 61c0 33 27 61 62 61s62 -28 62 -61c0 -35 -27 -61 -62 -61zM77 616c-35 0 -63 26 -63 61c0 33 28 61 63 61s62 -28 62 -61c0 -35 -27 -61 -62 -61z" />
    <glyph glyph-name="Alphatonos" unicode="&#x386;" horiz-adv-x="684" 
d="M461 177h-273l-84 -177h-128l352 715h174l123 -715h-135zM234 274h212l-53 332zM92 715h136l-122 -155h-91z" />
    <glyph glyph-name="anoteleia" unicode="&#x387;" horiz-adv-x="289" 
d="M153 248c-44 0 -79 35 -79 79s34 78 78 78c45 0 81 -34 81 -78s-35 -79 -80 -79z" />
    <glyph glyph-name="Epsilontonos" unicode="&#x388;" horiz-adv-x="588" 
d="M153 715h444l-17 -105h-311l-31 -196h252l-15 -100h-252l-34 -209h332l-17 -105h-464zM-34 715h136l-122 -155h-91z" />
    <glyph glyph-name="Etatonos" unicode="&#x389;" horiz-adv-x="751" 
d="M153 715h133l-48 -304h320l49 304h134l-113 -715h-134l48 304h-321l-48 -304h-133zM-34 715h136l-122 -155h-91z" />
    <glyph glyph-name="Iotatonos" unicode="&#x38a;" horiz-adv-x="308" 
d="M157 715h134l-113 -715h-134zM-34 715h136l-122 -155h-91z" />
    <glyph glyph-name="Omicrontonos" unicode="&#x38c;" horiz-adv-x="814" 
d="M785 405c0 -242 -167 -415 -392 -415c-195 0 -334 127 -334 318c0 236 166 417 393 417c203 0 333 -134 333 -320zM647 402c0 119 -67 217 -198 217c-158 0 -252 -144 -252 -308c0 -132 80 -215 202 -215c152 0 248 136 248 306zM18 715h136l-122 -155h-91z" />
    <glyph glyph-name="Upsilontonos" unicode="&#x38e;" horiz-adv-x="626" 
d="M258 310l-172 405h140l118 -295l202 295h135l-290 -414l-48 -301h-134zM-77 715h136l-122 -155h-91z" />
    <glyph glyph-name="Omegatonos" unicode="&#x38f;" horiz-adv-x="825" 
d="M452 619c-167 0 -255 -139 -255 -295c0 -116 57 -199 150 -263l-10 -61h-313l15 100h131c-56 40 -109 127 -109 235c0 210 165 389 393 389c213 0 336 -145 336 -317c0 -119 -50 -238 -153 -307h124l-15 -100h-301l9 61c117 67 198 189 198 337c0 117 -60 221 -200 221z
M17 715h136l-122 -155h-91z" />
    <glyph glyph-name="iotadieresistonos" unicode="&#x390;" horiz-adv-x="271" 
d="M116 523h120l-82 -523h-121zM209 779h111l-101 -159h-74zM360 616c-35 0 -62 26 -62 61c0 33 27 61 62 61s62 -28 62 -61c0 -35 -27 -61 -62 -61zM70 616c-35 0 -63 26 -63 61c0 33 28 61 63 61s62 -28 62 -61c0 -35 -27 -61 -62 -61z" />
    <glyph glyph-name="Alpha" unicode="&#x391;" horiz-adv-x="684" 
d="M461 177h-273l-84 -177h-128l352 715h174l123 -715h-135zM234 274h212l-53 332z" />
    <glyph glyph-name="Beta" unicode="&#x392;" horiz-adv-x="644" 
d="M153 715h237c145 0 218 -58 217 -170c0 -92 -48 -149 -137 -174c77 -19 122 -67 123 -154c0 -132 -103 -217 -261 -217h-292zM320 95c96 0 143 52 143 128c0 67 -37 101 -130 101h-112l-37 -229h136zM346 414c91 0 136 39 136 118c0 61 -33 88 -109 88h-105l-33 -206h111
z" />
    <glyph glyph-name="Gamma" unicode="&#x393;" horiz-adv-x="545" 
d="M153 715h436l-16 -105h-304l-96 -610h-133z" />
    <glyph glyph-name="uni0394" unicode="&#x394;" horiz-adv-x="695" 
d="M-16 18l344 697h185l119 -697l-3 -18h-647zM153 107h333l-85 515z" />
    <glyph glyph-name="Epsilon" unicode="&#x395;" horiz-adv-x="588" 
d="M153 715h444l-17 -105h-311l-31 -196h252l-15 -100h-252l-34 -209h332l-17 -105h-464z" />
    <glyph glyph-name="Zeta" unicode="&#x396;" horiz-adv-x="607" 
d="M-18 18l456 594h-325l16 103h517l-2 -17l-450 -593h344l-16 -105h-542z" />
    <glyph glyph-name="Eta" unicode="&#x397;" horiz-adv-x="751" 
d="M153 715h133l-48 -304h320l49 304h134l-113 -715h-134l48 304h-321l-48 -304h-133z" />
    <glyph glyph-name="Theta" unicode="&#x398;" horiz-adv-x="820" 
d="M791 406c0 -245 -168 -416 -394 -416c-208 0 -338 133 -338 318c0 239 170 416 397 416c209 0 335 -134 335 -318zM654 401c0 124 -70 220 -201 220c-160 0 -257 -146 -257 -308c0 -136 83 -218 206 -218c152 0 252 134 252 306zM309 408h245l-14 -94h-246z" />
    <glyph glyph-name="Iota" unicode="&#x399;" horiz-adv-x="308" 
d="M157 715h134l-113 -715h-134z" />
    <glyph glyph-name="Kappa" unicode="&#x39a;" horiz-adv-x="659" 
d="M153 715h133l-51 -320l325 320h148l-354 -344l249 -371h-146l-230 344l-54 -344h-133z" />
    <glyph glyph-name="Lambda" unicode="&#x39b;" horiz-adv-x="674" 
d="M613 0h-135l-96 578l-278 -578h-128l353 715h157z" />
    <glyph glyph-name="Mu" unicode="&#x39c;" horiz-adv-x="889" 
d="M153 715h173l111 -487l261 487h181l-113 -715h-133l85 541l-298 -541h-43l-131 541l-86 -541h-120z" />
    <glyph glyph-name="Nu" unicode="&#x39d;" horiz-adv-x="745" 
d="M153 715h159l218 -517l82 517h122l-113 -715h-138l-235 548l-86 -548h-122z" />
    <glyph glyph-name="Xi" unicode="&#x39e;" 
d="M613 715l-18 -109h-500l17 109h501zM520 411l-17 -104h-406l17 104h406zM15 110h514l-17 -110h-515z" />
    <glyph glyph-name="Omicron" unicode="&#x39f;" horiz-adv-x="814" 
d="M785 405c0 -242 -167 -415 -392 -415c-195 0 -334 127 -334 318c0 236 166 417 393 417c203 0 333 -134 333 -320zM647 402c0 119 -67 217 -198 217c-158 0 -252 -144 -252 -308c0 -132 80 -215 202 -215c152 0 248 136 248 306z" />
    <glyph glyph-name="Pi" unicode="&#x3a0;" horiz-adv-x="741" 
d="M153 715h577l-113 -715h-133l96 606h-311l-96 -606h-133z" />
    <glyph glyph-name="Rho" unicode="&#x3a1;" horiz-adv-x="609" 
d="M153 715h222c147 0 237 -68 237 -193c0 -176 -128 -250 -283 -250h-113l-43 -272h-133zM329 368c103 0 154 52 154 144c0 67 -41 101 -123 101h-90l-39 -245h98z" />
    <glyph glyph-name="Sigma" unicode="&#x3a3;" horiz-adv-x="591" 
d="M185 109h341l-18 -109h-498l14 88l252 278l-167 243l17 106h475l-16 -104h-330l166 -243z" />
    <glyph glyph-name="Tau" unicode="&#x3a4;" horiz-adv-x="583" 
d="M278 610h-199l17 105h532l-18 -105h-198l-96 -610h-134z" />
    <glyph glyph-name="Upsilon" unicode="&#x3a5;" horiz-adv-x="626" 
d="M258 310l-172 405h140l118 -295l202 295h135l-290 -414l-48 -301h-134z" />
    <glyph glyph-name="Phi" unicode="&#x3a6;" horiz-adv-x="898" 
d="M476 48l-11 -71h-123l11 73c-192 16 -294 138 -294 279c0 204 171 343 393 343l10 66h124l-11 -68c191 -13 296 -132 296 -275c0 -209 -171 -344 -392 -347h-3zM192 337c0 -100 58 -171 177 -186l67 422c-130 -8 -244 -86 -244 -236zM738 389c0 93 -52 169 -179 182
l-67 -422c133 8 246 88 246 240z" />
    <glyph glyph-name="Chi" unicode="&#x3a7;" horiz-adv-x="652" 
d="M264 374l-157 341h141l115 -257l188 257h138l-263 -352l168 -363h-144l-125 281l-208 -281h-139z" />
    <glyph glyph-name="Psi" unicode="&#x3a8;" horiz-adv-x="827" 
d="M789 446c-24 -161 -117 -263 -331 -268l-11 -74l-17 -104h-123l28 179c-153 16 -249 99 -249 247c0 13 2 43 5 64l35 225h130l-36 -224c-3 -19 -6 -45 -6 -57c0 -83 38 -140 137 -151l68 432h124c-8 -48 -24 -155 -40 -252l-28 -181c105 7 172 52 191 173l41 260h123z
" />
    <glyph glyph-name="uni03A9" unicode="&#x3a9;" horiz-adv-x="825" 
d="M452 619c-167 0 -255 -139 -255 -295c0 -116 57 -199 150 -263l-10 -61h-313l15 100h131c-56 40 -109 127 -109 235c0 210 165 389 393 389c213 0 336 -145 336 -317c0 -119 -50 -238 -153 -307h124l-15 -100h-301l9 61c117 67 198 189 198 337c0 117 -60 221 -200 221z
" />
    <glyph glyph-name="Iotadieresis" unicode="&#x3aa;" horiz-adv-x="308" 
d="M157 715h134l-113 -715h-134zM138 777c-36 0 -66 28 -66 64s31 66 67 66s65 -29 65 -65c0 -35 -30 -65 -66 -65zM349 777c-36 0 -66 28 -66 64s30 66 67 66c36 0 65 -29 65 -65c0 -35 -30 -65 -66 -65z" />
    <glyph glyph-name="Upsilondieresis" unicode="&#x3ab;" horiz-adv-x="626" 
d="M258 310l-172 405h140l118 -295l202 295h135l-290 -414l-48 -301h-134zM293 777c-36 0 -66 28 -66 64s31 66 67 66s65 -29 65 -65c0 -35 -30 -65 -66 -65zM504 777c-36 0 -66 28 -66 64s30 66 67 66c36 0 65 -29 65 -65c0 -35 -30 -65 -66 -65z" />
    <glyph glyph-name="alphatonos" unicode="&#x3ac;" horiz-adv-x="615" 
d="M310 440c-97 0 -152 -89 -152 -212c0 -89 39 -144 119 -144c87 0 155 86 155 215c0 87 -49 141 -122 141zM235 -10c-120 0 -203 88 -203 229c0 180 103 315 258 315c92 0 138 -49 162 -101l14 90h121l-57 -364c-11 -71 -14 -115 -11 -159h-118c-3 27 -1 63 2 92
c-37 -64 -91 -102 -168 -102zM382 756h136l-122 -155h-91z" />
    <glyph glyph-name="epsilontonos" unicode="&#x3ad;" horiz-adv-x="556" 
d="M415 374c-3 32 -22 71 -111 71c-45 0 -121 -10 -121 -77c0 -27 19 -58 78 -58h103l-13 -82h-98c-46 0 -103 -20 -103 -81c0 -51 54 -67 117 -67c84 0 125 31 136 82h111c-19 -112 -113 -172 -261 -172c-145 0 -226 54 -226 142c0 72 55 128 127 141c-51 9 -90 51 -90 102
c0 116 123 158 239 158c153 0 217 -74 225 -159h-113zM367 756h136l-122 -155h-91z" />
    <glyph glyph-name="etatonos" unicode="&#x3ae;" 
d="M382 756h136l-122 -155h-91zM87 361c11 73 13 117 16 162h116c0 -28 -2 -65 -6 -98c37 64 97 109 182 109c105 0 174 -62 150 -220l-79 -493h-121l80 499c12 76 -14 114 -78 114c-76 0 -134 -48 -149 -136l-48 -298h-120z" />
    <glyph glyph-name="iotatonos" unicode="&#x3af;" horiz-adv-x="271" 
d="M221 756h136l-122 -155h-91zM116 523h120l-82 -523h-121z" />
    <glyph glyph-name="upsilondieresistonos" unicode="&#x3b0;" horiz-adv-x="593" 
d="M179 227c-13 -83 9 -142 92 -142c75 0 111 41 123 116l51 322h121l-52 -326c-24 -146 -118 -207 -247 -207c-146 0 -231 95 -207 247l44 286h121zM350 779h111l-101 -159h-74zM501 616c-35 0 -62 26 -62 61c0 33 27 61 62 61s62 -28 62 -61c0 -35 -27 -61 -62 -61z
M211 616c-35 0 -63 26 -63 61c0 33 28 61 63 61s62 -28 62 -61c0 -35 -27 -61 -62 -61z" />
    <glyph glyph-name="alpha" unicode="&#x3b1;" horiz-adv-x="615" 
d="M310 440c-97 0 -152 -89 -152 -212c0 -89 39 -144 119 -144c87 0 155 86 155 215c0 87 -49 141 -122 141zM235 -10c-120 0 -203 88 -203 229c0 180 103 315 258 315c92 0 138 -49 162 -101l14 90h121l-57 -364c-11 -71 -14 -115 -11 -159h-118c-3 27 -1 63 2 92
c-37 -64 -91 -102 -168 -102z" />
    <glyph glyph-name="beta" unicode="&#x3b2;" horiz-adv-x="623" 
d="M189 243c-13 -85 41 -160 130 -160c74 0 137 60 137 152c0 83 -53 130 -153 123l15 92c81 0 165 38 165 134c0 60 -38 96 -107 96c-75 0 -124 -47 -139 -135zM122 -179h-121l115 727c21 141 124 223 260 223c113 0 217 -55 217 -180c0 -85 -63 -165 -152 -184
c80 -21 138 -86 138 -179c0 -126 -88 -239 -241 -239c-76 0 -143 40 -171 108z" />
    <glyph glyph-name="gamma" unicode="&#x3b3;" horiz-adv-x="553" 
d="M460 523h124l-288 -516l-30 -186h-120l29 186l-125 516h126l82 -379z" />
    <glyph glyph-name="delta" unicode="&#x3b4;" horiz-adv-x="599" 
d="M565 670h-257l160 -184c56 -64 95 -121 95 -206c0 -156 -114 -290 -285 -290c-145 0 -245 93 -245 240c0 134 92 266 246 266c11 0 28 -1 43 -5l-172 196l13 78h417zM155 224c0 -85 40 -140 127 -140c101 0 158 95 158 194c0 84 -48 139 -127 139
c-100 0 -158 -92 -158 -193z" />
    <glyph glyph-name="epsilon" unicode="&#x3b5;" horiz-adv-x="556" 
d="M415 374c-3 32 -22 71 -111 71c-45 0 -121 -10 -121 -77c0 -27 19 -58 78 -58h103l-13 -82h-98c-46 0 -103 -20 -103 -81c0 -51 54 -67 117 -67c84 0 125 31 136 82h111c-19 -112 -113 -172 -261 -172c-145 0 -226 54 -226 142c0 72 55 128 127 141c-51 9 -90 51 -90 102
c0 116 123 158 239 158c153 0 217 -74 225 -159h-113z" />
    <glyph glyph-name="zeta" unicode="&#x3b6;" horiz-adv-x="501" 
d="M452 -2c0 -44 -25 -102 -46 -149h-98c13 31 33 81 33 111c0 27 -18 40 -53 40h-63c-117 0 -195 76 -195 180c0 184 174 373 319 483h-218l16 102h424l-5 -29c-237 -195 -412 -369 -412 -537c0 -64 45 -98 102 -98h65c91 0 131 -40 131 -103z" />
    <glyph glyph-name="eta" unicode="&#x3b7;" 
d="M87 361c11 73 13 117 16 162h116c0 -28 -2 -65 -6 -98c37 64 97 109 182 109c105 0 174 -62 150 -220l-79 -493h-121l80 499c12 76 -14 114 -78 114c-76 0 -134 -48 -149 -136l-48 -298h-120z" />
    <glyph glyph-name="theta" unicode="&#x3b8;" horiz-adv-x="620" 
d="M587 520c0 -104 -22 -241 -67 -342c-55 -121 -137 -188 -258 -188c-139 0 -209 89 -209 252c0 131 28 304 110 418c51 72 126 111 218 111c139 0 206 -84 206 -251zM373 678c-46 0 -85 -21 -116 -64c-30 -41 -53 -102 -68 -183h274c5 33 7 65 7 92c0 104 -25 155 -97 155
zM269 82c45 0 83 22 114 67c30 43 52 106 66 190h-275c-4 -36 -6 -72 -6 -101c0 -104 28 -156 101 -156z" />
    <glyph glyph-name="iota" unicode="&#x3b9;" horiz-adv-x="271" 
d="M116 523h120l-82 -523h-121z" />
    <glyph glyph-name="kappa" unicode="&#x3ba;" horiz-adv-x="541" 
d="M195 285l230 238h137l-250 -251l175 -272h-131l-166 256l-40 -256h-120l82 523h121z" />
    <glyph glyph-name="lambda" unicode="&#x3bb;" horiz-adv-x="553" 
d="M93 0h-127l280 520l-22 108c-7 32 -26 48 -57 48c-19 0 -46 -5 -65 -10l16 91c27 9 60 14 91 14c65 0 110 -31 127 -119l101 -516c5 -23 16 -43 43 -43c12 0 27 2 39 5l-16 -95c-17 -5 -40 -9 -63 -9c-57 0 -99 28 -111 100l-49 282z" />
    <glyph glyph-name="uni03BC" unicode="&#x3bc;" horiz-adv-x="606" 
d="M516 159c-11 -71 -14 -116 -11 -159h-117c-3 27 0 63 3 95c-31 -60 -84 -99 -149 -99c-33 0 -65 10 -85 42l-36 -217h-120l111 702h121l-52 -327c-12 -76 17 -111 77 -111c72 0 134 51 147 134l48 304h121z" />
    <glyph glyph-name="nu" unicode="&#x3bd;" horiz-adv-x="540" 
d="M55 523h126l68 -402l195 402h123l-269 -523h-141z" />
    <glyph glyph-name="xi" unicode="&#x3be;" horiz-adv-x="529" 
d="M114 674l15 91h435l-16 -97h-122c-88 0 -178 -36 -178 -128c0 -49 45 -88 114 -88h117l-16 -99h-134c-95 0 -177 -51 -177 -150c0 -75 56 -102 122 -102h59c91 0 131 -40 131 -103c0 -44 -24 -102 -47 -149h-97c13 31 33 81 33 111c0 27 -18 40 -53 40h-48
c-120 0 -223 62 -223 188c0 113 74 190 186 222c-56 23 -88 71 -88 120c0 68 39 120 112 144h-125z" />
    <glyph glyph-name="omicron" unicode="&#x3bf;" horiz-adv-x="599" 
d="M279 -10c-144 0 -246 91 -246 235c0 176 122 308 287 308c144 0 247 -87 247 -234c0 -180 -119 -309 -288 -309zM282 84c104 0 161 93 161 216c0 84 -43 139 -127 139c-100 0 -161 -92 -161 -214c0 -83 39 -141 127 -141z" />
    <glyph glyph-name="pi" unicode="&#x3c0;" horiz-adv-x="624" 
d="M500 159c-11 -71 -15 -116 -12 -159h-119c-3 37 0 95 9 151l44 279h-188l-68 -430h-120l68 430h-72l15 93h572l-15 -93h-71z" />
    <glyph glyph-name="rho" unicode="&#x3c1;" horiz-adv-x="619" 
d="M301 83c107 0 158 85 158 214c0 87 -37 143 -118 143c-107 0 -170 -97 -170 -214c0 -89 54 -143 130 -143zM107 -179h-120l74 470c24 143 131 243 278 243s244 -88 244 -235c0 -174 -96 -308 -274 -308c-69 0 -131 37 -160 92z" />
    <glyph glyph-name="uni03C2" unicode="&#x3c2;" horiz-adv-x="563" 
d="M330 99c91 0 134 -38 134 -101c0 -44 -24 -102 -45 -149h-98c13 31 33 81 33 111c0 27 -18 40 -53 40h-33c-143 0 -235 89 -235 230c0 190 125 303 280 303c124 0 217 -60 225 -196h-114c-8 76 -51 100 -115 100c-92 0 -154 -78 -154 -203c0 -79 39 -135 132 -135h43z
" />
    <glyph glyph-name="sigma" unicode="&#x3c3;" horiz-adv-x="633" 
d="M276 -10c-139 0 -244 91 -244 235c0 162 104 298 287 298h313l-15 -93h-130c47 -29 77 -81 77 -145c0 -161 -113 -295 -288 -295zM280 84c111 0 163 102 163 214c0 87 -54 134 -130 134c-108 0 -158 -92 -158 -208c0 -84 40 -140 125 -140z" />
    <glyph glyph-name="tau" unicode="&#x3c4;" horiz-adv-x="477" 
d="M288 -7c-112 0 -156 64 -139 173l41 264h-153l15 93h430l-15 -93h-156l-41 -257c-9 -55 0 -84 55 -84c23 0 53 3 72 10l-15 -95c-23 -7 -51 -11 -94 -11z" />
    <glyph glyph-name="upsilon" unicode="&#x3c5;" horiz-adv-x="593" 
d="M179 227c-13 -83 9 -142 92 -142c75 0 111 41 123 116l51 322h121l-52 -326c-24 -146 -118 -207 -247 -207c-146 0 -231 95 -207 247l44 286h121z" />
    <glyph glyph-name="phi" unicode="&#x3c6;" horiz-adv-x="763" 
d="M430 534c194 0 302 -106 302 -237c0 -184 -132 -296 -329 -304l-27 -172h-120l28 173c-136 11 -252 90 -252 241c0 152 97 274 254 295l-8 -92c-80 -27 -125 -112 -125 -199c0 -96 49 -140 146 -155l70 446c16 3 34 4 61 4zM417 84c127 5 193 88 193 217
c0 77 -50 128 -137 139z" />
    <glyph glyph-name="chi" unicode="&#x3c7;" horiz-adv-x="555" 
d="M249 82l-167 -261h-127l251 368l-75 212c-9 25 -27 34 -48 34c-11 0 -23 -3 -38 -8l15 92c22 9 45 13 68 13c52 0 86 -17 105 -73l61 -177l147 241h131l-235 -350l77 -214c12 -33 25 -45 52 -45c9 0 21 1 32 4l-15 -93c-23 -7 -48 -10 -65 -10c-55 0 -86 29 -109 93z" />
    <glyph glyph-name="psi" unicode="&#x3c8;" horiz-adv-x="759" 
d="M174 259c-13 -84 9 -159 118 -172l69 436h120l-70 -437c112 11 158 78 171 162l44 275h120l-45 -278c-25 -155 -121 -240 -304 -249l-27 -175h-120l28 177c-170 16 -247 125 -223 270l41 255h121z" />
    <glyph glyph-name="omega" unicode="&#x3c9;" horiz-adv-x="774" 
d="M437 191c-12 -76 16 -107 64 -107c91 0 116 132 116 207c0 72 -14 134 -100 150l15 92c141 -16 208 -110 208 -242c0 -144 -71 -301 -232 -301c-83 0 -127 47 -142 106c-27 -60 -74 -106 -157 -106c-116 0 -177 91 -177 208c0 174 93 319 288 335l-15 -92
c-111 -21 -151 -139 -151 -246c0 -60 20 -111 71 -111c47 0 83 40 94 111l23 155h120z" />
    <glyph glyph-name="iotadieresis" unicode="&#x3ca;" horiz-adv-x="271" 
d="M116 523h120l-82 -523h-121zM98 613c-37 0 -66 28 -66 64s30 66 67 66c36 0 65 -29 65 -65c0 -35 -30 -65 -66 -65zM295 613c-36 0 -65 28 -65 64s30 66 66 66c37 0 65 -29 65 -65c0 -35 -29 -65 -66 -65z" />
    <glyph glyph-name="upsilondieresis" unicode="&#x3cb;" horiz-adv-x="593" 
d="M179 227c-13 -83 9 -142 92 -142c75 0 111 41 123 116l51 322h121l-52 -326c-24 -146 -118 -207 -247 -207c-146 0 -231 95 -207 247l44 286h121zM252 613c-37 0 -66 28 -66 64s30 66 67 66c36 0 65 -29 65 -65c0 -35 -30 -65 -66 -65zM449 613c-36 0 -65 28 -65 64
s30 66 66 66c37 0 65 -29 65 -65c0 -35 -29 -65 -66 -65z" />
    <glyph glyph-name="omicrontonos" unicode="&#x3cc;" horiz-adv-x="600" 
d="M382 756h136l-122 -155h-91zM279 -10c-144 0 -246 91 -246 235c0 176 122 308 287 308c144 0 247 -87 247 -234c0 -180 -119 -309 -288 -309zM282 84c104 0 161 93 161 216c0 84 -43 139 -127 139c-100 0 -161 -92 -161 -214c0 -83 39 -141 127 -141z" />
    <glyph glyph-name="upsilontonos" unicode="&#x3cd;" horiz-adv-x="593" 
d="M179 227c-13 -83 9 -142 92 -142c75 0 111 41 123 116l51 322h121l-52 -326c-24 -146 -118 -207 -247 -207c-146 0 -231 95 -207 247l44 286h121zM374 756h136l-122 -155h-91z" />
    <glyph glyph-name="omegatonos" unicode="&#x3ce;" horiz-adv-x="774" 
d="M437 191c-12 -76 16 -107 64 -107c91 0 116 132 116 207c0 72 -14 134 -100 150l15 92c141 -16 208 -110 208 -242c0 -144 -71 -301 -232 -301c-83 0 -127 47 -142 106c-27 -60 -74 -106 -157 -106c-116 0 -177 91 -177 208c0 174 93 319 288 335l-15 -92
c-111 -21 -151 -139 -151 -246c0 -60 20 -111 71 -111c47 0 83 40 94 111l23 155h120zM472 756h136l-122 -155h-91z" />
    <glyph glyph-name="uni0401" unicode="&#x401;" horiz-adv-x="589" 
d="M153 715h444l-17 -105h-311l-31 -196h252l-15 -100h-252l-34 -209h332l-17 -105h-464zM281 777c-36 0 -66 28 -66 64s31 66 67 66s65 -29 65 -65c0 -35 -30 -65 -66 -65zM492 777c-36 0 -66 28 -66 64s30 66 67 66c36 0 65 -29 65 -65c0 -35 -30 -65 -66 -65z" />
    <glyph glyph-name="uni0402" unicode="&#x402;" horiz-adv-x="797" 
d="M536 -12c-49 0 -77 9 -93 16l15 97c9 -3 35 -9 62 -9c60 0 102 41 102 133c0 65 -34 110 -118 110c-80 0 -125 -36 -144 -52l-44 -283h-134l96 610h-199l17 105h538l-17 -105h-205l-34 -212c36 23 87 42 152 42c156 0 224 -86 224 -208c0 -160 -98 -244 -218 -244z" />
    <glyph glyph-name="uni0403" unicode="&#x403;" horiz-adv-x="554" 
d="M378 901h138l-111 -135h-94zM153 715h431l-17 -106h-298l-95 -609h-134z" />
    <glyph glyph-name="uni0404" unicode="&#x404;" horiz-adv-x="741" 
d="M712 250c-35 -165 -163 -260 -323 -260c-203 0 -330 117 -330 318c0 234 154 418 387 418c160 0 277 -84 285 -250h-131c-13 95 -61 145 -158 145c-125 0 -207 -88 -234 -212h312l-16 -103h-307c1 -3 1 -15 2 -18c5 -121 66 -192 191 -192c99 0 164 58 192 154h130z" />
    <glyph glyph-name="uni0405" unicode="&#x405;" horiz-adv-x="635" 
d="M306 -10c-187 0 -280 101 -280 232h128c3 -68 45 -132 157 -132c89 -1 138 42 138 114c0 53 -30 78 -133 107c-150 38 -219 86 -219 200c0 118 98 213 258 213c152 0 246 -70 247 -207h-122c-7 79 -57 107 -132 107c-84 0 -123 -42 -123 -101c0 -48 27 -70 134 -99
c149 -40 221 -88 221 -203c0 -134 -101 -231 -274 -231z" />
    <glyph glyph-name="uni0406" unicode="&#x406;" horiz-adv-x="308" 
d="M157 715h134l-113 -715h-134z" />
    <glyph glyph-name="uni0407" unicode="&#x407;" horiz-adv-x="308" 
d="M157 715h134l-113 -715h-134zM138 777c-36 0 -66 28 -66 64s31 66 67 66s65 -29 65 -65c0 -35 -30 -65 -66 -65zM349 777c-36 0 -66 28 -66 64s30 66 67 66c36 0 65 -29 65 -65c0 -35 -30 -65 -66 -65z" />
    <glyph glyph-name="uni0408" unicode="&#x408;" horiz-adv-x="443" 
d="M126 -9c-73 0 -107 16 -130 28l16 102c25 -11 54 -23 98 -23c64 0 104 31 116 111l80 506h134l-82 -514c-24 -146 -110 -210 -232 -210z" />
    <glyph glyph-name="uni0409" unicode="&#x409;" horiz-adv-x="1010" 
d="M335 608c-16 -66 -50 -234 -82 -354c-45 -175 -107 -262 -219 -262c-45 0 -62 11 -63 11l17 106l8 -3c6 -2 16 -3 29 -3c52 0 84 58 119 191c19 72 43 175 62 264l34 157h452l-44 -282h84c141 0 239 -59 239 -198c0 -160 -123 -235 -273 -235h-250l96 608h-209zM689 96
c100 0 152 53 152 141c0 67 -41 100 -124 100h-84l-38 -241h94z" />
    <glyph glyph-name="uni040A" unicode="&#x40a;" horiz-adv-x="1043" 
d="M723 96c101 0 152 42 152 127c0 63 -42 94 -125 94h-85l-36 -221h94zM40 0l113 715h134l-49 -304h309l48 304h131l-47 -302h87c141 0 239 -56 239 -192c0 -156 -123 -221 -273 -221h-250l48 304h-309l-47 -304h-134z" />
    <glyph glyph-name="uni040B" unicode="&#x40b;" horiz-adv-x="803" 
d="M501 333c-91 0 -134 -47 -142 -58l-43 -275h-134l96 610h-199l17 105h538l-17 -105h-205l-34 -212c36 23 87 42 152 42c171 0 240 -104 213 -269l-27 -171h-133l27 172c17 105 -13 161 -109 161z" />
    <glyph glyph-name="uni040C" unicode="&#x40c;" horiz-adv-x="659" 
d="M153 715h133l-51 -320l325 320h148l-354 -344l249 -371h-146l-230 344l-54 -344h-133zM426 901h138l-111 -135h-94z" />
    <glyph glyph-name="uni040D" unicode="&#x40d;" horiz-adv-x="749" 
d="M40 0l113 715h133l-82 -524l415 524h132l-113 -715h-133l83 524l-416 -524h-132zM337 901h134l37 -135h-88z" />
    <glyph glyph-name="uni040E" unicode="&#x40e;" horiz-adv-x="619" 
d="M379 762c-88 0 -146 55 -147 140h91c3 -41 18 -69 57 -69s57 28 64 69h89c-9 -87 -74 -140 -154 -140zM156 -7c-21 0 -39 2 -52 5c-7 1 -14 3 -19 5l16 105c7 -1 25 -7 46 -7c41 0 77 24 107 73l-182 541h137l123 -399l211 399h135l-298 -537
c-69 -125 -126 -185 -224 -185z" />
    <glyph glyph-name="uni040F" unicode="&#x40f;" horiz-adv-x="741" 
d="M40 0l113 715h133l-96 -608h311l96 608h134l-113 -715h-231l-25 -130h-109l16 130h-229z" />
    <glyph glyph-name="uni0410" unicode="&#x410;" horiz-adv-x="685" 
d="M461 177h-273l-84 -177h-128l352 715h174l123 -715h-135zM234 274h212l-53 332z" />
    <glyph glyph-name="uni0411" unicode="&#x411;" horiz-adv-x="614" 
d="M573 235c0 -165 -123 -235 -274 -235h-259l113 715h439l-17 -106h-308l-30 -186h97c141 0 239 -56 239 -188zM290 96c101 0 152 45 152 134c0 71 -39 97 -124 97h-96l-36 -231h104z" />
    <glyph glyph-name="uni0412" unicode="&#x412;" horiz-adv-x="644" 
d="M153 715h237c145 0 218 -58 217 -170c0 -92 -48 -149 -137 -174c77 -19 122 -67 123 -154c0 -132 -103 -217 -261 -217h-292zM320 95c96 0 143 52 143 128c0 67 -37 101 -130 101h-112l-37 -229h136zM346 414c91 0 136 39 136 118c0 61 -33 88 -109 88h-105l-33 -206h111
z" />
    <glyph glyph-name="uni0413" unicode="&#x413;" horiz-adv-x="554" 
d="M153 715h431l-17 -106h-298l-95 -609h-134z" />
    <glyph glyph-name="uni0414" unicode="&#x414;" horiz-adv-x="737" 
d="M252 299c-25 -91 -50 -152 -81 -192h301l78 501h-217c-16 -66 -57 -224 -81 -309zM58 -130h-115l38 237h43c51 21 79 85 111 201c19 61 45 164 66 250l39 157h461l-96 -608h105l-38 -237h-115l16 130h-489z" />
    <glyph glyph-name="uni0415" unicode="&#x415;" horiz-adv-x="589" 
d="M153 715h444l-17 -105h-311l-31 -196h252l-15 -100h-252l-34 -209h332l-17 -105h-464z" />
    <glyph glyph-name="uni0416" unicode="&#x416;" horiz-adv-x="915" 
d="M406 345l-313 -345h-149l353 385l-202 330h133l185 -324l51 324h131l-51 -324l291 324h145l-324 -346l219 -369h-138l-200 347l-55 -347h-131z" />
    <glyph glyph-name="uni0417" unicode="&#x417;" horiz-adv-x="630" 
d="M299 -10c-148 0 -266 86 -269 246h125c7 -92 60 -145 149 -145c96 0 140 56 143 124c3 69 -36 103 -123 103h-84l16 98h85c84 0 128 39 129 104c1 64 -36 105 -113 105c-85 0 -127 -57 -143 -122h-123c24 135 118 223 275 223c141 0 233 -75 230 -192
c-3 -80 -52 -143 -136 -163c73 -23 119 -74 115 -165c-5 -124 -109 -216 -276 -216z" />
    <glyph glyph-name="uni0418" unicode="&#x418;" horiz-adv-x="749" 
d="M40 0l113 715h133l-82 -524l415 524h132l-113 -715h-133l83 524l-416 -524h-132z" />
    <glyph glyph-name="uni0419" unicode="&#x419;" horiz-adv-x="749" 
d="M459 762c-88 0 -145 55 -146 140h90c4 -41 20 -69 57 -69c39 0 59 28 64 69h90c-8 -85 -76 -140 -155 -140zM40 0l113 715h133l-82 -524l415 524h132l-113 -715h-133l83 524l-416 -524h-132z" />
    <glyph glyph-name="uni041A" unicode="&#x41a;" horiz-adv-x="659" 
d="M153 715h133l-51 -320l325 320h148l-354 -344l249 -371h-146l-230 344l-54 -344h-133z" />
    <glyph glyph-name="uni041B" unicode="&#x41b;" horiz-adv-x="717" 
d="M255 254c-45 -175 -107 -262 -221 -262c-45 0 -62 11 -63 11l17 106l8 -3c6 -2 16 -3 29 -3c52 0 84 58 119 191c19 72 43 175 62 264l34 157h466l-113 -715h-134l96 608h-218c-16 -66 -50 -234 -82 -354z" />
    <glyph glyph-name="uni041C" unicode="&#x41c;" horiz-adv-x="889" 
d="M153 715h173l111 -487l261 487h181l-113 -715h-133l85 541l-298 -541h-43l-131 541l-86 -541h-120z" />
    <glyph glyph-name="uni041D" unicode="&#x41d;" horiz-adv-x="751" 
d="M153 715h133l-48 -304h320l49 304h134l-113 -715h-134l48 304h-321l-48 -304h-133z" />
    <glyph glyph-name="uni041E" unicode="&#x41e;" horiz-adv-x="814" 
d="M785 405c0 -242 -167 -415 -392 -415c-195 0 -334 127 -334 318c0 236 166 417 393 417c203 0 333 -134 333 -320zM647 402c0 119 -67 217 -198 217c-158 0 -252 -144 -252 -308c0 -132 80 -215 202 -215c152 0 248 136 248 306z" />
    <glyph glyph-name="uni041F" unicode="&#x41f;" horiz-adv-x="741" 
d="M580 608h-311l-95 -608h-134l113 715h578l-113 -715h-134z" />
    <glyph glyph-name="uni0420" unicode="&#x420;" horiz-adv-x="609" 
d="M153 715h222c147 0 237 -68 237 -193c0 -176 -128 -250 -283 -250h-113l-43 -272h-133zM329 368c103 0 154 52 154 144c0 67 -41 101 -123 101h-90l-39 -245h98z" />
    <glyph glyph-name="uni0421" unicode="&#x421;" horiz-adv-x="741" 
d="M389 -10c-203 0 -330 117 -330 313c0 239 154 423 387 423c160 0 277 -84 285 -250h-130c-15 95 -60 145 -159 145c-156 0 -244 -141 -244 -314c-1 -131 60 -211 192 -211c99 0 164 58 192 153h130c-34 -164 -163 -259 -323 -259z" />
    <glyph glyph-name="uni0422" unicode="&#x422;" horiz-adv-x="583" 
d="M278 610h-199l17 105h532l-18 -105h-198l-96 -610h-134z" />
    <glyph glyph-name="uni0423" unicode="&#x423;" horiz-adv-x="619" 
d="M156 -7c-21 0 -39 2 -52 5c-7 1 -14 3 -19 5l16 105c7 -1 25 -7 46 -7c41 0 77 24 107 73l-182 541h137l123 -399l211 399h135l-298 -537c-69 -125 -126 -185 -224 -185z" />
    <glyph glyph-name="uni0424" unicode="&#x424;" horiz-adv-x="868" 
d="M325 -10l14 93c-176 8 -285 101 -285 249v6c0 183 146 301 372 301l13 86h133l-14 -86c174 -8 285 -99 285 -244v-8c0 -185 -144 -301 -372 -304l-14 -93h-132zM184 337c0 -96 65 -157 170 -158l57 367c-144 -3 -227 -79 -227 -202v-7zM713 385c1 97 -65 158 -170 159
l-57 -368c145 3 228 80 227 203v6z" />
    <glyph glyph-name="uni0425" unicode="&#x425;" horiz-adv-x="653" 
d="M264 374l-157 341h141l115 -257l188 257h138l-263 -352l168 -363h-144l-125 281l-208 -281h-139z" />
    <glyph glyph-name="uni0426" unicode="&#x426;" horiz-adv-x="767" 
d="M586 -130l17 130h-563l113 715h133l-96 -608h311l96 608h134l-96 -608h104l-38 -237h-115z" />
    <glyph glyph-name="uni0427" unicode="&#x427;" horiz-adv-x="688" 
d="M431 0l48 306c-39 -20 -88 -37 -153 -37c-165 0 -260 98 -231 269l28 177h133l-28 -179c-17 -105 15 -160 118 -160c80 0 124 29 152 50l46 289h133l-113 -715h-133z" />
    <glyph glyph-name="uni0428" unicode="&#x428;" horiz-adv-x="1033" 
d="M153 715h133l-96 -608h235l96 608h133l-95 -608h234l96 608h134l-113 -715h-870z" />
    <glyph glyph-name="uni0429" unicode="&#x429;" horiz-adv-x="1059" 
d="M878 -130l16 130h-854l113 715h133l-96 -608h235l96 608h133l-95 -608h234l96 608h134l-96 -608h104l-38 -237h-115z" />
    <glyph glyph-name="uni042A" unicode="&#x42a;" horiz-adv-x="699" 
d="M130 0l96 610h-157l18 105h287l-44 -282h92c141 0 239 -59 239 -198c0 -160 -123 -235 -274 -235h-257zM379 96c100 0 152 53 152 141c0 67 -42 100 -125 100h-92l-38 -241h103z" />
    <glyph glyph-name="uni042B" unicode="&#x42b;" horiz-adv-x="849" 
d="M40 0l113 715h131l-45 -282h93c141 0 239 -59 239 -198c0 -160 -123 -235 -274 -235h-257zM705 715h133l-113 -715h-133zM288 96c101 0 153 53 153 141c0 67 -42 100 -125 100h-92l-38 -241h102z" />
    <glyph glyph-name="uni042C" unicode="&#x42c;" horiz-adv-x="609" 
d="M40 0l113 715h131l-45 -282h93c141 0 239 -59 239 -198c0 -160 -123 -235 -274 -235h-257zM288 96c101 0 153 53 153 141c0 67 -42 100 -125 100h-92l-38 -241h102z" />
    <glyph glyph-name="uni042D" unicode="&#x42d;" horiz-adv-x="744" 
d="M336 -10c-165 0 -286 86 -294 254h130c13 -97 66 -149 169 -149c118 0 198 84 227 207h-310l16 103h306c1 7 1 17 1 25c-4 121 -69 190 -178 190c-100 0 -162 -53 -197 -150h-131c40 168 169 256 329 256c187 0 316 -115 316 -310c0 -243 -154 -426 -384 -426z" />
    <glyph glyph-name="uni042E" unicode="&#x42e;" horiz-adv-x="1051" 
d="M640 -11c-187 0 -315 122 -323 303c-1 1 -1 3 -1 7v5h-95l-48 -304h-134l113 715h134l-49 -304h91c40 181 184 313 372 313c197 0 322 -134 322 -320c0 -242 -161 -415 -382 -415zM884 401c0 120 -62 217 -187 217c-156 0 -243 -142 -243 -308c0 -132 75 -215 192 -215
c148 0 238 136 238 306z" />
    <glyph glyph-name="uni042F" unicode="&#x42f;" horiz-adv-x="641" 
d="M447 383l37 236h-102c-100 0 -152 -51 -152 -128c0 -72 41 -108 124 -108h93zM127 0h-147l245 316c-79 21 -125 79 -125 175c0 148 116 224 273 224h258l-113 -715h-131l45 288h-87z" />
    <glyph glyph-name="uni0430" unicode="&#x430;" horiz-adv-x="554" 
d="M188 -10c-104 0 -168 56 -168 147c0 132 113 174 262 174h92l4 28c11 68 -10 104 -83 104c-60 0 -94 -29 -106 -82h-116c24 126 125 173 227 173c136 0 220 -61 196 -208l-26 -167c-11 -68 -14 -115 -9 -159h-115c-4 27 -5 53 -2 76c-35 -53 -88 -86 -156 -86zM222 77
c68 0 121 38 132 111l7 47h-76c-100 0 -145 -23 -145 -88c0 -39 26 -70 82 -70z" />
    <glyph glyph-name="uni0431" unicode="&#x431;" horiz-adv-x="601" 
d="M282 -10c-144 0 -239 96 -239 251c0 52 3 82 8 117c32 203 99 402 378 405c88 1 142 9 166 17l-15 -99c-20 -9 -73 -17 -157 -20c-174 -5 -232 -84 -270 -233h4c35 55 98 97 190 97c130 0 222 -90 222 -233c0 -176 -117 -302 -287 -302zM286 84c103 0 160 89 160 206
c0 84 -43 141 -128 141c-99 0 -159 -91 -159 -200c0 -85 38 -147 127 -147z" />
    <glyph glyph-name="uni0432" unicode="&#x432;" horiz-adv-x="538" 
d="M113 523h198c125 0 186 -49 186 -125c0 -69 -45 -112 -114 -127c56 -11 102 -45 102 -109c0 -100 -78 -162 -210 -162h-245zM220 444l-21 -137h70c72 0 104 27 104 78c0 41 -26 59 -86 59h-67zM187 231l-24 -151h90c71 0 106 27 106 82c0 48 -26 69 -98 69h-74z" />
    <glyph glyph-name="uni0433" unicode="&#x433;" horiz-adv-x="444" 
d="M219 433l-68 -433h-121l83 523h337l-15 -90h-216z" />
    <glyph glyph-name="uni0434" unicode="&#x434;" horiz-adv-x="588" 
d="M405 433h-156c-5 -19 -25 -124 -44 -194c-20 -72 -40 -118 -65 -149h210zM-60 -127l35 217h32c52 16 76 97 107 222c11 32 21 84 30 129l16 82h377l-68 -433h82l-34 -217h-99l10 127h-358l-31 -127h-99z" />
    <glyph glyph-name="uni0435" unicode="&#x435;" horiz-adv-x="570" 
d="M153 213c0 -81 37 -133 126 -133c65 0 107 27 124 80h117c-31 -113 -125 -170 -245 -170c-146 0 -243 85 -243 229c0 186 122 314 283 314c153 0 247 -96 220 -276l-4 -22h-378v-22zM312 446c-63 0 -123 -37 -147 -130h257c7 87 -29 130 -110 130z" />
    <glyph glyph-name="uni0436" unicode="&#x436;" horiz-adv-x="753" 
d="M320 266l-216 -266h-139l248 293l-132 230h122l121 -231l37 231h119l-37 -233l195 233h132l-218 -245l147 -278h-128l-132 263l-42 -263h-119z" />
    <glyph glyph-name="uni0437" unicode="&#x437;" horiz-adv-x="506" 
d="M239 -9c-133 0 -216 63 -223 175h114c4 -49 39 -81 104 -81c60 0 91 35 91 74c0 45 -28 68 -84 68h-67l14 84h64c61 0 93 23 94 70c0 35 -22 62 -77 62c-57 0 -92 -25 -105 -75h-110c24 104 103 164 228 164c124 0 188 -60 188 -141c-1 -65 -51 -108 -119 -120
c57 -11 100 -50 100 -114c0 -94 -92 -166 -212 -166z" />
    <glyph glyph-name="uni0438" unicode="&#x438;" horiz-adv-x="608" 
d="M30 0l83 523h120l-58 -365l284 365h118l-83 -523h-121l58 363l-283 -363h-118z" />
    <glyph glyph-name="uni0439" unicode="&#x439;" horiz-adv-x="608" 
d="M357 600c-88 0 -146 56 -146 141h90c3 -41 20 -69 57 -69c39 0 57 28 64 69h89c-8 -85 -75 -141 -154 -141zM30 0l83 523h120l-58 -365l284 365h118l-83 -523h-121l58 363l-283 -363h-118z" />
    <glyph glyph-name="uni043A" unicode="&#x43a;" horiz-adv-x="537" 
d="M192 262l-41 -262h-121l83 523h120l-36 -229l221 229h138l-246 -245l175 -278h-134z" />
    <glyph glyph-name="uni043B" unicode="&#x43b;" horiz-adv-x="569" 
d="M215 228c-37 -148 -78 -235 -184 -235c-17 0 -30 2 -39 5c-5 1 -9 3 -12 5l16 101l7 -3c5 -1 12 -2 19 -2c45 0 65 47 92 158c19 75 44 205 57 266h367l-82 -523h-121l69 433h-144c-15 -72 -30 -146 -45 -205z" />
    <glyph glyph-name="uni043C" unicode="&#x43c;" horiz-adv-x="736" 
d="M501 0l62 384l-227 -384h-40l-106 384l-62 -384h-98l83 523h154l88 -334l192 334h158l-84 -523h-120z" />
    <glyph glyph-name="uni043D" unicode="&#x43d;" horiz-adv-x="598" 
d="M398 220h-212l-35 -220h-121l83 523h120l-33 -213h213l33 213h121l-83 -523h-121z" />
    <glyph glyph-name="uni043E" unicode="&#x43e;" horiz-adv-x="599" 
d="M279 -10c-144 0 -246 91 -246 235c0 176 122 308 287 308c144 0 247 -87 247 -234c0 -180 -119 -309 -288 -309zM282 84c104 0 161 93 161 216c0 84 -43 139 -127 139c-100 0 -161 -92 -161 -214c0 -83 39 -141 127 -141z" />
    <glyph glyph-name="uni043F" unicode="&#x43f;" horiz-adv-x="588" 
d="M422 433h-203l-68 -433h-121l83 523h444l-83 -523h-121z" />
    <glyph glyph-name="uni0440" unicode="&#x440;" horiz-adv-x="633" 
d="M398 534c116 0 201 -85 201 -228c0 -181 -100 -316 -257 -316c-98 0 -153 50 -177 102l-43 -271h-121l86 540c11 73 13 117 16 162h116c0 -27 -2 -62 -5 -94c39 65 104 105 184 105zM319 84c97 0 154 90 154 213c0 92 -44 143 -117 143c-97 0 -171 -83 -171 -215
c0 -88 50 -141 134 -141z" />
    <glyph glyph-name="uni0441" unicode="&#x441;" horiz-adv-x="564" 
d="M286 -9c-156 0 -253 91 -253 238c0 192 125 304 280 304c122 0 220 -60 225 -196h-114c-8 76 -51 100 -115 100c-93 0 -154 -80 -154 -208c0 -93 43 -146 134 -146c64 0 117 39 130 111h110c-20 -131 -114 -203 -243 -203z" />
    <glyph glyph-name="uni0442" unicode="&#x442;" horiz-adv-x="473" 
d="M318 433l-69 -433h-121l69 433h-157l14 90h435l-14 -90h-157z" />
    <glyph glyph-name="uni0443" unicode="&#x443;" horiz-adv-x="533" 
d="M180 59l-125 464h124l81 -338l176 338h124l-391 -702h-124z" />
    <glyph glyph-name="uni0444" unicode="&#x444;" horiz-adv-x="718" 
d="M230 -179l27 169c-132 19 -225 98 -225 237v10c0 162 122 288 310 296l37 232h119l-37 -232c132 -19 223 -100 223 -237v-9c0 -162 -122 -289 -309 -297l-27 -169h-118zM153 227c0 -83 37 -134 118 -145l57 360c-109 -9 -175 -90 -175 -205v-10zM564 295
c0 84 -35 136 -118 147l-57 -361c111 9 175 91 175 206v8z" />
    <glyph glyph-name="uni0445" unicode="&#x445;" horiz-adv-x="529" 
d="M190 274l-128 249h134l83 -167l132 167h131l-207 -253l141 -270h-135l-91 188l-151 -188h-131z" />
    <glyph glyph-name="uni0446" unicode="&#x446;" horiz-adv-x="606" 
d="M435 -127l10 127h-415l82 523h121l-69 -433h204l68 433h121l-69 -433h81l-34 -217h-100z" />
    <glyph glyph-name="uni0447" unicode="&#x447;" horiz-adv-x="549" 
d="M315 0l37 237c-31 -28 -75 -57 -138 -57c-109 0 -168 70 -147 214l20 129h121l-21 -134c-12 -72 7 -114 75 -113c60 0 91 22 100 30l36 217h120l-83 -523h-120z" />
    <glyph glyph-name="uni0448" unicode="&#x448;" horiz-adv-x="839" 
d="M112 523h121l-69 -433h168l68 433h121l-69 -433h167l69 433h120l-83 -523h-695z" />
    <glyph glyph-name="uni0449" unicode="&#x449;" horiz-adv-x="859" 
d="M687 -127l10 127h-667l82 523h121l-69 -433h168l68 433h121l-69 -433h167l69 433h120l-68 -433h81l-34 -217h-100z" />
    <glyph glyph-name="uni044A" unicode="&#x44a;" horiz-adv-x="574" 
d="M168 433h-128l14 90h248l-30 -187h64c127 0 197 -55 197 -151c0 -124 -92 -185 -225 -185h-209zM259 250l-25 -162h76c65 0 102 33 102 90c0 47 -28 72 -88 72h-65z" />
    <glyph glyph-name="uni044B" unicode="&#x44b;" horiz-adv-x="711" 
d="M560 523h121l-83 -523h-121zM113 523h120l-30 -187h60c127 0 197 -55 197 -151c0 -124 -92 -185 -225 -185h-205zM190 250l-25 -162h72c65 0 102 33 102 90c0 47 -28 72 -88 72h-61z" />
    <glyph glyph-name="uni044C" unicode="&#x44c;" horiz-adv-x="505" 
d="M113 523h120l-30 -187h64c125 0 197 -55 197 -151c0 -124 -92 -185 -225 -185h-209zM190 250l-25 -162h76c65 0 102 33 102 90c0 47 -28 72 -88 72h-65z" />
    <glyph glyph-name="uni044D" unicode="&#x44d;" horiz-adv-x="571" 
d="M258 -9c-123 0 -222 67 -230 195h114c11 -68 56 -99 120 -99c76 0 128 47 145 135h-211l14 87h206v5c0 3 -1 5 -1 8c-4 80 -49 119 -125 119c-64 0 -115 -35 -134 -99h-111c27 121 117 191 246 191c153 0 247 -91 247 -239c0 -190 -123 -303 -280 -303z" />
    <glyph glyph-name="uni044E" unicode="&#x44e;" horiz-adv-x="804" 
d="M494 -10c-137 0 -226 86 -234 221v9h-74l-35 -220h-121l83 523h120l-33 -213h69c30 132 131 223 266 223c140 0 237 -87 237 -234c0 -180 -112 -309 -278 -309zM497 84c100 0 151 93 151 216c0 84 -36 139 -117 139c-96 0 -151 -92 -151 -215c0 -81 33 -140 117 -140z
" />
    <glyph glyph-name="uni044F" unicode="&#x44f;" horiz-adv-x="530" 
d="M341 280l25 155h-82c-60 0 -99 -29 -99 -85c0 -47 30 -70 91 -70h65zM110 0h-130l175 222c-56 19 -91 64 -91 128c0 113 94 173 218 173h217l-83 -523h-118l31 199h-67z" />
    <glyph glyph-name="uni0451" unicode="&#x451;" horiz-adv-x="570" 
d="M153 213c0 -81 37 -133 126 -133c65 0 107 27 124 80h117c-31 -113 -125 -170 -245 -170c-146 0 -243 85 -243 229c0 186 122 314 283 314c153 0 247 -96 220 -276l-4 -22h-378v-22zM312 446c-63 0 -123 -37 -147 -130h257c7 87 -29 130 -110 130zM239 613
c-37 0 -66 28 -66 64s30 66 67 66c36 0 65 -29 65 -65c0 -35 -30 -65 -66 -65zM436 613c-36 0 -65 28 -65 64s30 66 66 66c37 0 65 -29 65 -65c0 -35 -29 -65 -66 -65z" />
    <glyph glyph-name="uni0452" unicode="&#x452;" 
d="M490 -33c-16 -94 -71 -159 -217 -154l14 92c55 3 76 27 84 72l53 343c13 81 -13 114 -77 114c-76 0 -134 -48 -149 -136l-47 -298h-121l95 604h-68l12 75h68l14 86h120l-14 -86h170l-12 -75h-169l-27 -170c33 53 90 100 175 100c105 0 175 -62 151 -220z" />
    <glyph glyph-name="uni0453" unicode="&#x453;" horiz-adv-x="444" 
d="M313 756h136l-122 -155h-91zM219 433l-68 -433h-121l83 523h337l-15 -90h-216z" />
    <glyph glyph-name="uni0454" unicode="&#x454;" horiz-adv-x="564" 
d="M529 188c-23 -125 -114 -197 -243 -197c-156 0 -253 91 -253 239c0 190 125 303 280 303c123 0 216 -60 224 -190h-114c-11 71 -50 93 -114 93c-72 0 -125 -44 -144 -127h208l-14 -88h-203v-4c3 -87 46 -134 133 -134c64 0 115 37 128 105h112z" />
    <glyph glyph-name="uni0455" unicode="&#x455;" horiz-adv-x="493" 
d="M230 -11c-140 0 -216 73 -216 174h114c3 -48 29 -84 106 -84c59 0 88 23 88 68c0 39 -23 54 -99 71c-117 27 -164 70 -164 153c0 108 94 163 203 163c113 0 192 -46 200 -158h-112c-3 43 -35 70 -91 70s-86 -23 -86 -63c0 -35 25 -50 97 -67c115 -27 171 -61 171 -159
c0 -106 -86 -168 -211 -168z" />
    <glyph glyph-name="uni0456" unicode="&#x456;" horiz-adv-x="271" 
d="M198 609c-40 0 -71 30 -71 69s32 70 72 70s71 -30 71 -69s-32 -70 -72 -70zM116 523h121l-83 -523h-121z" />
    <glyph glyph-name="uni0457" unicode="&#x457;" horiz-adv-x="271" 
d="M106 613c-36 0 -66 28 -66 64s30 66 67 66c36 0 65 -29 65 -65c0 -35 -30 -65 -66 -65zM296 613c-36 0 -65 28 -65 64s29 66 66 66c36 0 65 -29 65 -65c0 -35 -29 -65 -66 -65zM116 523h121l-83 -523h-121z" />
    <glyph glyph-name="uni0458" unicode="&#x458;" horiz-adv-x="271" 
d="M-54 -95c55 3 76 27 83 72l87 546h120l-88 -556c-13 -92 -70 -159 -216 -154zM198 609c-40 0 -71 30 -71 69s32 70 72 70s71 -30 71 -69s-32 -70 -72 -70z" />
    <glyph glyph-name="uni0459" unicode="&#x459;" horiz-adv-x="791" 
d="M215 228c-37 -148 -78 -235 -184 -235c-17 0 -30 2 -39 5c-5 1 -9 3 -12 5l16 101l7 -3c5 -1 12 -2 19 -2c45 0 65 47 92 158c19 75 44 205 57 266h359l-30 -187h54c125 0 196 -55 196 -151c0 -124 -92 -185 -225 -185h-199l69 433h-135c-15 -72 -30 -146 -45 -205z
M486 250l-25 -162h67c64 0 101 33 101 90c0 47 -28 72 -88 72h-55z" />
    <glyph glyph-name="uni045A" unicode="&#x45a;" horiz-adv-x="818" 
d="M511 238l-24 -150h67c65 0 102 27 102 84c0 47 -28 66 -88 66h-57zM387 220h-201l-35 -220h-121l83 523h120l-33 -213h202l33 213h121l-32 -200h56c127 0 197 -48 197 -144c0 -125 -92 -179 -225 -179h-200z" />
    <glyph glyph-name="uni045B" unicode="&#x45b;" 
d="M69 679h68l14 86h120l-14 -86h170l-12 -75h-170l-26 -170c33 53 90 100 175 100c105 0 175 -62 151 -220l-50 -314h-121l50 320c13 81 -13 114 -77 114c-76 0 -136 -48 -149 -136l-47 -298h-121l95 604h-68z" />
    <glyph glyph-name="uni045C" unicode="&#x45c;" horiz-adv-x="537" 
d="M192 262l-41 -262h-121l83 523h120l-36 -229l221 229h138l-246 -245l175 -278h-134zM345 756h136l-122 -155h-91z" />
    <glyph glyph-name="uni045D" unicode="&#x45d;" horiz-adv-x="608" 
d="M30 0l83 523h120l-58 -365l284 365h118l-83 -523h-121l58 363l-283 -363h-118zM225 756h132l44 -155h-87z" />
    <glyph glyph-name="uni045E" unicode="&#x45e;" horiz-adv-x="533" 
d="M315 600c-88 0 -146 56 -146 141h90c3 -41 20 -69 57 -69c39 0 57 28 64 69h90c-11 -87 -75 -141 -155 -141zM180 59l-125 464h124l81 -338l176 338h124l-391 -702h-124z" />
    <glyph glyph-name="uni045F" unicode="&#x45f;" horiz-adv-x="588" 
d="M30 0l82 523h121l-69 -433h204l68 433h121l-83 -523h-167l-26 -127h-99l15 127h-167z" />
    <glyph glyph-name="uni0490" unicode="&#x490;" horiz-adv-x="558" 
d="M174 0h-134l113 715h306l26 130h117l-37 -237h-296z" />
    <glyph glyph-name="uni0491" unicode="&#x491;" horiz-adv-x="455" 
d="M220 433l-68 -433h-121l83 523h235l30 127h100l-34 -217h-225z" />
    <glyph glyph-name="Wgrave" unicode="&#x1e80;" horiz-adv-x="932" 
d="M87 715h135l41 -532l221 532h102l63 -535l209 535h124l-291 -715h-128l-60 512l-219 -512h-129zM414 901h134l37 -135h-88z" />
    <glyph glyph-name="wgrave" unicode="&#x1e81;" horiz-adv-x="796" 
d="M58 523h125l39 -382l168 382h101l42 -382l162 382h121l-242 -523h-123l-39 356l-159 -356h-124zM312 756h132l44 -155h-87z" />
    <glyph glyph-name="Wacute" unicode="&#x1e82;" horiz-adv-x="932" 
d="M87 715h135l41 -532l221 532h102l63 -535l209 535h124l-291 -715h-128l-60 512l-219 -512h-129zM556 901h138l-111 -135h-94z" />
    <glyph glyph-name="wacute" unicode="&#x1e83;" horiz-adv-x="796" 
d="M58 523h125l39 -382l168 382h101l42 -382l162 382h121l-242 -523h-123l-39 356l-159 -356h-124zM485 756h136l-122 -155h-91z" />
    <glyph glyph-name="Wdieresis" unicode="&#x1e84;" horiz-adv-x="932" 
d="M87 715h135l41 -532l221 532h102l63 -535l209 535h124l-291 -715h-128l-60 512l-219 -512h-129zM440 777c-36 0 -66 28 -66 64s31 66 67 66s65 -29 65 -65c0 -35 -30 -65 -66 -65zM651 777c-36 0 -66 28 -66 64s30 66 67 66c36 0 65 -29 65 -65c0 -35 -30 -65 -66 -65z
" />
    <glyph glyph-name="wdieresis" unicode="&#x1e85;" horiz-adv-x="796" 
d="M58 523h125l39 -382l168 382h101l42 -382l162 382h121l-242 -523h-123l-39 356l-159 -356h-124zM358 613c-37 0 -66 28 -66 64s30 66 67 66c36 0 65 -29 65 -65c0 -35 -30 -65 -66 -65zM555 613c-36 0 -65 28 -65 64s30 66 66 66c37 0 65 -29 65 -65
c0 -35 -29 -65 -66 -65z" />
    <glyph glyph-name="Ygrave" unicode="&#x1ef2;" horiz-adv-x="630" 
d="M258 310l-172 405h140l118 -295l202 295h135l-290 -414l-48 -301h-134zM266 901h134l37 -135h-88z" />
    <glyph glyph-name="ygrave" unicode="&#x1ef3;" horiz-adv-x="537" 
d="M180 59l-125 464h124l81 -338l176 338h124l-391 -702h-124zM187 756h132l44 -155h-87z" />
    <glyph glyph-name="uni2009" unicode="&#x2009;" horiz-adv-x="98" 
 />
    <glyph glyph-name="endash" unicode="&#x2013;" horiz-adv-x="536" 
d="M54 324h442l-14 -84h-441z" />
    <glyph glyph-name="emdash" unicode="&#x2014;" horiz-adv-x="913" 
d="M54 324h819l-13 -84h-819z" />
    <glyph glyph-name="quoteleft" unicode="&#x2018;" horiz-adv-x="267" 
d="M73 507l141 220l69 -31l-103 -232z" />
    <glyph glyph-name="quoteright" unicode="&#x2019;" horiz-adv-x="267" 
d="M82 495l102 232l108 -43l-141 -220z" />
    <glyph glyph-name="quotesinglbase" unicode="&#x201a;" horiz-adv-x="267" 
d="M-21 -80l102 232l106 -43l-141 -220z" />
    <glyph glyph-name="quotedblleft" unicode="&#x201c;" horiz-adv-x="464" 
d="M73 507l141 220l69 -31l-103 -232zM270 507l141 220l68 -31l-102 -232z" />
    <glyph glyph-name="quotedblright" unicode="&#x201d;" horiz-adv-x="464" 
d="M82 495l102 232l108 -43l-141 -220zM279 495l102 232l107 -43l-141 -220z" />
    <glyph glyph-name="quotedblbase" unicode="&#x201e;" horiz-adv-x="464" 
d="M-21 -80l102 232l106 -43l-141 -220zM175 -80l102 232l107 -43l-141 -220z" />
    <glyph glyph-name="dagger" unicode="&#x2020;" horiz-adv-x="390" 
d="M179 501h-112l14 90h112l20 124h103l-20 -124h111l-14 -90h-111l-46 -288h-103z" />
    <glyph glyph-name="daggerdbl" unicode="&#x2021;" horiz-adv-x="390" 
d="M181 512h-112l13 85h112l19 118h103l-19 -118h111l-13 -85h-112l-15 -96h112l-13 -85h-112l-19 -118h-103l19 118h-112l13 85h113z" />
    <glyph glyph-name="bullet" unicode="&#x2022;" horiz-adv-x="352" 
d="M175 177c-72 0 -123 54 -123 121c0 76 57 135 133 135c72 0 123 -56 123 -123c0 -76 -56 -133 -133 -133z" />
    <glyph glyph-name="ellipsis" unicode="&#x2026;" horiz-adv-x="844" 
d="M113 -7c-45 0 -79 34 -79 78s33 79 78 79s81 -35 81 -79s-35 -78 -80 -78zM388 -7c-44 0 -79 34 -79 78s34 79 78 79c45 0 82 -35 82 -79s-36 -78 -81 -78zM664 -7c-44 0 -79 34 -79 78s34 79 78 79c45 0 81 -35 81 -79s-35 -78 -80 -78z" />
    <glyph glyph-name="perthousand" unicode="&#x2030;" horiz-adv-x="1160" 
d="M166 537c0 -37 17 -74 68 -74c51 1 80 48 80 104c0 39 -18 76 -66 76c-55 0 -82 -47 -82 -106zM231 384c-92 0 -162 62 -162 153c0 100 78 185 182 185c93 0 160 -65 160 -156c0 -99 -76 -182 -180 -182zM643 715h87l-559 -715h-86zM493 143c0 -36 17 -73 68 -73
c51 1 80 48 80 104c0 39 -18 76 -66 76c-55 0 -82 -48 -82 -107zM558 -10c-92 0 -162 63 -162 154c0 100 78 185 182 185c93 0 160 -65 160 -156c0 -98 -76 -183 -180 -183zM874 143c0 -36 17 -73 68 -73c51 1 81 48 81 104c0 38 -18 76 -67 76c-55 0 -82 -48 -82 -107z
M939 -10c-92 0 -162 63 -162 154c0 100 78 185 182 185c93 0 161 -65 161 -156c0 -98 -78 -183 -181 -183z" />
    <glyph glyph-name="uni2032" unicode="&#x2032;" horiz-adv-x="231" 
d="M133 715h124l-102 -257h-87z" />
    <glyph glyph-name="uni2033" unicode="&#x2033;" horiz-adv-x="413" 
d="M133 715h124l-102 -257h-87zM315 715h124l-101 -257h-87z" />
    <glyph glyph-name="guilsinglleft" unicode="&#x2039;" horiz-adv-x="320" 
d="M47 264l155 180h101l-153 -183l91 -183h-95z" />
    <glyph glyph-name="guilsinglright" unicode="&#x203a;" horiz-adv-x="320" 
d="M267 258l-156 -180h-101l154 183l-92 183h95z" />
    <glyph glyph-name="fraction" unicode="&#x2044;" horiz-adv-x="139" 
d="M342 715h79l-602 -715h-80z" />
    <glyph glyph-name="Euro" unicode="&#x20ac;" horiz-adv-x="692" 
d="M58 452h68c34 159 139 273 306 273c149 0 240 -80 243 -235h-125c-3 72 -35 132 -123 132c-96 0 -146 -66 -170 -170h200l-19 -63h-193l-11 -68h183l-20 -63h-170c-3 -81 23 -163 138 -163c76 0 134 38 161 145h123c-32 -171 -144 -250 -290 -250
c-178 0 -264 116 -261 268h-70l10 63h66v1l10 67h-66z" />
    <glyph glyph-name="uni20B4" unicode="&#x20b4;" horiz-adv-x="641" 
d="M595 215c-26 -127 -124 -225 -295 -225c-148 0 -230 74 -230 178c0 36 10 69 29 98h-71l9 63h129c36 24 82 45 141 68h-259l10 63h374c31 27 38 53 38 86c0 48 -29 78 -97 78c-76 0 -114 -36 -133 -103h-122c27 125 114 203 269 203c133 0 209 -77 209 -168
c0 -37 -9 -69 -28 -96h76l-10 -63h-131c-39 -27 -89 -48 -149 -68h270l-9 -63h-378c-31 -29 -37 -59 -37 -90c0 -53 41 -86 110 -86c101 0 141 60 157 125h128z" />
    <glyph glyph-name="uni20B8" unicode="&#x20b8;" horiz-adv-x="563" 
d="M86 652l10 63h512l-10 -63h-512zM247 479h-188l17 106h512l-18 -106h-189l-75 -479h-134z" />
    <glyph glyph-name="uni20BD" unicode="&#x20bd;" horiz-adv-x="639" 
d="M365 368c103 0 154 52 154 144c0 67 -41 101 -122 101h-91l-39 -245h98zM233 147l-23 -147h-134l23 147h-95l10 64h95l11 67h-96l10 63h96l59 374h222c147 0 237 -68 237 -193c0 -176 -128 -250 -283 -250h-112l-10 -61h234l-10 -64h-234z" />
    <glyph glyph-name="uni2116" unicode="&#x2116;" horiz-adv-x="1111" 
d="M918 332c-111 0 -177 67 -177 168c0 131 95 224 213 224c113 0 176 -69 176 -169c0 -132 -93 -223 -212 -223zM924 413c67 0 102 63 102 142c0 53 -24 88 -79 88c-63 0 -102 -62 -102 -142c0 -56 24 -88 79 -88zM153 715h159l183 -510l81 510h122l-113 -715h-138
l-200 541l-85 -541h-122zM725 266h361l-12 -78h-361z" />
    <glyph glyph-name="trademark" unicode="&#x2122;" horiz-adv-x="737" 
d="M405 715h95l46 -199l108 199h102l-51 -322h-77l35 224l-126 -224h-24l-56 224l-35 -224h-68zM178 655h-92l10 60h259l-9 -60h-92l-41 -262h-76z" />
    <glyph glyph-name="Omega" unicode="&#x2126;" horiz-adv-x="825" 
d="M452 619c-167 0 -255 -139 -255 -295c0 -116 57 -199 150 -263l-10 -61h-313l15 100h131c-56 40 -109 127 -109 235c0 210 165 389 393 389c213 0 336 -145 336 -317c0 -119 -50 -238 -153 -307h124l-15 -100h-301l9 61c117 67 198 189 198 337c0 117 -60 221 -200 221z
" />
    <glyph glyph-name="onethird" unicode="&#x2153;" horiz-adv-x="772" 
d="M163 623l-89 -51l12 80l104 63h82l-57 -355h-93zM627 715h79l-602 -715h-80zM567 -6c-77 0 -143 32 -143 120h85c1 -32 17 -54 56 -54c27 0 56 15 56 51c0 27 -17 41 -51 41h-25l8 58h30c33 0 54 15 54 44c0 24 -12 39 -43 39s-52 -17 -59 -48h-82c9 72 67 115 147 115
c64 0 125 -24 125 -95c0 -41 -27 -71 -70 -84c33 -7 59 -31 59 -76c0 -73 -70 -111 -147 -111z" />
    <glyph glyph-name="twothirds" unicode="&#x2154;" horiz-adv-x="817" 
d="M26 374l149 131c44 39 77 70 77 106c0 27 -16 39 -39 39c-28 0 -48 -18 -59 -61h-86c13 85 72 131 151 131c65 0 125 -28 125 -103c0 -54 -36 -89 -100 -142l-54 -47h126l-10 -68h-282zM686 715h79l-602 -715h-80zM613 -6c-77 0 -143 32 -143 120h85c1 -32 17 -54 56 -54
c27 0 56 15 56 51c0 27 -17 41 -51 41h-25l8 58h30c33 0 54 15 54 44c0 24 -12 39 -43 39s-52 -17 -59 -48h-82c9 72 67 115 147 115c64 0 125 -24 125 -95c0 -41 -27 -71 -70 -84c33 -7 59 -31 59 -76c0 -73 -70 -111 -147 -111z" />
    <glyph glyph-name="oneeighth" unicode="&#x215b;" horiz-adv-x="764" 
d="M163 623l-89 -51l12 80l104 63h82l-57 -355h-93zM628 715h79l-602 -715h-80zM560 -6c-70 0 -143 25 -143 100c0 55 32 83 79 98c-25 13 -42 35 -42 64c0 69 67 104 136 104c61 0 128 -28 128 -94c0 -43 -22 -66 -62 -81c35 -15 53 -41 53 -77c0 -80 -73 -114 -149 -114z
M510 105c0 -27 16 -46 51 -46c31 0 57 16 57 53c0 28 -18 47 -50 47c-31 0 -58 -18 -58 -54zM539 251c0 -24 19 -39 43 -39c29 0 50 15 50 46c0 23 -18 39 -45 39c-25 0 -48 -15 -48 -46z" />
    <glyph glyph-name="threeeighths" unicode="&#x215c;" horiz-adv-x="809" 
d="M198 354c-77 0 -143 32 -143 120h85c1 -32 17 -54 56 -54c27 0 56 15 56 51c0 27 -17 41 -51 41h-25l8 58h30c33 0 54 15 54 44c0 24 -12 39 -43 39s-52 -17 -59 -48h-82c9 72 67 115 147 115c64 0 125 -24 125 -95c0 -41 -27 -71 -70 -84c33 -7 59 -31 59 -76
c0 -73 -70 -111 -147 -111zM680 715h79l-602 -715h-80zM605 -6c-70 0 -143 25 -143 100c0 55 32 83 79 98c-25 13 -42 35 -42 64c0 69 67 104 136 104c61 0 128 -28 128 -94c0 -43 -22 -66 -62 -81c35 -15 53 -41 53 -77c0 -80 -73 -114 -149 -114zM555 105
c0 -27 16 -46 51 -46c31 0 57 16 57 53c0 28 -18 47 -50 47c-31 0 -58 -18 -58 -54zM584 251c0 -24 19 -39 43 -39c29 0 50 15 50 46c0 23 -18 39 -45 39c-25 0 -48 -15 -48 -46z" />
    <glyph glyph-name="fiveeighths" unicode="&#x215d;" horiz-adv-x="797" 
d="M191 354c-71 0 -136 28 -139 113h87c3 -27 17 -44 50 -44c32 0 55 23 55 64c0 31 -15 48 -50 48c-27 0 -42 -10 -57 -27h-61l40 207h237l-11 -68h-170l-15 -83c15 17 40 33 80 33c57 0 101 -35 101 -102c-1 -89 -59 -140 -147 -141zM669 715h79l-602 -715h-80zM593 -6
c-70 0 -143 25 -143 100c0 55 32 83 79 98c-25 13 -42 35 -42 64c0 69 67 104 136 104c61 0 128 -28 128 -94c0 -43 -22 -66 -62 -81c35 -15 53 -41 53 -77c0 -80 -73 -114 -149 -114zM543 105c0 -27 16 -46 51 -46c31 0 57 16 57 53c0 28 -18 47 -50 47
c-31 0 -58 -18 -58 -54zM572 251c0 -24 19 -39 43 -39c29 0 50 15 50 46c0 23 -18 39 -45 39c-25 0 -48 -15 -48 -46z" />
    <glyph glyph-name="seveneighths" unicode="&#x215e;" horiz-adv-x="754" 
d="M230 641h-155l12 74h275l-3 -11l-183 -344h-96zM614 715h79l-602 -715h-80zM550 -6c-70 0 -143 25 -143 100c0 55 32 83 79 98c-25 13 -42 35 -42 64c0 69 67 104 136 104c61 0 128 -28 128 -94c0 -43 -22 -66 -62 -81c35 -15 53 -41 53 -77c0 -80 -73 -114 -149 -114z
M500 105c0 -27 16 -46 51 -46c31 0 57 16 57 53c0 28 -18 47 -50 47c-31 0 -58 -18 -58 -54zM529 251c0 -24 19 -39 43 -39c29 0 50 15 50 46c0 23 -18 39 -45 39c-25 0 -48 -15 -48 -46z" />
    <glyph glyph-name="Delta" unicode="&#x2206;" horiz-adv-x="695" 
d="M-16 18l344 697h185l119 -697l-3 -18h-647zM153 107h333l-85 515z" />
    <glyph glyph-name="minus" unicode="&#x2212;" horiz-adv-x="544" 
d="M56 389h467l-16 -96h-467z" />
    <glyph glyph-name="approxequal" unicode="&#x2248;" horiz-adv-x="534" 
d="M59 342c16 100 70 143 132 143c75 0 147 -43 199 -43c23 0 44 14 49 45h79c-13 -97 -70 -142 -130 -142c-77 0 -149 43 -200 43c-23 0 -43 -15 -50 -46h-79zM27 148c16 100 71 142 133 142c74 0 147 -42 198 -42c23 0 43 14 50 45h79c-15 -97 -70 -142 -130 -142
c-77 0 -149 43 -200 43c-24 0 -43 -15 -51 -46h-79z" />
    <glyph glyph-name="notequal" unicode="&#x2260;" horiz-adv-x="517" 
d="M70 463h221l51 100h91l-51 -100h121l-14 -92h-153l-48 -95h186l-14 -91h-217l-51 -101h-91l51 101h-125l14 91h156l48 95h-189z" />
    <glyph glyph-name="lessequal" unicode="&#x2264;" horiz-adv-x="511" 
d="M60 345l4 26l432 209l-18 -115l-240 -111l204 -117l-17 -109zM20 89h399l-14 -89h-398z" />
    <glyph glyph-name="greaterequal" unicode="&#x2265;" horiz-adv-x="511" 
d="M32 89h399l-14 -89h-399zM474 363l-4 -25l-432 -210l17 115l241 112l-204 116l17 109z" />
    <glyph glyph-name="uni24C5" unicode="&#x24c5;" horiz-adv-x="847" 
d="M306 559h140c100 0 154 -44 154 -128v-3c0 -85 -57 -125 -150 -125h-49v-143h-95v399zM443 369c44 0 66 20 66 59v3c0 39 -22 55 -65 55h-43v-117h42zM432 32c172 0 321 133 321 327c0 191 -143 324 -319 324s-321 -134 -321 -326c0 -195 149 -325 319 -325zM432 -13
c-206 0 -372 160 -372 370c0 207 165 371 374 371c212 0 373 -163 373 -369c0 -211 -164 -372 -375 -372z" />
    <glyph glyph-name="zero.tab" unicode="&#xe44f;" 
d="M175 297c-4 -27 -7 -50 -7 -73c0 -75 28 -131 114 -131c87 0 129 53 150 188l22 135c4 26 6 51 6 74c0 76 -26 133 -111 133c-87 0 -132 -59 -152 -191zM277 -10c-152 0 -232 92 -232 232c0 32 2 57 6 84l22 135c31 191 131 284 280 284c156 0 230 -94 230 -235
c0 -27 -1 -54 -6 -83l-22 -135c-30 -188 -123 -282 -278 -282z" />
    <glyph glyph-name="one.tab" unicode="&#xe450;" 
d="M338 577l-215 -142l19 121l227 159h127l-113 -715h-136z" />
    <glyph glyph-name="two.tab" unicode="&#xe451;" 
d="M-9 24l311 285c62 56 135 135 135 219c0 51 -28 94 -91 94c-65 1 -112 -34 -137 -143h-124c25 167 125 246 273 245c115 0 212 -62 212 -188c0 -114 -76 -195 -181 -286l-170 -145h292l-16 -105h-507z" />
    <glyph glyph-name="three.tab" unicode="&#xe452;" 
d="M277 -10c-153 0 -257 78 -254 231h120c3 -73 36 -130 133 -130c88 0 138 41 138 133c0 59 -34 99 -114 99h-47l15 95h61c65 0 119 31 119 112c0 59 -36 93 -100 93c-72 0 -122 -38 -141 -118h-117c21 133 124 219 265 219c106 0 217 -51 217 -182
c0 -85 -50 -149 -134 -172c68 -21 107 -73 107 -149c0 -143 -110 -231 -268 -231z" />
    <glyph glyph-name="four.tab" unicode="&#xe453;" 
d="M341 144h-329l8 46l373 525h163l-74 -473h79l-16 -98h-79l-23 -144h-124zM359 242l57 364l-253 -364h196z" />
    <glyph glyph-name="five.tab" unicode="&#xe454;" 
d="M268 -10c-140 0 -235 72 -235 216h121c3 -68 36 -112 116 -112c91 0 143 66 143 167c0 71 -38 118 -119 118c-67 0 -108 -27 -143 -63h-66l69 399h422l-16 -105h-323l-32 -192c32 31 81 57 146 57c117 0 195 -80 195 -204c0 -163 -109 -281 -278 -281z" />
    <glyph glyph-name="six.tab" unicode="&#xe455;" 
d="M292 -10c-157 0 -248 84 -248 248c0 31 4 63 9 96l7 45c29 184 125 345 320 345c136 0 207 -65 210 -188h-117c-4 53 -28 88 -100 88c-113 0 -164 -114 -188 -245c37 49 96 85 172 85c115 0 202 -78 202 -203c0 -155 -107 -271 -267 -271zM166 217
c0 -68 40 -127 127 -127c85 0 141 69 141 161c0 65 -39 120 -122 120c-84 0 -146 -61 -146 -154z" />
    <glyph glyph-name="seven.tab" unicode="&#xe456;" 
d="M430 607h-333l18 108h503l-3 -16l-378 -699h-137z" />
    <glyph glyph-name="eight.tab" unicode="&#xe457;" 
d="M283 -10c-121 0 -249 60 -249 195c0 104 62 173 158 204c-51 25 -83 74 -83 131c0 124 111 204 242 204c108 0 219 -61 219 -180c0 -89 -50 -137 -126 -166c67 -28 106 -86 106 -157c0 -152 -123 -231 -267 -231zM162 204c0 -69 53 -112 126 -112c80 0 137 48 137 133
c0 68 -51 110 -120 110c-81 0 -143 -46 -143 -131zM228 519c0 -53 41 -96 108 -96c59 0 114 33 114 108c0 55 -41 97 -105 97c-63 0 -117 -37 -117 -109z" />
    <glyph glyph-name="nine.tab" unicode="&#xe458;" 
d="M253 -9c-128 0 -220 60 -225 196h120c9 -71 46 -96 114 -96c93 0 156 77 181 241c-35 -48 -95 -81 -171 -81c-111 0 -201 72 -201 203c0 155 109 271 273 271c153 0 238 -85 239 -245c0 -31 -3 -63 -8 -98l-9 -55c-37 -232 -141 -336 -313 -336zM195 465
c0 -71 40 -120 113 -120c84 0 155 52 155 153c0 67 -35 128 -122 128c-86 0 -146 -68 -146 -161z" />
    <glyph glyph-name="cent.tab" unicode="&#xe459;" 
d="M240 -4c-116 21 -193 103 -193 230c0 187 126 302 279 307l15 96h66l-16 -100c100 -16 167 -77 172 -192h-111c-3 57 -32 87 -76 98l-56 -355c60 5 106 38 123 113h109c-24 -131 -120 -200 -246 -203l-20 -125h-66zM167 226c0 -77 29 -123 88 -140l56 353
c-84 -11 -144 -82 -144 -213z" />
    <glyph glyph-name="dollar.tab" unicode="&#xe45a;" 
d="M289 -10l-20 -125h-64l20 130c-133 21 -210 107 -207 226h118c1 -60 30 -112 105 -129l35 225c-127 36 -189 87 -189 194c0 121 105 213 254 213l14 89h64l-15 -94c112 -16 182 -79 185 -200h-112c-5 60 -37 91 -88 103l-33 -209c129 -38 199 -85 199 -195
c0 -136 -101 -228 -263 -228h-3zM436 201c0 47 -21 75 -98 99l-34 -214c84 3 132 44 132 115zM204 523c0 -41 19 -67 90 -92l31 197c-83 -3 -121 -48 -121 -105z" />
    <glyph glyph-name="Euro.tab" unicode="&#xe45b;" 
d="M43 452h57c33 181 129 273 274 272c141 0 218 -79 214 -226h-117c0 72 -24 125 -100 125c-80 0 -125 -52 -146 -171h187l-21 -63h-176l-11 -67h164l-22 -64h-151c-8 -87 7 -164 114 -164c67 0 112 34 135 135h115c-32 -173 -131 -239 -255 -239c-167 0 -246 105 -233 268
h-58l10 64h56l11 67h-57z" />
    <glyph glyph-name="a.alt" unicode="&#xe4c0;" horiz-adv-x="619" 
d="M310 440c-97 0 -152 -89 -152 -212c0 -89 39 -144 119 -144c87 0 155 86 155 215c0 87 -49 141 -122 141zM235 -10c-120 0 -203 88 -203 229c0 180 103 315 258 315c92 0 138 -49 162 -101l14 90h121l-57 -364c-11 -71 -14 -115 -11 -159h-118c-3 27 -1 63 2 92
c-37 -64 -91 -102 -168 -102z" />
    <glyph glyph-name="t.alt" unicode="&#xe4d3;" horiz-adv-x="359" 
d="M126 432h-78l14 91h78l18 115h121l-18 -115h107l-14 -91h-107l-68 -432h-121z" />
    <glyph glyph-name="f_i" unicode="&#xfb01;" horiz-adv-x="627" 
d="M58 523h72l13 84c19 116 90 164 185 164c39 0 60 -6 79 -13l-14 -92c-13 5 -30 10 -53 10c-47 0 -69 -26 -78 -78l-12 -75h120l-15 -91h-120l-68 -432h-120l68 432h-71zM550 609c-40 0 -71 30 -71 69s32 70 72 70s71 -30 71 -69s-32 -70 -72 -70zM468 523h121l-83 -523
h-121z" />
    <glyph glyph-name="f_l" unicode="&#xfb02;" horiz-adv-x="627" 
d="M58 523h72l13 84c19 116 90 164 185 164c39 0 60 -6 79 -13l-14 -92c-13 5 -30 10 -53 10c-47 0 -69 -26 -78 -78l-12 -75h120l-15 -91h-120l-68 -432h-120l68 432h-71zM506 765h121l-121 -765h-121z" />
    <glyph glyph-name="hyphen.uc" horiz-adv-x="384" 
d="M73 378h268l-16 -103h-268z" />
    <glyph glyph-name="four.old" horiz-adv-x="642" 
d="M350 51h-359l7 42l402 525h165l-75 -477h97l-14 -90h-97l-24 -146h-125zM366 141l60 377l-281 -377h221z" />
    <glyph glyph-name="zero.num" horiz-adv-x="382" 
d="M160 500c0 -37 14 -74 62 -74c61 0 81 80 81 147c0 39 -15 75 -59 75c-69 0 -84 -94 -84 -148zM218 354c-93 0 -151 55 -151 147c0 116 62 219 180 219c91 0 149 -52 149 -148c0 -119 -58 -218 -178 -218z" />
    <glyph glyph-name="nine.oldtab" horiz-adv-x="600" 
d="M435 405c0 75 -36 128 -121 128c-80 0 -139 -68 -139 -157c0 -68 36 -121 116 -121c79 0 144 62 144 150zM319 629c157 0 235 -97 235 -244c0 -31 -3 -60 -8 -91l-7 -45c-39 -247 -141 -354 -309 -354c-127 0 -216 60 -221 193h117c7 -60 37 -96 106 -96
c100 0 152 73 184 254c-35 -48 -89 -82 -169 -82c-115 0 -193 78 -193 201c0 155 116 264 265 264z" />
    <glyph glyph-name="eight.oldtab" horiz-adv-x="600" 
d="M282 -10c-120 0 -242 63 -242 193c0 107 67 174 159 201c-53 27 -84 71 -84 134c0 125 111 206 238 206c105 0 210 -53 210 -180c0 -88 -49 -143 -129 -172c68 -29 108 -82 108 -155c0 -147 -124 -227 -260 -227zM232 513c0 -55 39 -93 103 -93c61 0 111 39 111 114
c0 56 -36 97 -99 97c-64 0 -115 -42 -115 -118zM165 196c0 -63 43 -108 122 -108c69 0 132 45 132 134c0 64 -40 108 -116 108c-75 0 -138 -46 -138 -134z" />
    <glyph glyph-name="seven.oldtab" horiz-adv-x="600" 
d="M419 515h-326l16 103h491l-3 -15l-388 -698h-135z" />
    <glyph glyph-name="six.oldtab" horiz-adv-x="600" 
d="M291 -10c-157 0 -237 98 -237 239c0 39 5 71 9 102l7 45c38 230 159 348 311 348c128 0 208 -57 211 -185h-117c-4 55 -31 88 -99 88c-83 0 -153 -77 -185 -254c36 48 91 82 171 82c119 0 190 -77 190 -200c0 -155 -106 -265 -261 -265zM173 218c0 -75 33 -131 120 -131
c82 0 139 68 139 157c0 67 -32 121 -114 121c-83 0 -145 -59 -145 -147z" />
    <glyph glyph-name="five.oldtab" horiz-adv-x="600" 
d="M141 104c5 -68 39 -111 119 -111c96 0 142 66 142 165c0 61 -34 119 -117 119c-65 0 -106 -23 -143 -62h-62l69 404h413l-17 -102h-316l-34 -204c32 31 77 58 141 58c115 0 193 -80 193 -200c0 -159 -95 -276 -270 -276c-136 0 -231 70 -234 209h116z" />
    <glyph glyph-name="four.oldtab" horiz-adv-x="600" 
d="M326 51h-328l6 41l371 526h161l-75 -477h87l-14 -90h-87l-24 -146h-121zM341 141l60 375l-262 -375h202z" />
    <glyph glyph-name="three.oldtab" horiz-adv-x="600" 
d="M269 -105c-150 0 -255 78 -255 230h117c4 -88 47 -133 139 -133c80 0 135 43 135 130c0 71 -40 108 -116 108h-48l14 91h52c79 0 125 33 125 117c0 67 -44 94 -104 94c-72 0 -118 -41 -137 -120h-115c21 133 120 217 260 217c110 0 218 -51 218 -180
c0 -84 -43 -146 -132 -174c68 -23 109 -70 109 -154c0 -141 -116 -226 -262 -226z" />
    <glyph glyph-name="two.oldtab" horiz-adv-x="600" 
d="M-2 23l276 219c67 57 149 122 149 200c0 60 -35 89 -95 89c-71 0 -115 -45 -134 -134h-116c24 149 121 232 260 232c109 0 216 -54 213 -178c0 -112 -83 -174 -191 -258l-123 -96h272l-15 -97h-499z" />
    <glyph glyph-name="one.oldtab" horiz-adv-x="600" 
d="M332 490l-214 -133l18 115l230 147h113l-98 -619h-126z" />
    <glyph glyph-name="zero.oldtab" horiz-adv-x="600" 
d="M277 -10c-147 0 -232 86 -232 222c0 25 1 45 4 66l15 94c25 161 128 257 276 257c147 0 229 -93 229 -225c0 -20 -2 -42 -5 -63l-15 -94c-25 -165 -121 -257 -272 -257zM282 93c84 0 126 56 143 161l15 94c3 23 5 39 5 58c0 80 -37 123 -109 123
c-84 0 -131 -60 -147 -163l-15 -94c-3 -21 -5 -41 -5 -60c0 -71 30 -119 113 -119z" />
    <glyph glyph-name="yen.oldtab" horiz-adv-x="600" 
d="M98 344h146l-132 350h131l90 -271l171 271h119l-233 -350h147l-9 -61h-158l-10 -66h157l-10 -61h-157l-24 -156h-126l24 156h-155l10 61h155l10 66h-156z" />
    <glyph glyph-name="sterling.oldtab" horiz-adv-x="600" 
d="M66 377h60c-3 25 -4 53 -4 81c0 140 84 244 243 244c133 0 212 -64 209 -201h-115c-1 64 -26 100 -97 100c-94 0 -121 -72 -121 -155c0 -25 0 -46 1 -69h186l-13 -82h-169c1 -12 1 -24 1 -36c0 -48 -7 -89 -28 -126c52 -15 100 -38 135 -38c41 0 72 18 81 73h106
c-15 -109 -74 -177 -182 -177c-83 0 -152 57 -203 57c-35 0 -52 -23 -57 -48h-96c9 61 45 123 109 140c17 29 25 64 25 105c0 15 -1 32 -3 50h-81z" />
    <glyph glyph-name="f.short" horiz-adv-x="358" 
d="M58 523h72l13 84c19 116 90 164 185 164c39 0 60 -6 79 -13l-14 -92c-13 5 -30 10 -53 10c-47 0 -69 -26 -78 -78l-12 -75h120l-15 -91h-120l-68 -432h-120l68 432h-71z" />
    <glyph glyph-name="f_f.short" horiz-adv-x="660" 
d="M58 523h71l12 78c19 109 93 160 189 160c39 0 58 -5 77 -13l-14 -92c-13 6 -30 9 -51 9c-48 0 -73 -26 -81 -73l-11 -69h182l13 84c19 116 91 164 186 164c39 0 59 -6 78 -13l-14 -92c-12 5 -30 10 -53 10c-43 0 -69 -26 -77 -78l-12 -75h119l-14 -91h-120l-68 -432h-121
l68 432h-182l-68 -432h-120l67 432h-70z" />
    <glyph glyph-name="Euro.oldtab" horiz-adv-x="600" 
d="M55 439h56c32 175 125 264 265 264c137 -1 212 -78 208 -219h-112c0 71 -24 122 -99 122c-79 0 -122 -51 -143 -167h184l-22 -62h-172l-10 -65h160l-21 -61h-148c-8 -86 8 -162 112 -162c65 0 110 34 133 133h109c-32 -169 -126 -232 -246 -232c-164 0 -238 102 -227 261
h-57l10 61h55l10 65h-54z" />
    <glyph glyph-name="dollar.oldtab" horiz-adv-x="600" 
d="M205 508c0 -41 18 -65 89 -90l30 192c-83 -3 -119 -46 -119 -102zM433 194c0 46 -21 73 -97 97l-33 -210c83 3 130 42 130 113zM289 -9l-19 -122h-63l20 127c-131 20 -206 103 -203 218h113c3 -60 32 -111 104 -127l35 221c-124 35 -184 84 -184 188
c0 118 101 203 246 206l14 87h63l-15 -91c108 -16 177 -77 180 -194h-107c-7 60 -38 89 -87 100l-32 -204c125 -37 194 -85 194 -190c0 -133 -99 -219 -256 -219h-3z" />
    <glyph glyph-name="braceright.tab" horiz-adv-x="304" 
d="M109 776c159 -5 205 -88 153 -229l-34 -91c-21 -56 -10 -90 62 -109l-12 -80c-78 -14 -96 -46 -96 -98l2 -115c5 -156 -73 -202 -223 -202l14 83c72 0 100 25 100 116v113c0 84 43 123 120 146c-68 26 -102 72 -70 161l31 89c32 92 16 127 -60 132z" />
    <glyph glyph-name="braceleft.tab" horiz-adv-x="304" 
d="M206 -148c-159 5 -205 88 -153 229l34 91c21 56 10 90 -62 109l12 81c77 11 98 46 95 97l-2 115c-5 156 74 202 223 202l-13 -83c-72 0 -100 -25 -100 -115l-1 -114c1 -84 -42 -123 -119 -146c66 -27 102 -71 70 -160l-31 -90c-32 -92 -16 -125 60 -132z" />
    <glyph glyph-name="bracketright.tab" horiz-adv-x="304" 
d="M-24 -62h98l119 752h-98l13 86h212l-146 -924h-212z" />
    <glyph glyph-name="bracketleft.tab" horiz-adv-x="304" 
d="M140 776h212l-13 -86h-98l-119 -752h98l-14 -86h-212z" />
    <glyph glyph-name="parenright.tab" horiz-adv-x="304" 
d="M190 774c40 -83 83 -183 83 -348c0 -215 -85 -407 -222 -574h-103c129 172 211 370 211 577c1 155 -31 262 -67 345h98z" />
    <glyph glyph-name="parenleft.tab" horiz-adv-x="304" 
d="M124 -148c-40 83 -83 182 -83 348c0 215 85 407 222 574h103c-129 -172 -211 -370 -211 -577c-1 -155 31 -264 67 -345h-98z" />
    <glyph glyph-name="semicolon.tab" horiz-adv-x="304" 
d="M-30 -89l113 236l108 -46l-152 -224zM172 285c-44 0 -79 35 -79 79s34 78 78 78c45 0 81 -34 81 -78s-35 -79 -80 -79z" />
    <glyph glyph-name="colon.tab" horiz-adv-x="304" 
d="M118 -7c-44 0 -79 34 -79 78s34 79 78 79c45 0 81 -35 81 -79s-35 -78 -80 -78zM165 285c-44 0 -79 35 -79 79s34 78 78 78c45 0 82 -34 82 -78s-36 -79 -81 -79z" />
    <glyph glyph-name="comma.tab" horiz-adv-x="304" 
d="M-16 -89l113 236l108 -46l-152 -224z" />
    <glyph glyph-name="period.tab" horiz-adv-x="304" 
d="M119 -7c-45 0 -80 34 -80 78s34 79 79 79c44 0 81 -35 81 -79s-36 -78 -80 -78z" />
    <glyph glyph-name="greaterequal.tab" 
d="M78 89h399l-14 -89h-399zM520 363l-4 -25l-432 -210l17 115l241 112l-204 116l17 109z" />
    <glyph glyph-name="lessequal.tab" 
d="M106 345l4 26l432 209l-18 -115l-240 -111l204 -117l-17 -109zM66 89h399l-14 -89h-398z" />
    <glyph glyph-name="greater.tab" 
d="M518 331l-4 -26l-442 -224l17 117l264 125l-222 134l17 107z" />
    <glyph glyph-name="less.tab" 
d="M99 314l4 26l442 223l-17 -115l-264 -125l223 -134l-17 -108z" />
    <glyph glyph-name="approxequal.tab" 
d="M95 342c16 100 70 143 132 143c75 0 147 -43 199 -43c23 0 44 14 49 45h79c-13 -97 -70 -142 -130 -142c-77 0 -149 43 -200 43c-23 0 -43 -15 -50 -46h-79zM63 148c16 100 71 142 133 142c74 0 147 -42 198 -42c23 0 43 14 50 45h79c-15 -97 -70 -142 -130 -142
c-77 0 -149 43 -200 43c-24 0 -43 -15 -51 -46h-79z" />
    <glyph glyph-name="notequal.tab" 
d="M113 463h221l51 100h91l-51 -100h121l-14 -92h-153l-48 -95h186l-14 -91h-217l-51 -101h-91l51 101h-125l14 91h156l48 95h-189z" />
    <glyph glyph-name="equal.tab" 
d="M87 276h429l-15 -91h-428zM116 463h429l-15 -92h-428z" />
    <glyph glyph-name="divide.tab" 
d="M88 387h462l-15 -91h-461zM287 71c-43 0 -75 32 -75 75s32 75 75 75s77 -32 77 -75s-34 -75 -77 -75zM335 461c-43 0 -75 32 -75 75s32 76 75 76s77 -33 77 -76s-34 -75 -77 -75z" />
    <glyph glyph-name="multiply.tab" 
d="M73 183l173 153l-132 153l72 66l133 -154l173 153l60 -68l-174 -154l133 -153l-73 -65l-133 153l-173 -152z" />
    <glyph glyph-name="plusminus.tab" 
d="M260 332h-182l14 94h183l28 176h101l-28 -176h182l-14 -94h-183l-28 -175h-101zM39 89h467l-13 -89h-467z" />
    <glyph glyph-name="minus.tab" 
d="M89 389h461l-15 -96h-462z" />
    <glyph glyph-name="plus.tab" 
d="M254 294h-180l15 94h180l31 195h101l-31 -195h180l-15 -94h-180l-31 -195h-101z" />
    <glyph glyph-name="perthousand.tab" horiz-adv-x="1004" 
d="M165 525c0 -35 15 -59 46 -59c52 0 66 76 66 120c0 36 -12 62 -44 62c-54 0 -68 -75 -68 -123zM207 392c-75 0 -132 49 -132 136c0 99 57 194 161 194c76 0 131 -49 131 -137c0 -93 -53 -193 -160 -193zM594 715h87l-562 -715h-87zM432 124c0 -36 14 -59 45 -59
c53 0 67 75 67 120c0 36 -13 62 -44 62c-54 0 -68 -76 -68 -123zM474 -10c-76 0 -132 49 -132 137c0 100 57 193 161 193c76 0 130 -48 130 -137c0 -92 -53 -193 -159 -193zM751 124c0 -36 15 -59 46 -59c53 0 67 75 67 120c0 36 -13 62 -45 62c-53 0 -68 -76 -68 -123z
M794 -10c-77 0 -132 49 -132 137c0 100 54 193 161 193c75 0 130 -48 130 -137c0 -92 -53 -193 -159 -193z" />
    <glyph glyph-name="percent.tab" horiz-adv-x="804" 
d="M174 537c0 -39 15 -76 67 -76c52 1 81 47 81 106c0 37 -17 78 -67 78c-56 0 -81 -49 -81 -108zM238 383c-92 0 -161 62 -161 154c0 100 77 185 182 185c92 0 159 -65 159 -157c0 -99 -76 -182 -180 -182zM651 715h87l-559 -715h-87zM506 144c0 -37 15 -75 67 -75
s81 46 81 105c0 37 -16 78 -66 78c-56 0 -82 -48 -82 -108zM570 -10c-92 0 -160 63 -160 154c0 101 77 185 181 185c92 0 159 -64 159 -156c0 -100 -76 -183 -180 -183z" />
    <glyph glyph-name="two.num" horiz-adv-x="317" 
d="M23 374l149 131c44 39 77 70 77 106c0 27 -16 39 -39 39c-28 0 -48 -18 -59 -61h-86c13 85 72 131 151 131c65 0 125 -28 125 -103c0 -54 -36 -89 -100 -142l-54 -47h126l-10 -68h-282z" />
    <glyph glyph-name="uni045D.bgr" horiz-adv-x="601" 
d="M512 159c-11 -71 -15 -116 -12 -159h-117c-3 28 -1 61 4 94c-39 -60 -92 -104 -176 -104c-110 0 -177 66 -153 219l50 314h121l-52 -324c-11 -73 13 -114 76 -114c76 0 133 48 148 136l47 302h121zM219 756h132l44 -155h-87z" />
    <glyph glyph-name="three.num" horiz-adv-x="340" 
d="M195 354c-77 0 -143 32 -143 120h85c1 -32 17 -54 56 -54c27 0 56 15 56 51c0 27 -17 41 -51 41h-25l8 58h30c33 0 54 15 54 44c0 24 -12 39 -43 39s-52 -17 -59 -48h-82c9 72 67 115 147 115c64 0 125 -24 125 -95c0 -41 -27 -71 -70 -84c33 -7 59 -31 59 -76
c0 -73 -70 -111 -147 -111z" />
    <glyph glyph-name="four.num" horiz-adv-x="351" 
d="M218 429h-178l6 34l193 252h114l-35 -222h46l-10 -64h-46l-11 -69h-90zM230 493l24 153l-113 -153h89z" />
    <glyph glyph-name="uni20B4.old" horiz-adv-x="631" 
d="M575 208c-21 -123 -118 -218 -284 -218c-144 0 -222 72 -222 172c0 37 9 69 28 96h-69l9 61h124c35 24 81 45 138 66h-252l10 61h362c29 25 36 52 36 83c0 47 -28 76 -93 76c-73 0 -112 -36 -129 -100h-119c25 121 112 197 261 197c130 0 203 -74 203 -163
c0 -35 -9 -66 -27 -93h74l-9 -61h-129c-37 -25 -85 -47 -144 -66h264l-10 -61h-367c-28 -28 -35 -56 -35 -87c0 -51 38 -84 106 -84c98 0 137 58 150 121h124z" />
    <glyph glyph-name="uni20B4.oldtab" horiz-adv-x="600" 
d="M570 208c-24 -123 -130 -218 -288 -218c-139 0 -214 70 -214 170c0 36 10 69 29 98h-71l10 61h123c35 24 77 45 133 66h-246l10 61h354c28 25 35 52 35 83c0 47 -27 76 -91 76c-72 0 -109 -36 -126 -100h-113c25 121 107 197 252 197c125 0 195 -74 195 -163
c0 -35 -9 -66 -27 -93h69l-9 -61h-122c-37 -25 -83 -47 -140 -66h252l-10 -61h-351c-29 -29 -36 -59 -37 -90c0 -51 39 -81 104 -81c97 0 145 58 161 121h118z" />
    <glyph glyph-name="uni20B4.tab" horiz-adv-x="600" 
d="M553 215c-26 -127 -117 -225 -278 -225c-140 0 -213 73 -212 178c1 37 11 70 29 98h-63l10 63h117c35 25 79 47 135 68h-241l11 63h346c27 27 32 54 32 86c1 48 -26 78 -87 78c-71 0 -105 -36 -124 -103h-115c27 124 110 203 254 203c124 0 192 -77 192 -168
c0 -35 -9 -67 -26 -96h66l-10 -63h-117c-36 -27 -84 -49 -137 -68h244l-11 -63h-346c-29 -29 -36 -59 -36 -90c-1 -55 35 -86 99 -86c96 0 130 60 146 125h122z" />
    <glyph glyph-name="five.num" horiz-adv-x="331" 
d="M188 354c-71 0 -136 28 -139 113h87c3 -27 17 -44 50 -44c32 0 55 23 55 64c0 31 -15 48 -50 48c-27 0 -42 -10 -57 -27h-61l40 207h237l-11 -68h-170l-15 -83c15 17 40 33 80 33c57 0 101 -35 101 -102c-1 -89 -59 -140 -147 -141z" />
    <glyph glyph-name="uni20B8.old" horiz-adv-x="553" 
d="M85 632l10 62h497l-11 -62h-496zM242 465h-183l17 102h496l-17 -102h-183l-73 -465h-130z" />
    <glyph glyph-name="uni20B8.oldtab" horiz-adv-x="600" 
d="M109 632l11 62h488l-10 -62h-489zM262 465h-179l17 102h489l-17 -102h-180l-73 -465h-130z" />
    <glyph glyph-name="uni20B8.tab" horiz-adv-x="600" 
d="M105 652l10 63h512l-11 -63h-511zM266 479h-189l18 106h512l-18 -106h-189l-75 -479h-134z" />
    <glyph glyph-name="six.num" horiz-adv-x="352" 
d="M209 354c-87 0 -142 47 -142 134c0 15 1 30 4 46l2 13c17 109 84 173 175 173c66 0 121 -29 124 -102h-85c-4 23 -16 34 -43 34c-40 0 -66 -35 -79 -99c19 23 46 38 86 38c57 0 107 -35 107 -100c0 -87 -64 -137 -149 -137zM158 470c0 -27 16 -52 52 -52
c32 0 57 24 57 65c0 28 -14 50 -49 50c-33 0 -60 -22 -60 -63z" />
    <glyph glyph-name="uni20BD.old" horiz-adv-x="619" 
d="M345 357c96 0 146 49 146 140c0 65 -39 97 -116 97h-85l-36 -237h91zM221 143l-22 -143h-127l22 143h-90l9 61h90l11 66h-91l10 61h90l56 363h210c139 0 225 -65 225 -188c0 -171 -121 -243 -269 -243h-105l-9 -59h221l-9 -61h-222z" />
    <glyph glyph-name="uni20BD.oldtab" horiz-adv-x="600" 
d="M338 357c96 0 144 49 144 140c0 65 -38 97 -115 97h-77l-36 -237h84zM222 143l-22 -143h-125l22 143h-89l9 61h89l10 66h-89l9 61h90l55 363h199c137 0 222 -65 223 -188c0 -171 -119 -243 -266 -243h-97l-9 -59h212l-10 -61h-211z" />
    <glyph glyph-name="uni20BD.tab" horiz-adv-x="600" 
d="M345 368c100 0 151 52 151 144c0 67 -40 101 -120 101h-82l-38 -245h89zM223 147l-22 -147h-127l22 147h-85l9 64h86l10 67h-86l10 64h86l57 373h206c141 0 228 -68 228 -193c0 -176 -123 -250 -272 -250h-103l-9 -61h219l-10 -64h-219z" />
    <glyph glyph-name="seven.num" horiz-adv-x="302" 
d="M227 641h-155l12 74h275l-3 -11l-183 -344h-96z" />
    <glyph glyph-name="eight.num" horiz-adv-x="344" 
d="M200 354c-70 0 -143 25 -143 100c0 55 32 83 79 98c-25 13 -42 35 -42 64c0 69 67 104 136 104c61 0 128 -28 128 -94c0 -43 -22 -66 -62 -81c35 -15 53 -41 53 -77c0 -80 -73 -114 -149 -114zM150 465c0 -27 16 -46 51 -46c31 0 57 16 57 53c0 28 -18 47 -50 47
c-31 0 -58 -18 -58 -54zM179 611c0 -24 19 -39 43 -39c29 0 50 15 50 46c0 23 -18 39 -45 39c-25 0 -48 -15 -48 -46z" />
    <glyph glyph-name="nine.num" horiz-adv-x="352" 
d="M225 720c87 0 139 -44 140 -127c0 -20 -1 -41 -4 -57l-2 -13c-17 -113 -75 -169 -172 -169c-72 0 -126 28 -130 104h85c4 -23 13 -36 48 -36c43 0 66 36 77 99c-19 -23 -46 -37 -86 -37c-56 0 -107 35 -107 99c0 85 67 137 151 137zM274 604c0 27 -15 52 -50 52
c-32 0 -59 -24 -59 -65c0 -28 14 -50 49 -50c33 0 60 22 60 63z" />
    <glyph glyph-name="zero.den" horiz-adv-x="382" 
d="M104 140c0 -37 14 -74 62 -74c61 0 81 80 81 147c0 39 -15 75 -59 75c-69 0 -84 -94 -84 -148zM162 -6c-93 0 -151 55 -151 147c0 116 62 219 180 219c91 0 149 -52 149 -148c0 -119 -58 -218 -178 -218z" />
    <glyph glyph-name="one.den" horiz-adv-x="257" 
d="M104 263l-89 -51l12 80l104 63h82l-57 -355h-93z" />
    <glyph glyph-name="two.den" horiz-adv-x="317" 
d="M-34 14l149 131c44 39 77 70 77 106c0 27 -16 39 -39 39c-28 0 -48 -18 -59 -61h-86c13 85 72 131 151 131c65 0 125 -28 125 -103c0 -54 -36 -89 -100 -142l-54 -47h126l-10 -68h-282z" />
    <glyph glyph-name="uni021B.alt" horiz-adv-x="359" 
d="M-7 -198l63 165l110 -22l-105 -170zM126 432h-78l14 91h78l18 115h121l-18 -115h107l-14 -91h-107l-68 -432h-121z" />
    <glyph glyph-name="uni0437.bgr" horiz-adv-x="501" 
d="M197 -189c-131 0 -214 77 -217 203h110c4 -73 46 -112 107 -112c71 0 112 52 113 132c0 68 -37 110 -109 110h-53l14 88h52c79 0 121 42 122 122c0 56 -30 89 -83 89c-56 0 -91 -31 -104 -87h-108c21 113 106 176 219 176c116 0 194 -67 194 -171
c0 -88 -52 -157 -146 -173c73 -15 122 -70 122 -154c0 -134 -92 -223 -233 -223z" />
    <glyph glyph-name="uni0449.bgr" horiz-adv-x="908" 
d="M737 -127l10 127h-79c-3 28 0 61 4 94c-35 -64 -98 -105 -171 -105c-72 0 -123 32 -139 107c-49 -79 -117 -107 -180 -107c-100 0 -172 61 -148 216l50 318h121l-50 -317c-12 -80 11 -117 74 -117c59 0 119 41 132 128l48 306h120l-50 -321c-12 -76 14 -113 74 -113
c63 0 118 44 133 128l48 306h121l-69 -433h85l-34 -217h-100z" />
    <glyph glyph-name="three.den" horiz-adv-x="340" 
d="M138 -6c-77 0 -143 32 -143 120h85c1 -32 17 -54 56 -54c27 0 56 15 56 51c0 27 -17 41 -51 41h-25l8 58h30c33 0 54 15 54 44c0 24 -12 39 -43 39s-52 -17 -59 -48h-82c9 72 67 115 147 115c64 0 125 -24 125 -95c0 -41 -27 -71 -70 -84c33 -7 59 -31 59 -76
c0 -73 -70 -111 -147 -111z" />
    <glyph glyph-name="uni044A.bgr" horiz-adv-x="570" 
d="M40 433l14 90h243l-28 -173c9 0 42 1 65 1c135 0 203 -64 203 -164c0 -120 -88 -197 -224 -197c-145 0 -208 89 -186 223l35 220h-122zM316 79c65 0 98 45 98 101c0 53 -28 85 -92 85c-19 0 -54 -1 -66 -2l-12 -70c-12 -76 13 -114 72 -114z" />
    <glyph glyph-name="four.den" horiz-adv-x="351" 
d="M161 69h-178l6 34l193 252h114l-35 -222h46l-10 -64h-46l-11 -69h-90zM173 133l24 153l-113 -153h89z" />
    <glyph glyph-name="five.den" horiz-adv-x="331" 
d="M131 -6c-71 0 -136 28 -139 113h87c3 -27 17 -44 50 -44c32 0 55 23 55 64c0 31 -15 48 -50 48c-27 0 -42 -10 -57 -27h-61l40 207h237l-11 -68h-170l-15 -83c15 17 40 33 80 33c57 0 101 -35 101 -102c-1 -89 -59 -140 -147 -141z" />
    <glyph glyph-name="six.den" horiz-adv-x="352" 
d="M152 -6c-87 0 -142 47 -142 134c0 15 1 30 4 46l2 13c17 109 84 173 175 173c66 0 121 -29 124 -102h-85c-4 23 -16 34 -43 34c-40 0 -66 -35 -79 -99c19 23 46 38 86 38c57 0 107 -35 107 -100c0 -87 -64 -137 -149 -137zM101 110c0 -27 16 -52 52 -52c32 0 57 24 57 65
c0 28 -14 50 -49 50c-33 0 -60 -22 -60 -63z" />
    <glyph glyph-name="seven.den" horiz-adv-x="302" 
d="M171 281h-155l12 74h275l-3 -11l-183 -344h-96z" />
    <glyph glyph-name="florin.tab" 
d="M128 414h107l25 131c24 128 109 179 209 179c40 0 65 -6 84 -14l-14 -92c-16 7 -36 10 -63 10c-47 0 -86 -25 -98 -93l-23 -121h139l-14 -90h-142l-94 -506h-121l95 506h-105z" />
    <glyph glyph-name="uni0431.locl" horiz-adv-x="599" 
d="M278 -10c-143 0 -246 91 -246 235c0 152 96 254 229 270c15 5 43 5 42 5c-102 43 -185 82 -185 154c0 67 49 111 146 111h168c67 0 113 7 138 14l-15 -95c-17 -8 -71 -18 -132 -18h-166c-31 0 -41 -10 -41 -29c0 -24 29 -40 72 -59c115 -48 277 -115 277 -287
c0 -174 -117 -301 -287 -301zM282 84c103 0 160 91 160 208c0 84 -43 139 -127 139c-99 0 -160 -90 -160 -207c0 -81 38 -140 127 -140z" />
    <glyph glyph-name="yen.tab" 
d="M92 350h150l-133 365h136l88 -278l173 278h128l-240 -365h152l-10 -63h-162l-11 -67h162l-10 -64h-162l-24 -156h-132l24 156h-160l10 64h160l11 67h-160z" />
    <glyph glyph-name="eight.den" horiz-adv-x="344" 
d="M143 -6c-70 0 -143 25 -143 100c0 55 32 83 79 98c-25 13 -42 35 -42 64c0 69 67 104 136 104c61 0 128 -28 128 -94c0 -43 -22 -66 -62 -81c35 -15 53 -41 53 -77c0 -80 -73 -114 -149 -114zM93 105c0 -27 16 -46 51 -46c31 0 57 16 57 53c0 28 -18 47 -50 47
c-31 0 -58 -18 -58 -54zM122 251c0 -24 19 -39 43 -39c29 0 50 15 50 46c0 23 -18 39 -45 39c-25 0 -48 -15 -48 -46z" />
    <glyph glyph-name="nine.den" horiz-adv-x="352" 
d="M169 360c87 0 139 -44 140 -127c0 -20 -1 -41 -4 -57l-2 -13c-17 -113 -75 -169 -172 -169c-72 0 -126 28 -130 104h85c4 -23 13 -36 48 -36c43 0 66 36 77 99c-19 -23 -46 -37 -86 -37c-56 0 -107 35 -107 99c0 85 67 137 151 137zM218 244c0 27 -15 52 -50 52
c-32 0 -59 -24 -59 -65c0 -28 14 -50 49 -50c33 0 60 22 60 63z" />
    <glyph glyph-name="zero.sub" horiz-adv-x="382" 
d="M87 40c0 -37 14 -74 62 -74c61 0 81 80 81 147c0 39 -15 75 -59 75c-69 0 -84 -94 -84 -148zM145 -106c-93 0 -151 55 -151 147c0 116 62 219 180 219c91 0 149 -52 149 -148c0 -119 -58 -218 -178 -218z" />
    <glyph glyph-name="one.sub" horiz-adv-x="257" 
d="M88 163l-89 -51l12 80l104 63h82l-57 -355h-93z" />
    <glyph glyph-name="sterling.tab" 
d="M59 389h61c-3 27 -4 54 -4 83c0 144 88 252 251 252c137 0 221 -66 216 -209h-119c-1 65 -27 104 -100 104c-95 0 -124 -76 -124 -160c0 -25 0 -47 1 -70h192l-13 -85h-175c1 -12 1 -24 1 -36c0 -51 -6 -90 -29 -129c53 -15 101 -38 140 -38c41 0 73 17 81 73h113
c-16 -113 -77 -183 -189 -183c-88 0 -156 59 -210 59c-35 0 -51 -23 -58 -50h-100c8 64 49 126 113 145c17 32 25 68 25 108c0 16 -1 33 -3 51h-83z" />
    <glyph glyph-name="two.sub" horiz-adv-x="317" 
d="M-49 -86l149 131c44 39 77 70 77 106c0 27 -16 39 -39 39c-28 0 -48 -18 -59 -61h-86c13 85 72 131 151 131c65 0 125 -28 125 -103c0 -54 -36 -89 -100 -142l-54 -47h126l-10 -68h-282z" />
    <glyph glyph-name="three.sub" horiz-adv-x="340" 
d="M122 -106c-77 0 -143 32 -143 120h85c1 -32 17 -54 56 -54c27 0 56 15 56 51c0 27 -17 41 -51 41h-25l8 58h30c33 0 54 15 54 44c0 24 -12 39 -43 39s-52 -17 -59 -48h-82c9 72 67 115 147 115c64 0 125 -24 125 -95c0 -41 -27 -71 -70 -84c33 -7 59 -31 59 -76
c0 -73 -70 -111 -147 -111z" />
    <glyph glyph-name="four.sub" horiz-adv-x="351" 
d="M145 -31h-178l6 34l193 252h114l-35 -222h46l-10 -64h-46l-11 -69h-90zM157 33l24 153l-113 -153h89z" />
    <glyph glyph-name="space.tab" horiz-adv-x="304" 
 />
    <glyph glyph-name="uni0433.bgr" horiz-adv-x="481" 
d="M216 -11c-117 0 -198 53 -198 146c1 97 75 147 202 174c95 21 116 43 116 85c0 33 -24 54 -76 54c-49 0 -84 -29 -95 -72h-112c21 106 112 158 213 158c113 0 187 -51 187 -142c0 -95 -60 -142 -199 -169c-93 -19 -114 -47 -114 -90c0 -35 32 -55 79 -55
c64 0 96 33 107 84h114c-21 -109 -104 -173 -224 -173z" />
    <glyph glyph-name="uni043F.bgr" 
d="M87 361c11 73 13 117 16 162h116c0 -28 -2 -65 -6 -98c37 61 96 109 181 109c105 0 175 -62 151 -220l-50 -314h-121l50 320c13 76 -13 114 -77 114c-76 0 -136 -48 -149 -136l-47 -298h-121z" />
    <glyph glyph-name="uni0448.bgr" horiz-adv-x="887" 
d="M797 159c-11 -71 -15 -116 -12 -159h-117c-3 28 0 61 4 94c-35 -64 -98 -105 -171 -105c-72 0 -123 32 -139 107c-49 -79 -117 -107 -180 -107c-100 0 -172 61 -148 216l50 318h121l-50 -317c-12 -80 11 -117 74 -117c59 0 119 41 132 128l48 306h120l-50 -321
c-12 -76 14 -113 74 -113c63 0 118 44 133 128l48 306h121z" />
    <glyph glyph-name="uni044E.bgr" horiz-adv-x="806" 
d="M495 -10c-133 0 -224 83 -232 214c-1 3 -1 12 -2 16h-75l-34 -220h-121l120 765h120l-70 -455h69c32 132 132 223 266 223c140 0 237 -87 237 -234c0 -180 -112 -309 -278 -309zM498 84c100 0 151 93 151 216c0 84 -36 139 -117 139c-96 0 -151 -92 -151 -215
c0 -81 33 -140 117 -140z" />
    <glyph glyph-name="nine.old" horiz-adv-x="631" 
d="M341 629c168 0 248 -104 248 -244c0 -39 -3 -68 -8 -101l-5 -32c-40 -245 -157 -357 -326 -357c-128 0 -221 61 -226 194h121c8 -63 40 -95 109 -95c103 0 160 74 193 253c-36 -47 -95 -83 -179 -83c-119 0 -205 74 -205 202c0 154 119 263 278 263zM464 405
c0 75 -39 129 -128 129c-84 0 -145 -68 -145 -159c0 -68 39 -122 122 -122c84 0 151 63 151 152z" />
    <glyph glyph-name="eight.old" horiz-adv-x="622" 
d="M287 -10c-129 0 -253 65 -253 194c0 108 74 176 165 200c-56 27 -87 73 -87 134c0 128 116 207 248 207c108 0 224 -54 224 -182c0 -87 -55 -141 -134 -169c71 -29 112 -83 112 -155c0 -148 -123 -229 -275 -229zM165 198c0 -65 47 -111 128 -111c71 0 140 45 140 135
c0 65 -44 110 -124 110c-77 0 -144 -46 -144 -134zM234 513c0 -55 41 -94 109 -94c64 0 118 40 118 115c0 57 -41 97 -105 97c-68 0 -122 -43 -122 -118z" />
    <glyph glyph-name="seven.old" horiz-adv-x="546" 
d="M396 515h-331l16 103h496l-2 -15l-391 -698h-135z" />
    <glyph glyph-name="six.old" horiz-adv-x="631" 
d="M302 -10c-166 0 -251 101 -251 242c0 33 5 76 10 108l5 32c37 234 161 353 324 353c123 0 213 -58 218 -186h-121c-7 55 -35 87 -104 87c-91 0 -157 -78 -189 -254c35 47 95 83 179 83c120 0 204 -76 204 -203c0 -156 -118 -262 -275 -262zM177 218
c0 -76 38 -133 129 -133c84 0 143 68 143 159c0 68 -38 122 -121 122c-85 0 -151 -61 -151 -148z" />
    <glyph glyph-name="uni0434.bgr" horiz-adv-x="630" 
d="M281 114c92 0 166 75 166 196c0 81 -53 130 -129 130c-98 0 -155 -90 -155 -189c0 -81 39 -137 118 -137zM523 28c-23 -148 -109 -220 -270 -220c-178 0 -241 87 -249 174h121c8 -45 44 -82 125 -82c99 0 138 49 153 133l12 74c-39 -56 -91 -85 -167 -85
c-123 0 -210 85 -210 222c0 163 109 290 260 290c92 0 144 -45 169 -97l14 86h120z" />
    <glyph glyph-name="five.old" horiz-adv-x="590" 
d="M127 104c7 -68 42 -111 123 -111c95 0 145 68 145 164c0 63 -36 120 -120 120c-69 0 -111 -26 -147 -62h-64l70 404h422l-16 -103h-325l-34 -202c33 31 82 55 146 55c120 0 198 -84 198 -200c0 -163 -105 -274 -278 -274c-132 0 -234 66 -239 209h119z" />
    <glyph glyph-name="uni0438.bgr" horiz-adv-x="601" 
d="M512 159c-11 -71 -15 -116 -12 -159h-117c-3 28 -1 61 4 94c-39 -60 -92 -104 -176 -104c-110 0 -177 66 -153 219l50 314h121l-52 -324c-11 -73 13 -114 76 -114c76 0 133 48 148 136l47 302h121z" />
    <glyph glyph-name="uni043F.locl" horiz-adv-x="601" 
d="M189 712h340l-12 -78h-340zM512 159c-11 -71 -15 -116 -12 -159h-117c-3 28 -1 61 4 94c-39 -60 -92 -104 -176 -104c-110 0 -177 66 -153 219l50 314h121l-52 -324c-11 -73 13 -114 76 -114c76 0 133 48 148 136l47 302h121z" />
    <glyph glyph-name="one.num" horiz-adv-x="257" 
d="M160 623l-89 -51l12 80l104 63h82l-57 -355h-93z" />
    <glyph glyph-name="five.sub" horiz-adv-x="331" 
d="M115 -106c-71 0 -136 28 -139 113h87c3 -27 17 -44 50 -44c32 0 55 23 55 64c0 31 -15 48 -50 48c-27 0 -42 -10 -57 -27h-61l40 207h237l-11 -68h-170l-15 -83c15 17 40 33 80 33c57 0 101 -35 101 -102c-1 -89 -59 -140 -147 -141z" />
    <glyph glyph-name="uni044C.bgr" horiz-adv-x="496" 
d="M240 -10c-144 0 -209 89 -187 223l50 310h121l-28 -173c9 0 42 1 65 1c133 0 203 -64 203 -164c0 -120 -89 -197 -224 -197zM243 79c65 0 97 45 97 101c0 53 -28 85 -92 85c-18 0 -55 -2 -66 -2l-11 -70c-12 -76 12 -114 72 -114z" />
    <glyph glyph-name="three.old" horiz-adv-x="608" 
d="M269 -105c-149 0 -259 76 -259 230h117c5 -89 53 -133 143 -133c80 1 139 43 139 130c0 72 -40 108 -121 108h-49l14 91h53c79 0 127 32 127 116c0 68 -43 95 -106 95c-72 0 -121 -41 -140 -120h-115c21 131 120 217 265 217c118 0 219 -56 219 -181
c0 -84 -45 -146 -132 -173c69 -23 111 -71 111 -155c0 -140 -119 -225 -266 -225z" />
    <glyph glyph-name="uni0439.bgr" horiz-adv-x="601" 
d="M351 606c-87 0 -143 56 -144 141h88c3 -37 20 -63 57 -63c39 0 59 24 64 63h87c-11 -87 -73 -141 -152 -141zM512 159c-11 -71 -15 -116 -12 -159h-117c-3 28 -1 61 4 94c-39 -60 -92 -104 -176 -104c-110 0 -177 66 -153 219l50 314h121l-52 -324
c-11 -73 13 -114 76 -114c76 0 133 48 148 136l47 302h121z" />
    <glyph glyph-name="uni0414.bgr" horiz-adv-x="712" 
d="M408 608l-241 -501h325zM49 -130h-115l38 237h71l300 608h174l107 -608h71l-38 -237h-115l16 130h-483z" />
    <glyph glyph-name="uni0416.bgr" horiz-adv-x="915" 
d="M406 345l-313 -345h-149l353 385l-202 330h133l185 -324l51 324h131l-51 -324l291 324h145l-324 -346l219 -369h-138l-200 347l-55 -347h-131z" />
    <glyph glyph-name="uni041A.bgr" horiz-adv-x="659" 
d="M228 343l-54 -343h-134l113 715h134l-50 -319l323 319h148l-354 -344l249 -371h-146z" />
    <glyph glyph-name="uni0436.bgr" horiz-adv-x="753" 
d="M320 266l-216 -266h-139l248 293l-132 230h122l121 -232l76 474h118l-75 -475l195 233h132l-218 -245l147 -278h-128l-132 264l-42 -264h-119z" />
    <glyph glyph-name="two.old" horiz-adv-x="563" 
d="M-26 23l278 220c64 51 153 122 153 199c0 60 -37 89 -97 89c-69 0 -117 -43 -137 -134h-115c24 147 123 232 262 232c119 0 218 -59 215 -179c0 -109 -80 -170 -193 -257l-124 -96h275l-15 -97h-506z" />
    <glyph glyph-name="one.old" horiz-adv-x="410" 
d="M217 491l-163 -100l17 114l181 114h112l-98 -619h-126z" />
    <glyph glyph-name="uni0432.bgr" horiz-adv-x="515" 
d="M236 -11c-161 0 -218 118 -191 269l52 302c21 130 93 215 237 215c121 0 191 -81 183 -187c-8 -88 -61 -165 -152 -181c81 -19 119 -91 112 -179c-11 -126 -97 -239 -241 -239zM329 687c-70 0 -95 -51 -109 -116l-24 -119h79c79 0 117 53 124 133c7 68 -23 102 -70 102z
M238 79c74 0 114 72 119 155c5 80 -26 131 -98 131h-79l-20 -117c-19 -112 9 -169 78 -169z" />
    <glyph glyph-name="zero.old" horiz-adv-x="659" 
d="M181 305c-3 -23 -5 -44 -5 -63c0 -92 40 -152 140 -152c93 0 147 65 167 192l5 33c4 23 5 47 5 66c0 93 -43 149 -135 149c-95 0 -152 -64 -172 -192zM312 -10c-164 0 -264 100 -264 257c0 21 2 44 5 67l6 33c27 181 146 282 301 282c163 0 261 -99 261 -254
c0 -21 -1 -47 -5 -70l-6 -33c-28 -183 -135 -282 -298 -282z" />
    <glyph glyph-name="uni0424.bgr" horiz-adv-x="869" 
d="M325 -10l10 62c-173 17 -281 113 -281 280v6c0 205 148 325 377 336l9 51h132l-8 -51c172 -16 280 -114 280 -279v-8c0 -203 -147 -324 -377 -335l-10 -62h-132zM184 337c0 -116 63 -179 166 -190l67 434c-148 -12 -233 -96 -233 -237v-7zM714 385
c0 117 -62 183 -165 194l-68 -434c149 13 233 93 233 234v6z" />
    <glyph glyph-name="yen.old" horiz-adv-x="590" 
d="M86 339h143l-139 355h135l98 -280l182 280h128l-243 -355h145l-9 -61h-161l-11 -66h160l-9 -61h-160l-24 -151h-128l23 151h-160l9 61h161l10 66h-160z" />
    <glyph glyph-name="sterling.old" horiz-adv-x="605" 
d="M61 377h60c-3 27 -4 52 -4 80c0 140 89 245 252 245c129 0 219 -60 219 -203h-123c-3 64 -27 103 -99 103c-94 0 -124 -72 -124 -156c0 -25 0 -46 1 -69h196l-14 -82h-178c1 -15 1 -28 1 -43c0 -45 -7 -83 -28 -119c55 -15 104 -38 141 -38c43 0 71 18 80 73h114
c-15 -104 -75 -177 -188 -177c-87 0 -164 57 -215 57c-35 0 -53 -23 -58 -48h-100c9 61 48 124 115 141c16 29 24 63 24 103c0 16 -1 33 -3 51h-82z" />
    <glyph glyph-name="Euro.old" horiz-adv-x="675" 
d="M55 438h65c35 155 134 264 297 264c145 0 234 -77 237 -226h-122c-3 67 -35 127 -119 127c-93 0 -142 -64 -166 -165h195l-19 -61h-187l-11 -65h178l-19 -61h-165c-3 -77 22 -159 133 -159c73 0 132 38 157 141h118c-32 -164 -139 -243 -280 -243
c-173 0 -256 113 -253 261h-68l9 61h65l9 65h-64z" />
    <glyph glyph-name="uni0442.bgr" horiz-adv-x="909" 
d="M87 361c11 73 13 117 16 162h116c0 -28 -1 -59 -5 -94c36 61 97 105 169 105s124 -32 140 -107c48 77 117 107 180 107c101 0 171 -61 147 -216l-50 -318h-121l50 317c13 80 -12 117 -73 117c-58 0 -120 -41 -133 -128l-48 -306h-120l50 321c12 75 -13 113 -74 113
c-63 0 -119 -44 -132 -128l-48 -306h-121z" />
    <glyph glyph-name="six.sub" horiz-adv-x="352" 
d="M136 -106c-87 0 -142 47 -142 134c0 15 1 30 4 46l2 13c17 109 84 173 175 173c66 0 121 -29 124 -102h-85c-4 23 -16 34 -43 34c-40 0 -66 -35 -79 -99c19 23 46 38 86 38c57 0 107 -35 107 -100c0 -87 -64 -137 -149 -137zM85 10c0 -27 16 -52 52 -52c32 0 57 24 57 65
c0 28 -14 50 -49 50c-33 0 -60 -22 -60 -63z" />
    <glyph glyph-name="seven.sub" horiz-adv-x="302" 
d="M155 181h-155l12 74h275l-3 -11l-183 -344h-96z" />
    <glyph glyph-name="eight.sub" horiz-adv-x="344" 
d="M127 -106c-70 0 -143 25 -143 100c0 55 32 83 79 98c-25 13 -42 35 -42 64c0 69 67 104 136 104c61 0 128 -28 128 -94c0 -43 -22 -66 -62 -81c35 -15 53 -41 53 -77c0 -80 -73 -114 -149 -114zM77 5c0 -27 16 -46 51 -46c31 0 57 16 57 53c0 28 -18 47 -50 47
c-31 0 -58 -18 -58 -54zM106 151c0 -24 19 -39 43 -39c29 0 50 15 50 46c0 23 -18 39 -45 39c-25 0 -48 -15 -48 -46z" />
    <glyph glyph-name="nine.sub" horiz-adv-x="352" 
d="M153 260c87 0 139 -44 140 -127c0 -20 -1 -41 -4 -57l-2 -13c-17 -113 -75 -169 -172 -169c-72 0 -126 28 -130 104h85c4 -23 13 -36 48 -36c43 0 66 36 77 99c-19 -23 -46 -37 -86 -37c-56 0 -107 35 -107 99c0 85 67 137 151 137zM202 144c0 27 -15 52 -50 52
c-32 0 -59 -24 -59 -65c0 -28 14 -50 49 -50c33 0 60 22 60 63z" />
    <glyph glyph-name="hungarumlaut.uc" horiz-adv-x="404" 
d="M203 901h119l-84 -135h-84zM373 901h119l-84 -135h-85z" />
    <glyph glyph-name="dollar.old" horiz-adv-x="620" 
d="M298 -10l-19 -121h-65l20 126c-129 20 -208 102 -209 219h120c3 -60 32 -109 103 -126l35 220c-125 35 -190 83 -190 189c0 119 107 202 252 205l14 87h65l-15 -91c108 -16 183 -77 187 -194h-116c-5 60 -37 88 -85 100l-32 -203c129 -38 200 -84 200 -191
c0 -135 -106 -220 -263 -220h-2zM442 195c0 45 -22 72 -97 96l-33 -208c84 3 130 43 130 112zM210 509c0 -41 19 -65 90 -90l30 191c-76 -3 -120 -42 -120 -101z" />
    <glyph glyph-name="tilde.uc" horiz-adv-x="404" 
d="M347 768c-50 0 -85 39 -114 39c-19 0 -35 -15 -42 -40h-77c16 87 62 131 118 131c51 0 84 -40 115 -40c19 0 34 15 41 40h76c-16 -85 -62 -130 -117 -130z" />
    <glyph glyph-name="ring.uc" horiz-adv-x="404" 
d="M293 807c29 0 51 23 51 56c0 32 -18 54 -49 54c-29 0 -51 -22 -51 -57c0 -31 18 -53 49 -53zM293 753c-62 0 -111 48 -111 107c0 62 52 111 113 111c62 0 111 -48 111 -108c0 -61 -52 -110 -113 -110z" />
    <glyph glyph-name="dotaccent.uc" horiz-adv-x="404" 
d="M291 775c-40 0 -71 29 -71 68s32 69 71 69c40 0 71 -29 71 -68s-32 -69 -71 -69z" />
    <glyph glyph-name="breve.uc" horiz-adv-x="404" 
d="M293 761c-85 0 -142 56 -142 140h85c4 -37 24 -56 59 -56c36 0 58 19 65 56h84c-9 -85 -72 -140 -151 -140z" />
    <glyph glyph-name="caron.uc" horiz-adv-x="404" 
d="M334 766h-105l-91 135h84l67 -55l82 55h90z" />
    <glyph glyph-name="circumflex.uc" horiz-adv-x="404" 
d="M244 901h105l92 -135h-85l-67 55l-82 -55h-89z" />
    <glyph glyph-name="acute.uc" horiz-adv-x="404" 
d="M291 901h138l-111 -135h-94z" />
    <glyph glyph-name="uni041B.bgr" horiz-adv-x="685" 
d="M393 606l-289 -606h-128l352 715h174l123 -715h-134z" />
    <glyph glyph-name="macron.uc" horiz-adv-x="404" 
d="M150 861h288l-13 -81h-288z" />
    <glyph glyph-name="dieresis.uc" horiz-adv-x="404" 
d="M185 777c-36 0 -66 28 -66 64s31 66 67 66s65 -29 65 -65c0 -35 -30 -65 -66 -65zM396 777c-36 0 -66 28 -66 64s30 66 67 66c36 0 65 -29 65 -65c0 -35 -30 -65 -66 -65z" />
    <glyph glyph-name="grave.uc" horiz-adv-x="404" 
d="M163 901h134l37 -135h-88z" />
    <glyph glyph-name="at.uc" horiz-adv-x="923" 
d="M465 -67c-262 0 -403 188 -403 385c0 261 210 436 439 436c232 0 386 -147 386 -343c0 -202 -115 -270 -205 -270c-80 0 -114 31 -122 82c-29 -51 -83 -87 -146 -87c-93 0 -148 65 -151 161c0 144 92 241 201 241c67 0 99 -30 112 -63l9 55h108l-40 -254
c-8 -48 6 -72 41 -72c55 0 117 56 117 208c0 158 -113 274 -312 274c-200 0 -356 -140 -356 -371c0 -164 105 -314 325 -314c111 0 184 29 241 80h83c-59 -89 -181 -148 -327 -148zM449 219c53 0 110 53 110 148c0 56 -28 87 -83 87c-52 0 -105 -51 -102 -151
c0 -49 28 -84 75 -84z" />
    <glyph glyph-name="bar.uc" horiz-adv-x="263" 
d="M98 777h90l1 -861h-90z" />
    <glyph glyph-name="backslash.uc" horiz-adv-x="422" 
d="M97 777h99l152 -861h-99z" />
    <glyph glyph-name="slash.uc" horiz-adv-x="419" 
d="M371 777h105l-410 -861h-104z" />
    <glyph glyph-name="braceright.uc" horiz-adv-x="400" 
d="M123 781c168 -7 233 -84 185 -229l-20 -57c-21 -63 -4 -109 90 -112l-14 -86c-95 1 -125 -29 -122 -100l2 -78c5 -156 -80 -212 -259 -209l14 89c99 3 131 31 128 125l-1 78c-1 87 47 128 118 144c-72 19 -95 74 -70 153l19 60c31 93 4 127 -84 132z" />
    <glyph glyph-name="braceleft.uc" horiz-adv-x="400" 
d="M297 -90c-168 7 -232 84 -184 229l19 57c21 63 3 109 -89 112l13 86c93 0 126 30 123 100l-3 78c-5 156 83 212 259 209l-14 -89c-99 -3 -131 -31 -128 -125l1 -78c3 -87 -47 -127 -118 -143c72 -19 96 -75 71 -154l-20 -60c-31 -93 -4 -127 85 -132z" />
    <glyph glyph-name="bracketright.uc" horiz-adv-x="381" 
d="M0 4h135l108 685h-135l15 91h256l-138 -868h-256z" />
    <glyph glyph-name="bracketleft.uc" horiz-adv-x="381" 
d="M160 780h257l-15 -91h-135l-108 -685h135l-15 -92h-256z" />
    <glyph glyph-name="space_uni0326" horiz-adv-x="404" 
d="M51 -198l63 165l110 -22l-105 -170z" />
    <glyph glyph-name="parenright.uc" horiz-adv-x="339" 
d="M202 784c55 -82 104 -194 104 -343c0 -215 -94 -394 -242 -539h-111c143 165 233 327 233 543c0 137 -40 251 -87 339h103z" />
    <glyph glyph-name="parenleft.uc" horiz-adv-x="339" 
d="M157 -98c-55 82 -104 194 -104 343c0 215 93 391 242 539h110c-144 -166 -232 -328 -232 -543c0 -137 39 -251 87 -339h-103z" />
    <glyph glyph-name="guillemotright.uc" horiz-adv-x="496" 
d="M459 299l-154 -189h-99l154 191l-96 191h93zM280 299l-155 -189h-98l153 193l-94 189h93z" />
    <glyph glyph-name="guillemotleft.uc" horiz-adv-x="496" 
d="M47 303l155 189h98l-153 -191l95 -191h-93zM227 303l154 189h98l-153 -193l94 -189h-93z" />
    <glyph glyph-name="guilsinglright.uc" horiz-adv-x="320" 
d="M282 298l-157 -188h-101l156 191l-94 191h95z" />
    <glyph glyph-name="uni0442.locl" horiz-adv-x="887" 
d="M190 712h608l-12 -78h-608zM797 159c-11 -71 -15 -116 -12 -159h-117c-3 28 0 61 4 94c-35 -64 -98 -105 -171 -105c-72 0 -123 32 -139 107c-49 -79 -117 -107 -180 -107c-100 0 -172 61 -148 216l50 318h121l-50 -317c-12 -80 11 -117 74 -117c59 0 119 41 132 128
l48 306h120l-50 -321c-12 -76 14 -113 74 -113c63 0 118 44 133 128l48 306h121z" />
    <glyph glyph-name="guilsinglleft.uc" horiz-adv-x="320" 
d="M47 304l158 188h100l-155 -191l93 -191h-94z" />
    <glyph glyph-name="emdash.uc" horiz-adv-x="913" 
d="M62 369h818l-13 -84h-819z" />
    <glyph glyph-name="idotaccent" horiz-adv-x="275" 
d="M198 609c-40 0 -71 30 -71 69s32 70 72 70s71 -30 71 -69s-32 -70 -72 -70zM116 523h121l-83 -523h-121z" />
    <glyph glyph-name="endash.uc" horiz-adv-x="536" 
d="M62 369h441l-14 -84h-441z" />
    <glyph glyph-name="plus.sub" horiz-adv-x="350" 
d="M102 45h-99l11 68h99l17 104h71l-17 -104h99l-11 -68h-99l-16 -103h-71z" />
    <glyph glyph-name="exclamdown.uc" horiz-adv-x="310" 
d="M179 0h-135l99 500h97zM212 721c45 0 79 -33 79 -76c0 -44 -34 -78 -79 -78c-44 0 -80 34 -80 77c0 44 36 77 80 77z" />
    <glyph glyph-name="questiondown.uc" horiz-adv-x="519" 
d="M371 461c-13 -90 -78 -137 -132 -177c-49 -36 -85 -64 -85 -120c0 -47 30 -74 86 -74c60 0 105 37 118 113h117c-19 -140 -114 -213 -242 -212c-137 0 -206 76 -206 167c0 93 58 139 119 184c51 37 105 68 116 132l4 26h111zM340 721c45 0 79 -33 79 -76
c0 -44 -34 -79 -79 -79c-44 0 -80 35 -80 78c0 44 36 77 80 77z" />
    <glyph glyph-name="caron.alt" horiz-adv-x="404" 
d="M259 765h107l-72 -175h-72z" />
    <glyph glyph-name="registered.alt" horiz-adv-x="847" 
d="M288 560h146c96 0 155 -38 155 -122v-2c0 -60 -34 -91 -79 -106l103 -169h-99l-93 152h-38v-152h-95v399zM431 377c43 0 65 18 65 55v3c0 39 -22 52 -65 52h-48v-110h48zM432 32c172 0 321 133 321 327c0 191 -143 324 -319 324s-321 -134 -321 -326
c0 -195 149 -325 319 -325zM432 -13c-206 0 -372 160 -372 370c0 207 165 371 374 371c212 0 373 -163 373 -369c0 -211 -164 -372 -375 -372z" />
    <glyph glyph-name="space_uni0326.alt" horiz-adv-x="404" 
d="M368 753l-64 -165l-109 22l104 169z" />
    <glyph glyph-name="tcommaaccent.alt" horiz-adv-x="359" 
d="M-7 -198l63 165l110 -22l-105 -170zM126 432h-78l14 91h78l18 115h121l-18 -115h107l-14 -91h-107l-68 -432h-121z" />
    <glyph glyph-name="tcaron.alt" horiz-adv-x="359" 
d="M126 432h-78l14 91h78l18 115h121l-18 -115h107l-14 -91h-107l-68 -432h-121zM367 765h107l-72 -175h-72z" />
    <glyph glyph-name="tbar.alt" horiz-adv-x="355" 
d="M33 336h78l15 96h-78l14 91h78l18 115h121l-18 -115h107l-14 -91h-107l-15 -96h107l-12 -75h-107l-41 -261h-121l41 261h-78z" />
    <glyph glyph-name="germandbls.alt" horiz-adv-x="647" 
d="M405 -9c-105 0 -177 49 -180 157h109c3 -43 21 -69 68 -69c41 0 74 21 74 68c0 41 -34 62 -78 93c-48 32 -99 70 -99 129c0 116 171 153 171 241c0 44 -35 67 -92 67c-73 0 -126 -39 -141 -132l-86 -545h-121l87 552c24 150 133 219 270 219c100 0 200 -43 200 -150
c0 -131 -171 -170 -171 -229c0 -21 23 -35 83 -79c55 -39 96 -84 96 -157c0 -101 -80 -165 -190 -165z" />
    <glyph glyph-name="uni043A.bgr" horiz-adv-x="537" 
d="M192 262l-41 -262h-121l121 765h120l-74 -471l221 229h138l-246 -245l175 -278h-134z" />
    <glyph glyph-name="uni043D.bgr" horiz-adv-x="598" 
d="M398 220h-212l-35 -220h-121l83 523h120l-33 -213h213l33 213h121l-83 -523h-121z" />
    <glyph glyph-name="atilde.alt" horiz-adv-x="619" 
d="M310 440c-97 0 -152 -89 -152 -212c0 -89 39 -144 119 -144c87 0 155 86 155 215c0 87 -49 141 -122 141zM235 -10c-120 0 -203 88 -203 229c0 180 103 315 258 315c92 0 138 -49 162 -101l14 90h121l-57 -364c-11 -71 -14 -115 -11 -159h-118c-3 27 -1 63 2 92
c-37 -64 -91 -102 -168 -102zM410 606c-51 0 -83 40 -113 40c-19 0 -35 -16 -42 -40h-74c15 85 59 131 115 131c49 0 83 -39 114 -39c19 0 33 15 40 40h75c-15 -87 -59 -132 -115 -132z" />
    <glyph glyph-name="aringacute.alt" horiz-adv-x="619" 
d="M310 440c-97 0 -152 -89 -152 -212c0 -89 39 -144 119 -144c87 0 155 86 155 215c0 87 -49 141 -122 141zM235 -10c-120 0 -203 88 -203 229c0 180 103 315 258 315c92 0 138 -49 162 -101l14 90h121l-57 -364c-11 -71 -14 -115 -11 -159h-118c-3 27 -1 63 2 92
c-37 -64 -91 -102 -168 -102zM353 629c29 0 51 24 51 57c0 31 -19 53 -48 53c-31 0 -52 -23 -52 -56c0 -32 18 -54 49 -54zM353 576c-61 0 -110 47 -110 107s52 109 113 109s110 -47 110 -106c0 -61 -52 -110 -113 -110zM390 963h138l-111 -135h-94z" />
    <glyph glyph-name="aring.alt" horiz-adv-x="619" 
d="M310 440c-97 0 -152 -89 -152 -212c0 -89 39 -144 119 -144c87 0 155 86 155 215c0 87 -49 141 -122 141zM235 -10c-120 0 -203 88 -203 229c0 180 103 315 258 315c92 0 138 -49 162 -101l14 90h121l-57 -364c-11 -71 -14 -115 -11 -159h-118c-3 27 -1 63 2 92
c-37 -64 -91 -102 -168 -102zM354 643c29 0 51 24 51 57c0 31 -19 53 -48 53c-31 0 -52 -23 -52 -56c0 -32 18 -54 49 -54zM354 590c-61 0 -110 47 -110 107s52 109 113 109s110 -47 110 -106c0 -61 -52 -110 -113 -110z" />
    <glyph glyph-name="uni0433.locl" horiz-adv-x="271" 
d="M99 712h214l-12 -78h-214zM116 523h121l-83 -523h-121z" />
    <glyph glyph-name="uni0446.bgr" horiz-adv-x="621" 
d="M450 -127l10 127h-77c-3 28 -1 61 4 94c-39 -60 -92 -104 -176 -104c-110 0 -177 66 -153 219l50 314h121l-52 -324c-11 -73 13 -114 76 -114c76 0 133 48 148 136l47 302h121l-68 -433h83l-34 -217h-100z" />
    <glyph glyph-name="uni0447.bgr" horiz-adv-x="554" 
d="M318 0l37 237c-29 -28 -74 -57 -137 -57c-111 0 -170 71 -147 220l19 123h121l-21 -134c-11 -72 11 -113 75 -113c60 0 92 22 101 30l35 217h121l-83 -523h-121z" />
    <glyph glyph-name="aogonek.alt" horiz-adv-x="619" 
d="M443 -182c-54 0 -104 20 -104 80c0 51 48 83 89 102h-27c-3 27 -1 63 2 92c-37 -64 -91 -102 -168 -102c-120 0 -203 88 -203 229c0 180 103 315 258 315c92 0 138 -49 162 -101l14 90h121l-57 -364c-11 -69 -15 -113 -12 -156c-28 -21 -73 -46 -73 -85
c0 -19 11 -28 34 -28c15 0 28 3 41 8l-11 -68c-15 -5 -35 -12 -66 -12zM310 440c-97 0 -152 -89 -152 -212c0 -89 39 -144 119 -144c87 0 155 86 155 215c0 87 -49 141 -122 141z" />
    <glyph glyph-name="uni043B.bgr" horiz-adv-x="534" 
d="M479 0h-127l-68 402l-194 -402h-124l269 523h141z" />
    <glyph glyph-name="amacron.alt" horiz-adv-x="619" 
d="M310 440c-97 0 -152 -89 -152 -212c0 -89 39 -144 119 -144c87 0 155 86 155 215c0 87 -49 141 -122 141zM235 -10c-120 0 -203 88 -203 229c0 180 103 315 258 315c92 0 138 -49 162 -101l14 90h121l-57 -364c-11 -71 -14 -115 -11 -159h-118c-3 27 -1 63 2 92
c-37 -64 -91 -102 -168 -102zM221 712h280l-12 -78h-280z" />
    <glyph glyph-name="agrave.alt" horiz-adv-x="619" 
d="M310 440c-97 0 -152 -89 -152 -212c0 -89 39 -144 119 -144c87 0 155 86 155 215c0 87 -49 141 -122 141zM235 -10c-120 0 -203 88 -203 229c0 180 103 315 258 315c92 0 138 -49 162 -101l14 90h121l-57 -364c-11 -71 -14 -115 -11 -159h-118c-3 27 -1 63 2 92
c-37 -64 -91 -102 -168 -102zM213 756h132l44 -155h-87z" />
    <glyph glyph-name="adieresis.alt" horiz-adv-x="619" 
d="M310 440c-97 0 -152 -89 -152 -212c0 -89 39 -144 119 -144c87 0 155 86 155 215c0 87 -49 141 -122 141zM235 -10c-120 0 -203 88 -203 229c0 180 103 315 258 315c92 0 138 -49 162 -101l14 90h121l-57 -364c-11 -71 -14 -115 -11 -159h-118c-3 27 -1 63 2 92
c-37 -64 -91 -102 -168 -102zM252 613c-37 0 -66 28 -66 64s30 66 67 66c36 0 65 -29 65 -65c0 -35 -30 -65 -66 -65zM449 613c-36 0 -65 28 -65 64s30 66 66 66c37 0 65 -29 65 -65c0 -35 -29 -65 -66 -65z" />
    <glyph glyph-name="acircumflex.alt" horiz-adv-x="619" 
d="M310 440c-97 0 -152 -89 -152 -212c0 -89 39 -144 119 -144c87 0 155 86 155 215c0 87 -49 141 -122 141zM235 -10c-120 0 -203 88 -203 229c0 180 103 315 258 315c92 0 138 -49 162 -101l14 90h121l-57 -364c-11 -71 -14 -115 -11 -159h-118c-3 27 -1 63 2 92
c-37 -64 -91 -102 -168 -102zM312 753h95l91 -151h-83l-66 68l-85 -68h-87z" />
    <glyph glyph-name="abreve.alt" horiz-adv-x="619" 
d="M310 440c-97 0 -152 -89 -152 -212c0 -89 39 -144 119 -144c87 0 155 86 155 215c0 87 -49 141 -122 141zM235 -10c-120 0 -203 88 -203 229c0 180 103 315 258 315c92 0 138 -49 162 -101l14 90h121l-57 -364c-11 -71 -14 -115 -11 -159h-118c-3 27 -1 63 2 92
c-37 -64 -91 -102 -168 -102zM348 606c-84 0 -144 56 -141 143h83c4 -39 24 -58 59 -58c38 0 60 19 66 58h83c-9 -88 -71 -143 -150 -143z" />
    <glyph glyph-name="aacute.alt" horiz-adv-x="619" 
d="M310 440c-97 0 -152 -89 -152 -212c0 -89 39 -144 119 -144c87 0 155 86 155 215c0 87 -49 141 -122 141zM235 -10c-120 0 -203 88 -203 229c0 180 103 315 258 315c92 0 138 -49 162 -101l14 90h121l-57 -364c-11 -71 -14 -115 -11 -159h-118c-3 27 -1 63 2 92
c-37 -64 -91 -102 -168 -102zM366 756h136l-122 -155h-91z" />
    <glyph glyph-name="minus.sup" horiz-adv-x="350" 
d="M93 631h269l-12 -69h-269z" />
    <glyph glyph-name="plus.sup" horiz-adv-x="350" 
d="M181 562h-100l12 69h99l16 103h71l-16 -103h99l-12 -69h-99l-15 -102h-71z" />
    <glyph glyph-name="nine.sup" horiz-adv-x="352" 
d="M233 778c87 0 139 -44 140 -127c0 -20 -1 -41 -4 -57l-2 -13c-17 -113 -75 -169 -172 -169c-72 0 -126 28 -130 104h85c4 -23 13 -36 48 -36c43 0 66 36 77 99c-19 -23 -46 -37 -86 -37c-56 0 -107 35 -107 99c0 85 67 137 151 137zM282 662c0 27 -15 52 -50 52
c-32 0 -59 -24 -59 -65c0 -28 14 -50 49 -50c33 0 60 22 60 63z" />
    <glyph glyph-name="eight.sup" horiz-adv-x="344" 
d="M208 412c-70 0 -143 25 -143 100c0 55 32 83 79 98c-25 13 -42 35 -42 64c0 69 67 104 136 104c61 0 128 -28 128 -94c0 -43 -22 -66 -62 -81c35 -15 53 -41 53 -77c0 -80 -73 -114 -149 -114zM158 523c0 -27 16 -46 51 -46c31 0 57 16 57 53c0 28 -18 47 -50 47
c-31 0 -58 -18 -58 -54zM187 669c0 -24 19 -39 43 -39c29 0 50 15 50 46c0 23 -18 39 -45 39c-25 0 -48 -15 -48 -46z" />
    <glyph glyph-name="seven.sup" horiz-adv-x="302" 
d="M236 699h-155l12 74h275l-3 -11l-183 -344h-96z" />
    <glyph glyph-name="six.sup" horiz-adv-x="352" 
d="M217 412c-87 0 -142 47 -142 134c0 15 1 30 4 46l2 13c17 109 84 173 175 173c66 0 121 -29 124 -102h-85c-4 23 -16 34 -43 34c-40 0 -66 -35 -79 -99c19 23 46 38 86 38c57 0 107 -35 107 -100c0 -87 -64 -137 -149 -137zM166 528c0 -27 16 -52 52 -52
c32 0 57 24 57 65c0 28 -14 50 -49 50c-33 0 -60 -22 -60 -63z" />
    <glyph glyph-name="uni0430.alt" horiz-adv-x="615" 
d="M310 440c-97 0 -152 -89 -152 -212c0 -89 39 -144 119 -144c87 0 155 86 155 215c0 87 -49 141 -122 141zM235 -10c-120 0 -203 88 -203 229c0 180 103 315 258 315c92 0 138 -49 162 -101l14 90h121l-57 -364c-11 -71 -14 -115 -11 -159h-118c-3 27 -1 63 2 92
c-37 -64 -91 -102 -168 -102z" />
    <glyph glyph-name="five.sup" horiz-adv-x="331" 
d="M196 412c-71 0 -136 28 -139 113h87c3 -27 17 -44 50 -44c32 0 55 23 55 64c0 31 -15 48 -50 48c-27 0 -42 -10 -57 -27h-61l40 207h237l-11 -68h-170l-15 -83c15 17 40 33 80 33c57 0 101 -35 101 -102c-1 -89 -59 -140 -147 -141z" />
    <glyph glyph-name="uni0434.locl" horiz-adv-x="630" 
d="M281 114c92 0 166 75 166 196c0 81 -53 130 -129 130c-98 0 -155 -90 -155 -189c0 -81 39 -137 118 -137zM523 28c-23 -148 -109 -220 -270 -220c-178 0 -241 87 -249 174h121c8 -45 44 -82 125 -82c99 0 138 49 153 133l12 74c-39 -56 -91 -85 -167 -85
c-123 0 -210 85 -210 222c0 163 109 290 260 290c92 0 144 -45 169 -97l14 86h120z" />
    <glyph glyph-name="four.sup" horiz-adv-x="351" 
d="M226 487h-178l6 34l193 252h114l-35 -222h46l-10 -64h-46l-11 -69h-90zM238 551l24 153l-113 -153h89z" />
    <glyph glyph-name="three.sup" horiz-adv-x="340" 
d="M204 412c-77 0 -143 32 -143 120h85c1 -32 17 -54 56 -54c27 0 56 15 56 51c0 27 -17 41 -51 41h-25l8 58h30c33 0 54 15 54 44c0 24 -12 39 -43 39s-52 -17 -59 -48h-82c9 72 67 115 147 115c64 0 125 -24 125 -95c0 -41 -27 -71 -70 -84c33 -7 59 -31 59 -76
c0 -73 -70 -111 -147 -111z" />
    <glyph glyph-name="two.sup" horiz-adv-x="317" 
d="M31 432l149 131c44 39 77 70 77 106c0 27 -16 39 -39 39c-28 0 -48 -18 -59 -61h-86c13 85 72 131 151 131c65 0 125 -28 125 -103c0 -54 -36 -89 -100 -142l-54 -47h126l-10 -68h-282z" />
    <glyph glyph-name="one.sup" horiz-adv-x="257" 
d="M169 681l-89 -51l12 80l104 63h82l-57 -355h-93z" />
    <glyph glyph-name="zero.sup" horiz-adv-x="382" 
d="M168 558c0 -37 14 -74 62 -74c61 0 81 80 81 147c0 39 -15 75 -59 75c-69 0 -84 -94 -84 -148zM226 412c-93 0 -151 55 -151 147c0 116 62 219 180 219c91 0 149 -52 149 -148c0 -119 -58 -218 -178 -218z" />
    <glyph glyph-name="minus.sub" horiz-adv-x="350" 
d="M14 113h269l-11 -68h-269z" />
    <glyph glyph-name="uni02BC" unicode="&#x2bc;" horiz-adv-x="267" 
d="M82 495l102 232l108 -43l-141 -220z" />
    </font>
</defs>
</svg>
