<?xml version="1.0" standalone="no"?>
<!DOCTYPE svg PUBLIC "-//W3C//DTD SVG 1.1//EN" "http://www.w3.org/Graphics/SVG/1.1/DTD/svg11.dtd" >
<svg xmlns="http://www.w3.org/2000/svg" xmlns:xlink="http://www.w3.org/1999/xlink" version="1.1">
<metadata>
Created by FontForge 20190801 at Mon Jul  4 10:28:09 2016
 By Jimmy Wärting
LCG stand for Latin, Cyrillic and Greek.
</metadata>
<defs>
<font id="GraphikLCG-Medium" horiz-adv-x="604" >
  <font-face 
    font-family="Graphik LCG"
    font-weight="500"
    font-stretch="normal"
    units-per-em="1000"
    panose-1="2 11 6 3 3 2 2 6 2 3"
    ascent="821"
    descent="-179"
    x-height="523"
    cap-height="715"
    bbox="-235 -225 1134 1123"
    underline-thickness="50"
    underline-position="-100"
    stemh="105"
    stemv="121"
    unicode-range="U+000D-FB02"
  />
<missing-glyph horiz-adv-x="512" 
 />
    <glyph glyph-name="f_f" unicode="ff" horiz-adv-x="671" 
d="M93 432h-71v91h71v63c0 117 62 177 175 177c29 0 46 -3 69 -10v-94c-15 5 -31 10 -54 10c-49 0 -69 -32 -69 -77v-69h184v70c0 116 63 177 175 177c31 0 47 -3 70 -10v-94c-15 5 -32 9 -55 9c-49 0 -69 -32 -69 -77v-75h119v-91h-119v-432h-121v432h-184v-432h-121v432z
" />
    <glyph glyph-name=".notdef" horiz-adv-x="512" 
 />
    <glyph glyph-name="NULL" horiz-adv-x="0" 
 />
    <glyph glyph-name="NULL" horiz-adv-x="0" 
 />
    <glyph glyph-name="CR" unicode="&#xd;" horiz-adv-x="242" 
 />
    <glyph glyph-name="space" unicode=" " horiz-adv-x="242" 
 />
    <glyph glyph-name="exclam" unicode="!" horiz-adv-x="309" 
d="M152 -7c-44 0 -80 34 -80 77c0 44 36 78 80 78c45 0 81 -34 81 -78c0 -43 -36 -77 -81 -77zM86 715h135l-19 -500h-98z" />
    <glyph glyph-name="quotedbl" unicode="&#x22;" horiz-adv-x="413" 
d="M53 715h121l-17 -257h-87zM235 715h121l-17 -257h-86z" />
    <glyph glyph-name="numbersign" unicode="#" horiz-adv-x="536" 
d="M283 266h-83l-24 -167h-89l24 167h-77v98h92l16 110h-82v95h96l22 146h88l-21 -146h83l22 146h89l-22 -146h81v-95h-95l-16 -110h85v-98h-100l-24 -167h-89zM215 364h83l16 110h-83z" />
    <glyph glyph-name="dollar" unicode="$" horiz-adv-x="639" 
d="M286 -9c-171 11 -238 110 -249 230h124c8 -63 30 -121 125 -132v225c-148 24 -225 79 -225 206c0 111 89 195 225 203v90h67v-91c129 -12 209 -78 221 -203h-118c-11 61 -42 95 -103 106v-205c147 -24 234 -74 234 -209c0 -117 -87 -209 -234 -220v-126h-67v126zM464 199
c0 57 -24 86 -111 104v-214c68 9 111 50 111 110zM179 531c0 -53 19 -81 107 -100v197c-69 -8 -107 -46 -107 -97z" />
    <glyph glyph-name="percent" unicode="%" horiz-adv-x="805" 
d="M205 456c47 0 76 33 76 93c0 59 -29 93 -76 93s-77 -33 -77 -93c0 -61 30 -93 77 -93zM204 375c-98 0 -174 74 -174 173c0 100 79 174 175 174s173 -72 173 -172c0 -101 -76 -175 -174 -175zM589 715h84l-460 -715h-85zM597 71c47 0 76 33 76 93c0 59 -29 93 -76 93
s-77 -33 -77 -93c0 -61 30 -93 77 -93zM596 -10c-99 0 -173 74 -173 173c0 100 78 174 174 174s174 -72 174 -172c0 -101 -76 -175 -175 -175z" />
    <glyph glyph-name="ampersand" unicode="&#x26;" horiz-adv-x="720" 
d="M568 146l120 -146h-153l-60 73c-45 -47 -104 -82 -196 -82c-140 0 -235 80 -235 204c0 105 65 167 161 212c-37 49 -56 96 -56 141c0 113 93 173 197 173c98 0 180 -59 180 -155c0 -84 -56 -142 -149 -182l126 -154l73 140h109zM293 91c47 0 87 20 120 59l-152 185
c-53 -27 -91 -60 -91 -127c0 -72 44 -117 123 -117zM267 547c0 -33 19 -64 54 -105c68 31 95 63 95 119c0 41 -27 71 -70 71c-44 0 -79 -28 -79 -85z" />
    <glyph glyph-name="quotesingle" unicode="'" horiz-adv-x="233" 
d="M53 715h123l-17 -257h-89z" />
    <glyph glyph-name="parenleft" unicode="(" horiz-adv-x="339" 
d="M213 -148c-85 101 -166 253 -166 461s81 360 166 461h106c-80 -109 -152 -253 -152 -461c0 -207 72 -354 152 -461h-106z" />
    <glyph glyph-name="parenright" unicode=")" horiz-adv-x="339" 
d="M17 -148c80 107 151 254 151 461c0 209 -71 352 -151 461h105c85 -101 166 -253 166 -461s-81 -360 -166 -461h-105z" />
    <glyph glyph-name="asterisk" unicode="*" horiz-adv-x="433" 
d="M72 449l85 102l-120 23l27 89l114 -50l-13 130h100l-13 -130l114 50l26 -89l-121 -23l85 -102l-76 -55l-67 118l-64 -118z" />
    <glyph glyph-name="plus" unicode="+" horiz-adv-x="543" 
d="M219 294h-182v94h182v198h101v-198h183v-94h-183v-198h-101v198z" />
    <glyph glyph-name="comma" unicode="," horiz-adv-x="296" 
d="M28 -90l91 237l115 -46l-131 -224z" />
    <glyph glyph-name="hyphen" unicode="-" horiz-adv-x="357" 
d="M56 329h240v-100h-240v100z" />
    <glyph glyph-name="period" unicode="." horiz-adv-x="293" 
d="M144 -7c-44 0 -79 34 -79 78s35 79 79 79c45 0 80 -35 80 -79s-35 -78 -80 -78z" />
    <glyph glyph-name="slash" unicode="/" horiz-adv-x="419" 
d="M295 776h103l-302 -924h-102z" />
    <glyph glyph-name="zero" unicode="0" horiz-adv-x="705" 
d="M354 96c111 0 163 83 163 246v35c0 153 -57 244 -165 244s-167 -85 -167 -245v-36c0 -163 61 -244 169 -244zM351 -10c-181 0 -300 134 -300 349v36c0 217 120 350 300 350s299 -132 299 -347v-36c0 -215 -112 -352 -299 -352z" />
    <glyph glyph-name="one" unicode="1" horiz-adv-x="423" 
d="M183 583l-151 -103v117l166 118h119v-715h-134v583z" />
    <glyph glyph-name="two" unicode="2" horiz-adv-x="582" 
d="M15 24l270 285c68 72 109 135 109 203s-38 109 -107 109c-72 0 -116 -41 -128 -142h-122c9 157 102 246 254 246c148 0 236 -86 236 -211c0 -93 -55 -173 -140 -256l-159 -155h304v-103h-517v24z" />
    <glyph glyph-name="three" unicode="3" horiz-adv-x="627" 
d="M304 -10c-170 0 -264 95 -269 231h121c7 -75 49 -131 145 -131c93 0 136 44 136 116c0 78 -43 117 -129 117h-55v95h51c83 0 119 37 119 105c0 59 -36 101 -111 101c-76 0 -125 -46 -133 -118h-118c8 124 99 219 253 219c149 0 236 -85 236 -192
c0 -81 -47 -129 -116 -156c84 -19 138 -77 138 -173c0 -132 -104 -214 -268 -214z" />
    <glyph glyph-name="four" unicode="4" horiz-adv-x="645" 
d="M385 145h-354v47l316 523h167v-471h96v-99h-96v-145h-129v145zM387 244v370l-214 -370h214z" />
    <glyph glyph-name="five" unicode="5" horiz-adv-x="608" 
d="M291 -10c-168 0 -247 92 -255 215h124c11 -67 38 -112 130 -112c83 0 129 57 129 145c0 87 -49 141 -129 141c-73 0 -117 -25 -149 -62h-68l6 398h434v-105h-332l-1 -194c28 32 78 60 154 60c129 0 220 -91 220 -240c0 -152 -109 -246 -263 -246z" />
    <glyph glyph-name="six" unicode="6" horiz-adv-x="645" 
d="M331 -10c-208 0 -280 147 -280 335v17c0 248 124 383 296 383c131 0 216 -64 233 -189h-124c-13 55 -41 86 -110 86c-96 0 -159 -84 -163 -248c33 56 92 92 177 92c137 0 235 -94 235 -233c0 -145 -102 -243 -264 -243zM329 88c80 0 134 57 134 142
c0 87 -51 144 -134 144c-81 0 -138 -56 -138 -136c0 -96 57 -150 138 -150z" />
    <glyph glyph-name="seven" unicode="7" horiz-adv-x="549" 
d="M362 607h-333v108h500v-16l-260 -699h-137z" />
    <glyph glyph-name="eight" unicode="8" horiz-adv-x="631" 
d="M314 -10c-141 0 -268 72 -268 212c0 92 54 154 134 182c-67 27 -106 77 -106 149c0 121 116 192 240 192c128 0 239 -72 239 -190c0 -73 -42 -122 -106 -150c84 -31 133 -91 133 -179c0 -141 -122 -216 -266 -216zM314 90c76 0 133 44 133 124c0 79 -57 122 -132 122
c-72 0 -135 -43 -135 -123s62 -123 134 -123zM316 423c65 0 111 39 111 104c0 61 -49 102 -113 102s-113 -39 -113 -103c0 -65 53 -103 115 -103z" />
    <glyph glyph-name="nine" unicode="9" horiz-adv-x="646" 
d="M302 -9c-147 0 -233 71 -250 195h125c13 -56 46 -92 123 -92c103 0 156 81 159 245c-33 -55 -91 -90 -176 -90c-139 0 -237 91 -237 232c0 146 102 245 265 245c187 0 279 -127 279 -332v-37c0 -236 -103 -366 -288 -366zM311 342c81 0 138 53 138 133
c0 96 -56 152 -139 152c-80 0 -133 -57 -133 -142c0 -87 51 -143 134 -143z" />
    <glyph glyph-name="colon" unicode=":" horiz-adv-x="301" 
d="M148 -7c-44 0 -79 34 -79 78s35 79 79 79c45 0 80 -35 80 -79s-35 -78 -80 -78zM148 285c-44 0 -79 35 -79 79s35 78 79 78c45 0 80 -34 80 -78s-35 -79 -80 -79z" />
    <glyph glyph-name="semicolon" unicode=";" horiz-adv-x="307" 
d="M17 -90l91 237l114 -46l-131 -224zM163 285c-45 0 -80 35 -80 79s35 78 80 78c44 0 80 -34 80 -78s-36 -79 -80 -79z" />
    <glyph glyph-name="less" unicode="&#x3c;" horiz-adv-x="511" 
d="M49 309v26l398 228v-112l-234 -128l234 -131v-111z" />
    <glyph glyph-name="equal" unicode="=" horiz-adv-x="517" 
d="M39 276h434v-91h-434v91zM39 463h434v-92h-434v92z" />
    <glyph glyph-name="greater" unicode="&#x3e;" horiz-adv-x="511" 
d="M60 194l234 128l-234 131v111l399 -229v-25l-399 -229v113z" />
    <glyph glyph-name="question" unicode="?" horiz-adv-x="520" 
d="M175 253c0 79 53 127 101 175c37 37 70 70 70 113c0 51 -28 84 -89 84c-63 0 -105 -44 -112 -113h-116c8 131 100 213 234 213c144 0 210 -78 210 -175c0 -70 -42 -118 -88 -161c-47 -45 -95 -86 -98 -142v-32h-112v38zM230 -7c-45 0 -82 34 -82 77c0 44 37 78 82 78
c44 0 80 -34 80 -78c0 -43 -36 -77 -80 -77z" />
    <glyph glyph-name="at" unicode="@" horiz-adv-x="921" 
d="M460 -151c-269 0 -421 189 -421 408c0 252 204 432 436 432c238 0 404 -154 404 -365c0 -192 -109 -263 -199 -263c-84 0 -117 32 -128 84c-28 -52 -79 -89 -143 -89c-99 0 -162 67 -162 179c0 137 88 233 197 233c68 0 102 -30 117 -65l7 57h108l-31 -260
c-7 -49 8 -74 46 -74c56 0 112 57 112 197c0 179 -123 299 -328 299c-203 0 -356 -147 -356 -365c0 -184 115 -341 342 -341c113 0 187 33 244 84h83c-56 -90 -183 -151 -328 -151zM439 141c55 0 109 53 109 145c0 64 -32 96 -89 96c-56 0 -101 -53 -101 -144
c0 -60 32 -97 81 -97z" />
    <glyph glyph-name="A" unicode="A" horiz-adv-x="707" 
d="M266 715h174l236 -715h-138l-57 177h-273l-56 -177h-125zM239 274h211l-105 332z" />
    <glyph glyph-name="B" unicode="B" horiz-adv-x="649" 
d="M82 715h256c148 0 234 -55 234 -186v-4c0 -72 -32 -127 -113 -152c97 -21 143 -73 143 -169v-4c0 -133 -88 -200 -245 -200h-275v715zM341 95c89 0 130 39 130 114v4c0 75 -40 111 -139 111h-120v-229h129zM322 414c88 0 122 32 122 105v4c0 68 -39 97 -124 97h-108v-206
h110z" />
    <glyph glyph-name="C" unicode="C" horiz-adv-x="745" 
d="M395 -10c-224 0 -349 143 -349 363v8c0 215 147 365 347 365c164 0 291 -82 307 -250h-135c-15 96 -67 144 -171 144c-125 0 -208 -98 -208 -258v-8c0 -161 76 -256 209 -256c100 0 168 50 183 151h130c-21 -173 -142 -259 -313 -259z" />
    <glyph glyph-name="D" unicode="D" horiz-adv-x="718" 
d="M293 105c161 0 237 91 237 250v8c0 154 -70 247 -238 247h-77v-505h78zM82 715h217c248 0 370 -142 370 -350v-9c0 -208 -121 -356 -372 -356h-215v715z" />
    <glyph glyph-name="E" unicode="E" horiz-adv-x="588" 
d="M82 715h447v-105h-314v-196h252v-100h-252v-209h331v-105h-464v715z" />
    <glyph glyph-name="F" unicode="F" horiz-adv-x="563" 
d="M82 715h443v-106h-310v-213h244v-103h-244v-293h-133v715z" />
    <glyph glyph-name="G" unicode="G" horiz-adv-x="779" 
d="M403 -10c-229 0 -357 152 -357 363v8c0 213 148 365 357 365c153 0 289 -70 308 -241h-133c-16 96 -80 136 -173 136c-140 0 -221 -104 -221 -261v-8c0 -152 72 -258 221 -258c134 0 188 80 193 180h-180v100h311v-66c0 -197 -123 -318 -326 -318z" />
    <glyph glyph-name="H" unicode="H" horiz-adv-x="755" 
d="M82 715h133v-304h321v304h134v-715h-134v304h-321v-304h-133v715z" />
    <glyph glyph-name="I" unicode="I" horiz-adv-x="311" 
d="M86 715h134v-715h-134v715z" />
    <glyph glyph-name="J" unicode="J" horiz-adv-x="447" 
d="M148 -9c-60 0 -89 9 -112 21v104c25 -11 49 -18 92 -18c65 0 107 34 107 122v495h134v-498c0 -155 -89 -226 -221 -226z" />
    <glyph glyph-name="K" unicode="K" horiz-adv-x="663" 
d="M82 715h133v-324l274 325h143l-296 -342l311 -374h-157l-275 334v-334h-133v715z" />
    <glyph glyph-name="L" unicode="L" horiz-adv-x="555" 
d="M82 715h133v-609h305v-106h-438v715z" />
    <glyph glyph-name="M" unicode="M" horiz-adv-x="894" 
d="M82 715h178l188 -488l184 488h176v-715h-133v540l-213 -540h-43l-217 540v-540h-120v715z" />
    <glyph glyph-name="N" unicode="N" horiz-adv-x="749" 
d="M82 715h159l301 -517v517h121v-715h-138l-322 548v-548h-121v715z" />
    <glyph glyph-name="O" unicode="O" horiz-adv-x="818" 
d="M410 97c135 0 220 103 220 258v8c0 147 -82 256 -222 256s-223 -103 -223 -257v-8c0 -156 95 -257 225 -257zM408 -10c-219 0 -362 157 -362 363v8c0 209 149 364 362 364c212 0 360 -151 360 -361v-8c0 -208 -143 -366 -360 -366z" />
    <glyph glyph-name="P" unicode="P" horiz-adv-x="613" 
d="M82 715h230c160 0 265 -72 265 -221v-4c0 -151 -109 -218 -262 -218h-100v-272h-133v715zM312 368c88 0 135 42 135 122v4c0 85 -50 118 -135 118h-97v-244h97z" />
    <glyph glyph-name="Q" unicode="Q" horiz-adv-x="818" 
d="M546 14c-41 -15 -87 -24 -138 -24c-219 0 -362 157 -362 363v8c0 208 149 363 362 363s361 -152 361 -360v-8c0 -119 -45 -217 -124 -284l79 -85l-80 -78zM409 95c20 0 39 2 56 6l-70 76l81 76l88 -95c43 47 66 114 66 198v8c0 148 -82 255 -222 255
c-141 0 -224 -103 -224 -257v-8c0 -160 96 -259 225 -259z" />
    <glyph glyph-name="R" unicode="R" horiz-adv-x="659" 
d="M82 715h240c157 0 267 -64 267 -210v-4c0 -113 -71 -168 -159 -192l201 -309h-144l-187 289h-85v-289h-133v715zM322 384c91 0 136 38 136 114v4c0 83 -51 110 -136 110h-107v-228h107z" />
    <glyph glyph-name="S" unicode="S" horiz-adv-x="639" 
d="M325 -10c-195 0 -276 97 -287 232h128c8 -72 39 -132 159 -132c80 0 135 43 135 110c0 66 -33 91 -149 110c-171 24 -252 74 -252 209c0 117 100 205 249 205c155 0 245 -70 260 -207h-122c-13 76 -55 107 -138 107c-81 0 -123 -38 -123 -94c0 -59 24 -87 148 -105
c168 -24 255 -70 255 -214c0 -124 -106 -221 -263 -221z" />
    <glyph glyph-name="T" unicode="T" horiz-adv-x="587" 
d="M225 610h-199v105h532v-105h-199v-610h-134v610z" />
    <glyph glyph-name="U" unicode="U" horiz-adv-x="727" 
d="M357 -10c-180 0 -281 97 -281 282v443h134v-433c0 -132 41 -185 148 -185c104 0 155 46 155 194v424h134v-435c0 -188 -99 -290 -290 -290z" />
    <glyph glyph-name="V" unicode="V" horiz-adv-x="687" 
d="M23 715h139l186 -580l187 580h125l-242 -715h-154z" />
    <glyph glyph-name="W" unicode="W" horiz-adv-x="959" 
d="M26 715h136l124 -525l139 525h110l142 -528l128 528h124l-179 -715h-133l-141 521l-145 -521h-127z" />
    <glyph glyph-name="X" unicode="X" horiz-adv-x="699" 
d="M266 367l-214 348h150l152 -254l151 254h137l-211 -345l229 -370h-152l-168 279l-168 -279h-136z" />
    <glyph glyph-name="Y" unicode="Y" horiz-adv-x="633" 
d="M254 310l-237 405h147l161 -296l157 296h130l-224 -406v-309h-134v310z" />
    <glyph glyph-name="Z" unicode="Z" horiz-adv-x="612" 
d="M22 18l365 592h-328v105h516v-17l-357 -591h347v-107h-543v18z" />
    <glyph glyph-name="bracketleft" unicode="[" horiz-adv-x="381" 
d="M79 776h256v-91h-134v-742h134v-91h-256v924z" />
    <glyph glyph-name="backslash" unicode="\" horiz-adv-x="419" 
d="M18 776h102l301 -924h-102z" />
    <glyph glyph-name="bracketright" unicode="]" horiz-adv-x="381" 
d="M42 -57h134v742h-134v91h256v-924h-256v91z" />
    <glyph glyph-name="asciicircum" unicode="^" horiz-adv-x="520" 
d="M202 715h113l166 -313h-112l-112 213l-113 -213h-108z" />
    <glyph glyph-name="underscore" unicode="_" horiz-adv-x="414" 
d="M-1 -85h412v-74h-412v74z" />
    <glyph glyph-name="grave" unicode="`" horiz-adv-x="404" 
d="M59 756h134l59 -155h-89z" />
    <glyph glyph-name="a" unicode="a" horiz-adv-x="559" 
d="M209 -10c-96 0 -175 46 -175 155c0 122 119 166 268 166h65v27c0 71 -23 105 -95 105c-64 0 -93 -30 -100 -82h-117c11 122 107 173 224 173s209 -47 209 -191v-343h-119v64c-35 -45 -80 -74 -160 -74zM238 77c75 0 129 38 129 106v52h-62c-92 0 -151 -21 -151 -85
c0 -44 24 -73 84 -73z" />
    <glyph glyph-name="b" unicode="b" horiz-adv-x="637" 
d="M364 -10c-84 0 -143 41 -171 94v-84h-121v765h121v-326c29 50 94 95 171 95c131 0 232 -98 232 -266v-8c0 -168 -97 -270 -232 -270zM334 86c89 0 138 59 138 172v8c0 116 -60 173 -139 173c-84 0 -144 -56 -144 -173v-8c0 -117 57 -172 145 -172z" />
    <glyph glyph-name="c" unicode="c" horiz-adv-x="579" 
d="M301 -10c-150 0 -264 98 -264 265v8c0 165 117 271 264 271c115 0 226 -52 239 -196h-117c-11 71 -56 99 -120 99c-83 0 -142 -64 -142 -172v-8c0 -115 56 -174 145 -174c64 0 118 37 126 112h111c-8 -120 -101 -205 -242 -205z" />
    <glyph glyph-name="d" unicode="d" horiz-adv-x="637" 
d="M268 -10c-131 0 -230 92 -230 263v8c0 168 99 273 235 273c85 0 138 -39 167 -91v322h121v-765h-121v88c-29 -52 -94 -98 -172 -98zM298 86c84 0 146 56 146 173v8c0 116 -53 172 -141 172c-89 0 -141 -62 -141 -175v-8c0 -115 57 -170 136 -170z" />
    <glyph glyph-name="e" unicode="e" horiz-adv-x="584" 
d="M302 -10c-155 0 -265 102 -265 266v8c0 162 111 270 260 270c130 0 247 -77 247 -264v-35h-383c4 -100 53 -155 144 -155c73 0 111 29 120 80h117c-17 -111 -105 -170 -240 -170zM424 316c-7 91 -51 130 -127 130c-73 0 -122 -49 -134 -130h261z" />
    <glyph glyph-name="f" unicode="f" horiz-adv-x="366" 
d="M93 432h-71v91h71v70c0 116 63 177 176 177c29 0 46 -3 69 -10v-94c-15 5 -32 9 -55 9c-49 0 -69 -32 -69 -77v-75h119v-91h-119v-432h-121v432z" />
    <glyph glyph-name="g" unicode="g" horiz-adv-x="637" 
d="M295 -192c-164 0 -239 74 -252 174h122c11 -52 49 -82 129 -82c95 0 146 46 146 141v77c-29 -50 -94 -97 -171 -97c-131 0 -232 97 -232 249v7c0 147 99 257 235 257c87 0 137 -39 168 -91v80h121v-484c-1 -155 -103 -231 -266 -231zM299 114c84 0 145 60 145 160v7
c0 100 -53 158 -141 158c-91 0 -142 -64 -142 -160v-8c0 -97 60 -157 138 -157z" />
    <glyph glyph-name="h" unicode="h" horiz-adv-x="612" 
d="M72 765h121v-325c25 51 82 94 169 94c105 0 179 -61 179 -205v-329h-121v318c0 80 -32 115 -104 115c-68 0 -123 -42 -123 -125v-308h-121v765z" />
    <glyph glyph-name="i" unicode="i" horiz-adv-x="275" 
d="M75 523h121v-523h-121v523zM134 609c-40 0 -72 30 -72 69c0 40 32 70 72 70s72 -30 72 -70c0 -39 -32 -69 -72 -69z" />
    <glyph glyph-name="j" unicode="j" horiz-adv-x="275" 
d="M3 -95c53 4 72 30 72 74v544h121v-541c0 -107 -49 -167 -193 -170v93zM134 609c-40 0 -72 30 -72 69c0 40 32 70 72 70s72 -30 72 -70c0 -39 -32 -69 -72 -69z" />
    <glyph glyph-name="k" unicode="k" horiz-adv-x="544" 
d="M72 765h121v-472l187 230h132l-203 -240l220 -283h-140l-196 257v-257h-121v765z" />
    <glyph glyph-name="l" unicode="l" horiz-adv-x="275" 
d="M75 765h121v-765h-121v765z" />
    <glyph glyph-name="m" unicode="m" horiz-adv-x="922" 
d="M72 523h121v-80c25 49 82 91 159 91c68 0 121 -29 148 -94c40 65 112 94 177 94c96 0 174 -59 174 -203v-331h-121v323c0 77 -33 110 -93 110s-115 -40 -115 -120v-313h-121v323c0 77 -33 110 -93 110s-115 -40 -115 -120v-313h-121v523z" />
    <glyph glyph-name="n" unicode="n" horiz-adv-x="612" 
d="M72 523h121v-83c25 51 82 94 169 94c105 0 179 -61 179 -205v-329h-121v318c0 80 -32 115 -104 115c-68 0 -123 -42 -123 -125v-308h-121v523z" />
    <glyph glyph-name="o" unicode="o" horiz-adv-x="615" 
d="M306 84c91 0 144 66 144 174v7c0 108 -53 174 -144 174s-145 -65 -145 -173v-8c0 -108 53 -174 145 -174zM305 -10c-155 0 -268 106 -268 266v8c0 162 115 270 269 270c152 0 268 -107 268 -267v-8c0 -163 -115 -269 -269 -269z" />
    <glyph glyph-name="p" unicode="p" horiz-adv-x="637" 
d="M72 523h121v-84c29 50 94 95 171 95c131 0 232 -98 232 -266v-8c0 -168 -97 -270 -232 -270c-84 0 -143 41 -171 92v-261h-121v702zM334 86c89 0 138 59 138 172v8c0 116 -60 173 -139 173c-84 0 -144 -56 -144 -173v-8c0 -117 57 -172 145 -172z" />
    <glyph glyph-name="q" unicode="q" horiz-adv-x="637" 
d="M440 86c-29 -50 -94 -96 -172 -96c-131 0 -230 92 -230 263v8c0 168 99 273 235 273c85 0 138 -39 167 -91v80h121v-702h-121v265zM298 86c84 0 146 56 146 173v8c0 116 -53 172 -141 172c-89 0 -141 -62 -141 -175v-8c0 -115 57 -170 136 -170z" />
    <glyph glyph-name="r" unicode="r" horiz-adv-x="401" 
d="M72 523h121v-98c33 67 82 105 170 106v-113c-107 0 -170 -36 -170 -146v-272h-121v523z" />
    <glyph glyph-name="s" unicode="s" horiz-adv-x="498" 
d="M251 -10c-136 0 -214 61 -219 173h114c7 -53 32 -84 104 -84c65 0 94 23 94 67c0 43 -35 59 -112 72c-139 21 -189 61 -189 159c0 104 98 157 196 157c108 0 192 -40 205 -158h-112c-11 48 -37 70 -93 70c-52 0 -83 -25 -83 -62c0 -38 24 -54 108 -67
c123 -19 196 -49 196 -160c0 -107 -74 -167 -209 -167z" />
    <glyph glyph-name="t" unicode="t" horiz-adv-x="373" 
d="M250 -9c-104 0 -158 55 -158 155v286h-70v91h70v115h121v-115h115v-91h-115v-275c0 -47 21 -67 60 -67c23 0 43 3 59 10v-96c-19 -7 -45 -13 -82 -13z" />
    <glyph glyph-name="u" unicode="u" horiz-adv-x="609" 
d="M247 -10c-104 0 -180 59 -180 198v335h121v-321c0 -80 32 -115 103 -115c65 0 122 42 122 125v311h121v-523h-121v82c-27 -51 -81 -92 -166 -92z" />
    <glyph glyph-name="v" unicode="v" horiz-adv-x="561" 
d="M18 523h130l137 -399l135 399h119l-189 -523h-141z" />
    <glyph glyph-name="w" unicode="w" horiz-adv-x="818" 
d="M20 523h129l104 -378l111 378h101l102 -378l109 378h118l-164 -523h-123l-97 352l-106 -352h-124z" />
    <glyph glyph-name="x" unicode="x" horiz-adv-x="560" 
d="M203 268l-170 255h140l109 -169l108 169h127l-169 -246l187 -277h-141l-122 189l-125 -189h-126z" />
    <glyph glyph-name="y" unicode="y" horiz-adv-x="557" 
d="M225 53l-207 470h131l139 -337l128 337h118l-285 -702h-119z" />
    <glyph glyph-name="z" unicode="z" horiz-adv-x="497" 
d="M17 14l277 413h-250v96h429v-17l-276 -409h268v-97h-448v14z" />
    <glyph glyph-name="braceleft" unicode="{" horiz-adv-x="400" 
d="M354 -148c-169 0 -252 62 -225 217l17 96c10 55 -17 106 -110 106v87c93 0 121 53 110 106l-17 96c-27 156 56 217 225 217v-89c-90 -3 -122 -29 -108 -127l17 -110c11 -72 -31 -119 -100 -136c71 -16 111 -64 100 -136l-17 -109c-13 -99 17 -126 108 -129v-89z" />
    <glyph glyph-name="bar" unicode="|" horiz-adv-x="263" 
d="M84 776h90v-924h-90v924z" />
    <glyph glyph-name="braceright" unicode="}" horiz-adv-x="400" 
d="M42 -59c88 3 123 30 107 129l-16 109c-11 72 29 120 100 136c-71 17 -111 64 -100 136l16 110c16 98 -19 124 -107 127v89c169 0 252 -61 225 -217l-17 -96c-11 -53 17 -106 109 -106v-87c-92 0 -119 -51 -109 -106l17 -96c27 -155 -56 -217 -225 -217v89z" />
    <glyph glyph-name="asciitilde" unicode="~" horiz-adv-x="478" 
d="M38 220c8 108 62 155 122 155c67 0 112 -48 145 -48c23 0 42 17 45 50h86c-5 -106 -63 -156 -120 -156c-72 0 -112 49 -147 49c-24 0 -41 -18 -45 -50h-86z" />
    <glyph glyph-name="uni00A0" unicode="&#xa0;" horiz-adv-x="275" 
 />
    <glyph glyph-name="exclamdown" unicode="&#xa1;" horiz-adv-x="310" 
d="M153 604c44 0 80 -33 80 -76c0 -44 -36 -78 -80 -78c-45 0 -81 34 -81 78c0 43 36 76 81 76zM219 -117h-135l19 500h98z" />
    <glyph glyph-name="cent" unicode="&#xa2;" horiz-adv-x="581" 
d="M270 -8c-136 13 -233 108 -233 264v8c0 153 101 252 233 268v97h67v-97c105 -8 195 -67 208 -194h-114c-9 60 -46 89 -94 100v-356c53 11 95 48 102 113h109c-8 -111 -89 -192 -211 -203v-127h-67v127zM159 256c0 -99 43 -157 111 -172v353c-67 -16 -111 -77 -111 -173
v-8z" />
    <glyph glyph-name="sterling" unicode="&#xa3;" horiz-adv-x="624" 
d="M42 389h60c-9 36 -16 75 -16 120c0 132 106 215 242 215c149 0 230 -84 238 -209h-125c-12 71 -41 106 -110 106c-67 0 -111 -45 -111 -117c0 -43 6 -79 13 -115h199v-85h-182c7 -32 10 -65 10 -102c0 -24 -5 -44 -12 -63c56 -15 104 -41 140 -41c47 0 76 19 80 75h117
c-5 -105 -67 -182 -175 -182c-94 0 -164 59 -217 59c-39 0 -56 -25 -59 -50h-104c5 59 36 125 105 144c7 17 10 35 10 59c0 35 -7 66 -18 101h-85v85z" />
    <glyph glyph-name="yen" unicode="&#xa5;" horiz-adv-x="608" 
d="M76 350h149l-204 365h145l147 -288l141 288h128l-192 -365h150v-64h-166v-67h166v-64h-166v-155h-132v155h-166v64h166v67h-166v64z" />
    <glyph glyph-name="brokenbar" unicode="&#xa6;" horiz-adv-x="268" 
d="M84 299h90v-447h-90v447zM84 776h90v-407h-90v407z" />
    <glyph glyph-name="section" unicode="&#xa7;" horiz-adv-x="569" 
d="M276 -137c-123 0 -198 63 -201 171h116c4 -51 26 -81 86 -81c57 0 84 30 84 73s-26 65 -127 89c-121 30 -200 73 -200 180c0 67 43 114 111 135c-36 29 -55 67 -55 123c0 104 91 171 199 171c121 0 193 -60 197 -167h-115c-4 47 -23 77 -83 77c-59 0 -83 -33 -83 -74
c0 -43 22 -64 122 -88c120 -29 205 -67 205 -181c0 -61 -42 -112 -110 -136c35 -28 54 -66 54 -122c0 -98 -85 -170 -200 -170zM343 200c49 12 71 39 71 76c0 47 -39 65 -115 87l-77 22c-43 -9 -70 -37 -70 -76c0 -45 39 -63 116 -86z" />
    <glyph glyph-name="dieresis" unicode="&#xa8;" horiz-adv-x="404" 
d="M101 613c-36 0 -66 29 -66 65c0 35 30 65 66 65s66 -30 66 -65c0 -36 -30 -65 -66 -65zM299 613c-37 0 -66 29 -66 65c0 35 29 65 66 65c36 0 66 -30 66 -65c0 -36 -30 -65 -66 -65z" />
    <glyph glyph-name="copyright" unicode="&#xa9;" horiz-adv-x="847" 
d="M425 153c-129 0 -200 79 -200 200v8c0 121 84 201 198 201c97 0 169 -47 177 -146h-96c-7 47 -34 70 -81 70c-60 0 -98 -44 -98 -125v-7c0 -80 35 -124 99 -124c47 0 81 23 88 74h92c-8 -100 -79 -151 -179 -151zM421 32c172 0 321 133 321 327c0 191 -143 324 -319 324
c-179 0 -321 -134 -321 -326c0 -195 149 -325 319 -325zM421 -13c-208 0 -373 160 -373 370c0 207 164 371 375 371c212 0 373 -163 373 -369c0 -211 -166 -372 -375 -372z" />
    <glyph glyph-name="ordfeminine" unicode="&#xaa;" horiz-adv-x="448" 
d="M169 289c-76 0 -140 36 -140 124c0 98 90 132 215 132h51v22c0 51 -19 76 -70 76c-47 0 -68 -24 -75 -59h-104c8 96 84 140 184 140s173 -40 173 -155v-271h-107v50c-24 -35 -62 -59 -127 -59zM200 368c55 0 95 27 95 76v37h-48c-68 0 -109 -16 -109 -61
c0 -33 18 -52 62 -52z" />
    <glyph glyph-name="guillemotleft" unicode="&#xab;" horiz-adv-x="496" 
d="M48 261l128 183h95l-123 -183l123 -183h-95zM227 261l128 183h95l-123 -183l123 -183h-95z" />
    <glyph glyph-name="registered" unicode="&#xae;" horiz-adv-x="519" 
d="M178 615h82c55 0 87 -21 87 -68v-1c0 -32 -18 -50 -42 -59l55 -91h-59l-48 81h-19v-81h-56v219zM258 515c23 0 34 9 34 28v1c0 21 -13 28 -34 28h-24v-57h24zM258 319c103 0 183 75 183 184s-76 184 -183 184c-108 0 -184 -76 -184 -185c0 -110 81 -183 184 -183z
M258 281c-125 0 -225 96 -225 221c0 123 100 223 225 223c128 0 224 -99 224 -222c0 -125 -99 -222 -224 -222z" />
    <glyph glyph-name="macron" unicode="&#xaf;" horiz-adv-x="404" 
d="M60 712h280v-78h-280v78z" />
    <glyph glyph-name="degree" unicode="&#xb0;" horiz-adv-x="441" 
d="M219 459c53 0 90 44 90 100c0 59 -37 102 -90 102c-55 0 -93 -43 -93 -102c0 -56 38 -100 93 -100zM219 396c-94 0 -169 74 -169 163c0 91 75 165 169 165c93 0 168 -74 168 -165c0 -89 -75 -163 -168 -163z" />
    <glyph glyph-name="plusminus" unicode="&#xb1;" horiz-adv-x="543" 
d="M219 332h-182v94h182v176h101v-176h183v-94h-183v-175h-101v175zM37 89h467v-89h-467v89z" />
    <glyph glyph-name="twosuperior" unicode="&#xb2;" horiz-adv-x="317" 
d="M7 373l128 135c36 37 59 68 59 99c0 27 -14 43 -42 43c-29 0 -47 -18 -52 -61h-85c4 84 57 131 141 131c85 0 129 -45 129 -109c0 -48 -27 -86 -70 -126l-58 -57h131v-68h-281v13z" />
    <glyph glyph-name="threesuperior" unicode="&#xb3;" horiz-adv-x="340" 
d="M166 354c-99 0 -143 48 -146 120h83c3 -31 19 -54 58 -54c36 0 54 18 54 47c0 30 -18 45 -54 45h-28v58h27c35 0 52 14 52 43c0 24 -14 40 -45 40s-50 -17 -54 -48h-83c5 67 54 115 139 115c84 0 131 -40 131 -97c0 -40 -24 -65 -61 -77c41 -8 70 -37 70 -82
c0 -68 -51 -110 -143 -110z" />
    <glyph glyph-name="acute" unicode="&#xb4;" horiz-adv-x="404" 
d="M207 756h134l-104 -155h-89z" />
    <glyph glyph-name="mu" unicode="&#xb5;" horiz-adv-x="609" 
d="M72 523h120v-327c0 -76 35 -111 103 -111c66 0 123 43 123 126v312h120v-523h-119v78c-23 -48 -66 -82 -134 -82c-35 0 -72 12 -93 48v-223h-120v702z" />
    <glyph glyph-name="paragraph" unicode="&#xb6;" horiz-adv-x="577" 
d="M268 339h-11c-130 0 -219 61 -219 185c0 129 93 191 219 191h232v-815h-72v755h-78v-755h-71v439z" />
    <glyph glyph-name="periodcentered" unicode="&#xb7;" horiz-adv-x="293" 
d="M144 248c-44 0 -79 35 -79 79s35 78 79 78c45 0 80 -34 80 -78s-35 -79 -80 -79z" />
    <glyph glyph-name="cedilla" unicode="&#xb8;" horiz-adv-x="404" 
d="M206 -219c-64 0 -103 33 -110 88h66c3 -17 16 -33 40 -33c23 0 37 14 37 34c0 19 -14 32 -35 32c-15 0 -23 -5 -30 -9l-34 32l44 75h60l-29 -50c51 5 100 -19 100 -83c0 -56 -46 -86 -109 -86z" />
    <glyph glyph-name="onesuperior" unicode="&#xb9;" horiz-adv-x="257" 
d="M104 625l-82 -51v78l94 63h82v-355h-94v265z" />
    <glyph glyph-name="ordmasculine" unicode="&#xba;" horiz-adv-x="508" 
d="M253 374c68 0 104 50 104 130v6c0 80 -37 129 -104 129s-106 -48 -106 -129v-6c0 -81 38 -130 106 -130zM252 289c-125 0 -218 84 -218 212v6c0 132 94 217 219 217c124 0 217 -84 217 -213v-6c0 -132 -94 -216 -218 -216z" />
    <glyph glyph-name="guillemotright" unicode="&#xbb;" horiz-adv-x="496" 
d="M166 261l-123 183h95l128 -183l-128 -183h-95zM344 261l-123 183h95l128 -183l-128 -183h-95z" />
    <glyph glyph-name="onequarter" unicode="&#xbc;" horiz-adv-x="728" 
d="M106 625l-82 -51v78l94 63h82v-355h-94v265zM583 715h77l-528 -715h-77zM566 69h-178v34l154 252h113v-222h46v-64h-46v-69h-89v69zM568 133v157l-91 -157h91z" />
    <glyph glyph-name="onehalf" unicode="&#xbd;" horiz-adv-x="732" 
d="M106 625l-82 -51v78l94 63h82v-355h-94v265zM570 715h77l-528 -715h-77zM418 13l128 135c36 37 59 68 59 99c0 27 -14 43 -42 43c-29 0 -47 -18 -52 -61h-85c4 84 57 131 141 131c85 0 129 -45 129 -109c0 -48 -27 -86 -70 -126l-58 -57h131v-68h-281v13z" />
    <glyph glyph-name="threequarters" unicode="&#xbe;" horiz-adv-x="742" 
d="M169 354c-99 0 -143 48 -146 120h83c3 -31 19 -54 58 -54c36 0 54 18 54 47c0 30 -18 45 -54 45h-28v58h27c35 0 52 14 52 43c0 24 -14 40 -45 40s-50 -17 -54 -48h-83c5 67 54 115 139 115c84 0 131 -40 131 -97c0 -40 -24 -65 -61 -77c41 -8 70 -37 70 -82
c0 -68 -51 -110 -143 -110zM624 715h77l-528 -715h-77zM577 69h-178v34l154 252h113v-222h46v-64h-46v-69h-89v69zM579 133v157l-91 -157h91z" />
    <glyph glyph-name="questiondown" unicode="&#xbf;" horiz-adv-x="520" 
d="M340 346c0 -79 -53 -127 -101 -175c-37 -37 -70 -70 -70 -113c0 -51 28 -84 89 -84c63 0 105 44 112 113h116c-8 -131 -100 -213 -234 -213c-144 0 -210 78 -210 175c0 70 42 118 88 161c47 45 95 86 98 142v32h112v-38zM285 605c45 0 82 -33 82 -76
c0 -44 -37 -78 -82 -78c-44 0 -80 34 -80 78c0 43 36 76 80 76z" />
    <glyph glyph-name="Agrave" unicode="&#xc0;" horiz-adv-x="707" 
d="M266 715h174l236 -715h-138l-57 177h-273l-56 -177h-125zM239 274h211l-105 332zM213 901h136l53 -135h-91z" />
    <glyph glyph-name="Aacute" unicode="&#xc1;" horiz-adv-x="707" 
d="M266 715h174l236 -715h-138l-57 177h-273l-56 -177h-125zM239 274h211l-105 332zM352 901h136l-99 -135h-91z" />
    <glyph glyph-name="Acircumflex" unicode="&#xc2;" horiz-adv-x="707" 
d="M266 715h174l236 -715h-138l-57 177h-273l-56 -177h-125zM239 274h211l-105 332zM299 901h104l108 -135h-88l-74 55l-75 -55h-86z" />
    <glyph glyph-name="Atilde" unicode="&#xc3;" horiz-adv-x="707" 
d="M266 715h174l236 -715h-138l-57 177h-273l-56 -177h-125zM239 274h211l-105 332zM408 768c-48 0 -83 39 -112 39c-19 0 -33 -17 -37 -40h-76c7 84 53 131 109 131c46 0 82 -40 113 -40c19 0 32 17 36 40h77c-8 -84 -54 -130 -110 -130z" />
    <glyph glyph-name="Adieresis" unicode="&#xc4;" horiz-adv-x="707" 
d="M266 715h174l236 -715h-138l-57 177h-273l-56 -177h-125zM239 274h211l-105 332zM244 777c-36 0 -66 29 -66 65s30 65 66 65s66 -29 66 -65s-30 -65 -66 -65zM455 777c-36 0 -66 29 -66 65s30 65 66 65s66 -29 66 -65s-30 -65 -66 -65z" />
    <glyph glyph-name="Aring" unicode="&#xc5;" horiz-adv-x="707" 
d="M266 715h174l236 -715h-138l-57 177h-273l-56 -177h-125zM239 274h211l-105 332zM350 807c29 0 50 23 50 55s-21 55 -50 55c-31 0 -50 -23 -50 -55s19 -55 50 -55zM350 753c-61 0 -112 49 -112 109s51 109 112 109s112 -49 112 -109s-51 -109 -112 -109z" />
    <glyph glyph-name="AE" unicode="&#xc6;" horiz-adv-x="975" 
d="M373 715h543v-105h-312v-196h250v-100h-250v-209h329v-105h-462v183h-232l-87 -183h-130zM285 278h186v332h-27z" />
    <glyph glyph-name="Ccedilla" unicode="&#xc7;" horiz-adv-x="745" 
d="M380 -219c-64 0 -103 33 -110 88h66c3 -17 16 -33 40 -33c23 0 37 14 37 34c0 19 -14 32 -35 32c-15 0 -23 -5 -30 -9l-34 32l39 67c-198 16 -307 155 -307 361v8c0 215 147 365 347 365c164 0 291 -82 307 -250h-135c-15 96 -67 144 -171 144c-125 0 -208 -98 -208 -258
v-8c0 -161 76 -256 209 -256c100 0 168 50 183 151h130c-21 -167 -135 -252 -296 -259l-23 -40c51 5 100 -19 100 -83c0 -56 -46 -86 -109 -86z" />
    <glyph glyph-name="Egrave" unicode="&#xc8;" horiz-adv-x="588" 
d="M82 715h447v-105h-314v-196h252v-100h-252v-209h331v-105h-464v715zM176 901h136l53 -135h-91z" />
    <glyph glyph-name="Eacute" unicode="&#xc9;" horiz-adv-x="588" 
d="M82 715h447v-105h-314v-196h252v-100h-252v-209h331v-105h-464v715zM315 901h136l-99 -135h-91z" />
    <glyph glyph-name="Ecircumflex" unicode="&#xca;" horiz-adv-x="588" 
d="M82 715h447v-105h-314v-196h252v-100h-252v-209h331v-105h-464v715zM262 901h104l108 -135h-88l-74 55l-75 -55h-86z" />
    <glyph glyph-name="Edieresis" unicode="&#xcb;" horiz-adv-x="588" 
d="M82 715h447v-105h-314v-196h252v-100h-252v-209h331v-105h-464v715zM207 777c-36 0 -66 29 -66 65s30 65 66 65s66 -29 66 -65s-30 -65 -66 -65zM418 777c-36 0 -66 29 -66 65s30 65 66 65s66 -29 66 -65s-30 -65 -66 -65z" />
    <glyph glyph-name="Igrave" unicode="&#xcc;" horiz-adv-x="311" 
d="M86 715h134v-715h-134v715zM16 901h136l53 -135h-91z" />
    <glyph glyph-name="Iacute" unicode="&#xcd;" horiz-adv-x="311" 
d="M86 715h134v-715h-134v715zM155 901h136l-99 -135h-91z" />
    <glyph glyph-name="Icircumflex" unicode="&#xce;" horiz-adv-x="311" 
d="M86 715h134v-715h-134v715zM102 901h104l108 -135h-88l-74 55l-75 -55h-86z" />
    <glyph glyph-name="Idieresis" unicode="&#xcf;" horiz-adv-x="311" 
d="M86 715h134v-715h-134v715zM47 777c-36 0 -66 29 -66 65s30 65 66 65s66 -29 66 -65s-30 -65 -66 -65zM258 777c-36 0 -66 29 -66 65s30 65 66 65s66 -29 66 -65s-30 -65 -66 -65z" />
    <glyph glyph-name="Eth" unicode="&#xd0;" horiz-adv-x="743" 
d="M32 406h69v309h217c248 0 370 -142 370 -350v-9c0 -208 -119 -356 -371 -356h-216v311h-69v95zM313 105c161 0 236 91 236 250v8c0 154 -69 247 -237 247h-79v-204h173v-95h-173v-206h80z" />
    <glyph glyph-name="Ntilde" unicode="&#xd1;" horiz-adv-x="749" 
d="M82 715h159l301 -517v517h121v-715h-138l-322 548v-548h-121v715zM443 768c-48 0 -83 39 -112 39c-19 0 -33 -17 -37 -40h-76c7 84 53 131 109 131c46 0 82 -40 113 -40c19 0 32 17 36 40h77c-8 -84 -54 -130 -110 -130z" />
    <glyph glyph-name="Ograve" unicode="&#xd2;" horiz-adv-x="818" 
d="M410 97c135 0 220 103 220 258v8c0 147 -82 256 -222 256s-223 -103 -223 -257v-8c0 -156 95 -257 225 -257zM408 -10c-219 0 -362 157 -362 363v8c0 209 149 364 362 364c212 0 360 -151 360 -361v-8c0 -208 -143 -366 -360 -366zM269 901h136l53 -135h-91z" />
    <glyph glyph-name="Oacute" unicode="&#xd3;" horiz-adv-x="818" 
d="M410 97c135 0 220 103 220 258v8c0 147 -82 256 -222 256s-223 -103 -223 -257v-8c0 -156 95 -257 225 -257zM408 -10c-219 0 -362 157 -362 363v8c0 209 149 364 362 364c212 0 360 -151 360 -361v-8c0 -208 -143 -366 -360 -366zM408 901h136l-99 -135h-91z" />
    <glyph glyph-name="Ocircumflex" unicode="&#xd4;" horiz-adv-x="818" 
d="M410 97c135 0 220 103 220 258v8c0 147 -82 256 -222 256s-223 -103 -223 -257v-8c0 -156 95 -257 225 -257zM408 -10c-219 0 -362 157 -362 363v8c0 209 149 364 362 364c212 0 360 -151 360 -361v-8c0 -208 -143 -366 -360 -366zM355 901h104l108 -135h-88l-74 55
l-75 -55h-86z" />
    <glyph glyph-name="Otilde" unicode="&#xd5;" horiz-adv-x="818" 
d="M410 97c135 0 220 103 220 258v8c0 147 -82 256 -222 256s-223 -103 -223 -257v-8c0 -156 95 -257 225 -257zM408 -10c-219 0 -362 157 -362 363v8c0 209 149 364 362 364c212 0 360 -151 360 -361v-8c0 -208 -143 -366 -360 -366zM464 768c-48 0 -83 39 -112 39
c-19 0 -33 -17 -37 -40h-76c7 84 53 131 109 131c46 0 82 -40 113 -40c19 0 32 17 36 40h77c-8 -84 -54 -130 -110 -130z" />
    <glyph glyph-name="Odieresis" unicode="&#xd6;" horiz-adv-x="818" 
d="M410 97c135 0 220 103 220 258v8c0 147 -82 256 -222 256s-223 -103 -223 -257v-8c0 -156 95 -257 225 -257zM408 -10c-219 0 -362 157 -362 363v8c0 209 149 364 362 364c212 0 360 -151 360 -361v-8c0 -208 -143 -366 -360 -366zM300 777c-36 0 -66 29 -66 65
s30 65 66 65s66 -29 66 -65s-30 -65 -66 -65zM511 777c-36 0 -66 29 -66 65s30 65 66 65s66 -29 66 -65s-30 -65 -66 -65z" />
    <glyph glyph-name="multiply" unicode="&#xd7;" horiz-adv-x="513" 
d="M35 181l154 153l-155 154l66 67l154 -155l154 154l66 -66l-154 -154l155 -154l-67 -66l-154 155l-153 -154z" />
    <glyph glyph-name="Oslash" unicode="&#xd8;" horiz-adv-x="818" 
d="M34 18l91 98c-51 64 -79 145 -79 237v8c0 208 149 363 362 363c85 0 159 -24 219 -67l78 84l50 -50l-75 -81c56 -64 89 -147 89 -246v-8c0 -208 -144 -366 -361 -366c-93 0 -172 28 -232 76l-92 -99zM409 97c137 0 222 103 222 259v8c0 61 -12 112 -37 154l-336 -364
c40 -38 90 -57 151 -57zM184 354c0 -55 10 -102 31 -141l333 359c-37 31 -84 47 -140 47c-141 0 -224 -103 -224 -257v-8z" />
    <glyph glyph-name="Ugrave" unicode="&#xd9;" horiz-adv-x="727" 
d="M357 -10c-180 0 -281 97 -281 282v443h134v-433c0 -132 41 -185 148 -185c104 0 155 46 155 194v424h134v-435c0 -188 -99 -290 -290 -290zM223 901h136l53 -135h-91z" />
    <glyph glyph-name="Uacute" unicode="&#xda;" horiz-adv-x="727" 
d="M357 -10c-180 0 -281 97 -281 282v443h134v-433c0 -132 41 -185 148 -185c104 0 155 46 155 194v424h134v-435c0 -188 -99 -290 -290 -290zM362 901h136l-99 -135h-91z" />
    <glyph glyph-name="Ucircumflex" unicode="&#xdb;" horiz-adv-x="727" 
d="M357 -10c-180 0 -281 97 -281 282v443h134v-433c0 -132 41 -185 148 -185c104 0 155 46 155 194v424h134v-435c0 -188 -99 -290 -290 -290zM309 901h104l108 -135h-88l-74 55l-75 -55h-86z" />
    <glyph glyph-name="Udieresis" unicode="&#xdc;" horiz-adv-x="727" 
d="M357 -10c-180 0 -281 97 -281 282v443h134v-433c0 -132 41 -185 148 -185c104 0 155 46 155 194v424h134v-435c0 -188 -99 -290 -290 -290zM254 777c-36 0 -66 29 -66 65s30 65 66 65s66 -29 66 -65s-30 -65 -66 -65zM465 777c-36 0 -66 29 -66 65s30 65 66 65
s66 -29 66 -65s-30 -65 -66 -65z" />
    <glyph glyph-name="Yacute" unicode="&#xdd;" horiz-adv-x="633" 
d="M254 310l-237 405h147l161 -296l157 296h130l-224 -406v-309h-134v310zM319 901h136l-99 -135h-91z" />
    <glyph glyph-name="Thorn" unicode="&#xde;" horiz-adv-x="613" 
d="M82 715h133v-127h97c160 0 265 -64 265 -215v-4c0 -151 -109 -216 -262 -216h-100v-153h-133v715zM312 250c88 0 135 39 135 119v4c0 85 -50 115 -135 115h-97v-238h97z" />
    <glyph glyph-name="germandbls" unicode="&#xdf;" horiz-adv-x="612" 
d="M353 -9c-43 0 -77 7 -93 14v96c16 -7 41 -15 72 -15c56 0 117 25 117 137v7c0 101 -69 155 -174 152v95c96 -3 128 59 128 110v4c0 60 -36 95 -104 95c-64 0 -106 -45 -106 -120v-566h-121v557c0 141 107 217 232 217c128 0 214 -68 214 -181v-3
c0 -65 -44 -129 -119 -153c99 -24 174 -103 174 -212v-6c0 -165 -103 -228 -220 -228z" />
    <glyph glyph-name="agrave" unicode="&#xe0;" horiz-adv-x="559" 
d="M209 -10c-96 0 -175 46 -175 155c0 122 119 166 268 166h65v27c0 71 -23 105 -95 105c-64 0 -93 -30 -100 -82h-117c11 122 107 173 224 173s209 -47 209 -191v-343h-119v64c-35 -45 -80 -74 -160 -74zM238 77c75 0 129 38 129 106v52h-62c-92 0 -151 -21 -151 -85
c0 -44 24 -73 84 -73zM136 756h134l59 -155h-89z" />
    <glyph glyph-name="aacute" unicode="&#xe1;" horiz-adv-x="559" 
d="M209 -10c-96 0 -175 46 -175 155c0 122 119 166 268 166h65v27c0 71 -23 105 -95 105c-64 0 -93 -30 -100 -82h-117c11 122 107 173 224 173s209 -47 209 -191v-343h-119v64c-35 -45 -80 -74 -160 -74zM238 77c75 0 129 38 129 106v52h-62c-92 0 -151 -21 -151 -85
c0 -44 24 -73 84 -73zM288 756h134l-104 -155h-89z" />
    <glyph glyph-name="acircumflex" unicode="&#xe2;" horiz-adv-x="559" 
d="M209 -10c-96 0 -175 46 -175 155c0 122 119 166 268 166h65v27c0 71 -23 105 -95 105c-64 0 -93 -30 -100 -82h-117c11 122 107 173 224 173s209 -47 209 -191v-343h-119v64c-35 -45 -80 -74 -160 -74zM238 77c75 0 129 38 129 106v52h-62c-92 0 -151 -21 -151 -85
c0 -44 24 -73 84 -73zM223 753h96l111 -151h-86l-75 68l-76 -68h-84z" />
    <glyph glyph-name="atilde" unicode="&#xe3;" horiz-adv-x="559" 
d="M209 -10c-96 0 -175 46 -175 155c0 122 119 166 268 166h65v27c0 71 -23 105 -95 105c-64 0 -93 -30 -100 -82h-117c11 122 107 173 224 173s209 -47 209 -191v-343h-119v64c-35 -45 -80 -74 -160 -74zM238 77c75 0 129 38 129 106v52h-62c-92 0 -151 -21 -151 -85
c0 -44 24 -73 84 -73zM337 606c-48 0 -82 40 -111 40c-19 0 -33 -17 -37 -40h-75c8 84 51 131 107 131c46 0 80 -39 112 -39c19 0 32 16 36 40h75c-8 -84 -51 -132 -107 -132z" />
    <glyph glyph-name="adieresis" unicode="&#xe4;" horiz-adv-x="559" 
d="M209 -10c-96 0 -175 46 -175 155c0 122 119 166 268 166h65v27c0 71 -23 105 -95 105c-64 0 -93 -30 -100 -82h-117c11 122 107 173 224 173s209 -47 209 -191v-343h-119v64c-35 -45 -80 -74 -160 -74zM238 77c75 0 129 38 129 106v52h-62c-92 0 -151 -21 -151 -85
c0 -44 24 -73 84 -73zM180 613c-36 0 -66 29 -66 65c0 35 30 65 66 65s66 -30 66 -65c0 -36 -30 -65 -66 -65zM378 613c-37 0 -66 29 -66 65c0 35 29 65 66 65c36 0 66 -30 66 -65c0 -36 -30 -65 -66 -65z" />
    <glyph glyph-name="aring" unicode="&#xe5;" horiz-adv-x="559" 
d="M209 -10c-96 0 -175 46 -175 155c0 122 119 166 268 166h65v27c0 71 -23 105 -95 105c-64 0 -93 -30 -100 -82h-117c11 122 107 173 224 173s209 -47 209 -191v-343h-119v64c-35 -45 -80 -74 -160 -74zM238 77c75 0 129 38 129 106v52h-62c-92 0 -151 -21 -151 -85
c0 -44 24 -73 84 -73zM279 643c29 0 50 24 50 55c0 32 -21 55 -50 55s-50 -23 -50 -55c0 -31 21 -55 50 -55zM279 590c-60 0 -111 49 -111 108s51 108 111 108s111 -49 111 -108s-51 -108 -111 -108z" />
    <glyph glyph-name="ae" unicode="&#xe6;" horiz-adv-x="895" 
d="M620 -10c-91 0 -158 36 -199 100c-47 -68 -105 -100 -205 -100c-101 0 -182 46 -182 155c0 124 117 167 266 167h68v26c0 71 -27 105 -95 105c-61 0 -95 -27 -101 -82h-117c11 122 106 173 221 173c76 0 134 -20 166 -76c41 48 100 76 173 76c125 0 241 -73 241 -266v-33
h-372c4 -97 49 -155 137 -155c71 0 107 29 116 80h116c-17 -111 -104 -170 -233 -170zM239 77c76 0 129 38 129 106v51h-65c-91 0 -149 -18 -149 -82c0 -47 24 -75 85 -75zM736 312c-7 95 -49 134 -121 134c-71 0 -118 -49 -129 -134h250z" />
    <glyph glyph-name="ccedilla" unicode="&#xe7;" horiz-adv-x="579" 
d="M283 -219c-64 0 -103 33 -110 88h66c3 -17 16 -33 40 -33c23 0 37 14 37 34c0 19 -14 32 -35 32c-15 0 -23 -5 -30 -9l-34 32l40 68c-128 16 -220 111 -220 262v8c0 165 117 271 264 271c115 0 226 -52 239 -196h-117c-11 71 -56 99 -120 99c-83 0 -142 -64 -142 -172v-8
c0 -115 56 -174 145 -174c64 0 118 37 126 112h111c-5 -59 -27 -107 -67 -144s-94 -58 -161 -61l-23 -40c51 5 100 -19 100 -83c0 -56 -46 -86 -109 -86z" />
    <glyph glyph-name="egrave" unicode="&#xe8;" horiz-adv-x="584" 
d="M302 -10c-155 0 -265 102 -265 266v8c0 162 111 270 260 270c130 0 247 -77 247 -264v-35h-383c4 -100 53 -155 144 -155c73 0 111 29 120 80h117c-17 -111 -105 -170 -240 -170zM424 316c-7 91 -51 130 -127 130c-73 0 -122 -49 -134 -130h261zM152 756h134l59 -155h-89
z" />
    <glyph glyph-name="eacute" unicode="&#xe9;" horiz-adv-x="584" 
d="M302 -10c-155 0 -265 102 -265 266v8c0 162 111 270 260 270c130 0 247 -77 247 -264v-35h-383c4 -100 53 -155 144 -155c73 0 111 29 120 80h117c-17 -111 -105 -170 -240 -170zM424 316c-7 91 -51 130 -127 130c-73 0 -122 -49 -134 -130h261zM304 756h134l-104 -155
h-89z" />
    <glyph glyph-name="ecircumflex" unicode="&#xea;" horiz-adv-x="584" 
d="M302 -10c-155 0 -265 102 -265 266v8c0 162 111 270 260 270c130 0 247 -77 247 -264v-35h-383c4 -100 53 -155 144 -155c73 0 111 29 120 80h117c-17 -111 -105 -170 -240 -170zM424 316c-7 91 -51 130 -127 130c-73 0 -122 -49 -134 -130h261zM248 753h96l111 -151h-86
l-75 68l-76 -68h-84z" />
    <glyph glyph-name="edieresis" unicode="&#xeb;" horiz-adv-x="584" 
d="M302 -10c-155 0 -265 102 -265 266v8c0 162 111 270 260 270c130 0 247 -77 247 -264v-35h-383c4 -100 53 -155 144 -155c73 0 111 29 120 80h117c-17 -111 -105 -170 -240 -170zM424 316c-7 91 -51 130 -127 130c-73 0 -122 -49 -134 -130h261zM196 613
c-36 0 -66 29 -66 65c0 35 30 65 66 65s66 -30 66 -65c0 -36 -30 -65 -66 -65zM394 613c-37 0 -66 29 -66 65c0 35 29 65 66 65c36 0 66 -30 66 -65c0 -36 -30 -65 -66 -65z" />
    <glyph glyph-name="igrave" unicode="&#xec;" horiz-adv-x="275" 
d="M75 523h121v-523h-121v523zM-7 756h134l59 -155h-89z" />
    <glyph glyph-name="iacute" unicode="&#xed;" horiz-adv-x="275" 
d="M75 523h121v-523h-121v523zM145 756h134l-104 -155h-89z" />
    <glyph glyph-name="icircumflex" unicode="&#xee;" horiz-adv-x="275" 
d="M75 523h121v-523h-121v523zM89 753h96l111 -151h-86l-75 68l-76 -68h-84z" />
    <glyph glyph-name="idieresis" unicode="&#xef;" horiz-adv-x="275" 
d="M39 613c-36 0 -66 29 -66 65c0 35 30 65 66 65s66 -30 66 -65c0 -36 -30 -65 -66 -65zM231 613c-36 0 -66 29 -66 65c0 35 30 65 66 65s66 -30 66 -65c0 -36 -30 -65 -66 -65zM75 523h121v-523h-121v523z" />
    <glyph glyph-name="eth" unicode="&#xf0;" horiz-adv-x="615" 
d="M141 620l103 49c-41 36 -84 68 -124 96h143c23 -13 48 -29 75 -50l93 45l27 -54l-69 -34c95 -87 185 -221 185 -380v-22c0 -168 -113 -280 -270 -280c-155 0 -267 108 -267 269v10c0 158 113 262 237 262c61 0 101 -24 134 -61c-28 56 -69 108 -117 155l-123 -59zM306 84
c91 0 144 68 144 173v8c0 108 -54 174 -143 174c-91 0 -146 -65 -146 -173v-8c0 -108 53 -174 145 -174z" />
    <glyph glyph-name="ntilde" unicode="&#xf1;" horiz-adv-x="612" 
d="M72 523h121v-83c25 51 82 94 169 94c105 0 179 -61 179 -205v-329h-121v318c0 80 -32 115 -104 115c-68 0 -123 -42 -123 -125v-308h-121v523zM361 606c-48 0 -82 40 -111 40c-19 0 -33 -17 -37 -40h-75c8 84 51 131 107 131c46 0 80 -39 112 -39c19 0 32 16 36 40h75
c-8 -84 -51 -132 -107 -132z" />
    <glyph glyph-name="ograve" unicode="&#xf2;" horiz-adv-x="615" 
d="M306 84c91 0 144 66 144 174v7c0 108 -53 174 -144 174s-145 -65 -145 -173v-8c0 -108 53 -174 145 -174zM305 -10c-155 0 -268 106 -268 266v8c0 162 115 270 269 270c152 0 268 -107 268 -267v-8c0 -163 -115 -269 -269 -269zM162 756h134l59 -155h-89z" />
    <glyph glyph-name="oacute" unicode="&#xf3;" horiz-adv-x="615" 
d="M306 84c91 0 144 66 144 174v7c0 108 -53 174 -144 174s-145 -65 -145 -173v-8c0 -108 53 -174 145 -174zM305 -10c-155 0 -268 106 -268 266v8c0 162 115 270 269 270c152 0 268 -107 268 -267v-8c0 -163 -115 -269 -269 -269zM314 756h134l-104 -155h-89z" />
    <glyph glyph-name="ocircumflex" unicode="&#xf4;" horiz-adv-x="615" 
d="M306 84c91 0 144 66 144 174v7c0 108 -53 174 -144 174s-145 -65 -145 -173v-8c0 -108 53 -174 145 -174zM305 -10c-155 0 -268 106 -268 266v8c0 162 115 270 269 270c152 0 268 -107 268 -267v-8c0 -163 -115 -269 -269 -269zM258 753h96l111 -151h-86l-75 68l-76 -68
h-84z" />
    <glyph glyph-name="otilde" unicode="&#xf5;" horiz-adv-x="615" 
d="M306 84c91 0 144 66 144 174v7c0 108 -53 174 -144 174s-145 -65 -145 -173v-8c0 -108 53 -174 145 -174zM305 -10c-155 0 -268 106 -268 266v8c0 162 115 270 269 270c152 0 268 -107 268 -267v-8c0 -163 -115 -269 -269 -269zM363 606c-48 0 -82 40 -111 40
c-19 0 -33 -17 -37 -40h-75c8 84 51 131 107 131c46 0 80 -39 112 -39c19 0 32 16 36 40h75c-8 -84 -51 -132 -107 -132z" />
    <glyph glyph-name="odieresis" unicode="&#xf6;" horiz-adv-x="615" 
d="M306 84c91 0 144 66 144 174v7c0 108 -53 174 -144 174s-145 -65 -145 -173v-8c0 -108 53 -174 145 -174zM305 -10c-155 0 -268 106 -268 266v8c0 162 115 270 269 270c152 0 268 -107 268 -267v-8c0 -163 -115 -269 -269 -269zM206 613c-36 0 -66 29 -66 65
c0 35 30 65 66 65s66 -30 66 -65c0 -36 -30 -65 -66 -65zM404 613c-37 0 -66 29 -66 65c0 35 29 65 66 65c36 0 66 -30 66 -65c0 -36 -30 -65 -66 -65z" />
    <glyph glyph-name="divide" unicode="&#xf7;" horiz-adv-x="544" 
d="M270 71c-43 0 -76 32 -76 75s33 75 76 75c41 0 76 -32 76 -75s-35 -75 -76 -75zM37 387h467v-91h-467v91zM270 461c-43 0 -76 32 -76 75s33 76 76 76c41 0 76 -33 76 -76s-35 -75 -76 -75z" />
    <glyph glyph-name="oslash" unicode="&#xf8;" horiz-adv-x="615" 
d="M22 4l73 79c-37 45 -58 104 -58 173v8c0 162 115 270 269 270c61 0 114 -16 159 -48l67 73l47 -42l-67 -73c39 -45 62 -105 62 -177v-8c0 -163 -115 -269 -269 -269c-64 0 -120 18 -164 50l-72 -78zM306 84c92 0 145 66 145 173v8c0 36 -6 67 -18 93l-222 -241
c24 -22 56 -33 95 -33zM161 258c0 -32 5 -61 14 -87l220 239c-25 20 -55 30 -89 30c-91 0 -145 -66 -145 -174v-8z" />
    <glyph glyph-name="ugrave" unicode="&#xf9;" horiz-adv-x="609" 
d="M247 -10c-104 0 -180 59 -180 198v335h121v-321c0 -80 32 -115 103 -115c65 0 122 42 122 125v311h121v-523h-121v82c-27 -51 -81 -92 -166 -92zM159 756h134l59 -155h-89z" />
    <glyph glyph-name="uacute" unicode="&#xfa;" horiz-adv-x="609" 
d="M247 -10c-104 0 -180 59 -180 198v335h121v-321c0 -80 32 -115 103 -115c65 0 122 42 122 125v311h121v-523h-121v82c-27 -51 -81 -92 -166 -92zM311 756h134l-104 -155h-89z" />
    <glyph glyph-name="ucircumflex" unicode="&#xfb;" horiz-adv-x="609" 
d="M247 -10c-104 0 -180 59 -180 198v335h121v-321c0 -80 32 -115 103 -115c65 0 122 42 122 125v311h121v-523h-121v82c-27 -51 -81 -92 -166 -92zM255 753h96l111 -151h-86l-75 68l-76 -68h-84z" />
    <glyph glyph-name="udieresis" unicode="&#xfc;" horiz-adv-x="609" 
d="M247 -10c-104 0 -180 59 -180 198v335h121v-321c0 -80 32 -115 103 -115c65 0 122 42 122 125v311h121v-523h-121v82c-27 -51 -81 -92 -166 -92zM203 613c-36 0 -66 29 -66 65c0 35 30 65 66 65s66 -30 66 -65c0 -36 -30 -65 -66 -65zM401 613c-37 0 -66 29 -66 65
c0 35 29 65 66 65c36 0 66 -30 66 -65c0 -36 -30 -65 -66 -65z" />
    <glyph glyph-name="yacute" unicode="&#xfd;" horiz-adv-x="557" 
d="M225 53l-207 470h131l139 -337l128 337h118l-285 -702h-119zM294 756h134l-104 -155h-89z" />
    <glyph glyph-name="thorn" unicode="&#xfe;" horiz-adv-x="637" 
d="M72 765h121v-326c29 50 94 95 171 95c131 0 232 -98 232 -266v-8c0 -168 -97 -270 -232 -270c-84 0 -143 41 -171 92v-261h-121v944zM334 86c89 0 138 59 138 172v8c0 116 -60 173 -139 173c-84 0 -144 -56 -144 -173v-8c0 -117 57 -172 145 -172z" />
    <glyph glyph-name="ydieresis" unicode="&#xff;" horiz-adv-x="557" 
d="M225 53l-207 470h131l139 -337l128 337h118l-285 -702h-119zM186 613c-36 0 -66 29 -66 65c0 35 30 65 66 65s66 -30 66 -65c0 -36 -30 -65 -66 -65zM384 613c-37 0 -66 29 -66 65c0 35 29 65 66 65c36 0 66 -30 66 -65c0 -36 -30 -65 -66 -65z" />
    <glyph glyph-name="Amacron" unicode="&#x100;" horiz-adv-x="707" 
d="M266 715h174l236 -715h-138l-57 177h-273l-56 -177h-125zM239 274h211l-105 332zM206 861h288v-81h-288v81z" />
    <glyph glyph-name="amacron" unicode="&#x101;" horiz-adv-x="559" 
d="M209 -10c-96 0 -175 46 -175 155c0 122 119 166 268 166h65v27c0 71 -23 105 -95 105c-64 0 -93 -30 -100 -82h-117c11 122 107 173 224 173s209 -47 209 -191v-343h-119v64c-35 -45 -80 -74 -160 -74zM238 77c75 0 129 38 129 106v52h-62c-92 0 -151 -21 -151 -85
c0 -44 24 -73 84 -73zM139 712h280v-78h-280v78z" />
    <glyph glyph-name="Abreve" unicode="&#x102;" horiz-adv-x="707" 
d="M266 715h174l236 -715h-138l-57 177h-273l-56 -177h-125zM239 274h211l-105 332zM349 761c-84 0 -141 56 -145 140h85c5 -35 24 -56 60 -56s56 21 63 56h84c-5 -84 -67 -140 -147 -140z" />
    <glyph glyph-name="abreve" unicode="&#x103;" horiz-adv-x="559" 
d="M209 -10c-96 0 -175 46 -175 155c0 122 119 166 268 166h65v27c0 71 -23 105 -95 105c-64 0 -93 -30 -100 -82h-117c11 122 107 173 224 173s209 -47 209 -191v-343h-119v64c-35 -45 -80 -74 -160 -74zM238 77c75 0 129 38 129 106v52h-62c-92 0 -151 -21 -151 -85
c0 -44 24 -73 84 -73zM278 606c-83 0 -140 56 -145 143h84c5 -36 24 -58 61 -58s58 22 65 58h82c-5 -86 -67 -143 -147 -143z" />
    <glyph glyph-name="Aogonek" unicode="&#x104;" horiz-adv-x="707" 
d="M605 -182c-68 0 -112 30 -112 81c0 45 38 80 81 101h-36l-57 177h-273l-56 -177h-125l239 715h174l233 -708c-47 -27 -71 -55 -71 -83c0 -21 12 -32 35 -32c17 0 31 3 43 9v-69c-17 -8 -40 -14 -75 -14zM239 274h211l-105 332z" />
    <glyph glyph-name="aogonek" unicode="&#x105;" horiz-adv-x="559" 
d="M421 -182c-65 0 -109 29 -109 80c0 47 39 81 82 102h-25v64c-35 -45 -80 -74 -160 -74c-96 0 -175 46 -175 155c0 122 119 166 268 166h65v27c0 71 -23 105 -95 105c-64 0 -93 -30 -100 -82h-117c11 122 107 173 224 173s209 -47 209 -191v-336c-49 -31 -70 -56 -70 -84
c0 -22 12 -33 35 -33c15 0 30 3 43 9v-67c-17 -8 -40 -14 -75 -14zM238 77c75 0 129 38 129 106v52h-62c-92 0 -151 -21 -151 -85c0 -44 24 -73 84 -73z" />
    <glyph glyph-name="Cacute" unicode="&#x106;" horiz-adv-x="745" 
d="M395 -10c-224 0 -349 143 -349 363v8c0 215 147 365 347 365c164 0 291 -82 307 -250h-135c-15 96 -67 144 -171 144c-125 0 -208 -98 -208 -258v-8c0 -161 76 -256 209 -256c100 0 168 50 183 151h130c-21 -173 -142 -259 -313 -259zM396 901h136l-99 -135h-91z" />
    <glyph glyph-name="cacute" unicode="&#x107;" horiz-adv-x="579" 
d="M301 -10c-150 0 -264 98 -264 265v8c0 165 117 271 264 271c115 0 226 -52 239 -196h-117c-11 71 -56 99 -120 99c-83 0 -142 -64 -142 -172v-8c0 -115 56 -174 145 -174c64 0 118 37 126 112h111c-8 -120 -101 -205 -242 -205zM307 756h134l-104 -155h-89z" />
    <glyph glyph-name="Ccircumflex" unicode="&#x108;" horiz-adv-x="745" 
d="M395 -10c-224 0 -349 143 -349 363v8c0 215 147 365 347 365c164 0 291 -82 307 -250h-135c-15 96 -67 144 -171 144c-125 0 -208 -98 -208 -258v-8c0 -161 76 -256 209 -256c100 0 168 50 183 151h130c-21 -173 -142 -259 -313 -259zM343 901h104l108 -135h-88l-74 55
l-75 -55h-86z" />
    <glyph glyph-name="ccircumflex" unicode="&#x109;" horiz-adv-x="579" 
d="M301 -10c-150 0 -264 98 -264 265v8c0 165 117 271 264 271c115 0 226 -52 239 -196h-117c-11 71 -56 99 -120 99c-83 0 -142 -64 -142 -172v-8c0 -115 56 -174 145 -174c64 0 118 37 126 112h111c-8 -120 -101 -205 -242 -205zM251 753h96l111 -151h-86l-75 68l-76 -68
h-84z" />
    <glyph glyph-name="Cdotaccent" unicode="&#x10a;" horiz-adv-x="745" 
d="M395 -10c-224 0 -349 143 -349 363v8c0 215 147 365 347 365c164 0 291 -82 307 -250h-135c-15 96 -67 144 -171 144c-125 0 -208 -98 -208 -258v-8c0 -161 76 -256 209 -256c100 0 168 50 183 151h130c-21 -173 -142 -259 -313 -259zM391 775c-40 0 -71 30 -71 69
s31 68 71 68c39 0 71 -29 71 -68s-32 -69 -71 -69z" />
    <glyph glyph-name="cdotaccent" unicode="&#x10b;" horiz-adv-x="579" 
d="M301 -10c-150 0 -264 98 -264 265v8c0 165 117 271 264 271c115 0 226 -52 239 -196h-117c-11 71 -56 99 -120 99c-83 0 -142 -64 -142 -172v-8c0 -115 56 -174 145 -174c64 0 118 37 126 112h111c-8 -120 -101 -205 -242 -205zM299 611c-40 0 -71 30 -71 69s31 68 71 68
c39 0 71 -29 71 -68s-32 -69 -71 -69z" />
    <glyph glyph-name="Ccaron" unicode="&#x10c;" horiz-adv-x="745" 
d="M395 -10c-224 0 -349 143 -349 363v8c0 215 147 365 347 365c164 0 291 -82 307 -250h-135c-15 96 -67 144 -171 144c-125 0 -208 -98 -208 -258v-8c0 -161 76 -256 209 -256c100 0 168 50 183 151h130c-21 -173 -142 -259 -313 -259zM232 901h88l75 -55l74 55h86
l-110 -135h-105z" />
    <glyph glyph-name="ccaron" unicode="&#x10d;" horiz-adv-x="579" 
d="M301 -10c-150 0 -264 98 -264 265v8c0 165 117 271 264 271c115 0 226 -52 239 -196h-117c-11 71 -56 99 -120 99c-83 0 -142 -64 -142 -172v-8c0 -115 56 -174 145 -174c64 0 118 37 126 112h111c-8 -120 -101 -205 -242 -205zM137 753h87l75 -67l75 67h84l-113 -151
h-96z" />
    <glyph glyph-name="Dcaron" unicode="&#x10e;" horiz-adv-x="718" 
d="M293 105c161 0 237 91 237 250v8c0 154 -70 247 -238 247h-77v-505h78zM82 715h217c248 0 370 -142 370 -350v-9c0 -208 -121 -356 -372 -356h-215v715zM162 901h88l75 -55l74 55h86l-110 -135h-105z" />
    <glyph glyph-name="dcaron" unicode="&#x10f;" horiz-adv-x="637" 
d="M268 -10c-131 0 -230 92 -230 263v8c0 168 99 273 235 273c85 0 138 -39 167 -91v322h121v-765h-121v88c-29 -52 -94 -98 -172 -98zM298 86c84 0 146 56 146 173v8c0 116 -53 172 -141 172c-89 0 -141 -62 -141 -175v-8c0 -115 57 -170 136 -170zM615 765h110l-49 -175
h-71z" />
    <glyph glyph-name="Dcroat" unicode="&#x110;" horiz-adv-x="743" 
d="M32 406h69v309h217c248 0 370 -142 370 -350v-9c0 -208 -119 -356 -371 -356h-216v311h-69v95zM313 105c161 0 236 91 236 250v8c0 154 -69 247 -237 247h-79v-204h173v-95h-173v-206h80z" />
    <glyph glyph-name="dcroat" unicode="&#x111;" horiz-adv-x="637" 
d="M271 679h169v86h121v-86h68v-75h-68v-604h-121v88c-29 -52 -94 -98 -172 -98c-131 0 -230 92 -230 263v8c0 168 99 273 235 273c85 0 138 -39 167 -91v161h-169v75zM298 86c84 0 146 56 146 173v8c0 116 -53 172 -141 172c-89 0 -141 -62 -141 -175v-8
c0 -115 57 -170 136 -170z" />
    <glyph glyph-name="Emacron" unicode="&#x112;" horiz-adv-x="588" 
d="M82 715h447v-105h-314v-196h252v-100h-252v-209h331v-105h-464v715zM169 861h288v-81h-288v81z" />
    <glyph glyph-name="emacron" unicode="&#x113;" horiz-adv-x="584" 
d="M302 -10c-155 0 -265 102 -265 266v8c0 162 111 270 260 270c130 0 247 -77 247 -264v-35h-383c4 -100 53 -155 144 -155c73 0 111 29 120 80h117c-17 -111 -105 -170 -240 -170zM424 316c-7 91 -51 130 -127 130c-73 0 -122 -49 -134 -130h261zM155 712h280v-78h-280v78
z" />
    <glyph glyph-name="Ebreve" unicode="&#x114;" horiz-adv-x="588" 
d="M82 715h447v-105h-314v-196h252v-100h-252v-209h331v-105h-464v715zM316 761c-84 0 -141 56 -145 140h85c5 -35 24 -56 60 -56s56 21 63 56h84c-5 -84 -67 -140 -147 -140z" />
    <glyph glyph-name="ebreve" unicode="&#x115;" horiz-adv-x="584" 
d="M302 -10c-155 0 -265 102 -265 266v8c0 162 111 270 260 270c130 0 247 -77 247 -264v-35h-383c4 -100 53 -155 144 -155c73 0 111 29 120 80h117c-17 -111 -105 -170 -240 -170zM424 316c-7 91 -51 130 -127 130c-73 0 -122 -49 -134 -130h261zM287 606
c-83 0 -140 56 -145 143h84c5 -36 24 -58 61 -58s58 22 65 58h82c-5 -86 -67 -143 -147 -143z" />
    <glyph glyph-name="Edotaccent" unicode="&#x116;" horiz-adv-x="588" 
d="M82 715h447v-105h-314v-196h252v-100h-252v-209h331v-105h-464v715zM313 775c-40 0 -71 30 -71 69s31 68 71 68c39 0 71 -29 71 -68s-32 -69 -71 -69z" />
    <glyph glyph-name="edotaccent" unicode="&#x117;" horiz-adv-x="584" 
d="M302 -10c-155 0 -265 102 -265 266v8c0 162 111 270 260 270c130 0 247 -77 247 -264v-35h-383c4 -100 53 -155 144 -155c73 0 111 29 120 80h117c-17 -111 -105 -170 -240 -170zM424 316c-7 91 -51 130 -127 130c-73 0 -122 -49 -134 -130h261zM295 611
c-40 0 -71 30 -71 69s31 68 71 68c39 0 71 -29 71 -68s-32 -69 -71 -69z" />
    <glyph glyph-name="Eogonek" unicode="&#x118;" horiz-adv-x="588" 
d="M459 -182c-68 0 -111 30 -111 81c0 45 38 80 81 101h-347v715h447v-105h-314v-196h252v-100h-252v-209h331v-105h-32c-39 -27 -57 -49 -57 -76c0 -21 12 -32 35 -32c15 0 30 3 43 9v-69c-17 -8 -41 -14 -76 -14z" />
    <glyph glyph-name="eogonek" unicode="&#x119;" horiz-adv-x="584" 
d="M395 -182c-67 0 -110 29 -110 80c0 40 35 73 74 96c-17 -3 -38 -4 -57 -4c-155 0 -265 102 -265 266v8c0 162 111 270 260 270c130 0 247 -77 247 -264v-35h-383c4 -100 53 -155 144 -155c73 0 111 29 120 80h117c-13 -77 -56 -113 -83 -138c-41 -37 -69 -68 -69 -99
c0 -22 12 -33 35 -33c16 0 31 3 44 9v-67c-19 -8 -39 -14 -74 -14zM424 316c-7 91 -51 130 -127 130c-73 0 -122 -49 -134 -130h261z" />
    <glyph glyph-name="Ecaron" unicode="&#x11a;" horiz-adv-x="588" 
d="M82 715h447v-105h-314v-196h252v-100h-252v-209h331v-105h-464v715zM153 901h88l75 -55l74 55h86l-110 -135h-105z" />
    <glyph glyph-name="ecaron" unicode="&#x11b;" horiz-adv-x="584" 
d="M302 -10c-155 0 -265 102 -265 266v8c0 162 111 270 260 270c130 0 247 -77 247 -264v-35h-383c4 -100 53 -155 144 -155c73 0 111 29 120 80h117c-17 -111 -105 -170 -240 -170zM424 316c-7 91 -51 130 -127 130c-73 0 -122 -49 -134 -130h261zM134 753h87l75 -67l75 67
h84l-113 -151h-96z" />
    <glyph glyph-name="Gcircumflex" unicode="&#x11c;" horiz-adv-x="779" 
d="M403 -10c-229 0 -357 152 -357 363v8c0 213 148 365 357 365c153 0 289 -70 308 -241h-133c-16 96 -80 136 -173 136c-140 0 -221 -104 -221 -261v-8c0 -152 72 -258 221 -258c134 0 188 80 193 180h-180v100h311v-66c0 -197 -123 -318 -326 -318zM347 901h104l108 -135
h-88l-74 55l-75 -55h-86z" />
    <glyph glyph-name="gcircumflex" unicode="&#x11d;" horiz-adv-x="637" 
d="M295 -192c-164 0 -239 74 -252 174h122c11 -52 49 -82 129 -82c95 0 146 46 146 141v77c-29 -50 -94 -97 -171 -97c-131 0 -232 97 -232 249v7c0 147 99 257 235 257c87 0 137 -39 168 -91v80h121v-484c-1 -155 -103 -231 -266 -231zM299 114c84 0 145 60 145 160v7
c0 100 -53 158 -141 158c-91 0 -142 -64 -142 -160v-8c0 -97 60 -157 138 -157zM251 753h96l111 -151h-86l-75 68l-76 -68h-84z" />
    <glyph glyph-name="Gbreve" unicode="&#x11e;" horiz-adv-x="779" 
d="M403 -10c-229 0 -357 152 -357 363v8c0 213 148 365 357 365c153 0 289 -70 308 -241h-133c-16 96 -80 136 -173 136c-140 0 -221 -104 -221 -261v-8c0 -152 72 -258 221 -258c134 0 188 80 193 180h-180v100h311v-66c0 -197 -123 -318 -326 -318zM397 761
c-84 0 -141 56 -145 140h85c5 -35 24 -56 60 -56s56 21 63 56h84c-5 -84 -67 -140 -147 -140z" />
    <glyph glyph-name="gbreve" unicode="&#x11f;" horiz-adv-x="637" 
d="M295 -192c-164 0 -239 74 -252 174h122c11 -52 49 -82 129 -82c95 0 146 46 146 141v77c-29 -50 -94 -97 -171 -97c-131 0 -232 97 -232 249v7c0 147 99 257 235 257c87 0 137 -39 168 -91v80h121v-484c-1 -155 -103 -231 -266 -231zM299 114c84 0 145 60 145 160v7
c0 100 -53 158 -141 158c-91 0 -142 -64 -142 -160v-8c0 -97 60 -157 138 -157zM297 606c-83 0 -140 56 -145 143h84c5 -36 24 -58 61 -58s58 22 65 58h82c-5 -86 -67 -143 -147 -143z" />
    <glyph glyph-name="Gdotaccent" unicode="&#x120;" horiz-adv-x="779" 
d="M403 -10c-229 0 -357 152 -357 363v8c0 213 148 365 357 365c153 0 289 -70 308 -241h-133c-16 96 -80 136 -173 136c-140 0 -221 -104 -221 -261v-8c0 -152 72 -258 221 -258c134 0 188 80 193 180h-180v100h311v-66c0 -197 -123 -318 -326 -318zM398 775
c-40 0 -71 30 -71 69s31 68 71 68c39 0 71 -29 71 -68s-32 -69 -71 -69z" />
    <glyph glyph-name="gdotaccent" unicode="&#x121;" horiz-adv-x="637" 
d="M295 -192c-164 0 -239 74 -252 174h122c11 -52 49 -82 129 -82c95 0 146 46 146 141v77c-29 -50 -94 -97 -171 -97c-131 0 -232 97 -232 249v7c0 147 99 257 235 257c87 0 137 -39 168 -91v80h121v-484c-1 -155 -103 -231 -266 -231zM299 114c84 0 145 60 145 160v7
c0 100 -53 158 -141 158c-91 0 -142 -64 -142 -160v-8c0 -97 60 -157 138 -157zM298 611c-40 0 -71 30 -71 69s31 68 71 68c39 0 71 -29 71 -68s-32 -69 -71 -69z" />
    <glyph glyph-name="uni0122" unicode="&#x122;" horiz-adv-x="775" 
d="M403 -10c-229 0 -357 152 -357 363v8c0 213 148 365 357 365c153 0 289 -70 308 -241h-133c-16 96 -80 136 -173 136c-140 0 -221 -104 -221 -261v-8c0 -152 72 -258 221 -258c134 0 188 80 193 180h-180v100h311v-66c0 -197 -123 -318 -326 -318zM301 -198l52 165
l111 -22l-92 -170z" />
    <glyph glyph-name="uni0123" unicode="&#x123;" horiz-adv-x="633" 
d="M295 -192c-164 0 -239 74 -252 174h122c11 -52 49 -82 129 -82c95 0 146 46 146 141v77c-29 -50 -94 -97 -171 -97c-131 0 -232 97 -232 249v7c0 147 99 257 235 257c87 0 137 -39 168 -91v80h121v-484c-1 -155 -103 -231 -266 -231zM299 114c84 0 145 60 145 160v7
c0 100 -53 158 -141 158c-91 0 -142 -64 -142 -160v-8c0 -97 60 -157 138 -157zM244 610l92 169l70 -26l-51 -165z" />
    <glyph glyph-name="Hcircumflex" unicode="&#x124;" horiz-adv-x="755" 
d="M82 715h133v-304h321v304h134v-715h-134v304h-321v-304h-133v715zM324 901h104l108 -135h-88l-74 55l-75 -55h-86z" />
    <glyph glyph-name="hcircumflex" unicode="&#x125;" horiz-adv-x="612" 
d="M72 765h121v-325c25 51 82 94 169 94c105 0 179 -61 179 -205v-329h-121v318c0 80 -32 115 -104 115c-68 0 -123 -42 -123 -125v-308h-121v765zM263 941h104l108 -135h-88l-74 55l-75 -55h-86z" />
    <glyph glyph-name="Hbar" unicode="&#x126;" horiz-adv-x="755" 
d="M16 582h66v133h133v-133h321v133h134v-133h66v-78h-66v-504h-134v304h-321v-304h-133v504h-66v78zM536 411v93h-321v-93h321z" />
    <glyph glyph-name="hbar" unicode="&#x127;" horiz-adv-x="612" 
d="M4 679h68v86h121v-86h169v-75h-169v-164c25 51 82 94 169 94c105 0 179 -61 179 -205v-329h-121v318c0 80 -32 115 -104 115c-68 0 -123 -42 -123 -125v-308h-121v604h-68v75z" />
    <glyph glyph-name="Itilde" unicode="&#x128;" horiz-adv-x="311" 
d="M86 715h134v-715h-134v715zM213 768c-48 0 -83 39 -112 39c-19 0 -33 -17 -37 -40h-76c7 84 53 131 109 131c46 0 82 -40 113 -40c19 0 32 17 36 40h77c-8 -84 -54 -130 -110 -130z" />
    <glyph glyph-name="itilde" unicode="&#x129;" horiz-adv-x="275" 
d="M75 523h121v-523h-121v523zM194 606c-48 0 -82 40 -111 40c-19 0 -33 -17 -37 -40h-75c8 84 51 131 107 131c46 0 80 -39 112 -39c19 0 32 16 36 40h75c-8 -84 -51 -132 -107 -132z" />
    <glyph glyph-name="Imacron" unicode="&#x12a;" horiz-adv-x="311" 
d="M86 715h134v-715h-134v715zM9 861h288v-81h-288v81z" />
    <glyph glyph-name="imacron" unicode="&#x12b;" horiz-adv-x="275" 
d="M28 712h214v-78h-214v78zM75 523h121v-523h-121v523z" />
    <glyph glyph-name="Ibreve" unicode="&#x12c;" horiz-adv-x="311" 
d="M86 715h134v-715h-134v715zM154 761c-84 0 -141 56 -145 140h85c5 -35 24 -56 60 -56s56 21 63 56h84c-5 -84 -67 -140 -147 -140z" />
    <glyph glyph-name="ibreve" unicode="&#x12d;" horiz-adv-x="275" 
d="M75 523h121v-523h-121v523zM135 606c-83 0 -140 56 -145 143h84c5 -36 24 -58 61 -58s58 22 65 58h82c-5 -86 -67 -143 -147 -143z" />
    <glyph glyph-name="Iogonek" unicode="&#x12e;" horiz-adv-x="311" 
d="M155 -182c-68 0 -112 30 -112 81c0 45 38 80 81 101h-38v715h134v-708c-45 -27 -68 -55 -68 -83c0 -21 12 -32 35 -32c17 0 31 3 43 9v-69c-17 -8 -40 -14 -75 -14z" />
    <glyph glyph-name="iogonek" unicode="&#x12f;" horiz-adv-x="275" 
d="M134 -182c-67 0 -109 30 -109 81c0 45 38 80 81 101h-31v523h121v-518c-47 -31 -66 -55 -66 -82c0 -22 12 -33 35 -33c17 0 31 3 43 9v-67c-17 -8 -39 -14 -74 -14zM134 609c-40 0 -72 30 -72 69c0 40 32 70 72 70s72 -30 72 -70c0 -39 -32 -69 -72 -69z" />
    <glyph glyph-name="Idotaccent" unicode="&#x130;" horiz-adv-x="311" 
d="M86 715h134v-715h-134v715zM154 775c-40 0 -71 30 -71 69s31 68 71 68c39 0 71 -29 71 -68s-32 -69 -71 -69z" />
    <glyph glyph-name="dotlessi" unicode="&#x131;" horiz-adv-x="275" 
d="M75 523h121v-523h-121v523z" />
    <glyph glyph-name="IJ" unicode="&#x132;" horiz-adv-x="719" 
d="M86 715h134v-715h-134v715zM419 -9c-60 0 -89 9 -112 21v104c25 -11 49 -18 92 -18c65 0 107 34 107 122v495h134v-498c0 -155 -89 -226 -221 -226z" />
    <glyph glyph-name="ij" unicode="&#x133;" horiz-adv-x="275" 
d="M75 523h121v-523h-121v523zM134 609c-40 0 -72 30 -72 69c0 40 32 70 72 70s72 -30 72 -70c0 -39 -32 -69 -72 -69zM274 -95c53 4 72 30 72 74v544h121v-541c0 -107 -49 -167 -193 -170v93zM405 609c-40 0 -72 30 -72 69c0 40 32 70 72 70s72 -30 72 -70
c0 -39 -32 -69 -72 -69z" />
    <glyph glyph-name="Jcircumflex" unicode="&#x134;" horiz-adv-x="447" 
d="M148 -9c-60 0 -89 9 -112 21v104c25 -11 49 -18 92 -18c65 0 107 34 107 122v495h134v-498c0 -155 -89 -226 -221 -226zM248 901h104l108 -135h-88l-74 55l-75 -55h-86z" />
    <glyph glyph-name="jcircumflex" unicode="&#x135;" horiz-adv-x="275" 
d="M3 -95c53 4 72 30 72 74v544h121v-541c0 -107 -49 -167 -193 -170v93zM88 753h96l111 -151h-86l-75 68l-76 -68h-84z" />
    <glyph glyph-name="uni0136" unicode="&#x136;" horiz-adv-x="659" 
d="M82 715h133v-324l274 325h143l-296 -342l311 -374h-157l-275 334v-334h-133v715zM245 -198l52 165l111 -22l-92 -170z" />
    <glyph glyph-name="uni0137" unicode="&#x137;" horiz-adv-x="540" 
d="M72 765h121v-472l187 230h132l-203 -240l220 -283h-140l-196 257v-257h-121v765zM185 -198l52 165l111 -22l-92 -170z" />
    <glyph glyph-name="Lacute" unicode="&#x139;" horiz-adv-x="555" 
d="M82 715h133v-609h305v-106h-438v715zM153 901h136l-99 -135h-91z" />
    <glyph glyph-name="lacute" unicode="&#x13a;" horiz-adv-x="275" 
d="M75 765h121v-765h-121v765zM140 941h136l-99 -135h-91z" />
    <glyph glyph-name="uni013B" unicode="&#x13b;" horiz-adv-x="551" 
d="M82 715h133v-609h305v-106h-438v715zM203 -198l52 165l111 -22l-92 -170z" />
    <glyph glyph-name="uni013C" unicode="&#x13c;" horiz-adv-x="271" 
d="M75 765h121v-765h-121v765zM39 -198l52 165l111 -22l-92 -170z" />
    <glyph glyph-name="Lcaron" unicode="&#x13d;" horiz-adv-x="555" 
d="M333 715h115l-59 -165h-76zM82 715h133v-609h305v-106h-438v715z" />
    <glyph glyph-name="lcaron" unicode="&#x13e;" horiz-adv-x="275" 
d="M75 765h121v-765h-121v765zM250 765h110l-49 -175h-71z" />
    <glyph glyph-name="Ldot" unicode="&#x13f;" horiz-adv-x="565" 
d="M82 715h133v-609h305v-106h-438v715zM429 312c-44 0 -79 35 -79 79s35 78 79 78c45 0 80 -34 80 -78s-35 -79 -80 -79z" />
    <glyph glyph-name="ldot" unicode="&#x140;" horiz-adv-x="382" 
d="M75 765h121v-765h-121v765zM322 285c-44 0 -79 35 -79 79s35 78 79 78c45 0 80 -34 80 -78s-35 -79 -80 -79z" />
    <glyph glyph-name="Lslash" unicode="&#x141;" horiz-adv-x="574" 
d="M35 326l66 23v366h134v-318l191 69v-84l-191 -69v-207h305v-106h-439v265l-66 -23v84z" />
    <glyph glyph-name="lslash" unicode="&#x142;" horiz-adv-x="303" 
d="M19 379l70 37v349h121v-285l74 40v-88l-74 -40v-392h-121v328l-70 -37v88z" />
    <glyph glyph-name="Nacute" unicode="&#x143;" horiz-adv-x="749" 
d="M82 715h159l301 -517v517h121v-715h-138l-322 548v-548h-121v715zM387 901h136l-99 -135h-91z" />
    <glyph glyph-name="nacute" unicode="&#x144;" horiz-adv-x="612" 
d="M72 523h121v-83c25 51 82 94 169 94c105 0 179 -61 179 -205v-329h-121v318c0 80 -32 115 -104 115c-68 0 -123 -42 -123 -125v-308h-121v523zM312 756h134l-104 -155h-89z" />
    <glyph glyph-name="uni0145" unicode="&#x145;" horiz-adv-x="745" 
d="M82 715h159l301 -517v517h121v-715h-138l-322 548v-548h-121v715zM266 -198l52 165l111 -22l-92 -170z" />
    <glyph glyph-name="uni0146" unicode="&#x146;" horiz-adv-x="608" 
d="M72 523h121v-83c25 51 82 94 169 94c105 0 179 -61 179 -205v-329h-121v318c0 80 -32 115 -104 115c-68 0 -123 -42 -123 -125v-308h-121v523zM206 -198l52 165l111 -22l-92 -170z" />
    <glyph glyph-name="Ncaron" unicode="&#x147;" horiz-adv-x="749" 
d="M82 715h159l301 -517v517h121v-715h-138l-322 548v-548h-121v715zM223 901h88l75 -55l74 55h86l-110 -135h-105z" />
    <glyph glyph-name="ncaron" unicode="&#x148;" horiz-adv-x="612" 
d="M72 523h121v-83c25 51 82 94 169 94c105 0 179 -61 179 -205v-329h-121v318c0 80 -32 115 -104 115c-68 0 -123 -42 -123 -125v-308h-121v523zM142 753h87l75 -67l75 67h84l-113 -151h-96z" />
    <glyph glyph-name="napostrophe" unicode="&#x149;" horiz-adv-x="659" 
d="M118 523h121v-83c25 51 82 94 169 94c105 0 179 -61 179 -205v-329h-121v318c0 80 -32 115 -104 115c-68 0 -123 -42 -123 -125v-308h-121v523zM-39 496l86 231l109 -43l-124 -220z" />
    <glyph glyph-name="Eng" unicode="&#x14a;" horiz-adv-x="749" 
d="M448 -193c-57 0 -86 10 -109 21v101c25 -11 48 -18 88 -18c60 0 100 30 104 95l-326 549v-555h-123v715h161l297 -507v507h123v-700c0 -139 -86 -208 -215 -208z" />
    <glyph glyph-name="eng" unicode="&#x14b;" horiz-adv-x="612" 
d="M349 -95c53 4 71 30 71 74v339c0 80 -32 115 -104 115c-68 0 -123 -42 -123 -125v-308h-121v523h121v-83c25 51 82 94 169 94c105 0 179 -61 179 -205v-347c0 -106 -49 -167 -192 -170v93z" />
    <glyph glyph-name="Omacron" unicode="&#x14c;" horiz-adv-x="818" 
d="M410 97c135 0 220 103 220 258v8c0 147 -82 256 -222 256s-223 -103 -223 -257v-8c0 -156 95 -257 225 -257zM408 -10c-219 0 -362 157 -362 363v8c0 209 149 364 362 364c212 0 360 -151 360 -361v-8c0 -208 -143 -366 -360 -366zM262 861h288v-81h-288v81z" />
    <glyph glyph-name="omacron" unicode="&#x14d;" horiz-adv-x="615" 
d="M306 84c91 0 144 66 144 174v7c0 108 -53 174 -144 174s-145 -65 -145 -173v-8c0 -108 53 -174 145 -174zM305 -10c-155 0 -268 106 -268 266v8c0 162 115 270 269 270c152 0 268 -107 268 -267v-8c0 -163 -115 -269 -269 -269zM165 712h280v-78h-280v78z" />
    <glyph glyph-name="Obreve" unicode="&#x14e;" horiz-adv-x="818" 
d="M410 97c135 0 220 103 220 258v8c0 147 -82 256 -222 256s-223 -103 -223 -257v-8c0 -156 95 -257 225 -257zM408 -10c-219 0 -362 157 -362 363v8c0 209 149 364 362 364c212 0 360 -151 360 -361v-8c0 -208 -143 -366 -360 -366zM405 761c-84 0 -141 56 -145 140h85
c5 -35 24 -56 60 -56s56 21 63 56h84c-5 -84 -67 -140 -147 -140z" />
    <glyph glyph-name="obreve" unicode="&#x14f;" horiz-adv-x="615" 
d="M306 84c91 0 144 66 144 174v7c0 108 -53 174 -144 174s-145 -65 -145 -173v-8c0 -108 53 -174 145 -174zM305 -10c-155 0 -268 106 -268 266v8c0 162 115 270 269 270c152 0 268 -107 268 -267v-8c0 -163 -115 -269 -269 -269zM304 606c-83 0 -140 56 -145 143h84
c5 -36 24 -58 61 -58s58 22 65 58h82c-5 -86 -67 -143 -147 -143z" />
    <glyph glyph-name="Ohungarumlaut" unicode="&#x150;" horiz-adv-x="818" 
d="M410 97c135 0 220 103 220 258v8c0 147 -82 256 -222 256s-223 -103 -223 -257v-8c0 -156 95 -257 225 -257zM408 -10c-219 0 -362 157 -362 363v8c0 209 149 364 362 364c212 0 360 -151 360 -361v-8c0 -208 -143 -366 -360 -366zM310 901h118l-73 -135h-83zM480 901
h118l-73 -135h-83z" />
    <glyph glyph-name="ohungarumlaut" unicode="&#x151;" horiz-adv-x="615" 
d="M306 84c91 0 144 66 144 174v7c0 108 -53 174 -144 174s-145 -65 -145 -173v-8c0 -108 53 -174 145 -174zM305 -10c-155 0 -268 106 -268 266v8c0 162 115 270 269 270c152 0 268 -107 268 -267v-8c0 -163 -115 -269 -269 -269zM218 756h113l-76 -155h-78zM381 756h113
l-76 -155h-78z" />
    <glyph glyph-name="OE" unicode="&#x152;" horiz-adv-x="968" 
d="M46 359c0 208 121 356 371 356h493v-105h-299v-196h236v-100h-236v-209h316v-105h-512c-248 0 -369 142 -369 350v9zM420 610c-160 0 -235 -91 -235 -250v-8c0 -154 69 -247 237 -247h56v505h-58z" />
    <glyph glyph-name="oe" unicode="&#x153;" horiz-adv-x="995" 
d="M305 -10c-155 0 -268 106 -268 266v8c0 162 115 270 269 270c91 0 161 -38 204 -103c43 65 110 103 198 103c130 0 248 -77 248 -264v-35h-384c4 -100 53 -155 145 -155c72 0 109 29 120 80h116c-17 -111 -106 -170 -239 -170c-92 0 -162 35 -205 102
c-43 -65 -115 -102 -204 -102zM306 84c91 0 144 68 144 173v8c0 108 -53 174 -144 174s-145 -65 -145 -173v-8c0 -108 53 -174 145 -174zM835 316c-7 91 -51 130 -127 130c-72 0 -122 -49 -134 -130h261z" />
    <glyph glyph-name="Racute" unicode="&#x154;" horiz-adv-x="659" 
d="M82 715h240c157 0 267 -64 267 -210v-4c0 -113 -71 -168 -159 -192l201 -309h-144l-187 289h-85v-289h-133v715zM322 384c91 0 136 38 136 114v4c0 83 -51 110 -136 110h-107v-228h107zM322 901h136l-99 -135h-91z" />
    <glyph glyph-name="racute" unicode="&#x155;" horiz-adv-x="401" 
d="M72 523h121v-98c33 67 82 105 170 106v-113c-107 0 -170 -36 -170 -146v-272h-121v523zM225 756h134l-104 -155h-89z" />
    <glyph glyph-name="uni0156" unicode="&#x156;" horiz-adv-x="655" 
d="M82 715h240c157 0 267 -64 267 -210v-4c0 -113 -71 -168 -159 -192l201 -309h-144l-187 289h-85v-289h-133v715zM322 384c91 0 136 38 136 114v4c0 83 -51 110 -136 110h-107v-228h107zM235 -198l52 165l111 -22l-92 -170z" />
    <glyph glyph-name="uni0157" unicode="&#x157;" horiz-adv-x="397" 
d="M72 523h121v-98c33 67 82 105 170 106v-113c-107 0 -170 -36 -170 -146v-272h-121v523zM35 -198l52 165l111 -22l-92 -170z" />
    <glyph glyph-name="Rcaron" unicode="&#x158;" horiz-adv-x="659" 
d="M82 715h240c157 0 267 -64 267 -210v-4c0 -113 -71 -168 -159 -192l201 -309h-144l-187 289h-85v-289h-133v715zM322 384c91 0 136 38 136 114v4c0 83 -51 110 -136 110h-107v-228h107zM158 901h88l75 -55l74 55h86l-110 -135h-105z" />
    <glyph glyph-name="rcaron" unicode="&#x159;" horiz-adv-x="401" 
d="M72 523h121v-98c33 67 82 105 170 106v-113c-107 0 -170 -36 -170 -146v-272h-121v523zM55 753h87l75 -67l75 67h84l-113 -151h-96z" />
    <glyph glyph-name="Sacute" unicode="&#x15a;" horiz-adv-x="639" 
d="M325 -10c-195 0 -276 97 -287 232h128c8 -72 39 -132 159 -132c80 0 135 43 135 110c0 66 -33 91 -149 110c-171 24 -252 74 -252 209c0 117 100 205 249 205c155 0 245 -70 260 -207h-122c-13 76 -55 107 -138 107c-81 0 -123 -38 -123 -94c0 -59 24 -87 148 -105
c168 -24 255 -70 255 -214c0 -124 -106 -221 -263 -221zM311 901h136l-99 -135h-91z" />
    <glyph glyph-name="sacute" unicode="&#x15b;" horiz-adv-x="498" 
d="M251 -10c-136 0 -214 61 -219 173h114c7 -53 32 -84 104 -84c65 0 94 23 94 67c0 43 -35 59 -112 72c-139 21 -189 61 -189 159c0 104 98 157 196 157c108 0 192 -40 205 -158h-112c-11 48 -37 70 -93 70c-52 0 -83 -25 -83 -62c0 -38 24 -54 108 -67
c123 -19 196 -49 196 -160c0 -107 -74 -167 -209 -167zM254 756h134l-104 -155h-89z" />
    <glyph glyph-name="Scircumflex" unicode="&#x15c;" horiz-adv-x="639" 
d="M325 -10c-195 0 -276 97 -287 232h128c8 -72 39 -132 159 -132c80 0 135 43 135 110c0 66 -33 91 -149 110c-171 24 -252 74 -252 209c0 117 100 205 249 205c155 0 245 -70 260 -207h-122c-13 76 -55 107 -138 107c-81 0 -123 -38 -123 -94c0 -59 24 -87 148 -105
c168 -24 255 -70 255 -214c0 -124 -106 -221 -263 -221zM258 901h104l108 -135h-88l-74 55l-75 -55h-86z" />
    <glyph glyph-name="scircumflex" unicode="&#x15d;" horiz-adv-x="498" 
d="M251 -10c-136 0 -214 61 -219 173h114c7 -53 32 -84 104 -84c65 0 94 23 94 67c0 43 -35 59 -112 72c-139 21 -189 61 -189 159c0 104 98 157 196 157c108 0 192 -40 205 -158h-112c-11 48 -37 70 -93 70c-52 0 -83 -25 -83 -62c0 -38 24 -54 108 -67
c123 -19 196 -49 196 -160c0 -107 -74 -167 -209 -167zM197 753h96l111 -151h-86l-75 68l-76 -68h-84z" />
    <glyph glyph-name="uni015E" unicode="&#x15e;" horiz-adv-x="635" 
d="M295 -219c-64 0 -103 33 -110 88h66c3 -17 16 -33 40 -33c23 0 37 14 37 34c0 19 -14 32 -35 32c-15 0 -23 -5 -30 -9l-34 32l40 68c-154 16 -223 108 -231 229h128c8 -72 39 -132 159 -132c80 0 135 43 135 110c0 66 -33 91 -149 110c-171 24 -252 74 -252 209
c0 117 100 205 249 205c155 0 245 -70 260 -207h-122c-13 76 -55 107 -138 107c-81 0 -123 -38 -123 -94c0 -59 24 -87 148 -105c168 -24 255 -70 255 -214c0 -123 -104 -221 -261 -221l-23 -40c51 5 100 -19 100 -83c0 -56 -46 -86 -109 -86z" />
    <glyph glyph-name="uni015F" unicode="&#x15f;" horiz-adv-x="494" 
d="M232 -219c-64 0 -103 33 -110 88h66c3 -17 16 -33 40 -33c23 0 37 14 37 34c0 19 -14 32 -35 32c-15 0 -23 -5 -30 -9l-34 32l39 68c-108 12 -169 71 -173 170h114c7 -53 32 -84 104 -84c65 0 94 23 94 67c0 43 -35 59 -112 72c-139 21 -189 61 -189 159
c0 104 98 157 196 157c108 0 192 -40 205 -158h-112c-11 48 -37 70 -93 70c-52 0 -83 -25 -83 -62c0 -38 24 -54 108 -67c123 -19 196 -49 196 -160c0 -104 -69 -163 -196 -167l-23 -40c51 5 100 -19 100 -83c0 -56 -46 -86 -109 -86z" />
    <glyph glyph-name="Scaron" unicode="&#x160;" horiz-adv-x="639" 
d="M325 -10c-195 0 -276 97 -287 232h128c8 -72 39 -132 159 -132c80 0 135 43 135 110c0 66 -33 91 -149 110c-171 24 -252 74 -252 209c0 117 100 205 249 205c155 0 245 -70 260 -207h-122c-13 76 -55 107 -138 107c-81 0 -123 -38 -123 -94c0 -59 24 -87 148 -105
c168 -24 255 -70 255 -214c0 -124 -106 -221 -263 -221zM147 901h88l75 -55l74 55h86l-110 -135h-105z" />
    <glyph glyph-name="scaron" unicode="&#x161;" horiz-adv-x="498" 
d="M251 -10c-136 0 -214 61 -219 173h114c7 -53 32 -84 104 -84c65 0 94 23 94 67c0 43 -35 59 -112 72c-139 21 -189 61 -189 159c0 104 98 157 196 157c108 0 192 -40 205 -158h-112c-11 48 -37 70 -93 70c-52 0 -83 -25 -83 -62c0 -38 24 -54 108 -67
c123 -19 196 -49 196 -160c0 -107 -74 -167 -209 -167zM82 753h87l75 -67l75 67h84l-113 -151h-96z" />
    <glyph glyph-name="Tcommaaccent" unicode="&#x162;" horiz-adv-x="588" 
d="M225 610h-199v105h532v-105h-199v-610h-134v610zM194 -198l52 165l111 -22l-92 -170z" />
    <glyph glyph-name="tcommaaccent" unicode="&#x163;" horiz-adv-x="373" 
d="M250 -9c-104 0 -158 55 -158 155v286h-70v91h70v115h121v-115h115v-91h-115v-275c0 -47 21 -67 60 -67c23 0 43 3 59 10v-96c-19 -7 -45 -13 -82 -13zM102 -198l52 165l111 -22l-92 -170z" />
    <glyph glyph-name="Tcaron" unicode="&#x164;" horiz-adv-x="587" 
d="M225 610h-199v105h532v-105h-199v-610h-134v610zM129 901h88l75 -55l74 55h86l-110 -135h-105z" />
    <glyph glyph-name="tcaron" unicode="&#x165;" horiz-adv-x="373" 
d="M250 -9c-104 0 -158 55 -158 155v286h-70v91h70v115h121v-115h115v-91h-115v-275c0 -47 21 -67 60 -67c23 0 43 3 59 10v-96c-19 -7 -45 -13 -82 -13zM285 765h110l-49 -175h-71z" />
    <glyph glyph-name="Tbar" unicode="&#x166;" horiz-adv-x="587" 
d="M87 405h138v205h-199v105h532v-105h-199v-205h137v-90h-137v-315h-134v315h-138v90z" />
    <glyph glyph-name="tbar" unicode="&#x167;" horiz-adv-x="373" 
d="M22 336h70v97h-70v90h70v115h121v-115h114v-90h-114v-97h114v-75h-114v-104c0 -45 20 -68 60 -68c24 0 42 4 59 11v-96c-19 -7 -45 -13 -82 -13c-104 0 -158 55 -158 155v115h-70v75z" />
    <glyph glyph-name="Utilde" unicode="&#x168;" horiz-adv-x="727" 
d="M357 -10c-180 0 -281 97 -281 282v443h134v-433c0 -132 41 -185 148 -185c104 0 155 46 155 194v424h134v-435c0 -188 -99 -290 -290 -290zM418 768c-48 0 -83 39 -112 39c-19 0 -33 -17 -37 -40h-76c7 84 53 131 109 131c46 0 82 -40 113 -40c19 0 32 17 36 40h77
c-8 -84 -54 -130 -110 -130z" />
    <glyph glyph-name="utilde" unicode="&#x169;" horiz-adv-x="609" 
d="M247 -10c-104 0 -180 59 -180 198v335h121v-321c0 -80 32 -115 103 -115c65 0 122 42 122 125v311h121v-523h-121v82c-27 -51 -81 -92 -166 -92zM360 606c-48 0 -82 40 -111 40c-19 0 -33 -17 -37 -40h-75c8 84 51 131 107 131c46 0 80 -39 112 -39c19 0 32 16 36 40h75
c-8 -84 -51 -132 -107 -132z" />
    <glyph glyph-name="Umacron" unicode="&#x16a;" horiz-adv-x="727" 
d="M357 -10c-180 0 -281 97 -281 282v443h134v-433c0 -132 41 -185 148 -185c104 0 155 46 155 194v424h134v-435c0 -188 -99 -290 -290 -290zM216 861h288v-81h-288v81z" />
    <glyph glyph-name="umacron" unicode="&#x16b;" horiz-adv-x="609" 
d="M247 -10c-104 0 -180 59 -180 198v335h121v-321c0 -80 32 -115 103 -115c65 0 122 42 122 125v311h121v-523h-121v82c-27 -51 -81 -92 -166 -92zM162 712h280v-78h-280v78z" />
    <glyph glyph-name="Ubreve" unicode="&#x16c;" horiz-adv-x="727" 
d="M357 -10c-180 0 -281 97 -281 282v443h134v-433c0 -132 41 -185 148 -185c104 0 155 46 155 194v424h134v-435c0 -188 -99 -290 -290 -290zM359 761c-84 0 -141 56 -145 140h85c5 -35 24 -56 60 -56s56 21 63 56h84c-5 -84 -67 -140 -147 -140z" />
    <glyph glyph-name="ubreve" unicode="&#x16d;" horiz-adv-x="609" 
d="M247 -10c-104 0 -180 59 -180 198v335h121v-321c0 -80 32 -115 103 -115c65 0 122 42 122 125v311h121v-523h-121v82c-27 -51 -81 -92 -166 -92zM301 606c-83 0 -140 56 -145 143h84c5 -36 24 -58 61 -58s58 22 65 58h82c-5 -86 -67 -143 -147 -143z" />
    <glyph glyph-name="Uring" unicode="&#x16e;" horiz-adv-x="727" 
d="M357 -10c-180 0 -281 97 -281 282v443h134v-433c0 -132 41 -185 148 -185c104 0 155 46 155 194v424h134v-435c0 -188 -99 -290 -290 -290zM360 787c29 0 50 23 50 55s-21 55 -50 55c-31 0 -50 -23 -50 -55s19 -55 50 -55zM360 733c-61 0 -112 49 -112 109
s51 109 112 109s112 -49 112 -109s-51 -109 -112 -109z" />
    <glyph glyph-name="uring" unicode="&#x16f;" horiz-adv-x="609" 
d="M247 -10c-104 0 -180 59 -180 198v335h121v-321c0 -80 32 -115 103 -115c65 0 122 42 122 125v311h121v-523h-121v82c-27 -51 -81 -92 -166 -92zM299 616c29 0 50 24 50 55c0 32 -21 55 -50 55s-50 -23 -50 -55c0 -31 21 -55 50 -55zM299 563c-60 0 -111 49 -111 108
s51 108 111 108s111 -49 111 -108s-51 -108 -111 -108z" />
    <glyph glyph-name="Uhungarumlaut" unicode="&#x170;" horiz-adv-x="727" 
d="M357 -10c-180 0 -281 97 -281 282v443h134v-433c0 -132 41 -185 148 -185c104 0 155 46 155 194v424h134v-435c0 -188 -99 -290 -290 -290zM264 901h118l-73 -135h-83zM434 901h118l-73 -135h-83z" />
    <glyph glyph-name="uhungarumlaut" unicode="&#x171;" horiz-adv-x="609" 
d="M247 -10c-104 0 -180 59 -180 198v335h121v-321c0 -80 32 -115 103 -115c65 0 122 42 122 125v311h121v-523h-121v82c-27 -51 -81 -92 -166 -92zM215 756h113l-76 -155h-78zM378 756h113l-76 -155h-78z" />
    <glyph glyph-name="Uogonek" unicode="&#x172;" horiz-adv-x="727" 
d="M398 -182c-67 0 -110 29 -110 80c0 39 28 71 63 92c-176 1 -275 99 -275 282v443h134v-433c0 -132 41 -185 148 -185c104 0 155 46 155 194v424h134v-435c0 -133 -51 -221 -142 -262c-60 -29 -109 -49 -109 -93c0 -22 12 -33 35 -33c17 0 31 3 43 9v-69
c-17 -8 -41 -14 -76 -14z" />
    <glyph glyph-name="uogonek" unicode="&#x173;" horiz-adv-x="609" 
d="M469 -182c-65 0 -109 30 -109 81c0 45 39 80 82 101h-29v82c-27 -51 -81 -92 -166 -92c-104 0 -180 59 -180 198v335h121v-321c0 -80 32 -115 103 -115c65 0 122 42 122 125v311h121v-515c-49 -33 -68 -58 -68 -85c0 -22 12 -33 35 -33c17 0 31 3 43 9v-67
c-17 -8 -40 -14 -75 -14z" />
    <glyph glyph-name="Wcircumflex" unicode="&#x174;" horiz-adv-x="959" 
d="M26 715h136l124 -525l139 525h110l142 -528l128 528h124l-179 -715h-133l-141 521l-145 -521h-127zM426 901h104l108 -135h-88l-74 55l-75 -55h-86z" />
    <glyph glyph-name="wcircumflex" unicode="&#x175;" horiz-adv-x="818" 
d="M20 523h129l104 -378l111 378h101l102 -378l109 378h118l-164 -523h-123l-97 352l-106 -352h-124zM359 753h96l111 -151h-86l-75 68l-76 -68h-84z" />
    <glyph glyph-name="Ycircumflex" unicode="&#x176;" horiz-adv-x="633" 
d="M254 310l-237 405h147l161 -296l157 296h130l-224 -406v-309h-134v310zM266 901h104l108 -135h-88l-74 55l-75 -55h-86z" />
    <glyph glyph-name="ycircumflex" unicode="&#x177;" horiz-adv-x="557" 
d="M225 53l-207 470h131l139 -337l128 337h118l-285 -702h-119zM232 753h96l111 -151h-86l-75 68l-76 -68h-84z" />
    <glyph glyph-name="Ydieresis" unicode="&#x178;" horiz-adv-x="633" 
d="M254 310l-237 405h147l161 -296l157 296h130l-224 -406v-309h-134v310zM211 777c-36 0 -66 29 -66 65s30 65 66 65s66 -29 66 -65s-30 -65 -66 -65zM422 777c-36 0 -66 29 -66 65s30 65 66 65s66 -29 66 -65s-30 -65 -66 -65z" />
    <glyph glyph-name="Zacute" unicode="&#x179;" horiz-adv-x="612" 
d="M22 18l365 592h-328v105h516v-17l-357 -591h347v-107h-543v18zM307 901h136l-99 -135h-91z" />
    <glyph glyph-name="zacute" unicode="&#x17a;" horiz-adv-x="497" 
d="M17 14l277 413h-250v96h429v-17l-276 -409h268v-97h-448v14zM261 756h134l-104 -155h-89z" />
    <glyph glyph-name="Zdotaccent" unicode="&#x17b;" horiz-adv-x="612" 
d="M22 18l365 592h-328v105h516v-17l-357 -591h347v-107h-543v18zM305 775c-40 0 -71 30 -71 69s31 68 71 68c39 0 71 -29 71 -68s-32 -69 -71 -69z" />
    <glyph glyph-name="zdotaccent" unicode="&#x17c;" horiz-adv-x="497" 
d="M17 14l277 413h-250v96h429v-17l-276 -409h268v-97h-448v14zM253 611c-40 0 -71 30 -71 69s31 68 71 68c39 0 71 -29 71 -68s-32 -69 -71 -69z" />
    <glyph glyph-name="Zcaron" unicode="&#x17d;" horiz-adv-x="612" 
d="M22 18l365 592h-328v105h516v-17l-357 -591h347v-107h-543v18zM143 901h88l75 -55l74 55h86l-110 -135h-105z" />
    <glyph glyph-name="zcaron" unicode="&#x17e;" horiz-adv-x="497" 
d="M17 14l277 413h-250v96h429v-17l-276 -409h268v-97h-448v14zM91 753h87l75 -67l75 67h84l-113 -151h-96z" />
    <glyph glyph-name="uni0192" unicode="&#x192;" horiz-adv-x="417" 
d="M27 414h94l21 141c17 116 82 169 189 169c31 0 51 -3 72 -11v-95c-15 7 -33 10 -60 10c-51 0 -75 -33 -82 -82l-20 -132h125v-90h-138l-75 -506h-120l75 506h-81v90z" />
    <glyph glyph-name="Aringacute" unicode="&#x1fa;" horiz-adv-x="707" 
d="M266 715h174l236 -715h-138l-57 177h-273l-56 -177h-125zM239 274h211l-105 332zM356 800c29 0 50 23 50 55s-21 55 -50 55c-31 0 -50 -23 -50 -55s19 -55 50 -55zM356 746c-61 0 -112 49 -112 109s51 109 112 109s112 -49 112 -109s-51 -109 -112 -109zM363 1123h136
l-99 -135h-91z" />
    <glyph glyph-name="aringacute" unicode="&#x1fb;" horiz-adv-x="559" 
d="M209 -10c-96 0 -175 46 -175 155c0 122 119 166 268 166h65v27c0 71 -23 105 -95 105c-64 0 -93 -30 -100 -82h-117c11 122 107 173 224 173s209 -47 209 -191v-343h-119v64c-35 -45 -80 -74 -160 -74zM238 77c75 0 129 38 129 106v52h-62c-92 0 -151 -21 -151 -85
c0 -44 24 -73 84 -73zM280 629c29 0 50 24 50 55c0 32 -21 55 -50 55s-50 -23 -50 -55c0 -31 21 -55 50 -55zM280 576c-60 0 -111 49 -111 108s51 108 111 108s111 -49 111 -108s-51 -108 -111 -108zM294 963h136l-99 -135h-91z" />
    <glyph glyph-name="AEacute" unicode="&#x1fc;" horiz-adv-x="975" 
d="M373 715h543v-105h-312v-196h250v-100h-250v-209h329v-105h-462v183h-232l-87 -183h-130zM285 278h186v332h-27zM613 901h136l-99 -135h-91z" />
    <glyph glyph-name="aeacute" unicode="&#x1fd;" horiz-adv-x="895" 
d="M620 -10c-91 0 -158 36 -199 100c-47 -68 -105 -100 -205 -100c-101 0 -182 46 -182 155c0 124 117 167 266 167h68v26c0 71 -27 105 -95 105c-61 0 -95 -27 -101 -82h-117c11 122 106 173 221 173c76 0 134 -20 166 -76c41 48 100 76 173 76c125 0 241 -73 241 -266v-33
h-372c4 -97 49 -155 137 -155c71 0 107 29 116 80h116c-17 -111 -104 -170 -233 -170zM239 77c76 0 129 38 129 106v51h-65c-91 0 -149 -18 -149 -82c0 -47 24 -75 85 -75zM736 312c-7 95 -49 134 -121 134c-71 0 -118 -49 -129 -134h250zM463 756h134l-104 -155h-89z" />
    <glyph glyph-name="Oslashacute" unicode="&#x1fe;" horiz-adv-x="818" 
d="M34 18l91 98c-51 64 -79 145 -79 237v8c0 208 149 363 362 363c85 0 159 -24 219 -67l78 84l50 -50l-75 -81c56 -64 89 -147 89 -246v-8c0 -208 -144 -366 -361 -366c-93 0 -172 28 -232 76l-92 -99zM409 97c137 0 222 103 222 259v8c0 61 -12 112 -37 154l-336 -364
c40 -38 90 -57 151 -57zM184 354c0 -55 10 -102 31 -141l333 359c-37 31 -84 47 -140 47c-141 0 -224 -103 -224 -257v-8zM409 901h136l-99 -135h-91z" />
    <glyph glyph-name="oslashacute" unicode="&#x1ff;" horiz-adv-x="615" 
d="M22 4l73 79c-37 45 -58 104 -58 173v8c0 162 115 270 269 270c61 0 114 -16 159 -48l67 73l47 -42l-67 -73c39 -45 62 -105 62 -177v-8c0 -163 -115 -269 -269 -269c-64 0 -120 18 -164 50l-72 -78zM306 84c92 0 145 66 145 173v8c0 36 -6 67 -18 93l-222 -241
c24 -22 56 -33 95 -33zM161 258c0 -32 5 -61 14 -87l220 239c-25 20 -55 30 -89 30c-91 0 -145 -66 -145 -174v-8zM313 756h134l-104 -155h-89z" />
    <glyph glyph-name="uni0218" unicode="&#x218;" horiz-adv-x="636" 
d="M325 -10c-195 0 -276 97 -287 232h128c8 -72 39 -132 159 -132c80 0 135 43 135 110c0 66 -33 91 -149 110c-171 24 -252 74 -252 209c0 117 100 205 249 205c155 0 245 -70 260 -207h-122c-13 76 -55 107 -138 107c-81 0 -123 -38 -123 -94c0 -59 24 -87 148 -105
c168 -24 255 -70 255 -214c0 -124 -106 -221 -263 -221zM212 -198l52 165l111 -22l-92 -170z" />
    <glyph glyph-name="uni0219" unicode="&#x219;" horiz-adv-x="494" 
d="M251 -10c-136 0 -214 61 -219 173h114c7 -53 32 -84 104 -84c65 0 94 23 94 67c0 43 -35 59 -112 72c-139 21 -189 61 -189 159c0 104 98 157 196 157c108 0 192 -40 205 -158h-112c-11 48 -37 70 -93 70c-52 0 -83 -25 -83 -62c0 -38 24 -54 108 -67
c123 -19 196 -49 196 -160c0 -107 -74 -167 -209 -167zM147 -198l52 165l111 -22l-92 -170z" />
    <glyph glyph-name="uni021A" unicode="&#x21a;" horiz-adv-x="588" 
d="M225 610h-199v105h532v-105h-199v-610h-134v610zM194 -198l52 165l111 -22l-92 -170z" />
    <glyph glyph-name="uni021B" unicode="&#x21b;" horiz-adv-x="373" 
d="M250 -9c-104 0 -158 55 -158 155v286h-70v91h70v115h121v-115h115v-91h-115v-275c0 -47 21 -67 60 -67c23 0 43 3 59 10v-96c-19 -7 -45 -13 -82 -13zM102 -198l52 165l111 -22l-92 -170z" />
    <glyph glyph-name="uni0237" unicode="&#x237;" horiz-adv-x="275" 
d="M3 -95c53 4 72 30 72 74v544h121v-541c0 -107 -49 -167 -193 -170v93z" />
    <glyph glyph-name="circumflex" unicode="&#x2c6;" horiz-adv-x="404" 
d="M153 753h96l111 -151h-86l-75 68l-76 -68h-84z" />
    <glyph glyph-name="caron" unicode="&#x2c7;" horiz-adv-x="404" 
d="M39 753h87l75 -67l75 67h84l-113 -151h-96z" />
    <glyph glyph-name="breve" unicode="&#x2d8;" horiz-adv-x="404" 
d="M199 606c-83 0 -140 56 -145 143h84c5 -36 24 -58 61 -58s58 22 65 58h82c-5 -86 -67 -143 -147 -143z" />
    <glyph glyph-name="dotaccent" unicode="&#x2d9;" horiz-adv-x="404" 
d="M200 611c-40 0 -71 30 -71 69s31 68 71 68c39 0 71 -29 71 -68s-32 -69 -71 -69z" />
    <glyph glyph-name="ring" unicode="&#x2da;" horiz-adv-x="404" 
d="M200 643c29 0 50 24 50 55c0 32 -21 55 -50 55s-50 -23 -50 -55c0 -31 21 -55 50 -55zM200 590c-60 0 -111 49 -111 108s51 108 111 108s111 -49 111 -108s-51 -108 -111 -108z" />
    <glyph glyph-name="ogonek" unicode="&#x2db;" horiz-adv-x="404" 
d="M213 -182c-64 0 -109 28 -109 79c0 47 39 82 82 103h82c-39 -27 -58 -50 -58 -77c0 -22 12 -33 35 -33c17 0 31 3 43 9v-67c-17 -8 -42 -14 -75 -14z" />
    <glyph glyph-name="tilde" unicode="&#x2dc;" horiz-adv-x="404" 
d="M258 606c-48 0 -82 40 -111 40c-19 0 -33 -17 -37 -40h-75c8 84 51 131 107 131c46 0 80 -39 112 -39c19 0 32 16 36 40h75c-8 -84 -51 -132 -107 -132z" />
    <glyph glyph-name="hungarumlaut" unicode="&#x2dd;" horiz-adv-x="404" 
d="M121 756h113l-76 -155h-78zM284 756h113l-76 -155h-78z" />
    <glyph glyph-name="uni037E" unicode="&#x37e;" horiz-adv-x="303" 
d="M17 -90l91 237l114 -46l-131 -224zM163 285c-45 0 -80 35 -80 79s35 78 80 78c44 0 80 -34 80 -78s-36 -79 -80 -79z" />
    <glyph glyph-name="tonos" unicode="&#x384;" horiz-adv-x="400" 
d="M207 756h134l-104 -155h-89z" />
    <glyph glyph-name="dieresistonos" unicode="&#x385;" horiz-adv-x="431" 
d="M196 779h112l-80 -159h-75zM360 616c-35 0 -62 26 -62 61c0 33 27 61 62 61s62 -28 62 -61c0 -35 -27 -61 -62 -61zM71 616c-35 0 -62 26 -62 61c0 33 27 61 62 61s62 -28 62 -61c0 -35 -27 -61 -62 -61z" />
    <glyph glyph-name="Alphatonos" unicode="&#x386;" horiz-adv-x="703" 
d="M266 715h174l236 -715h-138l-57 177h-273l-56 -177h-125zM239 274h211l-105 332zM45 716h134l-104 -155h-89z" />
    <glyph glyph-name="anoteleia" unicode="&#x387;" horiz-adv-x="289" 
d="M144 248c-44 0 -79 35 -79 79s35 78 79 78c45 0 80 -34 80 -78s-35 -79 -80 -79z" />
    <glyph glyph-name="Epsilontonos" unicode="&#x388;" horiz-adv-x="584" 
d="M82 715h447v-105h-314v-196h252v-100h-252v-209h331v-105h-464v715zM-89 716h134l-104 -155h-89z" />
    <glyph glyph-name="Etatonos" unicode="&#x389;" horiz-adv-x="751" 
d="M82 715h133v-304h321v304h134v-715h-134v304h-321v-304h-133v715zM-89 716h134l-104 -155h-89z" />
    <glyph glyph-name="Iotatonos" unicode="&#x38a;" horiz-adv-x="306" 
d="M86 715h134v-715h-134v715zM-89 716h134l-104 -155h-89z" />
    <glyph glyph-name="Omicrontonos" unicode="&#x38c;" horiz-adv-x="814" 
d="M410 97c135 0 220 103 220 258v8c0 147 -82 256 -222 256s-223 -103 -223 -257v-8c0 -156 95 -257 225 -257zM408 -10c-219 0 -362 157 -362 363v8c0 209 149 364 362 364c212 0 360 -151 360 -361v-8c0 -208 -143 -366 -360 -366zM-22 716h134l-104 -155h-89z" />
    <glyph glyph-name="Upsilontonos" unicode="&#x38e;" horiz-adv-x="629" 
d="M254 310l-237 405h147l161 -296l157 296h130l-224 -406v-309h-134v310zM-132 716h134l-104 -155h-89z" />
    <glyph glyph-name="Omegatonos" unicode="&#x38f;" horiz-adv-x="820" 
d="M185 359c0 -136 61 -228 170 -297v-62h-306v101h131c-68 42 -133 146 -133 265v7c0 181 136 351 364 351s362 -163 362 -350v-7c0 -134 -68 -223 -133 -266h131v-101h-306v62c103 59 171 150 171 297v8c0 133 -73 252 -225 252c-155 0 -226 -114 -226 -252v-8zM-22 716
h134l-104 -155h-89z" />
    <glyph glyph-name="iotadieresistonos" unicode="&#x390;" horiz-adv-x="271" 
d="M75 523h121v-523h-121v523zM139 779h112l-80 -159h-75zM303 616c-35 0 -62 26 -62 61c0 33 27 61 62 61s62 -28 62 -61c0 -35 -27 -61 -62 -61zM14 616c-35 0 -62 26 -62 61c0 33 27 61 62 61s62 -28 62 -61c0 -35 -27 -61 -62 -61z" />
    <glyph glyph-name="Alpha" unicode="&#x391;" horiz-adv-x="703" 
d="M266 715h174l236 -715h-138l-57 177h-273l-56 -177h-125zM239 274h211l-105 332z" />
    <glyph glyph-name="Beta" unicode="&#x392;" horiz-adv-x="644" 
d="M82 715h256c148 0 234 -55 234 -186v-4c0 -72 -32 -127 -113 -152c97 -21 143 -73 143 -169v-4c0 -133 -88 -200 -245 -200h-275v715zM341 95c89 0 130 39 130 114v4c0 75 -40 111 -139 111h-120v-229h129zM322 414c88 0 122 32 122 105v4c0 68 -39 97 -124 97h-108v-206
h110z" />
    <glyph glyph-name="Gamma" unicode="&#x393;" horiz-adv-x="545" 
d="M82 715h438v-105h-305v-610h-133v715z" />
    <glyph glyph-name="uni0394" unicode="&#x394;" horiz-adv-x="712" 
d="M33 18l232 697h186l228 -697v-18h-646v18zM184 107h333l-166 515z" />
    <glyph glyph-name="Epsilon" unicode="&#x395;" horiz-adv-x="584" 
d="M82 715h447v-105h-314v-196h252v-100h-252v-209h331v-105h-464v715z" />
    <glyph glyph-name="Zeta" unicode="&#x396;" horiz-adv-x="608" 
d="M22 18l365 592h-328v105h516v-17l-357 -591h347v-107h-543v18z" />
    <glyph glyph-name="Eta" unicode="&#x397;" horiz-adv-x="751" 
d="M82 715h133v-304h321v304h134v-715h-134v304h-321v-304h-133v715z" />
    <glyph glyph-name="Theta" unicode="&#x398;" horiz-adv-x="820" 
d="M411 -10c-221 0 -365 155 -365 363v8c0 212 152 363 365 363c215 0 363 -148 363 -360v-8c0 -211 -144 -366 -363 -366zM413 95c139 0 224 105 224 261v8c0 147 -82 257 -226 257c-143 0 -228 -105 -228 -259v-8c0 -156 98 -259 230 -259zM287 408h246v-94h-246v94z" />
    <glyph glyph-name="Iota" unicode="&#x399;" horiz-adv-x="306" 
d="M86 715h134v-715h-134v715z" />
    <glyph glyph-name="Kappa" unicode="&#x39a;" horiz-adv-x="659" 
d="M82 715h133v-324l274 325h143l-296 -342l311 -374h-157l-275 334v-334h-133v715z" />
    <glyph glyph-name="Lambda" unicode="&#x39b;" horiz-adv-x="691" 
d="M664 0h-139l-186 578l-187 -578h-125l241 715h157z" />
    <glyph glyph-name="Mu" unicode="&#x39c;" horiz-adv-x="890" 
d="M82 715h178l188 -488l184 488h176v-715h-133v540l-213 -540h-43l-217 540v-540h-120v715z" />
    <glyph glyph-name="Nu" unicode="&#x39d;" horiz-adv-x="745" 
d="M82 715h159l301 -517v517h121v-715h-138l-322 548v-548h-121v715z" />
    <glyph glyph-name="Xi" unicode="&#x39e;" horiz-adv-x="595" 
d="M551 715v-109h-506v109h506zM501 411v-104h-407v104h407zM37 110h521v-110h-521v110z" />
    <glyph glyph-name="Omicron" unicode="&#x39f;" horiz-adv-x="814" 
d="M410 97c135 0 220 103 220 258v8c0 147 -82 256 -222 256s-223 -103 -223 -257v-8c0 -156 95 -257 225 -257zM408 -10c-219 0 -362 157 -362 363v8c0 209 149 364 362 364c212 0 360 -151 360 -361v-8c0 -208 -143 -366 -360 -366z" />
    <glyph glyph-name="Pi" unicode="&#x3a0;" horiz-adv-x="741" 
d="M82 715h577v-715h-133v606h-311v-606h-133v715z" />
    <glyph glyph-name="Rho" unicode="&#x3a1;" horiz-adv-x="609" 
d="M82 715h230c160 0 265 -72 265 -221v-4c0 -151 -109 -218 -262 -218h-100v-272h-133v715zM312 368c88 0 135 42 135 122v4c0 85 -50 118 -135 118h-97v-244h97z" />
    <glyph glyph-name="Sigma" unicode="&#x3a3;" horiz-adv-x="587" 
d="M53 609v106h480v-104h-328l199 -241l-200 -261h346v-109h-500v88l206 273z" />
    <glyph glyph-name="Tau" unicode="&#x3a4;" horiz-adv-x="583" 
d="M225 610h-199v105h532v-105h-199v-610h-134v610z" />
    <glyph glyph-name="Upsilon" unicode="&#x3a5;" horiz-adv-x="629" 
d="M254 310l-237 405h147l161 -296l157 296h130l-224 -406v-309h-134v310z" />
    <glyph glyph-name="Phi" unicode="&#x3a6;" horiz-adv-x="900" 
d="M388 49c-220 11 -342 148 -342 308v6c0 163 125 300 342 308v67h124v-67c217 -8 343 -141 343 -304v-7c0 -162 -119 -300 -343 -311v-72h-124v72zM720 366c0 108 -65 193 -208 206v-423c141 11 208 96 208 210v7zM180 358c0 -113 75 -193 208 -208v422
c-145 -13 -208 -95 -208 -208v-6z" />
    <glyph glyph-name="Chi" unicode="&#x3a7;" horiz-adv-x="695" 
d="M266 367l-214 348h150l152 -254l151 254h137l-211 -345l229 -370h-152l-168 279l-168 -279h-136z" />
    <glyph glyph-name="Psi" unicode="&#x3a8;" horiz-adv-x="822" 
d="M350 178c-204 11 -291 126 -291 282v255h130v-246c0 -115 42 -178 161 -187v433h123v-432c108 11 167 60 167 200v232h123v-246c0 -157 -81 -278 -290 -291v-178h-123v178z" />
    <glyph glyph-name="uni03A9" unicode="&#x3a9;" horiz-adv-x="820" 
d="M185 359c0 -136 61 -228 170 -297v-62h-306v101h131c-68 42 -133 146 -133 265v7c0 181 136 351 364 351s362 -163 362 -350v-7c0 -134 -68 -223 -133 -266h131v-101h-306v62c103 59 171 150 171 297v8c0 133 -73 252 -225 252c-155 0 -226 -114 -226 -252v-8z" />
    <glyph glyph-name="Iotadieresis" unicode="&#x3aa;" horiz-adv-x="306" 
d="M86 715h134v-715h-134v715zM47 777c-36 0 -66 29 -66 65s30 65 66 65s66 -29 66 -65s-30 -65 -66 -65zM258 777c-36 0 -66 29 -66 65s30 65 66 65s66 -29 66 -65s-30 -65 -66 -65z" />
    <glyph glyph-name="Upsilondieresis" unicode="&#x3ab;" horiz-adv-x="629" 
d="M254 310l-237 405h147l161 -296l157 296h130l-224 -406v-309h-134v310zM217 777c-36 0 -66 29 -66 65s30 65 66 65s66 -29 66 -65s-30 -65 -66 -65zM428 777c-36 0 -66 29 -66 65s30 65 66 65s66 -29 66 -65s-30 -65 -66 -65z" />
    <glyph glyph-name="alphatonos" unicode="&#x3ac;" horiz-adv-x="623" 
d="M293 86c78 0 141 56 141 173v8c0 117 -54 172 -135 172c-84 0 -137 -62 -137 -175v-8c0 -115 58 -170 131 -170zM264 -10c-123 0 -226 92 -226 263v8c0 168 106 273 231 273c80 0 130 -38 161 -90v79h121v-523h-121v86c-29 -51 -94 -96 -166 -96zM326 756h134l-104 -155
h-89z" />
    <glyph glyph-name="epsilontonos" unicode="&#x3ad;" horiz-adv-x="563" 
d="M154 272c-59 11 -103 54 -103 111c0 75 60 151 233 151c153 0 228 -58 241 -158h-116c-5 38 -26 70 -120 70c-77 0 -115 -24 -115 -73c0 -28 22 -63 83 -63h99v-82h-100c-67 0 -95 -27 -95 -74c0 -56 51 -74 124 -74c88 0 128 31 133 82h112c-9 -113 -102 -172 -247 -172
c-160 0 -244 56 -244 155c0 65 46 112 115 127zM303 756h134l-104 -155h-89z" />
    <glyph glyph-name="etatonos" unicode="&#x3ae;" horiz-adv-x="608" 
d="M72 523h120v-83c27 51 83 94 170 94c105 0 179 -62 179 -206v-507h-121v497c0 80 -32 115 -104 115c-67 0 -124 -42 -124 -125v-308h-120v523zM318 756h134l-104 -155h-89z" />
    <glyph glyph-name="iotatonos" unicode="&#x3af;" horiz-adv-x="271" 
d="M75 523h121v-523h-121v523zM148 756h134l-104 -155h-89z" />
    <glyph glyph-name="upsilondieresistonos" unicode="&#x3b0;" horiz-adv-x="599" 
d="M299 -10c-137 0 -233 81 -233 227v306h121v-308c0 -81 33 -128 113 -128c79 0 112 47 112 127v309h121v-306c0 -148 -95 -227 -234 -227zM285 779h112l-80 -159h-75zM449 616c-35 0 -62 26 -62 61c0 33 27 61 62 61s62 -28 62 -61c0 -35 -27 -61 -62 -61zM160 616
c-35 0 -62 26 -62 61c0 33 27 61 62 61s62 -28 62 -61c0 -35 -27 -61 -62 -61z" />
    <glyph glyph-name="alpha" unicode="&#x3b1;" horiz-adv-x="623" 
d="M293 86c78 0 141 56 141 173v8c0 117 -54 172 -135 172c-84 0 -137 -62 -137 -175v-8c0 -115 58 -170 131 -170zM264 -10c-123 0 -226 92 -226 263v8c0 168 106 273 231 273c80 0 130 -38 161 -90v79h121v-523h-121v86c-29 -51 -94 -96 -166 -96z" />
    <glyph glyph-name="beta" unicode="&#x3b2;" horiz-adv-x="619" 
d="M292 450c100 -3 143 49 143 118v4c0 64 -43 108 -120 108c-73 0 -123 -49 -123 -133v-309c0 -106 73 -152 136 -152c76 0 133 44 133 133v7c0 92 -61 139 -169 132v92zM426 412c87 -18 158 -85 158 -191v-7c0 -136 -101 -222 -233 -222c-67 0 -130 34 -159 90v-261h-120
v719c0 149 98 230 243 230c144 0 235 -78 235 -190v-4c0 -77 -47 -140 -124 -164z" />
    <glyph glyph-name="gamma" unicode="&#x3b3;" horiz-adv-x="568" 
d="M433 523h119l-207 -516v-186h-120v186l-209 516h130l144 -379z" />
    <glyph glyph-name="delta" unicode="&#x3b4;" 
d="M113 765h408v-96h-245l166 -175c75 -77 125 -143 125 -240v-7c0 -153 -114 -257 -266 -257c-153 0 -264 104 -264 255v7c0 125 94 235 222 235c11 0 32 -1 51 -5l-197 206v77zM443 253c0 92 -53 155 -141 155s-141 -64 -141 -154v-6c0 -93 48 -164 141 -164
c89 0 141 63 141 163v6z" />
    <glyph glyph-name="epsilon" unicode="&#x3b5;" horiz-adv-x="563" 
d="M154 272c-59 11 -103 54 -103 111c0 75 60 151 233 151c153 0 228 -58 241 -158h-116c-5 38 -26 70 -120 70c-77 0 -115 -24 -115 -73c0 -28 22 -63 83 -63h99v-82h-100c-67 0 -95 -27 -95 -74c0 -56 51 -74 124 -74c88 0 128 31 133 82h112c-9 -113 -102 -172 -247 -172
c-160 0 -244 56 -244 155c0 65 46 112 115 127z" />
    <glyph glyph-name="zeta" unicode="&#x3b6;" horiz-adv-x="507" 
d="M262 0c-132 0 -225 84 -225 209c0 169 134 344 254 453h-221v103h428v-29c-208 -184 -336 -374 -336 -517c0 -82 54 -118 118 -118h66c101 0 149 -49 149 -126c0 -44 -12 -93 -23 -126h-101c7 28 16 70 16 94c0 38 -20 57 -59 57h-66z" />
    <glyph glyph-name="eta" unicode="&#x3b7;" horiz-adv-x="608" 
d="M72 523h120v-83c27 51 83 94 170 94c105 0 179 -62 179 -206v-507h-121v497c0 80 -32 115 -104 115c-67 0 -124 -42 -124 -125v-308h-120v523z" />
    <glyph glyph-name="theta" unicode="&#x3b8;" horiz-adv-x="626" 
d="M571 361c0 -236 -89 -371 -258 -371c-167 0 -258 134 -258 369v44c0 234 95 367 258 367s258 -126 258 -366v-43zM313 676c-92 0 -136 -85 -140 -245h279c-4 161 -48 245 -139 245zM313 83c92 0 137 88 140 255h-280c3 -167 45 -255 140 -255z" />
    <glyph glyph-name="iota" unicode="&#x3b9;" horiz-adv-x="271" 
d="M75 523h121v-523h-121v523z" />
    <glyph glyph-name="kappa" unicode="&#x3ba;" horiz-adv-x="541" 
d="M192 280l200 243h133l-216 -251l224 -272h-139l-202 249v-249h-120v523h120v-243z" />
    <glyph glyph-name="lambda" unicode="&#x3bb;" horiz-adv-x="568" 
d="M176 625c-13 37 -32 50 -65 50c-19 0 -43 -6 -62 -11v93c25 8 62 13 94 13c65 0 110 -30 142 -118l186 -511c8 -23 23 -48 50 -48c12 0 29 2 38 5v-95c-17 -7 -42 -9 -65 -9c-59 0 -103 35 -126 103l-96 283l-132 -380h-124l199 518z" />
    <glyph glyph-name="uni03BC" unicode="&#x3bc;" horiz-adv-x="609" 
d="M72 523h120v-327c0 -76 35 -111 103 -111c66 0 123 43 123 126v312h120v-523h-119v78c-23 -48 -66 -82 -134 -82c-35 0 -72 12 -93 48v-223h-120v702z" />
    <glyph glyph-name="nu" unicode="&#x3bd;" horiz-adv-x="557" 
d="M18 523h130l137 -399l135 399h119l-189 -523h-141z" />
    <glyph glyph-name="xi" unicode="&#x3be;" horiz-adv-x="525" 
d="M358 101c101 0 147 -49 147 -126c0 -44 -12 -93 -23 -126h-100c7 28 15 70 15 94c0 38 -19 57 -58 57h-52c-147 0 -250 79 -250 209c0 107 68 175 156 196c-71 25 -104 73 -104 136c0 59 29 110 102 133h-143v91h444v-98h-126c-88 0 -155 -38 -155 -118
c0 -57 45 -98 122 -98h114v-100h-131c-97 0 -155 -52 -155 -137c0 -75 57 -113 141 -113h56z" />
    <glyph glyph-name="omicron" unicode="&#x3bf;" horiz-adv-x="611" 
d="M306 84c91 0 144 66 144 174v7c0 108 -53 174 -144 174s-145 -65 -145 -173v-8c0 -108 53 -174 145 -174zM305 -10c-155 0 -268 106 -268 266v8c0 162 115 270 269 270c152 0 268 -107 268 -267v-8c0 -163 -115 -269 -269 -269z" />
    <glyph glyph-name="pi" unicode="&#x3c0;" horiz-adv-x="620" 
d="M406 430h-192v-430h-121v430h-71v93h576v-93h-72v-430h-120v430z" />
    <glyph glyph-name="rho" unicode="&#x3c1;" horiz-adv-x="615" 
d="M317 84c91 0 137 68 137 173v8c0 108 -50 175 -141 175s-141 -66 -141 -174v-8c0 -113 53 -174 145 -174zM332 -7c-67 0 -126 33 -157 89v-261h-121v445c0 163 106 268 259 268s265 -107 265 -267v-8c0 -162 -101 -266 -246 -266z" />
    <glyph glyph-name="uni03C2" unicode="&#x3c2;" horiz-adv-x="575" 
d="M161 259c0 -90 44 -160 145 -160h40c101 0 152 -47 152 -124c0 -43 -14 -93 -23 -126h-101c7 28 16 70 16 95c0 37 -20 56 -59 56h-37c-153 0 -257 100 -257 256v8c0 165 117 270 264 270c116 0 225 -52 238 -196h-116c-11 71 -58 100 -122 100c-81 0 -140 -63 -140 -171
v-8z" />
    <glyph glyph-name="sigma" unicode="&#x3c3;" horiz-adv-x="630" 
d="M305 -10c-155 0 -268 106 -268 266v8c0 159 107 259 267 259h301v-93h-131c57 -27 98 -89 98 -168v-8c0 -161 -112 -264 -267 -264zM306 84c91 0 144 68 144 173v8c0 108 -53 168 -144 168c-95 0 -145 -62 -145 -166v-9c0 -108 53 -174 145 -174z" />
    <glyph glyph-name="tau" unicode="&#x3c4;" horiz-adv-x="488" 
d="M343 -7c-119 0 -167 76 -167 175v262h-154v93h436v-93h-161v-257c0 -56 24 -84 73 -84c23 0 48 3 65 10v-95c-23 -7 -48 -11 -92 -11z" />
    <glyph glyph-name="upsilon" unicode="&#x3c5;" horiz-adv-x="599" 
d="M299 -10c-137 0 -233 81 -233 227v306h121v-308c0 -81 33 -128 113 -128c79 0 112 47 112 127v309h121v-306c0 -148 -95 -227 -234 -227z" />
    <glyph glyph-name="phi" unicode="&#x3c6;" horiz-adv-x="782" 
d="M745 265c0 -175 -123 -269 -295 -272v-172h-120v172c-187 7 -293 104 -293 263v8c0 149 88 246 228 266v-93c-68 -23 -106 -75 -106 -175v-8c0 -100 46 -161 171 -170v445c20 3 60 5 91 5c214 0 324 -116 324 -261v-8zM623 271c0 101 -57 169 -173 170v-357
c125 4 173 72 173 180v7z" />
    <glyph glyph-name="chi" unicode="&#x3c7;" horiz-adv-x="562" 
d="M220 186l-110 212c-13 25 -30 34 -51 34c-11 0 -23 -3 -37 -8v93c20 9 43 13 70 13c52 0 88 -17 116 -73l90 -176l116 242h125l-183 -345l116 -219c15 -29 30 -44 57 -44c9 0 19 2 31 5v-95c-23 -7 -47 -10 -63 -10c-56 0 -97 33 -130 97l-88 172l-132 -263h-122z" />
    <glyph glyph-name="psi" unicode="&#x3c8;" horiz-adv-x="775" 
d="M179 249c0 -84 35 -151 148 -162v436h120v-436c112 11 149 78 149 162v274h120v-273c0 -149 -93 -243 -269 -254v-175h-120v175c-181 11 -268 107 -268 259v268h120v-274z" />
    <glyph glyph-name="omega" unicode="&#x3c9;" horiz-adv-x="788" 
d="M454 198c0 -76 33 -114 81 -114c60 0 92 56 92 155v7c0 88 -24 177 -122 195v94c168 -16 246 -133 246 -289v-8c0 -144 -77 -248 -201 -248c-88 0 -133 46 -156 106c-20 -59 -70 -106 -155 -106c-128 0 -202 104 -202 248v8c0 158 82 273 246 289v-94
c-96 -16 -122 -107 -122 -194v-8c0 -101 32 -155 93 -155c48 0 80 41 80 114v152h120v-152z" />
    <glyph glyph-name="iotadieresis" unicode="&#x3ca;" horiz-adv-x="271" 
d="M75 523h121v-523h-121v523zM37 613c-36 0 -66 29 -66 65c0 35 30 65 66 65s66 -30 66 -65c0 -36 -30 -65 -66 -65zM235 613c-37 0 -66 29 -66 65c0 35 29 65 66 65c36 0 66 -30 66 -65c0 -36 -30 -65 -66 -65z" />
    <glyph glyph-name="upsilondieresis" unicode="&#x3cb;" horiz-adv-x="599" 
d="M299 -10c-137 0 -233 81 -233 227v306h121v-308c0 -81 33 -128 113 -128c79 0 112 47 112 127v309h121v-306c0 -148 -95 -227 -234 -227zM200 613c-36 0 -66 29 -66 65c0 35 30 65 66 65s66 -30 66 -65c0 -36 -30 -65 -66 -65zM398 613c-37 0 -66 29 -66 65
c0 35 29 65 66 65c36 0 66 -30 66 -65c0 -36 -30 -65 -66 -65z" />
    <glyph glyph-name="omicrontonos" unicode="&#x3cc;" horiz-adv-x="611" 
d="M306 84c91 0 144 66 144 174v7c0 108 -53 174 -144 174s-145 -65 -145 -173v-8c0 -108 53 -174 145 -174zM305 -10c-155 0 -268 106 -268 266v8c0 162 115 270 269 270c152 0 268 -107 268 -267v-8c0 -163 -115 -269 -269 -269zM319 756h134l-104 -155h-89z" />
    <glyph glyph-name="upsilontonos" unicode="&#x3cd;" horiz-adv-x="599" 
d="M299 -10c-137 0 -233 81 -233 227v306h121v-308c0 -81 33 -128 113 -128c79 0 112 47 112 127v309h121v-306c0 -148 -95 -227 -234 -227zM309 756h134l-104 -155h-89z" />
    <glyph glyph-name="omegatonos" unicode="&#x3ce;" horiz-adv-x="788" 
d="M454 198c0 -76 33 -114 81 -114c60 0 92 56 92 155v7c0 88 -24 177 -122 195v94c168 -16 246 -133 246 -289v-8c0 -144 -77 -248 -201 -248c-88 0 -133 46 -156 106c-20 -59 -70 -106 -155 -106c-128 0 -202 104 -202 248v8c0 158 82 273 246 289v-94
c-96 -16 -122 -107 -122 -194v-8c0 -101 32 -155 93 -155c48 0 80 41 80 114v152h120v-152zM411 756h134l-104 -155h-89z" />
    <glyph glyph-name="uni0401" unicode="&#x401;" horiz-adv-x="584" 
d="M82 715h447v-105h-314v-196h252v-100h-252v-209h331v-105h-464v715zM207 777c-36 0 -66 29 -66 65s30 65 66 65s66 -29 66 -65s-30 -65 -66 -65zM418 777c-36 0 -66 29 -66 65s30 65 66 65s66 -29 66 -65s-30 -65 -66 -65z" />
    <glyph glyph-name="uni0402" unicode="&#x402;" horiz-adv-x="795" 
d="M359 385c19 19 77 56 171 56c149 0 224 -87 224 -227c0 -156 -78 -228 -196 -228c-47 0 -73 9 -94 20v104c15 -7 34 -17 70 -17c53 0 87 37 87 120c0 76 -32 123 -127 123c-68 0 -117 -38 -135 -61v-275h-134v610h-199v105h538v-105h-205v-225z" />
    <glyph glyph-name="uni0403" unicode="&#x403;" horiz-adv-x="549" 
d="M82 715h433v-107h-299v-608h-134v715zM305 901h136l-99 -135h-91z" />
    <glyph glyph-name="uni0404" unicode="&#x404;" horiz-adv-x="741" 
d="M708 248c-24 -172 -142 -258 -313 -258c-224 0 -349 143 -349 363v8c0 215 147 365 347 365c165 0 288 -80 307 -248h-135c-15 95 -67 142 -171 142c-112 0 -189 -76 -204 -205h302v-102h-303c11 -137 85 -216 206 -216c100 0 168 50 183 151h130z" />
    <glyph glyph-name="uni0405" unicode="&#x405;" horiz-adv-x="635" 
d="M325 -10c-195 0 -276 97 -287 232h128c8 -72 39 -132 159 -132c80 0 135 43 135 110c0 66 -33 91 -149 110c-171 24 -252 74 -252 209c0 117 100 205 249 205c155 0 245 -70 260 -207h-122c-13 76 -55 107 -138 107c-81 0 -123 -38 -123 -94c0 -59 24 -87 148 -105
c168 -24 255 -70 255 -214c0 -124 -106 -221 -263 -221z" />
    <glyph glyph-name="uni0406" unicode="&#x406;" horiz-adv-x="307" 
d="M86 715h134v-715h-134v715z" />
    <glyph glyph-name="uni0407" unicode="&#x407;" horiz-adv-x="307" 
d="M86 715h134v-715h-134v715zM47 777c-36 0 -66 29 -66 65s30 65 66 65s66 -29 66 -65s-30 -65 -66 -65zM258 777c-36 0 -66 29 -66 65s30 65 66 65s66 -29 66 -65s-30 -65 -66 -65z" />
    <glyph glyph-name="uni0408" unicode="&#x408;" horiz-adv-x="443" 
d="M148 -9c-60 0 -89 9 -112 21v104c25 -11 49 -18 92 -18c65 0 107 34 107 122v495h134v-498c0 -155 -89 -226 -221 -226z" />
    <glyph glyph-name="uni0409" unicode="&#x409;" horiz-adv-x="1011" 
d="M493 608h-214c-3 -88 -6 -216 -14 -326c-11 -165 -52 -292 -192 -292c-16 0 -28 2 -37 5c-5 1 -10 3 -13 5v114l8 -2c7 -1 15 -2 24 -2c56 0 79 61 90 182c11 144 13 328 13 423h468v-275h91c152 0 261 -64 261 -215v-4c0 -149 -105 -221 -264 -221h-221v608zM714 103
c84 0 135 32 135 119v4c0 80 -47 117 -135 117h-88v-240h88z" />
    <glyph glyph-name="uni040A" unicode="&#x40a;" horiz-adv-x="1035" 
d="M738 103c84 0 135 32 135 119v4c0 80 -47 117 -135 117h-87v-240h87zM518 304h-302v-304h-134v715h134v-304h302v304h133v-275h90c152 0 261 -64 261 -215v-4c0 -149 -105 -221 -264 -221h-220v304z" />
    <glyph glyph-name="uni040B" unicode="&#x40b;" horiz-adv-x="805" 
d="M359 385c11 11 24 20 41 28c27 15 69 28 125 28c155 0 223 -89 223 -252v-189h-133v189c0 96 -27 147 -124 147c-47 0 -80 -14 -101 -29c-13 -8 -23 -17 -31 -28v-279h-134v610h-199v105h538v-105h-205v-225z" />
    <glyph glyph-name="uni040C" unicode="&#x40c;" horiz-adv-x="659" 
d="M344 901h136l-99 -135h-91zM82 715h133v-324l274 325h143l-296 -342l311 -374h-157l-275 334v-334h-133v715z" />
    <glyph glyph-name="uni040D" unicode="&#x40d;" horiz-adv-x="763" 
d="M82 0v715h134v-536l332 536h134v-715h-134v539l-332 -539h-134zM247 901h136l53 -135h-91z" />
    <glyph glyph-name="uni040E" unicode="&#x40e;" horiz-adv-x="617" 
d="M324 761c-84 0 -140 56 -145 140h91c3 -35 18 -65 54 -65c37 0 54 30 58 65h90c-5 -84 -64 -140 -148 -140zM153 -9c-32 0 -51 8 -54 11v110c4 -1 19 -6 46 -6c49 0 84 24 113 81l-243 528h140l166 -381l162 381h128l-239 -541c-48 -106 -97 -183 -219 -183z" />
    <glyph glyph-name="uni040F" unicode="&#x40f;" horiz-adv-x="741" 
d="M82 0v715h134v-608h310v608h134v-715h-231l-2 -130h-112l-2 130h-231z" />
    <glyph glyph-name="uni0410" unicode="&#x410;" horiz-adv-x="703" 
d="M266 715h174l236 -715h-138l-57 177h-273l-56 -177h-125zM239 274h211l-105 332z" />
    <glyph glyph-name="uni0411" unicode="&#x411;" horiz-adv-x="632" 
d="M593 215c0 -139 -91 -215 -256 -215h-255v715h449v-105h-317v-181h126c157 0 253 -67 253 -210v-4zM333 102c88 0 132 39 132 114v4c0 73 -44 113 -137 113h-114v-231h119z" />
    <glyph glyph-name="uni0412" unicode="&#x412;" horiz-adv-x="644" 
d="M82 715h256c148 0 234 -55 234 -186v-4c0 -72 -32 -127 -113 -152c97 -21 143 -73 143 -169v-4c0 -133 -88 -200 -245 -200h-275v715zM341 95c89 0 130 39 130 114v4c0 75 -40 111 -139 111h-120v-229h129zM322 414c88 0 122 32 122 105v4c0 68 -39 97 -124 97h-108v-206
h110z" />
    <glyph glyph-name="uni0413" unicode="&#x413;" horiz-adv-x="549" 
d="M82 715h433v-107h-299v-608h-134v715z" />
    <glyph glyph-name="uni0414" unicode="&#x414;" horiz-adv-x="724" 
d="M244 286c-7 -73 -18 -135 -45 -179h296v502h-235c-3 -87 -8 -216 -16 -323zM117 -130h-114v237h45c48 19 66 81 77 188c11 141 16 327 16 420h486v-608h85v-237h-115l-5 130h-470z" />
    <glyph glyph-name="uni0415" unicode="&#x415;" horiz-adv-x="584" 
d="M82 715h447v-105h-314v-196h252v-100h-252v-209h331v-105h-464v715z" />
    <glyph glyph-name="uni0416" unicode="&#x416;" horiz-adv-x="937" 
d="M402 337l-242 -337h-145l273 369l-263 346h141l236 -326v326h131v-326l237 326h138l-261 -340l276 -375h-150l-240 336v-336h-131v337z" />
    <glyph glyph-name="uni0417" unicode="&#x417;" horiz-adv-x="626" 
d="M308 -10c-165 0 -259 97 -275 242h127c11 -76 48 -135 149 -135c91 0 137 45 137 120c0 73 -36 105 -136 105h-81v92h79c83 0 114 39 114 106c0 64 -40 99 -112 99c-80 0 -116 -39 -131 -116h-125c17 145 112 222 261 222c143 0 240 -79 240 -195
c0 -76 -39 -136 -119 -159c96 -15 147 -72 147 -161c0 -131 -112 -220 -275 -220z" />
    <glyph glyph-name="uni0418" unicode="&#x418;" horiz-adv-x="763" 
d="M82 0v715h134v-536l332 536h134v-715h-134v539l-332 -539h-134z" />
    <glyph glyph-name="uni0419" unicode="&#x419;" horiz-adv-x="763" 
d="M380 761c-84 0 -140 56 -145 140h92c3 -35 18 -65 53 -65c37 0 55 30 59 65h89c-5 -84 -64 -140 -148 -140zM82 0v715h134v-536l332 536h134v-715h-134v539l-332 -539h-134z" />
    <glyph glyph-name="uni041A" unicode="&#x41a;" horiz-adv-x="659" 
d="M82 715h133v-324l274 325h143l-296 -342l311 -374h-157l-275 334v-334h-133v715z" />
    <glyph glyph-name="uni041B" unicode="&#x41b;" horiz-adv-x="715" 
d="M263 259c-13 -151 -56 -269 -190 -269c-16 0 -28 2 -37 5c-5 1 -10 3 -13 5v114l8 -2c7 -1 15 -2 24 -2c56 0 77 58 88 174c11 144 15 332 15 431h475v-715h-134v608h-220c-3 -99 -8 -234 -16 -349z" />
    <glyph glyph-name="uni041C" unicode="&#x41c;" horiz-adv-x="890" 
d="M82 715h178l188 -488l184 488h176v-715h-133v540l-213 -540h-43l-217 540v-540h-120v715z" />
    <glyph glyph-name="uni041D" unicode="&#x41d;" horiz-adv-x="751" 
d="M82 715h133v-304h321v304h134v-715h-134v304h-321v-304h-133v715z" />
    <glyph glyph-name="uni041E" unicode="&#x41e;" horiz-adv-x="814" 
d="M410 97c135 0 220 103 220 258v8c0 147 -82 256 -222 256s-223 -103 -223 -257v-8c0 -156 95 -257 225 -257zM408 -10c-219 0 -362 157 -362 363v8c0 209 149 364 362 364c212 0 360 -151 360 -361v-8c0 -208 -143 -366 -360 -366z" />
    <glyph glyph-name="uni041F" unicode="&#x41f;" horiz-adv-x="741" 
d="M526 608h-310v-608h-134v715h578v-715h-134v608z" />
    <glyph glyph-name="uni0420" unicode="&#x420;" horiz-adv-x="609" 
d="M82 715h230c160 0 265 -72 265 -221v-4c0 -151 -109 -218 -262 -218h-100v-272h-133v715zM312 368c88 0 135 42 135 122v4c0 85 -50 118 -135 118h-97v-244h97z" />
    <glyph glyph-name="uni0421" unicode="&#x421;" horiz-adv-x="741" 
d="M395 -10c-224 0 -349 143 -349 363v8c0 215 147 365 347 365c164 0 291 -82 307 -250h-135c-15 96 -67 144 -171 144c-125 0 -208 -98 -208 -258v-8c0 -161 76 -256 209 -256c100 0 168 50 183 151h130c-21 -173 -142 -259 -313 -259z" />
    <glyph glyph-name="uni0422" unicode="&#x422;" horiz-adv-x="583" 
d="M225 610h-199v105h532v-105h-199v-610h-134v610z" />
    <glyph glyph-name="uni0423" unicode="&#x423;" horiz-adv-x="617" 
d="M153 -9c-32 0 -51 8 -54 11v110c4 -1 19 -6 46 -6c49 0 84 24 113 81l-243 528h140l166 -381l162 381h128l-239 -541c-48 -106 -97 -183 -219 -183z" />
    <glyph glyph-name="uni0424" unicode="&#x424;" horiz-adv-x="866" 
d="M499 634c188 -5 326 -87 326 -269v-8c-3 -183 -147 -268 -326 -271v-96h-132v96c-188 3 -326 89 -326 269v6c0 186 147 268 326 273v95h132v-95zM367 537c-105 -5 -192 -42 -192 -176v-7c0 -124 82 -169 192 -172v355zM499 183c106 3 189 43 192 174v8
c0 127 -81 167 -192 172v-354z" />
    <glyph glyph-name="uni0425" unicode="&#x425;" horiz-adv-x="696" 
d="M266 367l-214 348h150l152 -254l151 254h137l-211 -345l229 -370h-152l-168 279l-168 -279h-136z" />
    <glyph glyph-name="uni0426" unicode="&#x426;" horiz-adv-x="756" 
d="M629 -130l-5 130h-542v715h134v-608h310v608h134v-608h83v-237h-114z" />
    <glyph glyph-name="uni0427" unicode="&#x427;" horiz-adv-x="699" 
d="M484 0v318c-13 -11 -29 -20 -47 -28c-31 -15 -76 -28 -136 -28c-156 0 -244 92 -244 272v181h134v-187c0 -111 45 -161 134 -161c57 0 98 15 123 31c15 9 27 20 36 32v285h133v-715h-133z" />
    <glyph glyph-name="uni0428" unicode="&#x428;" horiz-adv-x="1017" 
d="M82 715h134v-608h226v608h134v-608h226v608h133v-715h-853v715z" />
    <glyph glyph-name="uni0429" unicode="&#x429;" horiz-adv-x="1031" 
d="M905 -130l-5 130h-818v715h134v-608h226v608h134v-608h226v608h133v-608h84v-237h-114z" />
    <glyph glyph-name="uni042A" unicode="&#x42a;" horiz-adv-x="736" 
d="M209 609h-183v106h316v-271h101c152 0 261 -65 261 -217v-4c0 -150 -105 -223 -265 -223h-230v609zM440 103c84 0 134 34 134 121v4c0 80 -46 119 -134 119h-98v-244h98z" />
    <glyph glyph-name="uni042B" unicode="&#x42b;" horiz-adv-x="859" 
d="M82 715h133v-271h93c153 0 262 -65 262 -217v-4c0 -150 -105 -223 -265 -223h-223v715zM777 0h-133v715h133v-715zM305 103c84 0 135 34 135 121v4c0 80 -47 119 -135 119h-90v-244h90z" />
    <glyph glyph-name="uni042C" unicode="&#x42c;" horiz-adv-x="609" 
d="M82 715h133v-271h100c152 0 261 -65 261 -217v-4c0 -150 -105 -223 -264 -223h-230v715zM312 103c84 0 135 34 135 121v4c0 80 -47 119 -135 119h-97v-244h97z" />
    <glyph glyph-name="uni042D" unicode="&#x42d;" horiz-adv-x="741" 
d="M345 -10c-163 0 -295 86 -311 250h132c16 -96 77 -144 180 -144c116 0 195 79 206 216h-302v102h303c-15 132 -85 205 -200 205c-103 0 -162 -49 -177 -148h-133c24 173 139 255 312 255c204 0 340 -142 340 -357v-8c0 -221 -134 -371 -350 -371z" />
    <glyph glyph-name="uni042E" unicode="&#x42e;" horiz-adv-x="1054" 
d="M659 -10c-197 0 -329 133 -348 314h-95v-304h-134v715h134v-304h96c21 181 156 313 347 313c209 0 349 -152 349 -360v-8c0 -208 -136 -366 -349 -366zM661 97c132 0 209 103 209 259v8c0 148 -75 255 -211 255s-212 -103 -212 -257v-8c0 -156 88 -257 214 -257z" />
    <glyph glyph-name="uni042F" unicode="&#x42f;" horiz-adv-x="656" 
d="M341 612c-85 0 -135 -27 -135 -111v-4c0 -77 45 -116 136 -116h100v231h-101zM164 0h-145l213 308c-92 19 -157 78 -157 192v4c0 149 112 211 266 211h234v-715h-133v287h-85z" />
    <glyph glyph-name="uni0430" unicode="&#x430;" horiz-adv-x="555" 
d="M209 -10c-96 0 -175 46 -175 155c0 122 119 166 268 166h65v27c0 71 -23 105 -95 105c-64 0 -93 -30 -100 -82h-117c11 122 107 173 224 173s209 -47 209 -191v-343h-119v64c-35 -45 -80 -74 -160 -74zM238 77c75 0 129 38 129 106v52h-62c-92 0 -151 -21 -151 -85
c0 -44 24 -73 84 -73z" />
    <glyph glyph-name="uni0431" unicode="&#x431;" horiz-adv-x="616" 
d="M310 -10c-161 0 -268 99 -268 319v37c0 231 74 404 303 415l32 1c76 4 124 8 155 19v-95c-31 -13 -70 -21 -157 -26l-26 -2c-147 -8 -201 -100 -214 -247h5c35 68 97 115 197 115c145 0 242 -111 242 -261v-6c0 -167 -116 -269 -269 -269zM311 84c91 0 144 63 144 174v4
c0 107 -47 169 -139 169c-93 0 -150 -64 -150 -172v-5c0 -104 53 -170 145 -170z" />
    <glyph glyph-name="uni0432" unicode="&#x432;" horiz-adv-x="536" 
d="M72 523h211c109 0 191 -35 191 -131v-2c0 -56 -29 -100 -93 -115c72 -15 116 -50 116 -118v-3c0 -100 -70 -154 -195 -154h-230v523zM193 442v-133h73c59 0 84 21 84 69v2c0 48 -31 62 -88 62h-69zM193 228v-147h86c63 0 94 21 94 72v2c0 49 -30 73 -90 73h-90z" />
    <glyph glyph-name="uni0433" unicode="&#x433;" horiz-adv-x="445" 
d="M193 433v-433h-121v523h349v-90h-228z" />
    <glyph glyph-name="uni0434" unicode="&#x434;" horiz-adv-x="596" 
d="M212 222c-7 -59 -15 -100 -31 -132h203v344h-159c-3 -64 -6 -148 -13 -212zM116 -127h-103v217h33c37 13 49 64 58 140c11 89 16 224 16 293h384v-433h76v-217h-103l-4 127h-353z" />
    <glyph glyph-name="uni0435" unicode="&#x435;" horiz-adv-x="580" 
d="M302 -10c-155 0 -265 102 -265 266v8c0 162 111 270 260 270c130 0 247 -77 247 -264v-35h-383c4 -100 53 -155 144 -155c73 0 111 29 120 80h117c-17 -111 -105 -170 -240 -170zM424 316c-7 91 -51 130 -127 130c-73 0 -122 -49 -134 -130h261z" />
    <glyph glyph-name="uni0436" unicode="&#x436;" horiz-adv-x="747" 
d="M314 259l-170 -259h-131l191 280l-176 243h126l160 -237v237h118v-237l160 237h126l-176 -241l192 -282h-133l-169 259v-259h-118v259z" />
    <glyph glyph-name="uni0437" unicode="&#x437;" horiz-adv-x="513" 
d="M453 390c0 -56 -31 -102 -95 -115c72 -12 116 -50 116 -117v-3c0 -95 -83 -165 -215 -165c-140 0 -215 67 -226 182h111c11 -57 42 -90 114 -90c63 0 91 27 91 74v3c0 46 -30 69 -89 69h-72v81h62c55 0 78 21 78 65v3c0 36 -21 62 -77 62c-51 0 -82 -24 -94 -73h-110
c13 120 106 168 209 168c112 0 197 -52 197 -141v-3z" />
    <glyph glyph-name="uni0438" unicode="&#x438;" horiz-adv-x="606" 
d="M72 0v523h121v-370l226 370h120v-523h-120v370l-226 -370h-121z" />
    <glyph glyph-name="uni0439" unicode="&#x439;" horiz-adv-x="606" 
d="M303 607c-84 0 -140 56 -145 140h91c3 -35 18 -65 54 -65c37 0 54 30 58 65h90c-5 -84 -64 -140 -148 -140zM72 0v523h121v-370l226 370h120v-523h-120v370l-226 -370h-121z" />
    <glyph glyph-name="uni043A" unicode="&#x43a;" horiz-adv-x="540" 
d="M193 256v-256h-121v523h121v-232l187 232h132l-203 -242l220 -281h-140z" />
    <glyph glyph-name="uni043B" unicode="&#x43b;" horiz-adv-x="572" 
d="M214 210c-13 -142 -50 -218 -148 -218c-16 0 -27 1 -34 3c-4 1 -7 3 -10 4v101c1 -1 3 -1 6 -2c5 -1 11 -2 18 -2c40 0 54 53 62 134c4 44 5 116 8 179l3 114h381v-523h-120v433h-155c-3 -69 -6 -156 -11 -223z" />
    <glyph glyph-name="uni043C" unicode="&#x43c;" horiz-adv-x="731" 
d="M176 395v-395h-104v523h167l131 -326l132 326h157v-523h-119v395l-165 -395h-40z" />
    <glyph glyph-name="uni043D" unicode="&#x43d;" horiz-adv-x="603" 
d="M410 222h-217v-222h-121v523h121v-211h217v211h121v-523h-121v222z" />
    <glyph glyph-name="uni043E" unicode="&#x43e;" horiz-adv-x="611" 
d="M306 84c91 0 144 66 144 174v7c0 108 -53 174 -144 174s-145 -65 -145 -173v-8c0 -108 53 -174 145 -174zM305 -10c-155 0 -268 106 -268 266v8c0 162 115 270 269 270c152 0 268 -107 268 -267v-8c0 -163 -115 -269 -269 -269z" />
    <glyph glyph-name="uni043F" unicode="&#x43f;" horiz-adv-x="593" 
d="M400 433h-207v-433h-121v523h449v-523h-121v433z" />
    <glyph glyph-name="uni0440" unicode="&#x440;" horiz-adv-x="633" 
d="M72 523h121v-84c29 50 94 95 171 95c131 0 232 -98 232 -266v-8c0 -168 -97 -270 -232 -270c-84 0 -143 41 -171 92v-261h-121v702zM334 86c89 0 138 59 138 172v8c0 116 -60 173 -139 173c-84 0 -144 -56 -144 -173v-8c0 -117 57 -172 145 -172z" />
    <glyph glyph-name="uni0441" unicode="&#x441;" horiz-adv-x="575" 
d="M301 -10c-150 0 -264 98 -264 265v8c0 165 117 271 264 271c115 0 226 -52 239 -196h-117c-11 71 -56 99 -120 99c-83 0 -142 -64 -142 -172v-8c0 -115 56 -174 145 -174c64 0 118 37 126 112h111c-8 -120 -101 -205 -242 -205z" />
    <glyph glyph-name="uni0442" unicode="&#x442;" horiz-adv-x="485" 
d="M463 433h-160v-433h-121v433h-160v90h441v-90z" />
    <glyph glyph-name="uni0443" unicode="&#x443;" horiz-adv-x="553" 
d="M225 53l-207 470h131l139 -337l128 337h118l-285 -702h-119z" />
    <glyph glyph-name="uni0444" unicode="&#x444;" horiz-adv-x="752" 
d="M436 533c154 -8 275 -97 275 -265v-8c0 -167 -121 -264 -275 -269v-170h-119v170c-155 8 -276 96 -276 265v8c0 169 121 261 276 269v232h119v-232zM436 79c91 5 152 69 152 178v7c0 113 -60 175 -152 180v-365zM317 444c-92 -4 -153 -68 -153 -177v-8
c0 -113 61 -174 153 -179v364z" />
    <glyph glyph-name="uni0445" unicode="&#x445;" horiz-adv-x="556" 
d="M203 268l-170 255h140l109 -169l108 169h127l-169 -246l187 -277h-141l-122 189l-125 -189h-126z" />
    <glyph glyph-name="uni0446" unicode="&#x446;" horiz-adv-x="613" 
d="M496 -127l-6 127h-418v523h121v-433h207v433h121v-433h76v-217h-101z" />
    <glyph glyph-name="uni0447" unicode="&#x447;" horiz-adv-x="571" 
d="M378 0v232c-18 -20 -64 -59 -152 -59c-97 0 -171 59 -171 199v151h120v-138c0 -80 30 -115 95 -115c59 0 92 27 108 50v203h121v-523h-121z" />
    <glyph glyph-name="uni0448" unicode="&#x448;" horiz-adv-x="825" 
d="M72 523h121v-433h159v433h121v-433h159v433h121v-523h-681v523z" />
    <glyph glyph-name="uni0449" unicode="&#x449;" horiz-adv-x="845" 
d="M728 -127l-6 127h-650v523h121v-433h159v433h121v-433h159v433h121v-433h76v-217h-101z" />
    <glyph glyph-name="uni044A" unicode="&#x44a;" 
d="M159 433h-137v90h257v-172h94c117 0 201 -56 201 -174v-3c0 -116 -81 -174 -204 -174h-211v433zM355 88c67 0 97 26 97 87v3c0 56 -28 85 -97 85h-76v-175h76z" />
    <glyph glyph-name="uni044B" unicode="&#x44b;" horiz-adv-x="734" 
d="M541 523h121v-523h-121v523zM72 523h121v-172h89c117 0 201 -56 201 -174v-3c0 -116 -81 -174 -204 -174h-207v523zM265 88c67 0 97 26 97 87v3c0 56 -28 85 -97 85h-72v-175h72z" />
    <glyph glyph-name="uni044C" unicode="&#x44c;" horiz-adv-x="517" 
d="M72 523h121v-172h94c117 0 201 -60 201 -177v-3c0 -118 -81 -171 -204 -171h-212v523zM269 87c68 0 97 28 97 85v3c0 59 -32 88 -97 88h-76v-176h76z" />
    <glyph glyph-name="uni044D" unicode="&#x44d;" horiz-adv-x="575" 
d="M279 -10c-137 0 -228 60 -244 193h113c13 -72 60 -100 127 -100c72 0 125 53 136 141h-222v83h222c-11 88 -62 130 -139 130c-65 0 -112 -36 -125 -103h-113c11 126 114 200 240 200c155 0 264 -99 264 -264v-8c0 -167 -116 -272 -259 -272z" />
    <glyph glyph-name="uni044E" unicode="&#x44e;" horiz-adv-x="808" 
d="M511 -10c-135 0 -231 85 -250 216l-3 16h-65v-222h-121v523h121v-211h67c19 136 116 222 252 222c152 0 259 -106 259 -267v-8c0 -163 -109 -269 -260 -269zM512 84c88 0 135 67 135 174v7c0 108 -47 175 -135 175c-85 0 -134 -65 -134 -173v-8c0 -108 46 -175 134 -175z
" />
    <glyph glyph-name="uni044F" unicode="&#x44f;" horiz-adv-x="534" 
d="M273 435c-65 0 -97 -26 -97 -79v-3c0 -52 28 -78 97 -78h74v160h-74zM151 0h-133l143 215c-61 19 -107 59 -107 139v3c0 109 79 166 203 166h210v-523h-120v192h-72z" />
    <glyph glyph-name="uni0451" unicode="&#x451;" horiz-adv-x="580" 
d="M302 -10c-155 0 -265 102 -265 266v8c0 162 111 270 260 270c130 0 247 -77 247 -264v-35h-383c4 -100 53 -155 144 -155c73 0 111 29 120 80h117c-17 -111 -105 -170 -240 -170zM424 316c-7 91 -51 130 -127 130c-73 0 -122 -49 -134 -130h261zM196 613
c-36 0 -66 29 -66 65c0 35 30 65 66 65s66 -30 66 -65c0 -36 -30 -65 -66 -65zM394 613c-37 0 -66 29 -66 65c0 35 29 65 66 65c36 0 66 -30 66 -65c0 -36 -30 -65 -66 -65z" />
    <glyph glyph-name="uni0452" unicode="&#x452;" horiz-adv-x="608" 
d="M420 318c0 80 -32 115 -104 115c-67 0 -123 -42 -123 -125v-308h-121v604h-68v75h68v86h121v-86h169v-75h-169v-164c25 51 82 94 169 94c105 0 179 -62 179 -206v-327c0 -125 -47 -188 -192 -191v94c53 4 71 29 71 82v332z" />
    <glyph glyph-name="uni0453" unicode="&#x453;" horiz-adv-x="445" 
d="M193 433v-433h-121v523h349v-90h-228zM257 756h134l-104 -155h-89z" />
    <glyph glyph-name="uni0454" unicode="&#x454;" horiz-adv-x="575" 
d="M542 191c-13 -120 -97 -201 -241 -201c-150 0 -264 98 -264 266v8c0 165 117 270 264 270c117 0 222 -53 238 -192h-116c-12 67 -56 95 -120 95c-72 0 -125 -46 -138 -129h220v-83h-221c8 -93 62 -142 142 -142c64 0 115 35 126 108h110z" />
    <glyph glyph-name="uni0455" unicode="&#x455;" horiz-adv-x="494" 
d="M251 -10c-136 0 -214 61 -219 173h114c7 -53 32 -84 104 -84c65 0 94 23 94 67c0 43 -35 59 -112 72c-139 21 -189 61 -189 159c0 104 98 157 196 157c108 0 192 -40 205 -158h-112c-11 48 -37 70 -93 70c-52 0 -83 -25 -83 -62c0 -38 24 -54 108 -67
c123 -19 196 -49 196 -160c0 -107 -74 -167 -209 -167z" />
    <glyph glyph-name="uni0456" unicode="&#x456;" horiz-adv-x="271" 
d="M75 523h121v-523h-121v523zM134 609c-40 0 -72 30 -72 69c0 40 32 70 72 70s72 -30 72 -70c0 -39 -32 -69 -72 -69z" />
    <glyph glyph-name="uni0457" unicode="&#x457;" horiz-adv-x="271" 
d="M39 613c-36 0 -66 29 -66 65c0 35 30 65 66 65s66 -30 66 -65c0 -36 -30 -65 -66 -65zM231 613c-36 0 -66 29 -66 65c0 35 30 65 66 65s66 -30 66 -65c0 -36 -30 -65 -66 -65zM75 523h121v-523h-121v523z" />
    <glyph glyph-name="uni0458" unicode="&#x458;" horiz-adv-x="271" 
d="M3 -95c53 4 72 30 72 74v544h121v-541c0 -107 -49 -167 -193 -170v93zM134 609c-40 0 -72 30 -72 69c0 40 32 70 72 70s72 -30 72 -70c0 -39 -32 -69 -72 -69z" />
    <glyph glyph-name="uni0459" unicode="&#x459;" horiz-adv-x="804" 
d="M369 433h-144c-3 -65 -4 -150 -11 -215c-13 -148 -49 -226 -148 -226c-16 0 -27 1 -34 3c-4 1 -7 3 -10 4v101c1 -1 3 -1 6 -2c5 -1 11 -2 18 -2c41 0 55 53 62 140c8 88 11 221 11 287h370v-172h84c117 0 202 -56 202 -174v-3c0 -116 -81 -174 -204 -174h-202v433z
M556 88c65 0 96 26 96 87v3c0 56 -28 85 -96 85h-67v-175h67z" />
    <glyph glyph-name="uni045A" unicode="&#x45a;" horiz-adv-x="835" 
d="M587 88c65 0 96 26 96 87v3c0 56 -28 85 -96 85h-67v-175h67zM400 222h-207v-222h-121v523h121v-211h207v211h120v-172h84c117 0 202 -56 202 -174v-3c0 -116 -81 -174 -204 -174h-202v222z" />
    <glyph glyph-name="uni045B" unicode="&#x45b;" horiz-adv-x="608" 
d="M4 679h68v86h121v-86h169v-75h-169v-164c25 51 82 94 169 94c105 0 179 -61 179 -205v-329h-121v318c0 80 -32 115 -104 115c-68 0 -123 -42 -123 -125v-308h-121v604h-68v75z" />
    <glyph glyph-name="uni045C" unicode="&#x45c;" horiz-adv-x="540" 
d="M296 756h134l-104 -155h-89zM193 256v-256h-121v523h121v-232l187 232h132l-203 -242l220 -281h-140z" />
    <glyph glyph-name="uni045D" unicode="&#x45d;" horiz-adv-x="612" 
d="M72 0v523h121v-370l226 370h120v-523h-120v370l-226 -370h-121zM167 756h134l59 -155h-89z" />
    <glyph glyph-name="uni045E" unicode="&#x45e;" horiz-adv-x="553" 
d="M286 607c-84 0 -140 56 -145 140h92c3 -35 18 -65 53 -65c37 0 55 30 59 65h89c-5 -84 -64 -140 -148 -140zM225 53l-207 470h131l139 -337l128 337h118l-285 -702h-119z" />
    <glyph glyph-name="uni045F" unicode="&#x45f;" horiz-adv-x="593" 
d="M72 0v523h121v-433h207v433h121v-523h-173l-2 -127h-98l-3 127h-173z" />
    <glyph glyph-name="uni0490" unicode="&#x490;" horiz-adv-x="550" 
d="M216 608v-608h-134v715h315l5 134h115v-241h-301z" />
    <glyph glyph-name="uni0491" unicode="&#x491;" horiz-adv-x="435" 
d="M193 433v-433h-121v523h227l5 134h101v-224h-212z" />
    <glyph glyph-name="Wgrave" unicode="&#x1e80;" horiz-adv-x="959" 
d="M26 715h136l124 -525l139 525h110l142 -528l128 528h124l-179 -715h-133l-141 521l-145 -521h-127zM343 901h136l53 -135h-91z" />
    <glyph glyph-name="wgrave" unicode="&#x1e81;" horiz-adv-x="818" 
d="M20 523h129l104 -378l111 378h101l102 -378l109 378h118l-164 -523h-123l-97 352l-106 -352h-124zM272 756h134l59 -155h-89z" />
    <glyph glyph-name="Wacute" unicode="&#x1e82;" horiz-adv-x="959" 
d="M26 715h136l124 -525l139 525h110l142 -528l128 528h124l-179 -715h-133l-141 521l-145 -521h-127zM490 901h136l-99 -135h-91z" />
    <glyph glyph-name="wacute" unicode="&#x1e83;" horiz-adv-x="818" 
d="M20 523h129l104 -378l111 378h101l102 -378l109 378h118l-164 -523h-123l-97 352l-106 -352h-124zM427 756h134l-104 -155h-89z" />
    <glyph glyph-name="Wdieresis" unicode="&#x1e84;" horiz-adv-x="959" 
d="M26 715h136l124 -525l139 525h110l142 -528l128 528h124l-179 -715h-133l-141 521l-145 -521h-127zM374 777c-36 0 -66 29 -66 65s30 65 66 65s66 -29 66 -65s-30 -65 -66 -65zM585 777c-36 0 -66 29 -66 65s30 65 66 65s66 -29 66 -65s-30 -65 -66 -65z" />
    <glyph glyph-name="wdieresis" unicode="&#x1e85;" horiz-adv-x="818" 
d="M20 523h129l104 -378l111 378h101l102 -378l109 378h118l-164 -523h-123l-97 352l-106 -352h-124zM314 613c-36 0 -66 29 -66 65c0 35 30 65 66 65s66 -30 66 -65c0 -36 -30 -65 -66 -65zM512 613c-37 0 -66 29 -66 65c0 35 29 65 66 65c36 0 66 -30 66 -65
c0 -36 -30 -65 -66 -65z" />
    <glyph glyph-name="Ygrave" unicode="&#x1ef2;" horiz-adv-x="633" 
d="M254 310l-237 405h147l161 -296l157 296h130l-224 -406v-309h-134v310zM187 901h136l53 -135h-91z" />
    <glyph glyph-name="ygrave" unicode="&#x1ef3;" horiz-adv-x="557" 
d="M225 53l-207 470h131l139 -337l128 337h118l-285 -702h-119zM139 756h134l59 -155h-89z" />
    <glyph glyph-name="uni2009" unicode="&#x2009;" horiz-adv-x="105" 
 />
    <glyph glyph-name="endash" unicode="&#x2013;" horiz-adv-x="536" 
d="M45 324h441v-84h-441v84z" />
    <glyph glyph-name="emdash" unicode="&#x2014;" horiz-adv-x="913" 
d="M45 324h819v-84h-819v84z" />
    <glyph glyph-name="quoteleft" unicode="&#x2018;" horiz-adv-x="281" 
d="M36 507l125 220l71 -31l-86 -232z" />
    <glyph glyph-name="quoteright" unicode="&#x2019;" horiz-adv-x="281" 
d="M45 496l86 231l109 -43l-124 -220z" />
    <glyph glyph-name="quotesinglbase" unicode="&#x201a;" horiz-adv-x="280" 
d="M44 -80l85 232l110 -43l-125 -220z" />
    <glyph glyph-name="quotedblleft" unicode="&#x201c;" horiz-adv-x="477" 
d="M36 507l125 220l71 -31l-86 -232zM233 507l125 220l70 -31l-85 -232z" />
    <glyph glyph-name="quotedblright" unicode="&#x201d;" horiz-adv-x="477" 
d="M45 496l86 231l109 -43l-124 -220zM242 496l85 231l110 -43l-125 -220z" />
    <glyph glyph-name="quotedblbase" unicode="&#x201e;" horiz-adv-x="477" 
d="M44 -80l85 232l110 -43l-125 -220zM240 -80l86 232l110 -43l-125 -220z" />
    <glyph glyph-name="dagger" unicode="&#x2020;" horiz-adv-x="390" 
d="M142 501h-112v90h112v124h103v-124h111v-90h-111v-288h-103v288z" />
    <glyph glyph-name="daggerdbl" unicode="&#x2021;" horiz-adv-x="390" 
d="M142 512h-112v85h112v118h103v-118h111v-85h-111v-96h111v-85h-111v-118h-103v118h-112v85h112v96z" />
    <glyph glyph-name="bullet" unicode="&#x2022;" horiz-adv-x="352" 
d="M174 177c-73 0 -128 57 -128 128c0 70 55 128 128 128c75 0 128 -58 128 -128c0 -71 -53 -128 -128 -128z" />
    <glyph glyph-name="ellipsis" unicode="&#x2026;" horiz-adv-x="844" 
d="M144 -7c-44 0 -79 34 -79 78s35 79 79 79c45 0 80 -35 80 -79s-35 -78 -80 -78zM420 -7c-45 0 -79 34 -79 78s34 79 79 79s80 -35 80 -79s-35 -78 -80 -78zM695 -7c-44 0 -79 34 -79 78s35 79 79 79c45 0 81 -35 81 -79s-36 -78 -81 -78z" />
    <glyph glyph-name="perthousand" unicode="&#x2030;" horiz-adv-x="1168" 
d="M201 464c45 0 73 34 73 90c0 55 -28 89 -73 89c-44 0 -74 -33 -74 -90s30 -89 74 -89zM201 384c-96 0 -171 71 -171 168c0 98 78 170 171 170s170 -70 170 -167c0 -98 -74 -171 -170 -171zM582 715h85l-461 -715h-84zM581 70c45 0 73 34 73 90c0 55 -28 89 -73 89
c-44 0 -73 -33 -73 -90s29 -89 73 -89zM581 -10c-96 0 -170 71 -170 168c0 98 77 170 170 170s170 -70 170 -167c0 -98 -74 -171 -170 -171zM963 70c47 0 74 34 74 90c0 55 -27 89 -74 89c-44 0 -73 -33 -73 -90s29 -89 73 -89zM963 -10c-96 0 -170 71 -170 168
c0 98 77 170 170 170s171 -70 171 -167c0 -98 -75 -171 -171 -171z" />
    <glyph glyph-name="uni2032" unicode="&#x2032;" horiz-adv-x="231" 
d="M65 715h121l-58 -257h-86z" />
    <glyph glyph-name="uni2033" unicode="&#x2033;" horiz-adv-x="413" 
d="M65 715h121l-58 -257h-86zM247 715h121l-58 -257h-86z" />
    <glyph glyph-name="guilsinglleft" unicode="&#x2039;" horiz-adv-x="320" 
d="M48 261l128 183h97l-123 -183l123 -183h-97z" />
    <glyph glyph-name="guilsinglright" unicode="&#x203a;" horiz-adv-x="320" 
d="M166 261l-123 183h97l128 -183l-128 -183h-97z" />
    <glyph glyph-name="fraction" unicode="&#x2044;" horiz-adv-x="139" 
d="M293 715h77l-528 -715h-77z" />
    <glyph glyph-name="Euro" unicode="&#x20ac;" horiz-adv-x="696" 
d="M28 452h69c19 156 123 273 285 273c152 0 247 -83 263 -235h-125c-11 85 -61 132 -138 132c-92 0 -141 -66 -154 -170h206l-12 -63h-197v-68h184l-11 -63h-170c13 -104 63 -163 155 -163c83 0 132 48 145 145h124c-19 -159 -114 -250 -271 -250c-163 0 -265 112 -284 268
h-69v63h66v68h-66v63z" />
    <glyph glyph-name="uni20B4" unicode="&#x20b4;" horiz-adv-x="627" 
d="M309 -10c-151 0 -250 70 -250 194c0 35 6 64 19 87h-50v63h107c37 27 85 47 148 68h-255v63h383c19 20 23 45 23 78c0 57 -39 81 -108 81c-76 0 -116 -29 -128 -101h-122c13 133 101 201 250 201c140 0 236 -62 236 -178c0 -32 -5 -59 -16 -81h53v-63h-104
c-35 -27 -80 -48 -139 -68h243v-63h-377c-24 -23 -33 -47 -33 -86c0 -67 49 -95 120 -95c106 0 139 57 147 125h128c-11 -132 -94 -225 -275 -225z" />
    <glyph glyph-name="uni20B8" unicode="&#x20b8;" horiz-adv-x="576" 
d="M26 652v63h524v-63h-524zM221 480h-195v105h524v-105h-195v-480h-134v480z" />
    <glyph glyph-name="uni20BD" unicode="&#x20bd;" horiz-adv-x="652" 
d="M355 368c88 0 135 42 135 122v4c0 85 -51 118 -135 118h-97v-244h97zM258 146v-146h-134v146h-98v64h98v67h-98v63h98v375h231c159 0 264 -72 264 -221v-4c0 -151 -109 -219 -261 -219h-100v-61h228v-64h-228z" />
    <glyph glyph-name="uni2116" unicode="&#x2116;" horiz-adv-x="1124" 
d="M900 332c-112 0 -195 75 -195 191v6c0 117 84 195 196 195s196 -75 196 -192v-5c0 -120 -85 -195 -197 -195zM901 414c57 0 90 41 90 112v5c0 71 -33 112 -90 112c-56 0 -90 -41 -90 -112v-5c0 -72 33 -112 90 -112zM82 715h159l265 -511v511h121v-715h-139l-285 542
v-542h-121v715zM718 266h366v-78h-366v78z" />
    <glyph glyph-name="trademark" unicode="&#x2122;" horiz-adv-x="737" 
d="M342 715h97l78 -199l77 199h98v-322h-76v224l-91 -224h-25l-91 224v-224h-67v322zM124 655h-92v60h260v-60h-92v-262h-76v262z" />
    <glyph glyph-name="Omega" unicode="&#x2126;" horiz-adv-x="820" 
d="M185 359c0 -136 61 -228 170 -297v-62h-306v101h131c-68 42 -133 146 -133 265v7c0 181 136 351 364 351s362 -163 362 -350v-7c0 -134 -68 -223 -133 -266h131v-101h-306v62c103 59 171 150 171 297v8c0 133 -73 252 -225 252c-155 0 -226 -114 -226 -252v-8z" />
    <glyph glyph-name="onethird" unicode="&#x2153;" horiz-adv-x="762" 
d="M107 625l-82 -51v78l94 63h82v-355h-94v265zM578 715h77l-528 -715h-77zM584 -6c-99 0 -143 48 -146 120h83c3 -31 19 -54 58 -54c36 0 54 18 54 47c0 30 -18 45 -54 45h-28v58h27c35 0 52 14 52 43c0 24 -14 40 -45 40s-50 -17 -54 -48h-83c5 67 54 115 139 115
c84 0 131 -40 131 -97c0 -40 -24 -65 -61 -77c41 -8 70 -37 70 -82c0 -68 -51 -110 -143 -110z" />
    <glyph glyph-name="twothirds" unicode="&#x2154;" horiz-adv-x="804" 
d="M10 373l128 135c36 37 59 68 59 99c0 27 -14 43 -42 43c-29 0 -47 -18 -52 -61h-85c4 84 57 131 141 131c85 0 129 -45 129 -109c0 -48 -27 -86 -70 -126l-58 -57h131v-68h-281v13zM634 715h77l-528 -715h-77zM626 -6c-99 0 -143 48 -146 120h83c3 -31 19 -54 58 -54
c36 0 54 18 54 47c0 30 -18 45 -54 45h-28v58h27c35 0 52 14 52 43c0 24 -14 40 -45 40s-50 -17 -54 -48h-83c5 67 54 115 139 115c84 0 131 -40 131 -97c0 -40 -24 -65 -61 -77c41 -8 70 -37 70 -82c0 -68 -51 -110 -143 -110z" />
    <glyph glyph-name="oneeighth" unicode="&#x215b;" horiz-adv-x="755" 
d="M107 625l-82 -51v78l94 63h82v-355h-94v265zM575 715h77l-528 -715h-77zM578 -6c-87 0 -146 36 -146 105c0 43 24 74 65 89c-31 13 -51 37 -51 73c0 63 61 99 133 99c73 0 131 -35 131 -98c0 -37 -20 -60 -52 -73c44 -15 66 -44 66 -87c0 -69 -59 -108 -146 -108zM578 59
c31 0 54 18 54 51c0 31 -23 49 -54 49s-54 -18 -54 -50s23 -50 54 -50zM579 212c27 0 46 16 46 43s-21 42 -46 42c-27 0 -47 -16 -47 -43s22 -42 47 -42z" />
    <glyph glyph-name="threeeighths" unicode="&#x215c;" horiz-adv-x="789" 
d="M168 354c-99 0 -143 48 -146 120h83c3 -31 19 -54 58 -54c36 0 54 18 54 47c0 30 -18 45 -54 45h-28v58h27c35 0 52 14 52 43c0 24 -14 40 -45 40s-50 -17 -54 -48h-83c5 67 54 115 139 115c84 0 131 -40 131 -97c0 -40 -24 -65 -61 -77c41 -8 70 -37 70 -82
c0 -68 -51 -110 -143 -110zM620 715h77l-528 -715h-77zM612 -6c-87 0 -146 36 -146 105c0 43 24 74 65 89c-31 13 -51 37 -51 73c0 63 61 99 133 99c73 0 131 -35 131 -98c0 -37 -20 -60 -52 -73c44 -15 66 -44 66 -87c0 -69 -59 -108 -146 -108zM612 59c31 0 54 18 54 51
c0 31 -23 49 -54 49s-54 -18 -54 -50s23 -50 54 -50zM613 212c27 0 46 16 46 43s-21 42 -46 42c-27 0 -47 -16 -47 -43s22 -42 47 -42z" />
    <glyph glyph-name="fiveeighths" unicode="&#x215d;" horiz-adv-x="779" 
d="M162 354c-93 0 -136 48 -139 113h86c4 -27 15 -44 51 -44c32 0 50 22 50 57s-19 55 -51 55c-31 0 -47 -11 -59 -27h-62l7 207h238v-68h-171l-2 -87c15 19 39 37 84 37c65 0 110 -43 110 -116c0 -80 -55 -127 -142 -127zM610 715h77l-528 -715h-77zM602 -6
c-87 0 -146 36 -146 105c0 43 24 74 65 89c-31 13 -51 37 -51 73c0 63 61 99 133 99c73 0 131 -35 131 -98c0 -37 -20 -60 -52 -73c44 -15 66 -44 66 -87c0 -69 -59 -108 -146 -108zM602 59c31 0 54 18 54 51c0 31 -23 49 -54 49s-54 -18 -54 -50s23 -50 54 -50zM603 212
c27 0 46 16 46 43s-21 42 -46 42c-27 0 -47 -16 -47 -43s22 -42 47 -42z" />
    <glyph glyph-name="seveneighths" unicode="&#x215e;" horiz-adv-x="750" 
d="M175 641h-153v74h270v-10l-129 -345h-94zM563 715h77l-528 -715h-77zM573 -6c-87 0 -146 36 -146 105c0 43 24 74 65 89c-31 13 -51 37 -51 73c0 63 61 99 133 99c73 0 131 -35 131 -98c0 -37 -20 -60 -52 -73c44 -15 66 -44 66 -87c0 -69 -59 -108 -146 -108zM573 59
c31 0 54 18 54 51c0 31 -23 49 -54 49s-54 -18 -54 -50s23 -50 54 -50zM574 212c27 0 46 16 46 43s-21 42 -46 42c-27 0 -47 -16 -47 -43s22 -42 47 -42z" />
    <glyph glyph-name="Delta" unicode="&#x2206;" horiz-adv-x="712" 
d="M33 18l232 697h186l228 -697v-18h-646v18zM184 107h333l-166 515z" />
    <glyph glyph-name="minus" unicode="&#x2212;" horiz-adv-x="544" 
d="M37 389h467v-96h-467v96z" />
    <glyph glyph-name="approxequal" unicode="&#x2248;" horiz-adv-x="534" 
d="M41 148c8 99 61 142 122 142c78 0 150 -42 201 -42c23 0 42 14 45 45h79c-5 -97 -60 -142 -119 -142c-81 0 -152 43 -203 43c-23 0 -41 -15 -46 -46h-79zM41 342c8 99 61 142 122 142c78 0 150 -42 201 -42c23 0 42 14 45 45h79c-5 -97 -60 -142 -119 -142
c-81 0 -152 43 -203 43c-23 0 -41 -15 -46 -46h-79z" />
    <glyph glyph-name="notequal" unicode="&#x2260;" horiz-adv-x="517" 
d="M39 463h227l39 100h91l-39 -100h116v-92h-152l-36 -95h188v-91h-223l-39 -101h-91l39 101h-120v91h155l36 95h-191v92z" />
    <glyph glyph-name="lessequal" unicode="&#x2264;" horiz-adv-x="511" 
d="M49 341v26l398 213v-111l-223 -114l223 -115v-112zM49 89h398v-89h-398v89z" />
    <glyph glyph-name="greaterequal" unicode="&#x2265;" horiz-adv-x="511" 
d="M60 240l223 115l-223 114v111l399 -213v-26l-399 -213v112zM60 89h399v-89h-399v89z" />
    <glyph glyph-name="uni24C5" unicode="&#x24c5;" horiz-adv-x="847" 
d="M294 559h140c100 0 155 -44 155 -128v-3c0 -85 -58 -125 -150 -125h-49v-143h-96v399zM432 369c44 0 66 20 66 59v3c0 39 -23 55 -66 55h-42v-117h42zM421 32c172 0 321 133 321 327c0 191 -143 324 -319 324c-179 0 -321 -134 -321 -326c0 -195 149 -325 319 -325z
M421 -13c-208 0 -373 160 -373 370c0 207 164 371 375 371c212 0 373 -163 373 -369c0 -211 -166 -372 -375 -372z" />
    <glyph glyph-name="zero.tab" unicode="&#xe44f;" 
d="M304 95c89 0 124 55 124 194v140c0 131 -38 192 -126 192c-89 0 -130 -60 -130 -197v-136c0 -140 45 -193 132 -193zM301 -10c-156 0 -257 101 -257 297v136c0 199 102 301 257 301s255 -98 255 -294v-140c0 -197 -94 -300 -255 -300z" />
    <glyph glyph-name="one.tab" unicode="&#xe450;" 
d="M290 582l-192 -145v116l199 162h126v-715h-133v582z" />
    <glyph glyph-name="two.tab" unicode="&#xe451;" 
d="M35 24l259 285c68 76 107 138 107 207c0 67 -37 106 -102 106c-68 0 -109 -39 -120 -143h-123c8 150 91 245 246 245c149 0 232 -80 232 -205c0 -93 -59 -175 -144 -262l-153 -152h299v-105h-501v24z" />
    <glyph glyph-name="three.tab" unicode="&#xe452;" 
d="M294 -10c-164 0 -254 92 -259 231h119c5 -76 44 -130 137 -130c92 0 130 44 130 115c0 78 -42 117 -125 117h-55v95h52c80 0 117 37 117 104c0 59 -34 101 -106 101c-75 0 -122 -45 -129 -118h-115c5 125 98 219 245 219c145 0 228 -84 228 -191
c0 -81 -47 -131 -115 -156c81 -20 135 -77 135 -172c0 -133 -100 -215 -259 -215z" />
    <glyph glyph-name="four.tab" unicode="&#xe453;" 
d="M362 145h-330v44l293 526h160v-474h79v-96h-79v-145h-123v145zM364 241v370l-202 -370h202z" />
    <glyph glyph-name="five.tab" unicode="&#xe454;" 
d="M290 -10c-163 0 -239 85 -247 216h119c11 -68 37 -112 127 -112c80 0 126 55 126 146c0 84 -48 139 -127 139c-72 0 -113 -24 -144 -63h-66l5 399h422v-105h-322l-2 -195c28 32 77 60 149 60c129 0 215 -91 215 -235c0 -155 -104 -250 -255 -250z" />
    <glyph glyph-name="six.tab" unicode="&#xe455;" 
d="M310 -10c-196 0 -267 138 -267 324v36c0 245 118 374 286 374c124 0 206 -59 221 -188h-118c-12 56 -39 88 -107 88c-93 0 -154 -82 -157 -251c31 52 89 91 170 91c132 0 224 -91 224 -230c0 -147 -96 -244 -252 -244zM308 90c79 0 131 56 131 140c0 87 -52 141 -132 141
c-79 0 -135 -53 -135 -133c0 -96 56 -148 136 -148z" />
    <glyph glyph-name="seven.tab" unicode="&#xe456;" 
d="M385 609h-327v106h494v-16l-273 -699h-135z" />
    <glyph glyph-name="eight.tab" unicode="&#xe457;" 
d="M301 -10c-136 0 -258 72 -258 213c0 91 53 152 129 181c-64 27 -102 77 -102 148c0 122 112 192 231 192c124 0 230 -72 230 -190c0 -72 -40 -121 -103 -149c81 -31 130 -91 130 -179c0 -141 -118 -216 -257 -216zM301 92c75 0 131 43 131 122c0 80 -57 121 -129 121
s-133 -42 -133 -122c0 -79 61 -121 131 -121zM304 423c64 0 108 39 108 103c0 61 -47 102 -111 102c-61 0 -110 -38 -110 -102c0 -65 50 -103 113 -103z" />
    <glyph glyph-name="nine.tab" unicode="&#xe458;" 
d="M281 -9c-141 0 -223 68 -238 196h118c12 -60 44 -96 120 -96c100 0 150 79 153 250c-31 -53 -91 -90 -171 -90c-130 0 -225 89 -225 230c0 147 96 244 252 244c179 0 267 -113 267 -320v-56c0 -232 -100 -358 -276 -358zM293 345c80 0 135 50 135 130
c0 96 -56 151 -136 151c-79 0 -131 -55 -131 -140c0 -87 52 -141 132 -141z" />
    <glyph glyph-name="cent.tab" unicode="&#xe459;" 
d="M282 -8c-135 13 -233 108 -233 264v8c0 153 101 252 233 268v97h66v-97c105 -8 196 -67 209 -194h-115c-9 60 -45 91 -94 100v-356c53 11 96 48 103 113h109c-8 -111 -90 -192 -212 -203v-127h-66v127zM171 256c0 -100 42 -157 111 -172v353c-67 -16 -111 -77 -111 -173
v-8z" />
    <glyph glyph-name="dollar.tab" unicode="&#xe45a;" 
d="M269 -9c-168 11 -233 108 -244 230h120c8 -66 30 -122 124 -133v226c-145 24 -221 81 -221 207c0 110 89 191 221 202v90h66v-91c128 -11 204 -80 216 -203h-115c-11 61 -41 96 -101 107v-206c145 -24 229 -75 229 -210c0 -115 -83 -208 -229 -219v-126h-66v126zM444 199
c0 57 -24 85 -109 104v-215c68 11 109 51 109 111zM164 531c0 -53 20 -81 105 -100v197c-69 -8 -105 -46 -105 -97z" />
    <glyph glyph-name="Euro.tab" unicode="&#xe45b;" 
d="M14 453h56c8 169 105 272 253 272c132 0 215 -75 227 -226h-115c-11 84 -44 126 -112 126c-81 0 -125 -57 -131 -172h191l-12 -64h-179v-67h167l-12 -63h-155c7 -115 45 -167 133 -167c72 0 109 41 121 137h113c-12 -159 -98 -239 -237 -239c-149 0 -243 94 -252 269h-56
v63h56v67h-56v64z" />
    <glyph glyph-name="a.alt" unicode="&#xe4c0;" horiz-adv-x="627" 
d="M264 -10c-123 0 -226 92 -226 263v8c0 168 106 273 231 273c80 0 130 -38 161 -90v79h121v-523h-121v86c-29 -51 -94 -96 -166 -96zM293 86c78 0 141 56 141 173v8c0 117 -54 172 -135 172c-84 0 -137 -62 -137 -175v-8c0 -115 58 -170 131 -170z" />
    <glyph glyph-name="t.alt" unicode="&#xe4d3;" horiz-adv-x="358" 
d="M100 432h-78v91h78v115h121v-115h107v-91h-107v-432h-121v432z" />
    <glyph glyph-name="f_i" unicode="&#xfb01;" horiz-adv-x="632" 
d="M93 432h-71v91h71v70c0 116 62 177 174 177c31 0 47 -2 66 -9v-94c-13 5 -30 8 -51 8c-48 0 -68 -32 -68 -77v-75h119v-91h-119v-432h-121v432zM431 523h121v-523h-121v523zM490 609c-40 0 -72 30 -72 69c0 40 32 70 72 70s72 -30 72 -70c0 -39 -32 -69 -72 -69z" />
    <glyph glyph-name="f_l" unicode="&#xfb02;" horiz-adv-x="632" 
d="M93 432h-71v91h71v70c0 116 62 177 174 177c31 0 47 -2 66 -9v-94c-13 5 -30 8 -51 8c-48 0 -68 -32 -68 -77v-75h119v-91h-119v-432h-121v432zM431 765h121v-765h-121v765z" />
    <glyph glyph-name="three.sub" horiz-adv-x="340" 
d="M166 -105c-99 0 -143 48 -146 120h83c3 -31 19 -54 58 -54c36 0 54 18 54 47c0 30 -18 45 -54 45h-28v58h27c35 0 52 14 52 43c0 24 -14 40 -45 40s-50 -17 -54 -48h-83c5 67 54 115 139 115c84 0 131 -40 131 -97c0 -40 -24 -65 -61 -77c41 -8 70 -37 70 -82
c0 -68 -51 -110 -143 -110z" />
    <glyph glyph-name="two.den" horiz-adv-x="317" 
d="M7 13l128 135c36 37 59 68 59 99c0 27 -14 43 -42 43c-29 0 -47 -18 -52 -61h-85c4 84 57 131 141 131c85 0 129 -45 129 -109c0 -48 -27 -86 -70 -126l-58 -57h131v-68h-281v13z" />
    <glyph glyph-name="dotaccent.uc" horiz-adv-x="404" 
d="M200 775c-40 0 -71 30 -71 69s31 68 71 68c39 0 71 -29 71 -68s-32 -69 -71 -69z" />
    <glyph glyph-name="two.oldtab" horiz-adv-x="600" 
d="M42 23l241 227c71 67 115 116 115 183c0 60 -36 98 -103 98c-68 0 -109 -41 -121 -134h-114c11 140 96 232 240 232c140 0 226 -78 226 -190c0 -88 -65 -155 -152 -234l-116 -108h274v-97h-490v23z" />
    <glyph glyph-name="uni044C.bgr" horiz-adv-x="511" 
d="M271 -9c-139 1 -204 68 -204 203v329h121v-178c15 3 43 6 80 6c133 -1 213 -55 213 -172v-4c0 -121 -94 -184 -210 -184zM271 75c59 0 88 38 88 94v4c0 61 -31 92 -100 92c-32 0 -58 -2 -71 -5v-81c0 -67 23 -104 83 -104z" />
    <glyph glyph-name="breve.uc" horiz-adv-x="404" 
d="M199 761c-84 0 -141 56 -145 140h85c5 -35 24 -56 60 -56s56 21 63 56h84c-5 -84 -67 -140 -147 -140z" />
    <glyph glyph-name="uni0439.bgr" horiz-adv-x="605" 
d="M298 607c-84 0 -140 56 -145 140h91c3 -35 18 -65 54 -65c37 0 55 30 59 65h89c-5 -84 -64 -140 -148 -140zM247 -10c-104 0 -180 59 -180 198v335h121v-321c0 -80 33 -115 102 -115c67 0 123 42 123 125v311h121v-523h-121v82c-27 -51 -81 -92 -166 -92z" />
    <glyph glyph-name="caron.uc" horiz-adv-x="404" 
d="M38 901h88l75 -55l74 55h86l-110 -135h-105z" />
    <glyph glyph-name="circumflex.uc" horiz-adv-x="404" 
d="M149 901h104l108 -135h-88l-74 55l-75 -55h-86z" />
    <glyph glyph-name="uni0414.bgr" horiz-adv-x="702" 
d="M187 107h313l-157 480zM117 -130h-115v237h60l208 608h161l208 -608h61v-237h-115l-5 130h-458z" />
    <glyph glyph-name="uni0416.bgr" horiz-adv-x="937" 
d="M402 337l-242 -337h-145l273 369l-263 346h141l236 -326v326h131v-326l237 326h138l-261 -340l276 -375h-150l-240 336v-336h-131v337z" />
    <glyph glyph-name="four.oldtab" horiz-adv-x="600" 
d="M358 51h-330v41l290 526h161v-477h86v-90h-86v-146h-121v146zM359 141v377l-205 -377h205z" />
    <glyph glyph-name="one.oldtab" horiz-adv-x="600" 
d="M297 493l-193 -135v112l206 149h113v-619h-126v493z" />
    <glyph glyph-name="acute.uc" horiz-adv-x="404" 
d="M200 901h136l-99 -135h-91z" />
    <glyph glyph-name="uni041A.bgr" horiz-adv-x="659" 
d="M216 334v-334h-134v715h134v-322l273 322h143l-296 -341l311 -374h-157z" />
    <glyph glyph-name="uni0436.bgr" horiz-adv-x="747" 
d="M314 259l-170 -259h-131l191 280l-176 243h126l160 -237v479h118v-479l160 237h126l-176 -241l192 -282h-133l-169 259v-259h-118v259z" />
    <glyph glyph-name="macron.uc" horiz-adv-x="404" 
d="M56 861h288v-81h-288v81z" />
    <glyph glyph-name="dieresis.uc" horiz-adv-x="404" 
d="M94 777c-36 0 -66 29 -66 65s30 65 66 65s66 -29 66 -65s-30 -65 -66 -65zM305 777c-36 0 -66 29 -66 65s30 65 66 65s66 -29 66 -65s-30 -65 -66 -65z" />
    <glyph glyph-name="six.oldtab" horiz-adv-x="600" 
d="M312 -10c-181 0 -259 129 -259 313v60c0 232 109 362 274 362c120 0 204 -61 219 -186h-115c-12 56 -43 88 -108 88c-92 0 -145 -83 -148 -262c31 51 85 90 165 90c131 0 217 -88 217 -225c0 -145 -95 -240 -245 -240zM312 86c73 0 127 54 127 138c0 88 -52 142 -128 142
c-75 0 -132 -53 -132 -133c0 -95 57 -147 133 -147z" />
    <glyph glyph-name="uni0432.bgr" horiz-adv-x="529" 
d="M49 506c0 180 79 268 218 268c131 0 206 -71 206 -191v-6c0 -77 -48 -153 -124 -166c87 -15 145 -72 145 -184v-5c0 -132 -92 -234 -223 -234c-147 0 -222 91 -222 255v263zM173 450h68c80 0 110 55 110 123v5c0 60 -21 104 -84 104c-71 0 -94 -63 -94 -160v-72zM269 80
c68 0 103 52 103 144v6c0 92 -38 135 -130 135h-69v-133c0 -93 23 -152 96 -152z" />
    <glyph glyph-name="grave.uc" horiz-adv-x="404" 
d="M65 901h136l53 -135h-91z" />
    <glyph glyph-name="at.uc" horiz-adv-x="921" 
d="M460 -67c-263 0 -413 185 -413 399c0 248 198 422 426 422c232 0 397 -149 397 -357c0 -188 -106 -256 -196 -256c-81 0 -113 31 -124 82c-27 -51 -79 -87 -140 -87c-96 0 -158 66 -158 174c0 133 85 228 192 228c68 0 99 -30 114 -63l7 55h108l-31 -254
c-6 -48 9 -72 44 -72c56 0 108 56 108 193c0 172 -121 289 -320 289s-346 -140 -346 -354c0 -180 112 -331 333 -331c109 0 181 29 237 80h83c-57 -89 -177 -148 -321 -148zM439 219c54 0 107 51 107 142c0 61 -31 93 -87 93c-55 0 -97 -52 -97 -140c0 -59 30 -95 77 -95z
" />
    <glyph glyph-name="bar.uc" horiz-adv-x="263" 
d="M84 777h90v-861h-90v861z" />
    <glyph glyph-name="backslash.uc" horiz-adv-x="419" 
d="M18 777h102l281 -861h-102z" />
    <glyph glyph-name="uni0424.bgr" horiz-adv-x="876" 
d="M505 666c187 -5 325 -96 325 -301v-8c0 -202 -146 -295 -325 -298v-69h-133v69c-187 3 -325 96 -325 296v6c0 209 145 300 325 305v63h133v-63zM505 156c105 3 191 50 191 201v8c0 150 -82 200 -191 205v-414zM372 569c-105 -5 -192 -51 -192 -208v-7
c0 -144 82 -196 192 -199v414z" />
    <glyph glyph-name="yen.oldtab" horiz-adv-x="600" 
d="M87 344h145l-187 350h134l132 -271l126 271h118l-177 -350h148v-61h-158v-66h158v-61h-158v-156h-126v156h-155v61h155v66h-155v61z" />
    <glyph glyph-name="slash.uc" horiz-adv-x="419" 
d="M295 777h103l-283 -861h-102z" />
    <glyph glyph-name="braceright.uc" horiz-adv-x="400" 
d="M42 0c89 3 117 24 106 115l-12 98c-9 72 31 117 100 133c-69 17 -109 61 -100 133l12 98c11 91 -17 111 -106 114v90c167 0 248 -54 224 -205l-13 -84c-8 -54 13 -103 106 -103v-87c-93 0 -114 -48 -106 -103l13 -84c21 -149 -57 -205 -224 -205v90z" />
    <glyph glyph-name="braceleft.uc" horiz-adv-x="400" 
d="M354 -90c-168 0 -247 56 -224 205l12 84c8 55 -13 103 -106 103v87c93 0 114 49 106 103l-12 84c-24 151 57 205 224 205v-90c-87 -3 -120 -24 -107 -114l12 -98c9 -72 -29 -116 -100 -133c71 -16 109 -61 100 -133l-12 -98c-13 -91 20 -112 107 -115v-90z" />
    <glyph glyph-name="Euro.oldtab" horiz-adv-x="600" 
d="M31 439h54c9 167 100 264 245 264c129 0 208 -72 221 -219h-112c-11 81 -42 122 -109 122c-79 0 -122 -56 -127 -167h186l-11 -61h-175v-66h162l-11 -61h-151c7 -111 45 -162 129 -162c71 0 106 41 118 133h109c-11 -153 -96 -232 -229 -232c-145 0 -236 92 -245 261h-54
v61h54v66h-54v61z" />
    <glyph glyph-name="uni0442.bgr" horiz-adv-x="918" 
d="M72 523h121v-80c25 49 80 91 159 91c68 0 121 -29 148 -94c40 65 112 94 177 94c96 0 174 -59 174 -203v-331h-121v323c0 77 -33 110 -93 110c-61 0 -116 -40 -116 -120v-313h-120v323c0 77 -33 110 -93 110s-115 -40 -115 -120v-313h-121v523z" />
    <glyph glyph-name="bracketright.uc" horiz-adv-x="381" 
d="M42 4h134v685h-134v91h256v-868h-256v92z" />
    <glyph glyph-name="bracketleft.uc" horiz-adv-x="381" 
d="M79 780h256v-91h-134v-685h134v-92h-256v868z" />
    <glyph glyph-name="parenright.uc" horiz-adv-x="339" 
d="M17 -98c75 105 148 260 148 441c0 183 -73 336 -148 441h104c83 -97 164 -250 164 -441c0 -190 -81 -345 -164 -441h-104z" />
    <glyph glyph-name="parenleft.uc" horiz-adv-x="339" 
d="M214 -98c-83 97 -164 250 -164 441c0 190 81 345 164 441h105c-78 -104 -149 -260 -149 -441c0 -182 72 -337 149 -441h-105z" />
    <glyph glyph-name="guillemotright.uc" horiz-adv-x="496" 
d="M166 301l-123 191h95l128 -191l-128 -191h-95zM344 301l-123 191h95l128 -191l-128 -191h-95z" />
    <glyph glyph-name="guillemotleft.uc" horiz-adv-x="496" 
d="M48 301l128 191h95l-123 -191l123 -191h-95zM227 301l128 191h95l-123 -191l123 -191h-95z" />
    <glyph glyph-name="guilsinglright.uc" horiz-adv-x="320" 
d="M166 301l-123 191h97l128 -191l-128 -191h-97z" />
    <glyph glyph-name="guilsinglleft.uc" horiz-adv-x="320" 
d="M48 301l128 191h97l-123 -191l123 -191h-97z" />
    <glyph glyph-name="emdash.uc" horiz-adv-x="913" 
d="M45 369h819v-84h-819v84z" />
    <glyph glyph-name="endash.uc" horiz-adv-x="536" 
d="M45 369h441v-84h-441v84z" />
    <glyph glyph-name="hyphen.uc" horiz-adv-x="384" 
d="M56 378h268v-103h-268v103z" />
    <glyph glyph-name="exclamdown.uc" horiz-adv-x="310" 
d="M153 721c44 0 80 -33 80 -76c0 -44 -36 -78 -80 -78c-45 0 -81 34 -81 78c0 43 36 76 81 76zM219 0h-135l19 500h98z" />
    <glyph glyph-name="questiondown.uc" horiz-adv-x="520" 
d="M341 462c0 -79 -53 -127 -101 -175c-37 -37 -70 -70 -70 -113c0 -51 28 -84 89 -84c63 0 105 44 112 113h116c-8 -131 -100 -213 -234 -213c-144 0 -210 78 -210 175c0 70 42 118 88 161c47 45 95 86 98 142v32h112v-38zM286 721c45 0 82 -33 82 -76
c0 -44 -37 -78 -82 -78c-44 0 -80 34 -80 78c0 43 36 76 80 76z" />
    <glyph glyph-name="caron.alt" horiz-adv-x="404" 
d="M180 765h110l-49 -175h-71z" />
    <glyph glyph-name="registered.alt" horiz-adv-x="847" 
d="M277 560h146c96 0 155 -38 155 -122v-2c0 -60 -35 -91 -80 -106l103 -169h-99l-92 152h-39v-152h-94v399zM419 377c43 0 65 18 65 55v3c0 39 -23 52 -64 52h-49v-110h48zM421 32c172 0 321 133 321 327c0 191 -143 324 -319 324c-179 0 -321 -134 -321 -326
c0 -195 149 -325 319 -325zM421 -13c-208 0 -373 160 -373 370c0 207 164 371 375 371c212 0 373 -163 373 -369c0 -211 -166 -372 -375 -372z" />
    <glyph glyph-name="space_uni0326.alt" horiz-adv-x="404" 
d="M137 610l92 169l70 -26l-51 -165z" />
    <glyph glyph-name="tcommaaccent.alt" horiz-adv-x="358" 
d="M63 -198l52 165l111 -22l-92 -170zM100 432h-78v91h78v115h121v-115h107v-91h-107v-432h-121v432z" />
    <glyph glyph-name="tcaron.alt" horiz-adv-x="358" 
d="M100 432h-78v91h78v115h121v-115h107v-91h-107v-432h-121v432zM286 765h110l-49 -175h-71z" />
    <glyph glyph-name="germandbls.alt" horiz-adv-x="649" 
d="M431 -9c-113 0 -182 60 -185 157h109c3 -43 27 -69 72 -69c41 0 68 19 68 70c0 47 -42 64 -93 94c-58 32 -121 68 -121 142c0 96 132 141 132 215c0 51 -32 77 -96 77c-77 0 -124 -45 -124 -134v-543h-121v540c0 143 105 231 246 231c123 0 213 -58 213 -159
c0 -117 -136 -151 -136 -212c0 -24 30 -36 102 -79c59 -35 117 -83 117 -163c0 -108 -76 -167 -183 -167z" />
    <glyph glyph-name="atilde.alt" horiz-adv-x="627" 
d="M264 -10c-123 0 -226 92 -226 263v8c0 168 106 273 231 273c80 0 130 -38 161 -90v79h121v-523h-121v86c-29 -51 -94 -96 -166 -96zM293 86c78 0 141 56 141 173v8c0 117 -54 172 -135 172c-84 0 -137 -62 -137 -175v-8c0 -115 58 -170 131 -170zM365 606
c-48 0 -82 40 -111 40c-19 0 -33 -17 -37 -40h-75c8 84 51 131 107 131c46 0 80 -39 112 -39c19 0 32 16 36 40h75c-8 -84 -51 -132 -107 -132z" />
    <glyph glyph-name="aringacute.alt" horiz-adv-x="627" 
d="M264 -10c-123 0 -226 92 -226 263v8c0 168 106 273 231 273c80 0 130 -38 161 -90v79h121v-523h-121v86c-29 -51 -94 -96 -166 -96zM293 86c78 0 141 56 141 173v8c0 117 -54 172 -135 172c-84 0 -137 -62 -137 -175v-8c0 -115 58 -170 131 -170zM304 629
c29 0 50 24 50 55c0 32 -21 55 -50 55s-50 -23 -50 -55c0 -31 21 -55 50 -55zM304 576c-60 0 -111 49 -111 108s51 108 111 108s111 -49 111 -108s-51 -108 -111 -108zM318 963h136l-99 -135h-91z" />
    <glyph glyph-name="uni20B4.old" horiz-adv-x="610" 
d="M301 -10c-147 0 -243 68 -243 189c0 32 6 60 18 83h-48v62h103c37 27 86 46 147 66h-250v61h373c16 20 21 43 21 75c0 56 -37 79 -105 79c-75 0 -112 -29 -124 -97h-118c12 129 97 194 242 194c136 0 229 -61 229 -172c0 -31 -5 -58 -16 -79h52v-61h-101
c-32 -27 -77 -47 -134 -66h235v-62h-367c-21 -20 -31 -48 -31 -83c0 -64 48 -92 117 -92c101 0 135 54 143 121h123c-8 -128 -91 -218 -266 -218z" />
    <glyph glyph-name="aring.alt" horiz-adv-x="627" 
d="M264 -10c-123 0 -226 92 -226 263v8c0 168 106 273 231 273c80 0 130 -38 161 -90v79h121v-523h-121v86c-29 -51 -94 -96 -166 -96zM293 86c78 0 141 56 141 173v8c0 117 -54 172 -135 172c-84 0 -137 -62 -137 -175v-8c0 -115 58 -170 131 -170zM304 643
c29 0 50 24 50 55c0 32 -21 55 -50 55s-50 -23 -50 -55c0 -31 21 -55 50 -55zM304 590c-60 0 -111 49 -111 108s51 108 111 108s111 -49 111 -108s-51 -108 -111 -108z" />
    <glyph glyph-name="aogonek.alt" horiz-adv-x="627" 
d="M486 -182c-67 0 -109 30 -109 81c0 45 38 80 81 101h-28v86c-29 -51 -94 -96 -166 -96c-123 0 -226 92 -226 263v8c0 168 106 273 231 273c80 0 130 -38 161 -90v79h121v-515c-49 -32 -69 -58 -69 -85c0 -22 12 -33 35 -33c17 0 31 3 43 9v-67c-17 -8 -39 -14 -74 -14z
M293 86c78 0 141 56 141 173v8c0 117 -54 172 -135 172c-84 0 -137 -62 -137 -175v-8c0 -115 58 -170 131 -170z" />
    <glyph glyph-name="amacron.alt" horiz-adv-x="627" 
d="M264 -10c-123 0 -226 92 -226 263v8c0 168 106 273 231 273c80 0 130 -38 161 -90v79h121v-523h-121v86c-29 -51 -94 -96 -166 -96zM293 86c78 0 141 56 141 173v8c0 117 -54 172 -135 172c-84 0 -137 -62 -137 -175v-8c0 -115 58 -170 131 -170zM168 712h280v-78h-280
v78z" />
    <glyph glyph-name="agrave.alt" horiz-adv-x="627" 
d="M264 -10c-123 0 -226 92 -226 263v8c0 168 106 273 231 273c80 0 130 -38 161 -90v79h121v-523h-121v86c-29 -51 -94 -96 -166 -96zM293 86c78 0 141 56 141 173v8c0 117 -54 172 -135 172c-84 0 -137 -62 -137 -175v-8c0 -115 58 -170 131 -170zM166 756h134l59 -155
h-89z" />
    <glyph glyph-name="adieresis.alt" horiz-adv-x="627" 
d="M264 -10c-123 0 -226 92 -226 263v8c0 168 106 273 231 273c80 0 130 -38 161 -90v79h121v-523h-121v86c-29 -51 -94 -96 -166 -96zM293 86c78 0 141 56 141 173v8c0 117 -54 172 -135 172c-84 0 -137 -62 -137 -175v-8c0 -115 58 -170 131 -170zM211 613
c-36 0 -66 29 -66 65c0 35 30 65 66 65s66 -30 66 -65c0 -36 -30 -65 -66 -65zM409 613c-37 0 -66 29 -66 65c0 35 29 65 66 65c36 0 66 -30 66 -65c0 -36 -30 -65 -66 -65z" />
    <glyph glyph-name="acircumflex.alt" horiz-adv-x="627" 
d="M264 -10c-123 0 -226 92 -226 263v8c0 168 106 273 231 273c80 0 130 -38 161 -90v79h121v-523h-121v86c-29 -51 -94 -96 -166 -96zM293 86c78 0 141 56 141 173v8c0 117 -54 172 -135 172c-84 0 -137 -62 -137 -175v-8c0 -115 58 -170 131 -170zM261 753h96l111 -151
h-86l-75 68l-76 -68h-84z" />
    <glyph glyph-name="abreve.alt" horiz-adv-x="627" 
d="M264 -10c-123 0 -226 92 -226 263v8c0 168 106 273 231 273c80 0 130 -38 161 -90v79h121v-523h-121v86c-29 -51 -94 -96 -166 -96zM293 86c78 0 141 56 141 173v8c0 117 -54 172 -135 172c-84 0 -137 -62 -137 -175v-8c0 -115 58 -170 131 -170zM307 606
c-83 0 -140 56 -145 143h84c5 -36 24 -58 61 -58s58 22 65 58h82c-5 -86 -67 -143 -147 -143z" />
    <glyph glyph-name="aacute.alt" horiz-adv-x="627" 
d="M264 -10c-123 0 -226 92 -226 263v8c0 168 106 273 231 273c80 0 130 -38 161 -90v79h121v-523h-121v86c-29 -51 -94 -96 -166 -96zM293 86c78 0 141 56 141 173v8c0 117 -54 172 -135 172c-84 0 -137 -62 -137 -175v-8c0 -115 58 -170 131 -170zM316 756h134l-104 -155
h-89z" />
    <glyph glyph-name="ring.uc" horiz-adv-x="404" 
d="M200 807c29 0 50 23 50 55s-21 55 -50 55c-31 0 -50 -23 -50 -55s19 -55 50 -55zM200 753c-61 0 -112 49 -112 109s51 109 112 109s112 -49 112 -109s-51 -109 -112 -109z" />
    <glyph glyph-name="uni043F.locl" horiz-adv-x="593" 
d="M400 433h-207v-433h-121v523h449v-523h-121v433z" />
    <glyph glyph-name="minus.sup" horiz-adv-x="350" 
d="M39 631h269v-69h-269v69z" />
    <glyph glyph-name="uni041B.bgr" horiz-adv-x="695" 
d="M341 587l-189 -587h-125l241 715h161l240 -715h-139z" />
    <glyph glyph-name="plus.sup" horiz-adv-x="350" 
d="M138 562h-99v69h99v103h70v-103h100v-69h-100v-102h-70v102z" />
    <glyph glyph-name="nine.sup" horiz-adv-x="353" 
d="M165 412c-80 0 -128 37 -136 104h86c5 -21 17 -36 49 -36c44 0 64 37 65 102c-16 -24 -40 -41 -83 -41c-69 0 -121 38 -121 113c0 76 55 124 143 124c104 0 154 -67 154 -171v-14c0 -116 -54 -181 -157 -181zM168 599c33 0 55 23 55 54c0 37 -22 61 -55 61
c-32 0 -53 -23 -53 -58s20 -57 53 -57z" />
    <glyph glyph-name="eight.sup" horiz-adv-x="344" 
d="M170 412c-87 0 -146 36 -146 105c0 43 24 74 65 89c-31 13 -51 37 -51 73c0 63 61 99 133 99c73 0 131 -35 131 -98c0 -37 -20 -60 -52 -73c44 -15 66 -44 66 -87c0 -69 -59 -108 -146 -108zM170 477c31 0 54 18 54 51c0 31 -23 49 -54 49s-54 -18 -54 -50s23 -50 54 -50
zM171 630c27 0 46 16 46 43s-21 42 -46 42c-27 0 -47 -16 -47 -43s22 -42 47 -42z" />
    <glyph glyph-name="seven.sup" horiz-adv-x="302" 
d="M171 699h-153v74h270v-10l-129 -345h-94z" />
    <glyph glyph-name="six.sup" horiz-adv-x="353" 
d="M181 412c-112 0 -154 72 -154 172v9c0 119 66 185 161 185c76 0 121 -34 128 -102h-85c-4 20 -15 34 -43 34c-43 0 -65 -37 -68 -104c16 25 42 43 86 43c67 0 118 -40 118 -113c0 -75 -54 -124 -143 -124zM180 476c32 0 54 23 54 58s-21 57 -54 57s-55 -23 -55 -55
c0 -37 22 -60 55 -60z" />
    <glyph glyph-name="five.sup" horiz-adv-x="332" 
d="M159 412c-93 0 -136 48 -139 113h86c4 -27 15 -44 51 -44c32 0 50 22 50 57s-19 55 -51 55c-31 0 -47 -11 -59 -27h-62l7 207h238v-68h-171l-2 -87c15 19 39 37 84 37c65 0 110 -43 110 -116c0 -80 -55 -127 -142 -127z" />
    <glyph glyph-name="four.sup" horiz-adv-x="352" 
d="M193 487h-178v34l154 252h113v-222h46v-64h-46v-69h-89v69zM195 551v157l-91 -157h91z" />
    <glyph glyph-name="three.sup" horiz-adv-x="340" 
d="M166 412c-99 0 -143 48 -146 120h83c3 -31 19 -54 58 -54c36 0 54 18 54 47c0 30 -18 45 -54 45h-28v58h27c35 0 52 14 52 43c0 24 -14 40 -45 40s-50 -17 -54 -48h-83c5 67 54 115 139 115c84 0 131 -40 131 -97c0 -40 -24 -65 -61 -77c41 -8 70 -37 70 -82
c0 -68 -51 -110 -143 -110z" />
    <glyph glyph-name="two.sup" horiz-adv-x="317" 
d="M7 430l128 135c36 37 59 68 59 99c0 27 -14 43 -42 43c-29 0 -47 -18 -52 -61h-85c4 84 57 131 141 131c85 0 129 -45 129 -109c0 -48 -27 -86 -70 -126l-58 -57h131v-68h-281v13z" />
    <glyph glyph-name="one.sup" horiz-adv-x="258" 
d="M104 683l-82 -51v78l94 63h82v-355h-94v265z" />
    <glyph glyph-name="zero.sup" horiz-adv-x="382" 
d="M190 484c45 0 68 36 68 107v11c0 70 -23 105 -69 105c-45 0 -68 -35 -68 -106v-11c0 -71 23 -106 69 -106zM188 412c-101 0 -161 68 -161 177v11c0 112 66 178 162 178c95 0 162 -63 162 -175v-11c0 -111 -60 -180 -163 -180z" />
    <glyph glyph-name="minus.sub" horiz-adv-x="350" 
d="M39 113h269v-68h-269v68z" />
    <glyph glyph-name="plus.sub" horiz-adv-x="350" 
d="M138 45h-99v68h99v104h70v-104h100v-68h-100v-103h-70v103z" />
    <glyph glyph-name="nine.sub" horiz-adv-x="353" 
d="M165 -105c-80 0 -128 37 -136 104h86c5 -21 17 -36 49 -36c44 0 64 37 65 102c-16 -24 -40 -41 -83 -41c-69 0 -121 38 -121 113c0 76 55 124 143 124c104 0 154 -67 154 -171v-14c0 -116 -54 -181 -157 -181zM168 82c33 0 55 23 55 54c0 37 -22 61 -55 61
c-32 0 -53 -23 -53 -58s20 -57 53 -57z" />
    <glyph glyph-name="eight.sub" horiz-adv-x="344" 
d="M170 -105c-87 0 -146 36 -146 105c0 43 24 74 65 89c-31 13 -51 37 -51 73c0 63 61 99 133 99c73 0 131 -35 131 -98c0 -37 -20 -60 -52 -73c44 -15 66 -44 66 -87c0 -69 -59 -108 -146 -108zM170 -40c31 0 54 18 54 51c0 31 -23 49 -54 49s-54 -18 -54 -50
s23 -50 54 -50zM171 113c27 0 46 16 46 43s-21 42 -46 42c-27 0 -47 -16 -47 -43s22 -42 47 -42z" />
    <glyph glyph-name="seven.sub" horiz-adv-x="302" 
d="M171 182h-153v74h270v-10l-129 -345h-94z" />
    <glyph glyph-name="six.sub" horiz-adv-x="353" 
d="M181 -105c-112 0 -154 72 -154 172v9c0 119 66 185 161 185c76 0 121 -34 128 -102h-85c-4 20 -15 34 -43 34c-43 0 -65 -37 -68 -104c16 25 42 43 86 43c67 0 118 -40 118 -113c0 -75 -54 -124 -143 -124zM180 -41c32 0 54 23 54 58s-21 57 -54 57s-55 -23 -55 -55
c0 -37 22 -60 55 -60z" />
    <glyph glyph-name="five.sub" horiz-adv-x="332" 
d="M159 -105c-93 0 -136 48 -139 113h86c4 -27 15 -44 51 -44c32 0 50 22 50 57s-19 55 -51 55c-31 0 -47 -11 -59 -27h-62l7 207h238v-68h-171l-2 -87c15 19 39 37 84 37c65 0 110 -43 110 -116c0 -80 -55 -127 -142 -127z" />
    <glyph glyph-name="four.sub" horiz-adv-x="352" 
d="M193 -30h-178v34l154 252h113v-222h46v-64h-46v-69h-89v69zM195 34v157l-91 -157h91z" />
    <glyph glyph-name="uni043F.bgr" horiz-adv-x="608" 
d="M72 523h121v-83c25 51 82 94 169 94c105 0 179 -62 179 -206v-328h-121v318c0 80 -32 115 -104 115c-67 0 -123 -42 -123 -125v-308h-121v523z" />
    <glyph glyph-name="two.sub" horiz-adv-x="317" 
d="M7 -86l128 135c36 37 59 68 59 99c0 27 -14 43 -42 43c-29 0 -47 -18 -52 -61h-85c4 84 57 131 141 131c85 0 129 -45 129 -109c0 -48 -27 -86 -70 -126l-58 -57h131v-68h-281v13z" />
    <glyph glyph-name="one.sub" horiz-adv-x="258" 
d="M104 165l-82 -51v78l94 63h82v-355h-94v265z" />
    <glyph glyph-name="zero.sub" horiz-adv-x="382" 
d="M190 -33c45 0 68 36 68 107v11c0 70 -23 105 -69 105c-45 0 -68 -35 -68 -106v-11c0 -71 23 -106 69 -106zM188 -105c-101 0 -161 68 -161 177v11c0 112 66 178 162 178c95 0 162 -63 162 -175v-11c0 -111 -60 -180 -163 -180z" />
    <glyph glyph-name="nine.den" horiz-adv-x="353" 
d="M165 -6c-80 0 -128 37 -136 104h86c5 -21 17 -36 49 -36c44 0 64 37 65 102c-16 -24 -40 -41 -83 -41c-69 0 -121 38 -121 113c0 76 55 124 143 124c104 0 154 -67 154 -171v-14c0 -116 -54 -181 -157 -181zM168 181c33 0 55 23 55 54c0 37 -22 61 -55 61
c-32 0 -53 -23 -53 -58s20 -57 53 -57z" />
    <glyph glyph-name="eight.den" horiz-adv-x="344" 
d="M170 -6c-87 0 -146 36 -146 105c0 43 24 74 65 89c-31 13 -51 37 -51 73c0 63 61 99 133 99c73 0 131 -35 131 -98c0 -37 -20 -60 -52 -73c44 -15 66 -44 66 -87c0 -69 -59 -108 -146 -108zM170 59c31 0 54 18 54 51c0 31 -23 49 -54 49s-54 -18 -54 -50s23 -50 54 -50z
M171 212c27 0 46 16 46 43s-21 42 -46 42c-27 0 -47 -16 -47 -43s22 -42 47 -42z" />
    <glyph glyph-name="seven.den" horiz-adv-x="302" 
d="M171 281h-153v74h270v-10l-129 -345h-94z" />
    <glyph glyph-name="six.den" horiz-adv-x="353" 
d="M181 -6c-112 0 -154 72 -154 172v9c0 119 66 185 161 185c76 0 121 -34 128 -102h-85c-4 20 -15 34 -43 34c-43 0 -65 -37 -68 -104c16 25 42 43 86 43c67 0 118 -40 118 -113c0 -75 -54 -124 -143 -124zM180 58c32 0 54 23 54 58s-21 57 -54 57s-55 -23 -55 -55
c0 -37 22 -60 55 -60z" />
    <glyph glyph-name="five.den" horiz-adv-x="332" 
d="M159 -6c-93 0 -136 48 -139 113h86c4 -27 15 -44 51 -44c32 0 50 22 50 57s-19 55 -51 55c-31 0 -47 -11 -59 -27h-62l7 207h238v-68h-171l-2 -87c15 19 39 37 84 37c65 0 110 -43 110 -116c0 -80 -55 -127 -142 -127z" />
    <glyph glyph-name="four.den" horiz-adv-x="352" 
d="M193 69h-178v34l154 252h113v-222h46v-64h-46v-69h-89v69zM195 133v157l-91 -157h91z" />
    <glyph glyph-name="three.den" horiz-adv-x="340" 
d="M166 -6c-99 0 -143 48 -146 120h83c3 -31 19 -54 58 -54c36 0 54 18 54 47c0 30 -18 45 -54 45h-28v58h27c35 0 52 14 52 43c0 24 -14 40 -45 40s-50 -17 -54 -48h-83c5 67 54 115 139 115c84 0 131 -40 131 -97c0 -40 -24 -65 -61 -77c41 -8 70 -37 70 -82
c0 -68 -51 -110 -143 -110z" />
    <glyph glyph-name="uni0442.locl" horiz-adv-x="485" 
d="M463 433h-160v-433h-121v433h-160v90h441v-90z" />
    <glyph glyph-name="uni20BD.old" horiz-adv-x="632" 
d="M254 142v-142h-131v142h-97v61h97v66h-97v61h97v377h227c158 0 261 -71 261 -218v-4c0 -147 -102 -213 -247 -216h-110v-66h218v-61h-218zM350 364c88 0 134 41 134 120v4c0 85 -49 117 -133 117h-97v-241h96z" />
    <glyph glyph-name="one.den" horiz-adv-x="258" 
d="M104 265l-82 -51v78l94 63h82v-355h-94v265z" />
    <glyph glyph-name="zero.den" horiz-adv-x="382" 
d="M190 66c45 0 68 36 68 107v11c0 70 -23 105 -69 105c-45 0 -68 -35 -68 -106v-11c0 -71 23 -106 69 -106zM188 -6c-101 0 -161 68 -161 177v11c0 112 66 178 162 178c95 0 162 -63 162 -175v-11c0 -111 -60 -180 -163 -180z" />
    <glyph glyph-name="nine.num" horiz-adv-x="352" 
d="M165 354c-80 0 -128 37 -136 104h86c5 -21 17 -36 49 -36c44 0 64 37 65 102c-16 -24 -40 -41 -83 -41c-69 0 -121 38 -121 113c0 76 55 124 143 124c104 0 154 -67 154 -171v-14c0 -116 -54 -181 -157 -181zM168 541c33 0 55 23 55 54c0 37 -22 61 -55 61
c-32 0 -53 -23 -53 -58s20 -57 53 -57z" />
    <glyph glyph-name="eight.num" horiz-adv-x="344" 
d="M170 354c-87 0 -146 36 -146 105c0 43 24 74 65 89c-31 13 -51 37 -51 73c0 63 61 99 133 99c73 0 131 -35 131 -98c0 -37 -20 -60 -52 -73c44 -15 66 -44 66 -87c0 -69 -59 -108 -146 -108zM170 419c31 0 54 18 54 51c0 31 -23 49 -54 49s-54 -18 -54 -50s23 -50 54 -50
zM171 572c27 0 46 16 46 43s-21 42 -46 42c-27 0 -47 -16 -47 -43s22 -42 47 -42z" />
    <glyph glyph-name="seven.num" horiz-adv-x="302" 
d="M171 641h-153v74h270v-10l-129 -345h-94z" />
    <glyph glyph-name="six.num" horiz-adv-x="352" 
d="M181 354c-112 0 -154 72 -154 172v9c0 119 66 185 161 185c76 0 121 -34 128 -102h-85c-4 20 -15 34 -43 34c-43 0 -65 -37 -68 -104c16 25 42 43 86 43c67 0 118 -40 118 -113c0 -75 -54 -124 -143 -124zM180 418c32 0 54 23 54 58s-21 57 -54 57s-55 -23 -55 -55
c0 -37 22 -60 55 -60z" />
    <glyph glyph-name="five.num" horiz-adv-x="331" 
d="M159 354c-93 0 -136 48 -139 113h86c4 -27 15 -44 51 -44c32 0 50 22 50 57s-19 55 -51 55c-31 0 -47 -11 -59 -27h-62l7 207h238v-68h-171l-2 -87c15 19 39 37 84 37c65 0 110 -43 110 -116c0 -80 -55 -127 -142 -127z" />
    <glyph glyph-name="four.num" horiz-adv-x="351" 
d="M193 429h-178v34l154 252h113v-222h46v-64h-46v-69h-89v69zM195 493v157l-91 -157h91z" />
    <glyph glyph-name="three.num" horiz-adv-x="340" 
d="M166 354c-99 0 -143 48 -146 120h83c3 -31 19 -54 58 -54c36 0 54 18 54 47c0 30 -18 45 -54 45h-28v58h27c35 0 52 14 52 43c0 24 -14 40 -45 40s-50 -17 -54 -48h-83c5 67 54 115 139 115c84 0 131 -40 131 -97c0 -40 -24 -65 -61 -77c41 -8 70 -37 70 -82
c0 -68 -51 -110 -143 -110z" />
    <glyph glyph-name="two.num" horiz-adv-x="317" 
d="M7 373l128 135c36 37 59 68 59 99c0 27 -14 43 -42 43c-29 0 -47 -18 -52 -61h-85c4 84 57 131 141 131c85 0 129 -45 129 -109c0 -48 -27 -86 -70 -126l-58 -57h131v-68h-281v13z" />
    <glyph glyph-name="one.num" horiz-adv-x="257" 
d="M104 625l-82 -51v78l94 63h82v-355h-94v265z" />
    <glyph glyph-name="zero.num" horiz-adv-x="382" 
d="M190 426c45 0 68 36 68 107v11c0 70 -23 105 -69 105c-45 0 -68 -35 -68 -106v-11c0 -71 23 -106 69 -106zM188 354c-101 0 -161 68 -161 177v11c0 112 66 178 162 178c95 0 162 -63 162 -175v-11c0 -111 -60 -180 -163 -180z" />
    <glyph glyph-name="uni045D.bgr" horiz-adv-x="605" 
d="M247 -10c-104 0 -180 59 -180 198v335h121v-321c0 -80 32 -115 103 -115c65 0 122 42 122 125v311h121v-523h-121v82c-27 -51 -81 -92 -166 -92zM159 756h134l59 -155h-89z" />
    <glyph glyph-name="braceright.tab" horiz-adv-x="304" 
d="M28 -64c72 3 97 31 81 128l-18 109c-13 75 23 115 98 142c-73 28 -111 67 -98 143l18 108c16 98 -9 124 -81 127v84c153 0 220 -61 189 -218l-19 -98c-11 -55 5 -92 80 -105v-82c-75 -15 -91 -53 -80 -106l19 -98c29 -155 -37 -218 -189 -218v84z" />
    <glyph glyph-name="braceleft.tab" horiz-adv-x="304" 
d="M272 -148c-152 0 -220 63 -189 218l19 98c11 54 -6 90 -80 106v82c75 13 91 52 80 105l-19 98c-31 157 36 218 189 218v-84c-72 -3 -97 -29 -81 -127l18 -108c13 -76 -25 -115 -98 -143c73 -27 111 -67 98 -142l-18 -109c-16 -97 9 -125 81 -128v-84z" />
    <glyph glyph-name="bracketright.tab" horiz-adv-x="304" 
d="M28 -62h98v752h-98v86h212v-924h-212v86z" />
    <glyph glyph-name="bracketleft.tab" horiz-adv-x="304" 
d="M60 776h212v-86h-98v-752h98v-86h-212v924z" />
    <glyph glyph-name="parenright.tab" horiz-adv-x="304" 
d="M16 -148c64 107 124 256 124 461c0 204 -60 352 -124 461h100c69 -101 139 -253 139 -461s-70 -360 -139 -461h-100z" />
    <glyph glyph-name="parenleft.tab" horiz-adv-x="304" 
d="M184 -148c-69 101 -139 253 -139 461s70 360 139 461h100c-64 -109 -124 -257 -124 -461c0 -205 60 -354 124 -461h-100z" />
    <glyph glyph-name="semicolon.tab" horiz-adv-x="304" 
d="M11 -90l91 237l114 -46l-131 -224zM157 285c-45 0 -80 35 -80 79s35 78 80 78c44 0 80 -34 80 -78s-36 -79 -80 -79z" />
    <glyph glyph-name="uni20B8.tab" horiz-adv-x="600" 
d="M52 649v66h496v-66h-496zM233 480h-181v105h496v-105h-181v-480h-134v480z" />
    <glyph glyph-name="colon.tab" horiz-adv-x="304" 
d="M149 -7c-44 0 -79 34 -79 78s35 79 79 79c45 0 80 -35 80 -79s-35 -78 -80 -78zM149 285c-44 0 -79 35 -79 79s35 78 79 78c45 0 80 -34 80 -78s-35 -79 -80 -79z" />
    <glyph glyph-name="comma.tab" horiz-adv-x="304" 
d="M31 -90l91 237l115 -46l-131 -224z" />
    <glyph glyph-name="period.tab" horiz-adv-x="304" 
d="M150 -7c-44 0 -79 34 -79 78s35 79 79 79c45 0 80 -35 80 -79s-35 -78 -80 -78z" />
    <glyph glyph-name="greaterequal.tab" 
d="M106 240l223 115l-223 114v111l399 -213v-26l-399 -213v112zM106 89h399v-89h-399v89z" />
    <glyph glyph-name="eight.oldtab" horiz-adv-x="600" 
d="M301 -10c-132 0 -250 73 -250 210c0 92 54 152 131 179c-65 27 -104 77 -104 152c0 123 107 194 224 194c119 0 222 -72 222 -192c0 -76 -42 -126 -106 -153c83 -29 132 -88 132 -176c0 -139 -114 -214 -249 -214zM303 419c63 0 104 40 104 108c0 63 -45 105 -105 105
s-107 -41 -107 -106c0 -67 49 -107 108 -107zM301 87c73 0 126 44 126 123s-53 122 -125 122c-70 0 -128 -44 -128 -123c0 -77 57 -122 127 -122z" />
    <glyph glyph-name="lessequal.tab" 
d="M96 341v26l398 213v-111l-223 -114l223 -115v-112zM96 89h398v-89h-398v89z" />
    <glyph glyph-name="greater.tab" 
d="M101 194l240 128l-240 131v111l407 -229v-25l-407 -229v113z" />
    <glyph glyph-name="less.tab" 
d="M92 309v26l407 228v-112l-240 -128l240 -131v-111z" />
    <glyph glyph-name="approxequal.tab" 
d="M77 148c8 99 61 142 122 142c78 0 150 -42 201 -42c23 0 42 14 45 45h79c-5 -97 -60 -142 -119 -142c-81 0 -152 43 -203 43c-23 0 -41 -15 -46 -46h-79zM77 342c8 99 61 142 122 142c78 0 150 -42 201 -42c23 0 42 14 45 45h79c-5 -97 -60 -142 -119 -142
c-81 0 -152 43 -203 43c-23 0 -41 -15 -46 -46h-79z" />
    <glyph glyph-name="uni043A.bgr" horiz-adv-x="540" 
d="M193 256v-256h-121v765h121v-474l187 232h132l-203 -242l220 -281h-140z" />
    <glyph glyph-name="notequal.tab" 
d="M83 463h227l39 100h91l-39 -100h116v-92h-152l-36 -95h188v-91h-223l-39 -101h-91l39 101h-120v91h155l36 95h-191v92z" />
    <glyph glyph-name="five.oldtab" horiz-adv-x="600" 
d="M295 -105c-161 0 -235 85 -243 209h115c11 -67 39 -111 127 -111c80 0 126 56 126 145c0 84 -49 139 -125 139c-69 0 -113 -23 -144 -62h-63l5 404h413v-102h-316l-2 -205c27 31 75 58 147 58c124 0 210 -89 210 -229c0 -152 -103 -246 -250 -246z" />
    <glyph glyph-name="uni043D.bgr" horiz-adv-x="603" 
d="M410 222h-217v-222h-121v523h121v-211h217v211h121v-523h-121v222z" />
    <glyph glyph-name="equal.tab" 
d="M86 276h428v-91h-428v91zM86 463h428v-92h-428v92z" />
    <glyph glyph-name="divide.tab" 
d="M300 71c-43 0 -76 32 -76 75s33 75 76 75c41 0 76 -32 76 -75s-35 -75 -76 -75zM67 387h467v-91h-467v91zM300 461c-43 0 -76 32 -76 75s33 76 76 76c41 0 76 -33 76 -76s-35 -75 -76 -75z" />
    <glyph glyph-name="multiply.tab" 
d="M81 181l154 153l-155 154l66 67l154 -155l154 154l66 -66l-154 -154l155 -154l-67 -66l-154 155l-153 -154z" />
    <glyph glyph-name="plusminus.tab" 
d="M250 332h-183v94h183v176h101v-176h182v-94h-182v-175h-101v175zM67 89h467v-89h-467v89z" />
    <glyph glyph-name="minus.tab" 
d="M69 389h462v-96h-462v96z" />
    <glyph glyph-name="plus.tab" 
d="M250 294h-180v94h180v195h101v-195h180v-94h-180v-195h-101v195z" />
    <glyph glyph-name="uni0433.locl" horiz-adv-x="443" 
d="M193 433v-433h-121v523h349v-90h-228z" />
    <glyph glyph-name="perthousand.tab" horiz-adv-x="1004" 
d="M179 467c35 0 52 30 52 90c0 61 -17 91 -52 91s-53 -30 -53 -91c0 -60 18 -90 53 -90zM178 392c-79 0 -142 63 -142 164c0 104 66 166 143 166c78 0 142 -60 142 -163c0 -104 -63 -167 -143 -167zM529 715h83l-455 -715h-83zM503 65c35 0 53 30 53 91c0 59 -18 90 -53 90
s-52 -30 -52 -90c0 -61 17 -91 52 -91zM503 -10c-80 0 -142 64 -142 165c0 104 66 165 142 165c80 0 143 -59 143 -163s-63 -167 -143 -167zM822 65c35 0 52 30 52 91c0 59 -17 90 -52 90s-53 -30 -53 -90c0 -61 18 -91 53 -91zM821 -10c-80 0 -142 64 -142 165
c0 104 66 165 143 165c78 0 142 -59 142 -163s-63 -167 -143 -167z" />
    <glyph glyph-name="uni0446.bgr" horiz-adv-x="625" 
d="M509 -127l-6 127h-90v82c-27 -51 -81 -92 -166 -92c-104 0 -180 59 -180 198v335h121v-321c0 -80 33 -115 102 -115c67 0 123 42 123 125v311h121v-433h75v-217h-100z" />
    <glyph glyph-name="percent.tab" horiz-adv-x="804" 
d="M208 461c47 0 75 33 75 92c0 56 -28 92 -75 92c-45 0 -74 -33 -74 -92c0 -60 29 -92 74 -92zM208 383c-96 0 -170 73 -170 169c0 98 77 170 170 170s170 -71 170 -168c0 -99 -74 -171 -170 -171zM586 715h84l-455 -715h-84zM592 69c47 0 74 32 74 91c0 57 -27 92 -74 92
c-45 0 -75 -32 -75 -92s30 -91 75 -91zM592 -10c-96 0 -170 73 -170 169c0 98 77 170 170 170s170 -70 170 -167c0 -99 -74 -172 -170 -172z" />
    <glyph glyph-name="tilde.uc" horiz-adv-x="404" 
d="M258 768c-48 0 -83 39 -112 39c-19 0 -33 -17 -37 -40h-76c7 84 53 131 109 131c46 0 82 -40 113 -40c19 0 32 17 36 40h77c-8 -84 -54 -130 -110 -130z" />
    <glyph glyph-name="uni0447.bgr" horiz-adv-x="571" 
d="M378 0v232c-18 -20 -64 -59 -152 -59c-97 0 -171 59 -171 199v151h120v-138c0 -80 30 -115 95 -115c59 0 92 27 108 50v203h121v-523h-121z" />
    <glyph glyph-name="hungarumlaut.uc" horiz-adv-x="404" 
d="M112 901h118l-73 -135h-83zM282 901h118l-73 -135h-83z" />
    <glyph glyph-name="uni0438.bgr" horiz-adv-x="605" 
d="M247 -10c-104 0 -180 59 -180 198v335h121v-321c0 -80 33 -115 102 -115c67 0 123 42 123 125v311h121v-523h-121v82c-27 -51 -81 -92 -166 -92z" />
    <glyph glyph-name="f.short" horiz-adv-x="353" 
d="M93 432h-71v91h71v70c0 116 62 177 174 177c31 0 47 -2 66 -9v-94c-13 5 -30 8 -51 8c-48 0 -68 -32 -68 -77v-75h119v-91h-119v-432h-121v432z" />
    <glyph glyph-name="f_f.short" horiz-adv-x="658" 
d="M93 432h-71v91h71v63c0 117 62 177 175 177c29 0 46 -3 69 -10v-94c-15 5 -31 10 -54 10c-49 0 -69 -32 -69 -77v-69h184v70c0 116 62 177 174 177c29 0 47 -2 66 -9v-94c-13 5 -30 8 -51 8c-49 0 -68 -32 -68 -77v-75h119v-91h-119v-432h-121v432h-184v-432h-121v432z
" />
    <glyph glyph-name="uni021B.alt" horiz-adv-x="358" 
d="M63 -198l52 165l111 -22l-92 -170zM100 432h-78v91h78v115h121v-115h107v-91h-107v-432h-121v432z" />
    <glyph glyph-name="tbar.alt" horiz-adv-x="354" 
d="M22 336h78v96h-78v91h78v115h121v-115h107v-91h-107v-96h107v-75h-107v-261h-121v261h-78v75z" />
    <glyph glyph-name="uni043B.bgr" horiz-adv-x="557" 
d="M539 0h-129l-137 399l-135 -399h-120l189 523h142z" />
    <glyph glyph-name="uni0437.bgr" horiz-adv-x="499" 
d="M466 24c0 -132 -89 -216 -225 -216c-141 0 -209 80 -222 177h121c11 -53 42 -85 98 -85c67 0 107 41 107 125v5c0 84 -37 125 -121 125h-48v88h47c71 0 102 37 102 101v5c0 59 -25 94 -86 94c-47 0 -78 -24 -86 -88h-115c13 139 105 179 206 179c125 0 199 -73 199 -180
v-5c0 -71 -46 -134 -110 -145c77 -17 133 -70 133 -175v-5z" />
    <glyph glyph-name="uni20B4.oldtab" horiz-adv-x="600" 
d="M296 -10c-143 0 -237 68 -237 189c0 31 6 59 17 83h-47v62h102c35 27 83 46 143 66h-245v61h365c17 20 21 43 21 75c0 56 -36 79 -104 79c-72 0 -110 -29 -122 -97h-114c12 129 95 194 236 194c132 0 224 -61 224 -172c0 -31 -5 -57 -15 -79h50v-61h-98
c-32 -27 -75 -47 -131 -66h229v-62h-358c-23 -21 -32 -47 -32 -83c0 -64 48 -92 116 -92c100 0 133 54 141 121h119c-8 -128 -89 -218 -260 -218z" />
    <glyph glyph-name="nine.oldtab" horiz-adv-x="600" 
d="M292 253c75 0 130 54 130 134c0 96 -55 147 -131 147c-73 0 -128 -55 -128 -139c0 -87 53 -142 129 -142zM280 -106c-137 0 -215 71 -230 195h114c12 -55 43 -97 120 -97c99 0 138 83 141 259c-31 -51 -84 -87 -161 -87c-128 0 -220 86 -220 225c0 143 99 240 247 240
c181 0 256 -126 256 -310v-65c0 -232 -87 -360 -267 -360z" />
    <glyph glyph-name="uni0434.bgr" horiz-adv-x="633" 
d="M299 114c84 0 145 60 145 160v7c0 100 -53 158 -141 158c-91 0 -142 -64 -142 -160v-8c0 -97 60 -157 138 -157zM295 -192c-164 0 -239 74 -252 174h122c11 -52 49 -82 129 -82c95 0 146 46 146 141v77c-29 -50 -94 -97 -171 -97c-131 0 -232 97 -232 249v7
c0 147 99 257 235 257c87 0 137 -39 168 -91v80h121v-484c-1 -155 -103 -231 -266 -231z" />
    <glyph glyph-name="uni20BD.tab" horiz-adv-x="600" 
d="M241 146v-146h-125v146h-94v64h94v67h-94v63h94v375h205c151 0 251 -72 251 -221v-4c0 -151 -104 -219 -248 -219h-83v-61h205v-64h-205zM322 368c84 0 128 42 128 122v4c0 85 -48 118 -128 118h-81v-244h81z" />
    <glyph glyph-name="florin.tab" 
d="M101 414h112l21 141c17 116 82 169 189 169c31 0 50 -3 73 -11v-95c-15 7 -34 10 -61 10c-51 0 -74 -33 -82 -82l-20 -132h135v-90h-148l-75 -506h-120l75 506h-99v90z" />
    <glyph glyph-name="yen.tab" 
d="M80 350h150l-192 365h138l135 -280l129 280h122l-182 -365h152v-64h-162v-67h162v-64h-162v-155h-130v155h-160v64h160v67h-160v64z" />
    <glyph glyph-name="sterling.tab" 
d="M43 386h57c-9 37 -16 76 -16 123c0 133 102 215 233 215c144 0 219 -77 227 -208h-116c-12 72 -40 105 -108 105c-65 0 -109 -44 -109 -117c0 -43 5 -81 13 -118h192v-80h-176c5 -33 10 -66 10 -105c0 -23 -4 -43 -12 -61c53 -15 102 -41 137 -41c47 0 76 18 79 74h109
c-5 -108 -63 -182 -167 -182c-91 0 -155 59 -209 59c-37 0 -53 -23 -56 -50h-100c3 58 33 122 99 143c6 17 9 36 9 59c0 35 -8 69 -17 104h-79v80z" />
    <glyph glyph-name="uni0449.bgr" horiz-adv-x="938" 
d="M822 -127l-6 127h-90v82c-27 -51 -82 -93 -159 -93c-68 0 -122 29 -149 94c-40 -66 -112 -94 -177 -94c-96 0 -174 59 -174 203v331h121v-323c0 -77 34 -110 94 -110s115 40 115 120v313h120v-323c0 -77 34 -110 94 -110s115 42 115 122v311h120v-433h76v-217h-100z" />
    <glyph glyph-name="uni044A.bgr" horiz-adv-x="595" 
d="M25 433v90h247v-178c15 3 44 6 81 6c133 -1 213 -55 213 -172v-4c0 -121 -94 -184 -211 -184c-139 1 -203 68 -203 203v239h-127zM355 75c59 0 88 38 88 94v4c0 61 -31 92 -100 92c-31 0 -56 -2 -71 -5v-81c0 -67 24 -104 83 -104z" />
    <glyph glyph-name="uni0431.locl" horiz-adv-x="611" 
d="M305 -10c-155 0 -268 107 -268 256v8c0 124 89 223 217 234c3 1 8 1 13 2c3 0 6 0 9 1c-105 46 -188 85 -188 165c0 71 52 109 140 109h145c64 0 120 3 155 10v-94c-32 -11 -81 -15 -156 -15h-131c-32 0 -48 -10 -48 -30c0 -27 57 -55 138 -95c149 -67 243 -132 243 -284
v-8c0 -153 -115 -259 -269 -259zM306 84c90 0 144 68 144 163v8c0 99 -53 164 -144 164s-145 -64 -145 -163v-8c0 -97 53 -164 145 -164z" />
    <glyph glyph-name="space.tab" horiz-adv-x="304" 
 />
    <glyph glyph-name="nine.old" horiz-adv-x="631" 
d="M292 -105c-141 0 -225 73 -241 194h121c11 -54 49 -95 125 -95c109 0 149 81 153 261c-32 -52 -91 -91 -174 -91c-135 0 -231 91 -231 226c0 144 100 239 260 239c203 0 272 -142 272 -330v-30c0 -243 -97 -374 -285 -374zM305 253c81 0 138 57 138 134
c0 93 -57 147 -138 147c-80 0 -133 -55 -133 -139c0 -85 52 -142 133 -142z" />
    <glyph glyph-name="eight.old" horiz-adv-x="616" 
d="M306 -10c-139 0 -263 73 -263 210c0 90 60 153 139 179c-67 27 -111 77 -111 152c0 123 113 194 236 194c125 0 235 -72 235 -192c0 -76 -47 -126 -112 -153c84 -29 139 -88 139 -176c0 -139 -120 -214 -263 -214zM307 87c76 0 134 45 134 124c0 77 -57 121 -133 121
c-74 0 -136 -44 -136 -122s63 -123 135 -123zM309 419c65 0 111 40 111 108c0 63 -49 104 -113 104s-114 -39 -114 -106c0 -66 53 -106 116 -106z" />
    <glyph glyph-name="uni20B8.old" horiz-adv-x="560" 
d="M26 632v62h508v-62h-508zM215 466h-189v101h508v-101h-189v-466h-130v466z" />
    <glyph glyph-name="seven.old" horiz-adv-x="546" 
d="M360 515h-334v103h496v-15l-277 -698h-133z" />
    <glyph glyph-name="six.old" horiz-adv-x="631" 
d="M322 -10c-203 0 -273 142 -273 327v32c0 244 120 376 289 376c128 0 211 -62 228 -186h-120c-13 56 -43 87 -111 87c-95 0 -154 -85 -158 -261c31 52 90 90 174 90c135 0 231 -91 231 -227c0 -143 -100 -238 -260 -238zM322 85c80 0 133 56 133 140s-51 141 -134 141
c-80 0 -138 -57 -138 -134c0 -93 58 -147 139 -147z" />
    <glyph glyph-name="five.old" horiz-adv-x="590" 
d="M285 -105c-163 0 -242 89 -250 209h118c11 -65 39 -111 131 -111c80 0 129 57 129 145c0 84 -51 139 -128 139c-72 0 -116 -25 -148 -62h-64l5 404h424v-103h-326l-2 -204c29 32 80 57 153 57c124 0 214 -87 214 -231c0 -148 -107 -243 -256 -243z" />
    <glyph glyph-name="uni20B4.tab" horiz-adv-x="600" 
d="M296 -10c-136 0 -228 70 -228 194c0 35 6 62 17 87h-46v63h96c35 27 79 48 136 68h-232v63h348c15 20 19 45 19 78c0 57 -34 81 -94 81c-68 0 -100 -30 -112 -101h-115c13 133 91 201 227 201c127 0 214 -62 214 -178c0 -30 -5 -57 -14 -81h49v-63h-94
c-30 -26 -73 -49 -128 -68h222v-63h-342c-19 -21 -28 -49 -28 -86c0 -67 42 -95 105 -95c94 0 123 57 131 125h120c-8 -132 -87 -225 -251 -225z" />
    <glyph glyph-name="four.old" horiz-adv-x="642" 
d="M385 51h-361v42l322 525h164v-477h97v-90h-97v-146h-125v146zM386 141v380l-224 -380h224z" />
    <glyph glyph-name="three.old" horiz-adv-x="608" 
d="M298 -105c-168 0 -259 96 -264 230h117c7 -79 48 -133 144 -133c95 0 136 47 136 122c0 77 -44 116 -133 116h-53v91h49c84 0 119 41 119 108c0 63 -35 103 -108 103c-76 0 -124 -45 -133 -120h-113c5 121 97 217 249 217c145 0 227 -84 227 -190
c0 -80 -44 -130 -113 -157c84 -23 137 -74 137 -173c0 -128 -99 -214 -261 -214z" />
    <glyph glyph-name="two.old" horiz-adv-x="563" 
d="M18 23l242 227c70 67 119 116 119 183c0 60 -37 98 -105 98s-112 -41 -124 -134h-114c8 140 99 232 243 232c140 0 228 -78 228 -190c0 -88 -67 -155 -154 -234l-116 -108h276v-97h-495v23z" />
    <glyph glyph-name="three.oldtab" horiz-adv-x="600" 
d="M294 -105c-166 0 -253 96 -258 230h116c8 -77 47 -133 141 -133c92 0 133 48 133 121c0 78 -43 117 -129 117h-52v91h49c80 0 116 41 116 109c0 60 -34 102 -107 102c-76 0 -122 -44 -130 -120h-113c5 121 98 217 245 217c143 0 224 -82 224 -190
c0 -81 -42 -132 -110 -157c81 -20 134 -75 134 -171c0 -132 -102 -216 -259 -216z" />
    <glyph glyph-name="one.old" horiz-adv-x="410" 
d="M182 493l-148 -100v112l162 114h112v-619h-126v493z" />
    <glyph glyph-name="zero.old" horiz-adv-x="659" 
d="M329 90c100 0 152 71 152 206v30c0 131 -53 204 -153 204s-154 -70 -154 -203v-32c0 -135 55 -205 155 -205zM328 -10c-168 0 -283 116 -283 303v32c0 189 115 304 283 304c167 0 282 -113 282 -301v-31c0 -189 -111 -307 -282 -307z" />
    <glyph glyph-name="uni0430.alt" horiz-adv-x="622" 
d="M264 -10c-123 0 -226 92 -226 263v8c0 168 106 273 231 273c80 0 130 -38 161 -90v79h121v-523h-121v86c-29 -51 -94 -96 -166 -96zM293 86c78 0 141 56 141 173v8c0 117 -54 172 -135 172c-84 0 -137 -62 -137 -175v-8c0 -115 58 -170 131 -170z" />
    <glyph glyph-name="yen.old" horiz-adv-x="590" 
d="M73 339h144l-196 355h139l143 -280l138 280h124l-187 -355h146v-61h-161v-66h161v-61h-161v-151h-129v151h-161v61h161v66h-161v61z" />
    <glyph glyph-name="uni20B8.oldtab" horiz-adv-x="600" 
d="M50 632v62h500v-62h-500zM235 466h-185v101h500v-101h-185v-466h-130v466z" />
    <glyph glyph-name="sterling.old" horiz-adv-x="611" 
d="M41 377h58c-9 35 -15 73 -15 117c0 128 102 208 235 208c145 0 222 -79 229 -203h-120c-12 68 -39 102 -107 102c-64 0 -108 -43 -108 -112c0 -41 5 -77 12 -112h194v-82h-177c7 -31 10 -63 10 -99c0 -23 -5 -43 -12 -62c53 -15 101 -39 136 -39c47 0 75 18 78 73h113
c-5 -101 -64 -177 -170 -177c-90 0 -158 57 -210 57c-39 0 -54 -24 -57 -48h-101c5 55 34 120 101 139c7 16 10 34 10 57c0 35 -6 66 -17 99h-82v82z" />
    <glyph glyph-name="Euro.old" horiz-adv-x="675" 
d="M27 438h68c19 153 116 264 276 264c148 1 239 -79 254 -226h-120c-12 83 -59 127 -135 127c-88 0 -137 -64 -149 -165h200l-12 -61h-191v-65h179l-11 -62h-165c12 -100 59 -158 151 -158c81 0 128 47 141 141h119c-17 -153 -109 -243 -262 -243c-159 0 -256 107 -275 260
h-68v62h65v65h-65v61z" />
    <glyph glyph-name="dollar.old" horiz-adv-x="625" 
d="M277 -9c-166 11 -230 106 -241 223h120c8 -63 30 -117 121 -128v220c-144 24 -218 76 -218 199c0 107 86 189 218 197v87h66v-88c125 -13 202 -77 214 -197h-114c-11 59 -40 93 -100 104v-201c143 -24 227 -71 227 -202c0 -113 -84 -203 -227 -214v-122h-66v122zM450 193
c0 57 -23 83 -107 101v-208c64 9 107 50 107 107zM174 515c0 -51 18 -78 103 -97v192c-68 -8 -103 -47 -103 -95z" />
    <glyph glyph-name="uni0434.locl" horiz-adv-x="592" 
d="M212 222c-7 -59 -15 -100 -31 -132h203v344h-159c-3 -64 -6 -148 -13 -212zM116 -127h-103v217h33c37 13 49 64 58 140c11 89 16 224 16 293h384v-433h76v-217h-103l-4 127h-353z" />
    <glyph glyph-name="space_uni0326" horiz-adv-x="404" 
d="M115 -198l52 165l111 -22l-92 -170z" />
    <glyph glyph-name="seven.oldtab" horiz-adv-x="600" 
d="M382 515h-326v103h492v-15l-284 -698h-133z" />
    <glyph glyph-name="dollar.oldtab" horiz-adv-x="600" 
d="M167 515c0 -51 18 -79 102 -97v190c-65 -7 -102 -45 -102 -93zM441 193c0 57 -23 82 -107 101v-208c65 9 107 50 107 107zM269 -8c-163 11 -229 106 -237 222h117c8 -63 31 -117 120 -128v220c-141 24 -214 76 -214 199c0 107 86 188 214 196v88h65v-89
c125 -11 200 -76 212 -196h-112c-12 60 -40 92 -100 103v-200c142 -24 225 -70 225 -202c0 -113 -85 -203 -225 -214v-122h-65v123z" />
    <glyph glyph-name="uni20BD.oldtab" horiz-adv-x="600" 
d="M240 135v-135h-124v135h-94v61h94v66h-94v61h94v371h206c152 0 252 -67 252 -215v-4c0 -149 -105 -214 -249 -214h-85v-65h199v-61h-199zM323 357c84 0 130 38 130 118v4c0 84 -49 113 -130 113h-83v-235h83z" />
    <glyph glyph-name="idotaccent" horiz-adv-x="275" 
d="M134 609c-40 0 -72 30 -72 69c0 40 32 70 72 70s72 -30 72 -70c0 -39 -32 -69 -72 -69zM75 523h121v-523h-121v523z" />
    <glyph glyph-name="uni0433.bgr" horiz-adv-x="493" 
d="M238 -10c-133 0 -206 61 -206 153c0 108 84 138 177 159c76 16 120 33 120 82c0 35 -24 59 -76 59c-56 0 -82 -22 -93 -70h-112c16 116 97 161 210 161c109 0 191 -51 191 -144c0 -108 -80 -137 -181 -161c-73 -16 -112 -33 -112 -85c0 -39 27 -62 87 -62
c72 0 97 32 104 84h114c-7 -115 -84 -176 -223 -176z" />
    <glyph glyph-name="sterling.oldtab" horiz-adv-x="600" 
d="M45 378h55c-9 35 -15 72 -15 115c0 130 103 209 232 209c139 0 215 -75 223 -202h-119c-11 69 -35 101 -102 101c-64 0 -104 -40 -104 -112c0 -41 4 -76 11 -111h185v-83h-169c5 -31 9 -63 9 -99c0 -22 -4 -42 -11 -61c51 -15 95 -40 130 -40c45 0 74 18 77 73h111
c-5 -105 -66 -177 -167 -177c-87 0 -150 57 -200 57c-37 0 -52 -23 -55 -48h-103c5 55 37 114 97 137c7 16 10 35 10 59c0 33 -8 64 -17 99h-78v83z" />
    <glyph glyph-name="zero.oldtab" horiz-adv-x="600" 
d="M300 -10c-157 0 -254 109 -254 273v94c0 164 102 272 254 272c153 0 254 -105 254 -269v-95c0 -164 -97 -275 -254 -275zM302 93c88 0 127 63 127 171v94c0 105 -41 171 -128 171c-88 0 -130 -63 -130 -171v-95c0 -108 44 -170 131 -170z" />
    <glyph glyph-name="uni044E.bgr" horiz-adv-x="808" 
d="M511 -10c-140 0 -240 92 -253 232h-65v-222h-121v765h121v-453h67c19 136 116 222 252 222c152 0 259 -106 259 -267v-8c0 -163 -109 -269 -260 -269zM512 84c88 0 135 67 135 174v7c0 108 -47 175 -135 175c-85 0 -134 -65 -134 -173v-8c0 -108 46 -175 134 -175z" />
    <glyph glyph-name="uni0448.bgr" horiz-adv-x="918" 
d="M846 0h-120v82c-27 -51 -82 -93 -159 -93c-68 0 -122 29 -149 94c-40 -66 -112 -94 -177 -94c-96 0 -174 59 -174 203v331h121v-323c0 -77 34 -110 94 -110s115 40 115 120v313h120v-323c0 -77 34 -110 94 -110s115 42 115 122v311h120v-523z" />
    <glyph glyph-name="uni02BC" unicode="&#x2bc;" horiz-adv-x="281" 
d="M45 496l86 231l109 -43l-124 -220z" />
    <glyph glyph-name="uni00AD" unicode="&#xad;" horiz-adv-x="357" 
d="M56 329h240v-100h-240v100z" />
    </font>
</defs>
</svg>
