<?xml version="1.0" standalone="no"?>
<!DOCTYPE svg PUBLIC "-//W3C//DTD SVG 1.1//EN" "http://www.w3.org/Graphics/SVG/1.1/DTD/svg11.dtd" >
<svg xmlns="http://www.w3.org/2000/svg" xmlns:xlink="http://www.w3.org/1999/xlink" version="1.1">
<metadata>
Created by FontForge 20190801 at Mon Jul  4 10:31:14 2016
 By Jimmy Wärting
LCG stand for Latin, Cyrillic and Greek.
</metadata>
<defs>
<font id="GraphikLCG-LightItalic" horiz-adv-x="604" >
  <font-face 
    font-family="Graphik LCG"
    font-weight="300"
    font-style="italic"
    font-stretch="normal"
    units-per-em="1000"
    panose-1="2 11 4 3 3 2 2 13 2 3"
    ascent="818"
    descent="-182"
    x-height="523"
    cap-height="715"
    bbox="-250 -212 1061 1091"
    underline-thickness="50"
    underline-position="-100"
    slope="-8"
    stemh="45"
    stemv="55"
    unicode-range="U+000D-FB02"
  />
<missing-glyph horiz-adv-x="504" 
 />
    <glyph glyph-name="f_f" unicode="ff" horiz-adv-x="608" 
d="M412 478h-224l-75 -478h-53l75 478h-79l7 45h79l15 93c16 109 85 150 164 150c28 0 46 -3 62 -10l-6 -43c-16 6 -34 9 -54 9c-59 0 -100 -27 -113 -107l-15 -92h224l16 100c19 111 83 153 164 153c31 0 47 -4 64 -11l-7 -43c-16 7 -32 9 -55 9c-59 0 -100 -28 -113 -109
l-16 -99h145l-7 -45h-145l-76 -478h-53z" />
    <glyph glyph-name=".notdef" horiz-adv-x="504" 
 />
    <glyph glyph-name="NULL" horiz-adv-x="0" 
 />
    <glyph glyph-name="NULL" horiz-adv-x="0" 
 />
    <glyph glyph-name="CR" unicode="&#xd;" horiz-adv-x="251" 
 />
    <glyph glyph-name="space" unicode=" " horiz-adv-x="251" 
 />
    <glyph glyph-name="exclam" unicode="!" horiz-adv-x="275" 
d="M178 715h59l-94 -536h-42zM101 -5c-24 0 -43 19 -43 42c0 24 19 43 42 43c24 0 43 -19 43 -43c0 -23 -19 -42 -42 -42z" />
    <glyph glyph-name="quotedbl" unicode="&#x22;" horiz-adv-x="309" 
d="M129 715h58l-42 -209h-40zM260 715h57l-41 -209h-40z" />
    <glyph glyph-name="numbersign" unicode="#" horiz-adv-x="496" 
d="M297 295h-120l-46 -196h-45l46 196h-92l7 45h95l37 157h-93l7 45h97l41 173h45l-41 -173h120l41 173h45l-41 -173h93l-6 -45h-98l-37 -157h95l-6 -45h-99l-46 -196h-45zM187 340h120l37 157h-120z" />
    <glyph glyph-name="dollar" unicode="$" horiz-adv-x="605" 
d="M276 -8l-20 -127h-40l20 131c-128 16 -202 96 -205 209h53c7 -88 58 -150 159 -165l50 311c-124 37 -184 84 -184 179c0 115 99 193 234 193h8l15 90h40l-15 -93c104 -15 171 -73 178 -177h-51c-9 80 -58 120 -134 131l-45 -284c133 -40 196 -80 196 -184
c0 -131 -99 -214 -246 -214h-13zM481 201c0 73 -39 108 -150 140l-48 -304h7c117 0 191 60 191 164zM162 532c0 -61 33 -97 139 -131l43 277h-6c-109 0 -176 -54 -176 -146z" />
    <glyph glyph-name="percent" unicode="%" horiz-adv-x="770" 
d="M132 543c1 -56 33 -103 98 -103c71 0 117 55 116 132c0 55 -31 106 -98 106c-72 0 -116 -60 -116 -135zM229 398c-84 0 -146 63 -146 147c0 94 71 175 167 175c86 0 145 -65 145 -150c0 -99 -74 -172 -166 -172zM655 715h53l-567 -715h-52zM449 138
c0 -55 34 -103 98 -103c71 0 116 54 116 133c0 55 -33 106 -98 106c-72 0 -116 -60 -116 -136zM546 -7c-84 0 -146 63 -146 148c0 92 71 175 167 175c86 0 145 -65 145 -150c0 -99 -74 -173 -166 -173z" />
    <glyph glyph-name="ampersand" unicode="&#x26;" horiz-adv-x="662" 
d="M520 0l-69 102c-48 -53 -121 -108 -213 -108c-103 0 -202 53 -202 181c0 126 95 185 208 231c-32 51 -53 96 -53 145c0 99 71 168 168 168c83 0 142 -56 142 -136c0 -106 -97 -157 -185 -192l145 -211l120 182h53l-148 -220l97 -142h-63zM91 176c0 -88 60 -138 148 -138
c76 0 141 45 188 100l-162 235c-88 -37 -174 -82 -174 -197zM358 677c-68 0 -114 -50 -114 -122c0 -43 20 -83 51 -130c69 29 155 65 155 156c0 53 -31 95 -92 96z" />
    <glyph glyph-name="quotesingle" unicode="'" horiz-adv-x="178" 
d="M129 715h58l-42 -209h-40z" />
    <glyph glyph-name="parenleft" unicode="(" horiz-adv-x="303" 
d="M160 -148c-63 92 -106 210 -106 355c0 229 100 425 246 566h58c-153 -155 -249 -341 -249 -566c0 -140 42 -255 103 -355h-52z" />
    <glyph glyph-name="parenright" unicode=")" horiz-adv-x="303" 
d="M154 775c63 -92 105 -211 105 -355c0 -230 -100 -424 -245 -566h-59c154 154 250 341 250 566c0 139 -42 255 -103 355h52z" />
    <glyph glyph-name="asterisk" unicode="*" horiz-adv-x="421" 
d="M117 460l109 110l-126 48l21 43l121 -59l18 141h48l-26 -143l135 41l8 -44l-139 -31l72 -121l-41 -25l-66 126l-101 -115z" />
    <glyph glyph-name="plus" unicode="+" horiz-adv-x="514" 
d="M239 319h-195l8 46h194l34 209h48l-34 -209h195l-7 -46h-195l-33 -209h-48z" />
    <glyph glyph-name="comma" unicode="," horiz-adv-x="233" 
d="M-16 -98l96 182l48 -24l-110 -177z" />
    <glyph glyph-name="hyphen" unicode="-" horiz-adv-x="338" 
d="M66 302h209l-7 -50h-210z" />
    <glyph glyph-name="period" unicode="." horiz-adv-x="233" 
d="M78 -5c-24 0 -43 19 -43 42c0 24 19 43 42 43c24 0 43 -19 43 -43c0 -23 -19 -42 -42 -42z" />
    <glyph glyph-name="slash" unicode="/" horiz-adv-x="395" 
d="M382 776h52l-435 -924h-51z" />
    <glyph glyph-name="zero" unicode="0" horiz-adv-x="663" 
d="M310 -8c-172 0 -248 116 -248 265c0 31 2 60 7 89l9 58c32 199 145 319 306 319c170 0 241 -119 241 -266c0 -29 -2 -58 -7 -89l-10 -58c-32 -197 -136 -318 -298 -318zM312 39c133 0 211 94 242 277l9 58c4 27 6 54 6 83c0 117 -48 220 -188 220
c-129 0 -219 -98 -248 -277l-9 -57c-4 -28 -7 -57 -7 -86c0 -117 48 -218 195 -218z" />
    <glyph glyph-name="one" unicode="1" horiz-adv-x="372" 
d="M252 655l-181 -114l8 54l191 120h47l-113 -715h-55z" />
    <glyph glyph-name="two" unicode="2" horiz-adv-x="541" 
d="M-30 13l342 292c80 67 145 139 145 238c0 77 -49 134 -138 134c-88 1 -159 -45 -190 -170h-52c27 147 125 216 245 216c112 0 191 -70 191 -179c0 -117 -76 -194 -172 -274l-266 -224h375l-7 -46h-475z" />
    <glyph glyph-name="three" unicode="3" horiz-adv-x="571" 
d="M256 -8c-136 0 -231 79 -231 210h53c3 -99 63 -164 180 -164c109 0 189 58 189 178c0 75 -45 135 -149 135h-44l8 47h55c87 0 158 46 158 150c0 80 -52 128 -139 128c-92 0 -160 -53 -183 -149h-50c19 119 120 196 236 196c101 0 191 -58 191 -173
c0 -89 -53 -154 -141 -177c72 -19 115 -77 115 -157c0 -143 -108 -224 -248 -224z" />
    <glyph glyph-name="four" unicode="4" horiz-adv-x="599" 
d="M385 161h-368l4 17l428 537h79l-81 -508h99l-7 -46h-99l-25 -161h-55zM393 207l73 463l-368 -463h295z" />
    <glyph glyph-name="five" unicode="5" horiz-adv-x="565" 
d="M246 -8c-123 0 -215 70 -220 192h53c7 -88 64 -146 168 -146c126 0 200 90 200 221c0 92 -57 160 -158 160c-83 0 -134 -34 -177 -78h-21l60 374h390l-8 -48h-343l-41 -259c32 31 87 57 156 57c117 0 199 -84 199 -204c0 -153 -100 -269 -258 -269z" />
    <glyph glyph-name="six" unicode="6" 
d="M289 -8c-145 0 -229 82 -228 235c0 32 4 64 9 95l8 51c35 214 130 350 304 350c117 0 186 -58 193 -163h-52c-8 75 -51 116 -143 116c-136 0 -214 -106 -246 -298l-6 -34c44 73 118 111 202 111c120 0 214 -73 214 -200c0 -149 -103 -263 -255 -263zM115 208
c0 -99 62 -171 174 -171c122 0 198 94 198 215c0 95 -62 158 -170 158c-112 0 -202 -83 -202 -202z" />
    <glyph glyph-name="seven" unicode="7" horiz-adv-x="508" 
d="M473 669h-383l7 46h457l-2 -9l-395 -706h-59z" />
    <glyph glyph-name="eight" unicode="8" horiz-adv-x="587" 
d="M276 -8c-116 0 -232 64 -232 192c0 116 78 186 186 207c-61 21 -106 73 -106 145c0 115 104 187 221 187c101 0 197 -66 197 -173c0 -97 -59 -147 -148 -167c77 -25 130 -87 130 -171c0 -146 -116 -220 -248 -220zM100 190c0 -100 83 -151 179 -151c107 0 189 57 189 173
c0 90 -71 150 -171 150c-108 0 -197 -56 -197 -172zM179 537c0 -73 59 -130 152 -130c81 0 156 41 156 141c0 75 -62 130 -146 130c-82 0 -162 -45 -162 -141z" />
    <glyph glyph-name="nine" unicode="9" horiz-adv-x="603" 
d="M253 -7c-111 0 -197 55 -208 171h54c12 -88 68 -125 157 -125c123 0 203 80 238 296l6 35c-43 -72 -119 -110 -202 -110c-116 0 -213 70 -213 202c0 151 105 261 259 261c141 0 222 -84 222 -233c0 -31 -3 -64 -8 -96l-9 -58c-40 -251 -142 -343 -296 -343zM141 464
c0 -99 64 -159 163 -159c115 0 209 77 209 202c0 99 -56 172 -171 172c-123 0 -201 -91 -201 -215z" />
    <glyph glyph-name="colon" unicode=":" horiz-adv-x="241" 
d="M81 -5c-23 0 -42 19 -42 42c0 24 18 43 42 43c23 0 43 -19 43 -43c0 -23 -19 -42 -43 -42zM133 320c-23 0 -42 18 -42 42s18 42 42 42c23 0 43 -18 43 -42s-19 -42 -43 -42z" />
    <glyph glyph-name="semicolon" unicode=";" horiz-adv-x="241" 
d="M-26 -98l96 182l48 -24l-110 -177zM138 320c-24 0 -43 18 -43 42s19 42 42 42c24 0 43 -18 43 -42s-19 -42 -42 -42z" />
    <glyph glyph-name="less" unicode="&#x3c;" horiz-adv-x="500" 
d="M58 321l2 13l417 204l-8 -54l-333 -159l281 -170l-8 -51z" />
    <glyph glyph-name="equal" unicode="=" horiz-adv-x="488" 
d="M39 259h404l-8 -46h-404zM65 426h404l-8 -46h-404z" />
    <glyph glyph-name="greater" unicode="&#x3e;" horiz-adv-x="500" 
d="M455 321l-2 -13l-417 -204l8 54l333 159l-281 171l8 50z" />
    <glyph glyph-name="question" unicode="?" horiz-adv-x="481" 
d="M183 240c13 88 69 128 132 178c58 42 105 79 105 155c0 69 -55 105 -126 105c-84 0 -146 -50 -165 -150h-51c19 125 108 195 221 195c107 0 175 -58 175 -150c0 -100 -64 -140 -132 -191c-58 -45 -100 -77 -111 -147l-9 -56h-48zM178 -5c-24 0 -42 19 -42 42
c0 24 18 43 41 43c24 0 43 -19 43 -43c0 -23 -19 -42 -42 -42z" />
    <glyph glyph-name="at" unicode="@" horiz-adv-x="913" 
d="M622 220c-11 -68 8 -110 65 -110c68 0 135 65 135 211c0 189 -126 324 -345 324c-208 0 -377 -163 -377 -384c0 -192 123 -365 364 -365c131 0 214 44 271 104h50c-49 -81 -167 -147 -321 -147c-268 0 -414 193 -414 407c0 244 201 428 427 428c240 0 392 -159 392 -365
c0 -183 -103 -253 -183 -253c-73 0 -108 38 -112 101c-24 -53 -78 -108 -155 -108c-92 0 -155 62 -155 167c0 128 85 239 201 239c73 0 117 -42 128 -93l13 84h53zM428 105c80 0 152 85 152 193c1 80 -42 128 -110 128c-88 0 -152 -88 -152 -197c0 -80 45 -124 110 -124z
" />
    <glyph glyph-name="A" unicode="A" horiz-adv-x="645" 
d="M473 219h-322l-112 -219h-54l368 715h74l145 -715h-54zM174 264h290l-82 406z" />
    <glyph glyph-name="B" unicode="B" horiz-adv-x="608" 
d="M163 715h193c125 0 198 -55 197 -163c0 -100 -53 -155 -149 -180c88 -16 134 -71 135 -156c0 -136 -99 -216 -243 -216h-246zM296 45c117 0 188 63 188 172c0 84 -51 132 -171 132h-153l-49 -304h185zM316 393c104 0 183 46 183 157c0 79 -49 120 -145 120h-143l-44 -277
h149z" />
    <glyph glyph-name="C" unicode="C" horiz-adv-x="729" 
d="M377 -8c-194 0 -315 122 -315 317c0 227 150 415 378 415c136 0 252 -78 265 -224h-52c-20 116 -96 179 -215 179c-200 0 -318 -167 -318 -370c0 -171 90 -271 257 -271c125 0 217 71 256 192h53c-40 -150 -162 -238 -309 -238z" />
    <glyph glyph-name="D" unicode="D" horiz-adv-x="692" 
d="M163 715h173c223 0 324 -131 324 -305c0 -243 -153 -410 -409 -410h-201zM249 46c220 0 354 136 354 364c0 146 -80 259 -269 259h-122l-99 -623h136z" />
    <glyph glyph-name="E" unicode="E" horiz-adv-x="573" 
d="M163 715h406l-8 -46h-350l-44 -279h288l-7 -46h-288l-47 -298h374l-8 -46h-429z" />
    <glyph glyph-name="F" unicode="F" horiz-adv-x="550" 
d="M163 715h407l-8 -46h-351l-45 -284h276l-7 -46h-276l-53 -339h-56z" />
    <glyph glyph-name="G" unicode="G" horiz-adv-x="762" 
d="M389 -8c-208 0 -325 139 -325 323c0 223 154 408 373 408c140 0 259 -68 275 -212h-55c-13 113 -106 167 -221 167c-192 0 -315 -162 -315 -363c0 -161 94 -277 269 -277c156 0 247 95 270 264h-225l8 47h277c-21 -251 -145 -357 -331 -357z" />
    <glyph glyph-name="H" unicode="H" horiz-adv-x="721" 
d="M163 715h56l-53 -333h421l53 333h56l-113 -715h-56l53 335h-421l-53 -335h-56z" />
    <glyph glyph-name="I" unicode="I" horiz-adv-x="255" 
d="M168 715h56l-113 -715h-56z" />
    <glyph glyph-name="J" unicode="J" horiz-adv-x="405" 
d="M113 -7c-63 0 -95 15 -115 28l7 46c27 -15 59 -28 107 -28c76 0 122 38 137 133l85 543h56l-87 -548c-19 -125 -94 -174 -190 -174z" />
    <glyph glyph-name="K" unicode="K" horiz-adv-x="603" 
d="M469 0l-304 367l398 348h66l-399 -346l302 -369h-63zM163 715h56l-113 -715h-56z" />
    <glyph glyph-name="L" unicode="L" horiz-adv-x="534" 
d="M163 715h56l-106 -669h348l-8 -46h-403z" />
    <glyph glyph-name="M" unicode="M" horiz-adv-x="855" 
d="M163 715h78l155 -614l350 614h80l-113 -715h-55l102 645l-371 -645h-18l-167 645l-102 -645h-52z" />
    <glyph glyph-name="N" unicode="N" horiz-adv-x="717" 
d="M163 715h74l300 -638l102 638h53l-113 -715h-64l-308 653l-103 -653h-54z" />
    <glyph glyph-name="O" unicode="O" horiz-adv-x="801" 
d="M763 396c0 -221 -158 -404 -375 -404c-200 0 -326 141 -326 329c0 216 160 402 380 402c200 0 321 -146 321 -327zM706 396c0 153 -96 281 -265 281c-194 0 -321 -164 -321 -356c-3 -164 105 -282 269 -282c189 0 317 160 317 357z" />
    <glyph glyph-name="P" unicode="P" horiz-adv-x="572" 
d="M163 715h180c131 0 220 -56 220 -180c0 -165 -117 -229 -262 -229h-147l-48 -306h-56zM304 351c129 0 204 58 204 183c0 97 -63 135 -171 135h-126l-50 -318h143z" />
    <glyph glyph-name="Q" unicode="Q" horiz-adv-x="801" 
d="M388 -8c-200 0 -326 141 -326 329c0 216 160 402 380 402c200 0 321 -146 321 -327c0 -137 -60 -258 -157 -331l80 -93l-38 -32l-84 97c-52 -29 -111 -45 -176 -45zM389 39c53 0 101 12 144 35l-96 112l38 32l99 -116c84 64 132 171 132 294c0 153 -96 281 -265 281
c-194 0 -321 -164 -321 -356c-3 -164 105 -282 269 -282z" />
    <glyph glyph-name="R" unicode="R" horiz-adv-x="610" 
d="M163 715h186c130 0 221 -59 218 -176c0 -134 -91 -198 -212 -209l179 -330h-60l-176 326h-141l-51 -326h-56zM308 371c120 0 204 43 204 168c1 92 -62 130 -165 130h-136l-47 -298h144z" />
    <glyph glyph-name="S" unicode="S" 
d="M284 -8c-155 0 -253 85 -256 213h54c8 -99 74 -167 205 -167c116 0 193 60 193 165c0 79 -45 113 -172 147c-135 40 -201 82 -201 180c0 115 93 193 230 193c129 0 215 -61 222 -180h-52c-11 95 -75 134 -174 134c-111 0 -173 -53 -173 -145c0 -66 42 -99 168 -134
c141 -40 207 -83 207 -190c0 -130 -103 -216 -251 -216z" />
    <glyph glyph-name="T" unicode="T" horiz-adv-x="563" 
d="M313 669h-221l7 46h500l-8 -46h-222l-105 -669h-56z" />
    <glyph glyph-name="U" unicode="U" horiz-adv-x="686" 
d="M320 -7c-181 0 -266 99 -238 280l71 442h55l-70 -442c-24 -155 38 -233 185 -233c128 0 196 63 219 210l74 465h56l-75 -472c-25 -159 -109 -250 -277 -250z" />
    <glyph glyph-name="V" unicode="V" horiz-adv-x="631" 
d="M92 715h54l136 -659l335 659h53l-365 -715h-66z" />
    <glyph glyph-name="W" unicode="W" horiz-adv-x="903" 
d="M95 715h56l66 -631l283 631h36l85 -633l268 633h53l-305 -715h-55l-80 613l-276 -613h-53z" />
    <glyph glyph-name="X" unicode="X" horiz-adv-x="618" 
d="M294 373l-171 342h58l154 -305l243 305h60l-281 -349l183 -366h-59l-166 329l-266 -329h-59z" />
    <glyph glyph-name="Y" unicode="Y" horiz-adv-x="579" 
d="M272 318l-184 397h59l161 -351l255 351h58l-294 -401l-49 -314h-56z" />
    <glyph glyph-name="Z" unicode="Z" horiz-adv-x="591" 
d="M-13 11l543 659h-403l7 45h484l-1 -10l-539 -659h429l-8 -46h-514z" />
    <glyph glyph-name="bracketleft" unicode="[" horiz-adv-x="344" 
d="M173 776h206l-7 -43h-152l-133 -838h153l-7 -43h-206z" />
    <glyph glyph-name="backslash" unicode="\" horiz-adv-x="395" 
d="M117 776h49l146 -924h-49z" />
    <glyph glyph-name="bracketright" unicode="]" horiz-adv-x="344" 
d="M-17 -105h153l132 838h-153l7 43h205l-146 -924h-205z" />
    <glyph glyph-name="asciicircum" unicode="^" horiz-adv-x="482" 
d="M282 715h53l122 -293h-53l-102 245l-176 -245h-56z" />
    <glyph glyph-name="underscore" unicode="_" horiz-adv-x="393" 
d="M-59 -107h390l-7 -44h-391z" />
    <glyph glyph-name="grave" unicode="`" horiz-adv-x="404" 
d="M165 752h64l50 -147h-41z" />
    <glyph glyph-name="a" unicode="a" horiz-adv-x="531" 
d="M201 -8c-113 0 -171 61 -171 145c0 125 111 163 238 163h135l6 42c15 95 -18 144 -121 144c-76 0 -130 -31 -151 -111h-53c27 116 120 156 206 156c125 0 192 -64 172 -193l-30 -188c-11 -71 -14 -113 -11 -150h-51c-1 25 0 59 3 86c-33 -55 -95 -94 -172 -94zM207 35
c88 0 162 51 175 138l14 86h-127c-110 0 -186 -24 -186 -122c0 -57 37 -102 124 -102z" />
    <glyph glyph-name="b" unicode="b" horiz-adv-x="612" 
d="M311 -8c-120 0 -177 78 -196 142l-22 -134h-53l122 773h53l-57 -366c36 69 109 124 201 124c119 0 210 -92 210 -233c0 -167 -91 -306 -258 -306zM309 36c133 0 204 114 204 259c0 121 -69 192 -162 192c-132 0 -221 -117 -221 -258c0 -120 72 -193 179 -193z" />
    <glyph glyph-name="c" unicode="c" horiz-adv-x="551" 
d="M276 -8c-149 0 -236 98 -236 238c0 180 120 301 270 301c112 0 196 -62 204 -177h-51c-7 89 -67 132 -155 132c-127 0 -213 -104 -213 -256c0 -121 67 -193 182 -193c88 0 158 50 178 142h51c-25 -123 -117 -187 -230 -187z" />
    <glyph glyph-name="d" unicode="d" horiz-adv-x="610" 
d="M256 -8c-124 0 -217 89 -217 231c0 165 102 308 266 308c115 0 172 -77 188 -141l61 383h53l-96 -609c-13 -81 -15 -127 -15 -164h-51c0 32 4 82 9 117c-37 -72 -106 -125 -198 -125zM261 37c131 0 217 110 217 258c0 119 -70 191 -171 191c-133 0 -213 -115 -213 -260
c0 -120 70 -189 167 -189z" />
    <glyph glyph-name="e" unicode="e" horiz-adv-x="546" 
d="M93 215c0 -113 55 -178 168 -178c84 0 142 37 169 109h53c-33 -104 -119 -154 -224 -154c-143 0 -221 89 -221 225c0 174 108 314 267 314c148 0 222 -99 198 -258l-2 -16h-406c-3 -15 -2 -27 -2 -42zM303 486c-103 0 -178 -69 -202 -186h353c13 116 -35 186 -151 186z
" />
    <glyph glyph-name="f" unicode="f" horiz-adv-x="331" 
d="M63 523h80l16 100c16 109 85 153 164 153c29 0 47 -4 63 -11l-6 -43c-16 7 -32 9 -55 9c-59 0 -100 -28 -113 -109l-16 -99h145l-7 -45h-145l-76 -478h-53l76 478h-80z" />
    <glyph glyph-name="g" unicode="g" horiz-adv-x="614" 
d="M264 62c124 0 218 108 218 251c0 104 -65 173 -172 173c-128 0 -211 -110 -211 -244c0 -104 57 -180 165 -180zM491 21c-23 -141 -114 -209 -251 -209c-141 0 -216 67 -227 158h53c12 -71 71 -113 172 -113c115 0 182 56 200 168l18 110c-37 -63 -101 -117 -197 -117
c-129 0 -215 90 -215 222c0 159 108 291 264 291c106 0 169 -60 190 -132l19 124h53z" />
    <glyph glyph-name="h" unicode="h" horiz-adv-x="581" 
d="M162 773h53l-56 -357c33 60 98 115 191 115c112 0 181 -67 157 -219l-50 -312h-53l51 322c19 111 -27 163 -115 163c-93 0 -179 -63 -198 -175l-49 -310h-53z" />
    <glyph glyph-name="i" unicode="i" horiz-adv-x="225" 
d="M173 635c-21 0 -37 17 -37 37c0 21 17 38 38 38c20 0 37 -16 37 -37c0 -20 -17 -38 -38 -38zM125 523h53l-83 -523h-53z" />
    <glyph glyph-name="j" unicode="j" horiz-adv-x="225" 
d="M-57 -143c60 3 81 30 90 86l92 580h53l-92 -583c-15 -87 -57 -126 -150 -127zM173 635c-21 0 -37 17 -37 37c0 21 17 38 38 38c20 0 37 -16 37 -37c0 -20 -17 -38 -38 -38z" />
    <glyph glyph-name="k" unicode="k" horiz-adv-x="488" 
d="M162 773h53l-77 -488l286 238h68l-292 -241l225 -282h-62l-226 283l-44 -283h-53z" />
    <glyph glyph-name="l" unicode="l" horiz-adv-x="226" 
d="M164 773h54l-122 -773h-54z" />
    <glyph glyph-name="m" unicode="m" horiz-adv-x="895" 
d="M100 377c11 71 13 109 14 146h50c0 -28 -1 -68 -8 -109c36 67 96 117 177 117c83 0 137 -41 148 -129c39 83 115 129 190 129c107 0 174 -64 150 -220l-49 -311h-53l50 318c17 116 -23 167 -108 167c-80 0 -160 -59 -179 -172l-49 -313h-53l50 321
c19 111 -23 164 -108 164c-82 0 -163 -63 -179 -172l-50 -313h-53z" />
    <glyph glyph-name="n" unicode="n" horiz-adv-x="581" 
d="M100 377c11 71 13 109 14 146h50c0 -28 -2 -70 -9 -113c35 67 103 121 195 121c112 0 181 -67 157 -219l-50 -312h-53l51 322c19 111 -27 163 -115 163c-93 0 -179 -63 -198 -175l-49 -310h-53z" />
    <glyph glyph-name="o" unicode="o" horiz-adv-x="583" 
d="M267 -8c-140 0 -229 103 -229 235c0 165 111 303 274 303c144 0 229 -102 229 -233c0 -172 -109 -305 -274 -305zM269 37c135 0 217 112 217 259c0 108 -62 190 -176 190c-135 0 -218 -116 -218 -259c0 -108 65 -190 177 -190z" />
    <glyph glyph-name="p" unicode="p" horiz-adv-x="612" 
d="M359 531c119 0 210 -92 210 -233c0 -167 -91 -306 -258 -306c-120 0 -177 77 -196 141l-51 -315h-53l86 541c12 80 16 127 17 164h50c0 -28 -4 -83 -11 -123c39 77 114 131 206 131zM309 36c133 0 204 114 204 259c0 121 -69 192 -162 192c-132 0 -221 -117 -221 -258
c0 -120 72 -193 179 -193z" />
    <glyph glyph-name="q" unicode="q" horiz-adv-x="613" 
d="M449 110c-39 -69 -101 -118 -193 -118c-124 0 -217 89 -217 231c0 165 102 308 266 308c115 0 172 -77 188 -141l21 133h53l-111 -705h-53zM261 37c131 0 217 110 217 258c0 119 -70 191 -171 191c-133 0 -213 -115 -213 -260c0 -120 70 -189 167 -189z" />
    <glyph glyph-name="r" unicode="r" horiz-adv-x="351" 
d="M100 377c11 71 13 109 14 146h50c0 -28 -2 -70 -9 -117c38 70 92 121 198 124l-8 -50c-103 -5 -186 -56 -207 -198l-45 -282h-53z" />
    <glyph glyph-name="s" unicode="s" horiz-adv-x="467" 
d="M216 -9c-127 0 -194 65 -197 165h52c5 -72 45 -120 146 -120c80 0 133 35 133 106c0 55 -33 79 -121 103c-111 29 -157 66 -157 142c0 96 83 144 176 144c96 0 170 -41 178 -142h-51c-5 63 -49 97 -128 97c-75 0 -124 -32 -124 -96c0 -51 31 -74 122 -98
c102 -27 157 -58 157 -148c0 -96 -79 -153 -186 -153z" />
    <glyph glyph-name="t" unicode="t" horiz-adv-x="336" 
d="M191 -7c-89 0 -126 55 -113 143l54 342h-77l7 45h77l19 119h53l-19 -119h136l-7 -45h-135l-55 -344c-11 -69 15 -96 67 -96c23 0 45 5 64 12l-7 -45c-17 -8 -39 -12 -64 -12z" />
    <glyph glyph-name="u" unicode="u" horiz-adv-x="577" 
d="M471 146c-11 -67 -13 -111 -12 -146h-51c-1 31 1 73 8 112c-37 -66 -102 -120 -194 -120c-111 0 -179 71 -155 219l50 312h53l-51 -322c-17 -108 25 -163 113 -163c92 0 177 63 196 175l49 310h53z" />
    <glyph glyph-name="v" unicode="v" horiz-adv-x="508" 
d="M63 523h56l102 -472l245 472h57l-276 -523h-69z" />
    <glyph glyph-name="w" unicode="w" horiz-adv-x="763" 
d="M67 523h56l63 -461l212 461h46l66 -461l207 461h56l-241 -523h-61l-63 439l-204 -439h-60z" />
    <glyph glyph-name="x" unicode="x" horiz-adv-x="493" 
d="M213 275l-140 248h60l117 -210l179 210h60l-214 -254l151 -269h-61l-128 232l-197 -232h-61z" />
    <glyph glyph-name="y" unicode="y" horiz-adv-x="498" 
d="M191 48l-128 475h54l110 -417l228 417h57l-396 -705h-56z" />
    <glyph glyph-name="z" unicode="z" horiz-adv-x="471" 
d="M-17 9l404 469h-301l7 45h386l-2 -10l-400 -466h322l-8 -47h-410z" />
    <glyph glyph-name="braceleft" unicode="{" horiz-adv-x="367" 
d="M255 -148c-139 8 -192 81 -145 210l38 107c27 73 4 128 -100 133l6 40c104 -1 142 40 139 123l-4 118c-5 146 69 190 212 193l-6 -41c-108 -5 -161 -33 -156 -155l4 -115c3 -92 -46 -133 -116 -146c68 -19 98 -72 67 -160l-36 -102c-39 -111 -4 -156 104 -163z" />
    <glyph glyph-name="bar" unicode="|" horiz-adv-x="245" 
d="M111 776h44v-924h-44v924z" />
    <glyph glyph-name="braceright" unicode="}" horiz-adv-x="367" 
d="M123 776c137 -8 192 -81 145 -210l-39 -108c-27 -72 -3 -128 100 -136l-5 -40c-104 4 -143 -35 -140 -119l5 -117c5 -148 -70 -191 -213 -194l7 41c110 3 159 35 156 155l-4 118c-3 94 48 131 115 141c-68 20 -99 77 -68 158l38 106c39 111 4 156 -104 163z" />
    <glyph glyph-name="asciitilde" unicode="~" horiz-adv-x="442" 
d="M44 232c13 69 51 110 102 110c64 0 106 -60 148 -60c31 0 54 25 61 62h44c-13 -72 -54 -110 -101 -110c-66 0 -108 60 -150 60c-31 0 -52 -26 -60 -62h-44z" />
    <glyph glyph-name="uni00A0" unicode="&#xa0;" horiz-adv-x="514" 
 />
    <glyph glyph-name="exclamdown" unicode="&#xa1;" horiz-adv-x="276" 
d="M104 -117h-59l94 536h42zM181 602c24 0 43 -18 43 -41c0 -24 -19 -43 -42 -43c-24 0 -43 19 -43 43c0 23 19 41 42 41z" />
    <glyph glyph-name="cent" unicode="&#xa2;" horiz-adv-x="555" 
d="M265 -8l-20 -127h-40l21 132c-117 19 -186 108 -186 232c0 180 120 299 270 302l16 98h40l-16 -101c93 -12 161 -73 168 -174h-51c-5 76 -55 119 -124 130l-71 -447h7c85 0 156 43 180 142h51c-27 -128 -122 -187 -232 -187h-13zM95 229c0 -105 50 -171 138 -188l70 445
c-124 -5 -208 -107 -208 -257z" />
    <glyph glyph-name="sterling" unicode="&#xa3;" horiz-adv-x="593" 
d="M66 368h73c-3 35 -6 70 -6 107c0 140 80 248 237 248c125 0 194 -67 197 -183h-54c-4 80 -45 136 -145 136c-124 0 -180 -87 -180 -202c0 -39 3 -71 6 -106h227l-6 -41h-218c2 -22 3 -45 3 -70c0 -63 -11 -108 -38 -149c75 -13 147 -68 214 -68c55 0 97 32 108 104h48
c-12 -96 -70 -152 -158 -152c-90 0 -176 73 -242 73c-44 0 -72 -29 -80 -65h-49c10 47 47 98 106 109c27 39 39 83 39 143c0 24 -1 48 -4 75h-85z" />
    <glyph glyph-name="yen" unicode="&#xa5;" horiz-adv-x="552" 
d="M84 344h172l-157 371h58l140 -340l238 340h56l-262 -371h170l-6 -39h-180l-15 -97h179l-6 -39h-179l-26 -169h-55l27 169h-182l6 39h182l15 97h-181z" />
    <glyph glyph-name="brokenbar" unicode="&#xa6;" horiz-adv-x="245" 
d="M111 297h44v-445h-44v445zM111 776h44v-409h-44v409z" />
    <glyph glyph-name="section" unicode="&#xa7;" horiz-adv-x="539" 
d="M216 -137c-94 0 -174 49 -177 153h54c5 -69 48 -107 127 -107c70 0 128 40 128 115c0 55 -33 88 -134 125c-100 36 -162 78 -162 161c0 84 72 126 152 142c-33 27 -53 60 -53 112c0 93 81 160 183 160c91 0 157 -45 160 -146h-54c-1 67 -40 100 -111 100
c-69 1 -125 -38 -125 -111c0 -50 26 -87 126 -124c98 -37 161 -77 161 -165c0 -81 -65 -119 -145 -138c33 -24 56 -64 56 -112c0 -101 -82 -165 -186 -165zM308 166c66 11 129 41 129 109c0 56 -45 89 -122 120l-76 30c-67 -11 -133 -39 -133 -111c0 -56 43 -86 122 -117z
" />
    <glyph glyph-name="dieresis" unicode="&#xa8;" horiz-adv-x="404" 
d="M180 636c-20 0 -36 16 -36 36s17 37 37 37s36 -16 36 -36s-16 -37 -37 -37zM347 636c-20 0 -36 16 -36 36s16 37 37 37c20 0 36 -16 36 -36s-17 -37 -37 -37z" />
    <glyph glyph-name="copyright" unicode="&#xa9;" horiz-adv-x="848" 
d="M435 151c-121 0 -195 81 -195 205v7c0 122 85 205 194 205c89 0 159 -45 171 -133h-52c-11 61 -51 91 -119 91c-82 0 -140 -63 -140 -163v-6c0 -101 53 -163 141 -163c67 0 114 35 125 99h49c-12 -92 -82 -142 -174 -142zM432 23c180 0 331 141 331 336
c0 192 -145 333 -329 333c-183 0 -331 -142 -331 -335c0 -195 152 -334 329 -334zM432 -9c-204 0 -366 159 -366 366c0 204 162 367 368 367c208 0 366 -162 366 -365c0 -209 -162 -368 -368 -368z" />
    <glyph glyph-name="ordfeminine" unicode="&#xaa;" horiz-adv-x="422" 
d="M191 302c-85 0 -130 47 -130 111c0 102 89 131 193 131h94l5 30c11 69 -13 107 -89 107c-56 0 -95 -24 -110 -81h-51c19 91 94 123 163 123c100 0 153 -52 137 -153l-22 -143c-9 -55 -11 -89 -8 -118h-49c-1 19 -2 38 1 59c-28 -41 -74 -66 -134 -66zM201 342
c68 0 121 36 132 101l10 64h-91c-82 0 -140 -18 -140 -91c0 -43 28 -74 89 -74z" />
    <glyph glyph-name="guillemotleft" unicode="&#xab;" horiz-adv-x="452" 
d="M53 262l163 177h56l-162 -180l102 -176h-52zM211 262l163 177h56l-162 -180l102 -176h-52z" />
    <glyph glyph-name="registered" unicode="&#xae;" horiz-adv-x="518" 
d="M218 621h75c51 0 83 -22 83 -67v-1c0 -35 -20 -54 -51 -61l65 -99h-41l-61 93h-33v-93h-37v228zM292 514c32 0 48 13 48 38v1c0 28 -17 39 -48 39h-37v-78h37zM292 310c108 0 191 81 191 193s-82 194 -191 194s-191 -83 -191 -195c0 -113 84 -192 191 -192zM292 282
c-123 0 -222 96 -222 220c0 123 97 222 222 222s222 -97 222 -221c0 -125 -99 -221 -222 -221z" />
    <glyph glyph-name="macron" unicode="&#xaf;" horiz-adv-x="404" 
d="M145 689h243l-7 -42h-242z" />
    <glyph glyph-name="degree" unicode="&#xb0;" horiz-adv-x="411" 
d="M248 466c63 0 107 46 107 114c0 60 -42 105 -101 105c-61 0 -110 -47 -110 -114c0 -59 44 -105 104 -105zM247 427c-83 0 -149 63 -149 143c0 85 69 154 157 154c83 0 148 -63 148 -143c0 -85 -68 -154 -156 -154z" />
    <glyph glyph-name="plusminus" unicode="&#xb1;" horiz-adv-x="514" 
d="M241 330h-195l7 45h195l32 199h48l-32 -199h195l-8 -45h-195l-31 -199h-48zM1 45h438l-8 -45h-437z" />
    <glyph glyph-name="twosuperior" unicode="&#xb2;" horiz-adv-x="289" 
d="M31 381l149 127c49 41 82 70 82 118c0 35 -25 58 -61 58c-41 0 -72 -25 -85 -78h-41c13 72 65 113 129 113c56 0 102 -33 102 -93c0 -58 -40 -90 -98 -141l-95 -78h164l-6 -35h-241z" />
    <glyph glyph-name="threesuperior" unicode="&#xb3;" horiz-adv-x="312" 
d="M183 368c-67 0 -122 30 -125 105h42c3 -43 32 -71 83 -71c43 0 81 23 81 72c0 35 -23 60 -66 60h-24l5 33h28c39 0 69 20 69 61c0 36 -24 57 -63 57c-45 0 -73 -27 -84 -66h-40c11 60 60 100 125 100c56 0 105 -26 105 -88c0 -40 -24 -69 -67 -82c33 -8 58 -34 58 -77
c0 -67 -59 -104 -127 -104z" />
    <glyph glyph-name="acute" unicode="&#xb4;" horiz-adv-x="404" 
d="M315 752h68l-112 -147h-44z" />
    <glyph glyph-name="mu" unicode="&#xb5;" horiz-adv-x="579" 
d="M477 146c-11 -67 -13 -111 -12 -146h-51c-1 31 1 73 8 112c-35 -64 -102 -118 -190 -118c-60 0 -107 25 -127 80l-40 -256h-54l112 705h53l-52 -327c-16 -105 32 -158 116 -158c90 0 178 64 194 173l49 312h53z" />
    <glyph glyph-name="paragraph" unicode="&#xb6;" horiz-adv-x="563" 
d="M285 353h-4c-117 0 -196 58 -196 162c0 136 103 200 232 200h219l-129 -815h-46l123 777h-103l-123 -777h-45z" />
    <glyph glyph-name="periodcentered" unicode="&#xb7;" horiz-adv-x="233" 
d="M123 281c-24 0 -43 19 -43 43c0 23 19 42 42 42c24 0 43 -19 43 -42c0 -24 -19 -43 -42 -43z" />
    <glyph glyph-name="cedilla" unicode="&#xb8;" horiz-adv-x="404" 
d="M143 -212c-51 0 -90 25 -95 78h44c3 -25 20 -42 51 -42c24 0 50 12 50 47c0 25 -19 36 -42 36c-16 0 -26 -5 -33 -9l-20 22l56 80h42l-43 -59c44 8 88 -16 88 -68c0 -56 -39 -85 -98 -85z" />
    <glyph glyph-name="onesuperior" unicode="&#xb9;" horiz-adv-x="223" 
d="M172 666l-97 -60l6 42l107 67h37l-55 -343h-45z" />
    <glyph glyph-name="ordmasculine" unicode="&#xba;" horiz-adv-x="479" 
d="M258 302c-112 0 -181 78 -181 182c0 132 89 238 217 238c113 0 180 -80 180 -182c0 -136 -87 -238 -216 -238zM260 344c101 0 161 85 161 195c0 80 -45 141 -130 141c-101 0 -162 -88 -162 -196c0 -80 46 -140 131 -140z" />
    <glyph glyph-name="guillemotright" unicode="&#xbb;" horiz-adv-x="452" 
d="M393 260l-163 -177h-56l162 180l-102 176h52zM235 260l-163 -177h-56l162 180l-102 176h52z" />
    <glyph glyph-name="onequarter" unicode="&#xbc;" horiz-adv-x="677" 
d="M175 666l-97 -60l6 42l107 67h37l-55 -343h-45zM618 715h47l-593 -715h-47zM525 74h-179l3 15l204 254h58l-38 -235h48l-6 -34h-46l-12 -74h-44zM531 108l32 199l-159 -199h127z" />
    <glyph glyph-name="onehalf" unicode="&#xbd;" horiz-adv-x="684" 
d="M175 666l-97 -60l6 42l107 67h37l-55 -343h-45zM597 715h47l-593 -715h-47zM364 9l149 127c49 41 82 70 82 118c0 35 -25 58 -61 58c-41 0 -72 -25 -85 -78h-41c13 72 65 113 129 113c56 0 102 -33 102 -93c0 -58 -40 -90 -98 -141l-95 -78h164l-6 -35h-241z" />
    <glyph glyph-name="threequarters" unicode="&#xbe;" horiz-adv-x="703" 
d="M186 368c-67 0 -122 30 -125 105h42c3 -43 32 -71 83 -71c43 0 81 23 81 72c0 35 -23 60 -66 60h-24l5 33h28c39 0 69 20 69 61c0 36 -24 57 -63 57c-45 0 -73 -27 -84 -66h-40c11 60 60 100 125 100c56 0 105 -26 105 -88c0 -40 -24 -69 -67 -82c33 -8 58 -34 58 -77
c0 -67 -59 -104 -127 -104zM665 715h47l-593 -715h-47zM551 74h-179l3 15l204 254h58l-38 -235h48l-6 -34h-46l-12 -74h-44zM557 108l32 199l-159 -199h127z" />
    <glyph glyph-name="questiondown" unicode="&#xbf;" horiz-adv-x="481" 
d="M302 358c-13 -88 -69 -128 -132 -178c-58 -42 -105 -79 -105 -155c0 -69 55 -105 126 -105c84 0 146 50 165 150h51c-19 -125 -108 -195 -221 -195c-107 0 -175 58 -175 150c0 100 64 140 132 191c58 45 100 77 111 147l9 56h48zM307 602c24 0 42 -18 42 -41
c0 -24 -18 -43 -41 -43c-24 0 -43 19 -43 43c0 23 19 41 42 41z" />
    <glyph glyph-name="Agrave" unicode="&#xc0;" horiz-adv-x="645" 
d="M473 219h-322l-112 -219h-54l368 715h74l145 -715h-54zM174 264h290l-82 406zM307 893h65l49 -122h-41z" />
    <glyph glyph-name="Aacute" unicode="&#xc1;" horiz-adv-x="645" 
d="M473 219h-322l-112 -219h-54l368 715h74l145 -715h-54zM174 264h290l-82 406zM442 893h68l-97 -122h-45z" />
    <glyph glyph-name="Acircumflex" unicode="&#xc2;" horiz-adv-x="645" 
d="M473 219h-322l-112 -219h-54l368 715h74l145 -715h-54zM174 264h290l-82 406zM380 893h50l93 -122h-40l-82 78l-103 -78h-43z" />
    <glyph glyph-name="Atilde" unicode="&#xc3;" horiz-adv-x="645" 
d="M473 219h-322l-112 -219h-54l368 715h74l145 -715h-54zM174 264h290l-82 406zM460 774c-48 0 -87 53 -122 53c-23 0 -44 -19 -52 -54h-40c12 65 48 99 93 99c48 0 85 -52 122 -52c21 0 43 18 51 53h40c-13 -64 -48 -99 -92 -99z" />
    <glyph glyph-name="Adieresis" unicode="&#xc4;" horiz-adv-x="645" 
d="M473 219h-322l-112 -219h-54l368 715h74l145 -715h-54zM174 264h290l-82 406zM307 788c-21 0 -37 16 -37 36s17 37 37 37c21 0 36 -16 36 -36s-16 -37 -36 -37zM487 788c-20 0 -36 16 -36 36s16 37 37 37c20 0 36 -16 36 -36s-17 -37 -37 -37z" />
    <glyph glyph-name="Aring" unicode="&#xc5;" horiz-adv-x="645" 
d="M473 219h-322l-112 -219h-54l368 715h74l145 -715h-54zM174 264h290l-82 406zM397 786c36 0 62 27 62 66c0 36 -23 61 -59 61c-35 0 -63 -26 -63 -65c0 -35 24 -62 60 -62zM397 754c-55 0 -97 43 -97 94c0 54 46 97 100 97c56 0 96 -41 96 -93c0 -56 -43 -98 -99 -98z
" />
    <glyph glyph-name="AE" unicode="&#xc6;" horiz-adv-x="950" 
d="M453 715h496l-8 -46h-350l-44 -279h288l-7 -46h-288l-47 -298h373l-7 -46h-429l34 220h-276l-142 -220h-59zM217 264h254l64 405h-55z" />
    <glyph glyph-name="Ccedilla" unicode="&#xc7;" horiz-adv-x="729" 
d="M298 -212c-51 0 -90 25 -95 78h44c3 -25 20 -42 51 -42c24 0 50 12 50 47c0 25 -19 36 -42 36c-16 0 -26 -5 -33 -9l-20 22l54 78c-153 25 -245 139 -245 311c0 227 150 415 378 415c136 0 252 -78 265 -224h-52c-20 116 -96 179 -215 179c-200 0 -318 -167 -318 -370
c0 -171 90 -271 257 -271c125 0 217 71 256 192h53c-40 -150 -162 -238 -309 -238c-11 0 -16 0 -31 1l-38 -52c44 8 88 -16 88 -68c0 -56 -39 -85 -98 -85z" />
    <glyph glyph-name="Egrave" unicode="&#xc8;" horiz-adv-x="573" 
d="M163 715h406l-8 -46h-350l-44 -279h288l-7 -46h-288l-47 -298h374l-8 -46h-429zM291 893h65l49 -122h-41z" />
    <glyph glyph-name="Eacute" unicode="&#xc9;" horiz-adv-x="573" 
d="M163 715h406l-8 -46h-350l-44 -279h288l-7 -46h-288l-47 -298h374l-8 -46h-429zM413 893h68l-97 -122h-45z" />
    <glyph glyph-name="Ecircumflex" unicode="&#xca;" horiz-adv-x="573" 
d="M163 715h406l-8 -46h-350l-44 -279h288l-7 -46h-288l-47 -298h374l-8 -46h-429zM356 893h50l93 -122h-40l-82 78l-103 -78h-43z" />
    <glyph glyph-name="Edieresis" unicode="&#xcb;" horiz-adv-x="573" 
d="M163 715h406l-8 -46h-350l-44 -279h288l-7 -46h-288l-47 -298h374l-8 -46h-429zM284 788c-21 0 -37 16 -37 36s17 37 37 37c21 0 36 -16 36 -36s-16 -37 -36 -37zM464 788c-20 0 -36 16 -36 36s16 37 37 37c20 0 36 -16 36 -36s-17 -37 -37 -37z" />
    <glyph glyph-name="Igrave" unicode="&#xcc;" horiz-adv-x="255" 
d="M168 715h56l-113 -715h-56zM117 893h65l49 -122h-41z" />
    <glyph glyph-name="Iacute" unicode="&#xcd;" horiz-adv-x="255" 
d="M168 715h56l-113 -715h-56zM251 893h68l-97 -122h-45z" />
    <glyph glyph-name="Icircumflex" unicode="&#xce;" horiz-adv-x="255" 
d="M168 715h56l-113 -715h-56zM193 893h50l93 -122h-40l-82 78l-103 -78h-43z" />
    <glyph glyph-name="Idieresis" unicode="&#xcf;" horiz-adv-x="255" 
d="M168 715h56l-113 -715h-56zM123 788c-21 0 -37 16 -37 36s17 37 37 37c21 0 36 -16 36 -36s-16 -37 -36 -37zM303 788c-20 0 -36 16 -36 36s16 37 37 37c20 0 36 -16 36 -36s-17 -37 -37 -37z" />
    <glyph glyph-name="Eth" unicode="&#xd0;" horiz-adv-x="703" 
d="M46 381h75l53 334h173c223 0 324 -131 324 -305c0 -243 -152 -410 -410 -410h-200l53 337h-75zM260 46c220 0 354 136 354 364c0 147 -80 259 -269 259h-122l-46 -288h208l-7 -44h-208l-46 -291h136z" />
    <glyph glyph-name="Ntilde" unicode="&#xd1;" horiz-adv-x="717" 
d="M163 715h74l300 -638l102 638h53l-113 -715h-64l-308 653l-103 -653h-54zM510 774c-48 0 -87 53 -122 53c-23 0 -44 -19 -52 -54h-40c12 65 48 99 93 99c48 0 85 -52 122 -52c21 0 43 18 51 53h40c-13 -64 -48 -99 -92 -99z" />
    <glyph glyph-name="Ograve" unicode="&#xd2;" horiz-adv-x="801" 
d="M763 396c0 -221 -158 -404 -375 -404c-200 0 -326 141 -326 329c0 216 160 402 380 402c200 0 321 -146 321 -327zM706 396c0 153 -96 281 -265 281c-194 0 -321 -164 -321 -356c-3 -164 105 -282 269 -282c189 0 317 160 317 357zM370 893h65l49 -122h-41z" />
    <glyph glyph-name="Oacute" unicode="&#xd3;" horiz-adv-x="801" 
d="M763 396c0 -221 -158 -404 -375 -404c-200 0 -326 141 -326 329c0 216 160 402 380 402c200 0 321 -146 321 -327zM706 396c0 153 -96 281 -265 281c-194 0 -321 -164 -321 -356c-3 -164 105 -282 269 -282c189 0 317 160 317 357zM506 893h68l-97 -122h-45z" />
    <glyph glyph-name="Ocircumflex" unicode="&#xd4;" horiz-adv-x="801" 
d="M763 396c0 -221 -158 -404 -375 -404c-200 0 -326 141 -326 329c0 216 160 402 380 402c200 0 321 -146 321 -327zM706 396c0 153 -96 281 -265 281c-194 0 -321 -164 -321 -356c-3 -164 105 -282 269 -282c189 0 317 160 317 357zM450 893h50l93 -122h-40l-82 78
l-103 -78h-43z" />
    <glyph glyph-name="Otilde" unicode="&#xd5;" horiz-adv-x="801" 
d="M763 396c0 -221 -158 -404 -375 -404c-200 0 -326 141 -326 329c0 216 160 402 380 402c200 0 321 -146 321 -327zM706 396c0 153 -96 281 -265 281c-194 0 -321 -164 -321 -356c-3 -164 105 -282 269 -282c189 0 317 160 317 357zM524 774c-48 0 -87 53 -122 53
c-23 0 -44 -19 -52 -54h-40c12 65 48 99 93 99c48 0 85 -52 122 -52c21 0 43 18 51 53h40c-13 -64 -48 -99 -92 -99z" />
    <glyph glyph-name="Odieresis" unicode="&#xd6;" horiz-adv-x="801" 
d="M763 396c0 -221 -158 -404 -375 -404c-200 0 -326 141 -326 329c0 216 160 402 380 402c200 0 321 -146 321 -327zM706 396c0 153 -96 281 -265 281c-194 0 -321 -164 -321 -356c-3 -164 105 -282 269 -282c189 0 317 160 317 357zM372 788c-21 0 -37 16 -37 36
s17 37 37 37c21 0 36 -16 36 -36s-16 -37 -36 -37zM552 788c-20 0 -36 16 -36 36s16 37 37 37c20 0 36 -16 36 -36s-17 -37 -37 -37z" />
    <glyph glyph-name="multiply" unicode="&#xd7;" horiz-adv-x="487" 
d="M36 175l180 161l-139 160l33 31l140 -161l180 161l29 -33l-181 -161l140 -160l-34 -30l-140 160l-180 -160z" />
    <glyph glyph-name="Oslash" unicode="&#xd8;" horiz-adv-x="801" 
d="M33 5l99 102c-45 56 -70 130 -70 214c0 216 160 402 380 402c88 0 158 -28 213 -75l88 91l28 -30l-87 -90c51 -60 79 -136 79 -223c0 -221 -158 -404 -375 -404c-96 0 -173 31 -229 84l-97 -100zM706 396c0 74 -19 136 -57 186l-454 -469c47 -47 113 -74 194 -74
c189 0 317 160 317 357zM120 321c-1 -69 15 -128 48 -177l453 469c-45 40 -104 64 -180 64c-194 0 -321 -164 -321 -356z" />
    <glyph glyph-name="Ugrave" unicode="&#xd9;" horiz-adv-x="686" 
d="M320 -7c-181 0 -266 99 -238 280l71 442h55l-70 -442c-24 -155 38 -233 185 -233c128 0 196 63 219 210l74 465h56l-75 -472c-25 -159 -109 -250 -277 -250zM327 893h65l49 -122h-41z" />
    <glyph glyph-name="Uacute" unicode="&#xda;" horiz-adv-x="686" 
d="M320 -7c-181 0 -266 99 -238 280l71 442h55l-70 -442c-24 -155 38 -233 185 -233c128 0 196 63 219 210l74 465h56l-75 -472c-25 -159 -109 -250 -277 -250zM459 893h68l-97 -122h-45z" />
    <glyph glyph-name="Ucircumflex" unicode="&#xdb;" horiz-adv-x="686" 
d="M320 -7c-181 0 -266 99 -238 280l71 442h55l-70 -442c-24 -155 38 -233 185 -233c128 0 196 63 219 210l74 465h56l-75 -472c-25 -159 -109 -250 -277 -250zM404 893h50l93 -122h-40l-82 78l-103 -78h-43z" />
    <glyph glyph-name="Udieresis" unicode="&#xdc;" horiz-adv-x="686" 
d="M320 -7c-181 0 -266 99 -238 280l71 442h55l-70 -442c-24 -155 38 -233 185 -233c128 0 196 63 219 210l74 465h56l-75 -472c-25 -159 -109 -250 -277 -250zM332 788c-21 0 -37 16 -37 36s17 37 37 37c21 0 36 -16 36 -36s-16 -37 -36 -37zM512 788c-20 0 -36 16 -36 36
s16 37 37 37c20 0 36 -16 36 -36s-17 -37 -37 -37z" />
    <glyph glyph-name="Yacute" unicode="&#xdd;" horiz-adv-x="579" 
d="M272 318l-184 397h59l161 -351l255 351h58l-294 -401l-49 -314h-56zM404 893h68l-97 -122h-45z" />
    <glyph glyph-name="Thorn" unicode="&#xde;" horiz-adv-x="572" 
d="M196 571h127c131 0 221 -59 221 -178c0 -161 -118 -221 -260 -221h-151l-27 -172h-56l113 715h56zM189 525l-49 -308h147c127 0 201 52 201 176c1 93 -62 132 -170 132h-129z" />
    <glyph glyph-name="germandbls" unicode="&#xdf;" horiz-adv-x="573" 
d="M295 -7c-48 0 -83 9 -110 24l7 44c29 -15 60 -24 101 -24c106 0 172 77 172 192c0 108 -75 184 -187 187l8 45c100 3 183 49 183 153c0 77 -53 117 -126 118c-88 0 -143 -59 -158 -152l-92 -580h-53l92 583c19 120 103 192 212 192c93 0 176 -56 176 -161
c0 -92 -68 -157 -156 -176c88 -24 156 -103 156 -211c0 -144 -89 -234 -225 -234z" />
    <glyph glyph-name="agrave" unicode="&#xe0;" horiz-adv-x="531" 
d="M201 -8c-113 0 -171 61 -171 145c0 125 111 163 238 163h135l6 42c15 95 -18 144 -121 144c-76 0 -130 -31 -151 -111h-53c27 116 120 156 206 156c125 0 192 -64 172 -193l-30 -188c-11 -71 -14 -113 -11 -150h-51c-1 25 0 59 3 86c-33 -55 -95 -94 -172 -94zM207 35
c88 0 162 51 175 138l14 86h-127c-110 0 -186 -24 -186 -122c0 -57 37 -102 124 -102zM212 752h64l50 -147h-41z" />
    <glyph glyph-name="aacute" unicode="&#xe1;" horiz-adv-x="531" 
d="M201 -8c-113 0 -171 61 -171 145c0 125 111 163 238 163h135l6 42c15 95 -18 144 -121 144c-76 0 -130 -31 -151 -111h-53c27 116 120 156 206 156c125 0 192 -64 172 -193l-30 -188c-11 -71 -14 -113 -11 -150h-51c-1 25 0 59 3 86c-33 -55 -95 -94 -172 -94zM207 35
c88 0 162 51 175 138l14 86h-127c-110 0 -186 -24 -186 -122c0 -57 37 -102 124 -102zM363 752h68l-112 -147h-44z" />
    <glyph glyph-name="acircumflex" unicode="&#xe2;" horiz-adv-x="531" 
d="M201 -8c-113 0 -171 61 -171 145c0 125 111 163 238 163h135l6 42c15 95 -18 144 -121 144c-76 0 -130 -31 -151 -111h-53c27 116 120 156 206 156c125 0 192 -64 172 -193l-30 -188c-11 -71 -14 -113 -11 -150h-51c-1 25 0 59 3 86c-33 -55 -95 -94 -172 -94zM207 35
c88 0 162 51 175 138l14 86h-127c-110 0 -186 -24 -186 -122c0 -57 37 -102 124 -102zM294 740h49l91 -135h-40l-81 91l-104 -91h-43z" />
    <glyph glyph-name="atilde" unicode="&#xe3;" horiz-adv-x="531" 
d="M201 -8c-113 0 -171 61 -171 145c0 125 111 163 238 163h135l6 42c15 95 -18 144 -121 144c-76 0 -130 -31 -151 -111h-53c27 116 120 156 206 156c125 0 192 -64 172 -193l-30 -188c-11 -71 -14 -113 -11 -150h-51c-1 25 0 59 3 86c-33 -55 -95 -94 -172 -94zM207 35
c88 0 162 51 175 138l14 86h-127c-110 0 -186 -24 -186 -122c0 -57 37 -102 124 -102zM373 616c-48 0 -87 53 -122 53c-23 0 -44 -18 -52 -53h-40c12 64 48 99 93 99c48 0 85 -53 122 -53c21 0 43 18 51 53h40c-13 -64 -48 -99 -92 -99z" />
    <glyph glyph-name="adieresis" unicode="&#xe4;" horiz-adv-x="531" 
d="M201 -8c-113 0 -171 61 -171 145c0 125 111 163 238 163h135l6 42c15 95 -18 144 -121 144c-76 0 -130 -31 -151 -111h-53c27 116 120 156 206 156c125 0 192 -64 172 -193l-30 -188c-11 -71 -14 -113 -11 -150h-51c-1 25 0 59 3 86c-33 -55 -95 -94 -172 -94zM207 35
c88 0 162 51 175 138l14 86h-127c-110 0 -186 -24 -186 -122c0 -57 37 -102 124 -102zM227 636c-20 0 -36 16 -36 36s17 37 37 37s36 -16 36 -36s-16 -37 -37 -37zM394 636c-20 0 -36 16 -36 36s16 37 37 37c20 0 36 -16 36 -36s-17 -37 -37 -37z" />
    <glyph glyph-name="aring" unicode="&#xe5;" horiz-adv-x="531" 
d="M201 -8c-113 0 -171 61 -171 145c0 125 111 163 238 163h135l6 42c15 95 -18 144 -121 144c-76 0 -130 -31 -151 -111h-53c27 116 120 156 206 156c125 0 192 -64 172 -193l-30 -188c-11 -71 -14 -113 -11 -150h-51c-1 25 0 59 3 86c-33 -55 -95 -94 -172 -94zM207 35
c88 0 162 51 175 138l14 86h-127c-110 0 -186 -24 -186 -122c0 -57 37 -102 124 -102zM318 633c36 0 62 26 62 65c0 36 -23 62 -59 62c-35 0 -63 -27 -63 -66c0 -35 24 -61 60 -61zM318 601c-55 0 -97 42 -97 93c0 54 46 98 100 98c55 0 96 -42 96 -94
c0 -55 -43 -97 -99 -97z" />
    <glyph glyph-name="ae" unicode="&#xe6;" horiz-adv-x="892" 
d="M449 215c0 -113 50 -178 163 -178c83 0 139 36 166 109h52c-35 -104 -113 -154 -220 -154c-111 0 -177 52 -202 140c-35 -96 -117 -140 -206 -140c-115 0 -172 57 -172 141c0 126 112 166 240 166h133l7 43c15 95 -19 144 -122 144c-76 0 -130 -31 -151 -111h-53
c27 116 120 156 206 156c93 0 151 -36 167 -108c45 67 113 108 200 108c147 0 217 -99 193 -258l-3 -15h-396c-3 -15 -2 -28 -2 -43zM206 35c90 0 164 50 180 153l11 70h-128c-109 0 -186 -26 -186 -123c0 -57 38 -100 123 -100zM654 486c-101 0 -174 -70 -197 -187h343
c13 116 -30 187 -146 187z" />
    <glyph glyph-name="ccedilla" unicode="&#xe7;" horiz-adv-x="551" 
d="M208 -212c-51 0 -90 25 -95 78h44c3 -25 20 -42 51 -42c24 0 50 12 50 47c0 25 -19 36 -42 36c-16 0 -26 -5 -33 -9l-20 22l54 78c-113 23 -177 111 -177 232c0 180 120 301 270 301c112 0 196 -62 204 -177h-51c-7 89 -67 132 -155 132c-127 0 -213 -104 -213 -256
c0 -121 67 -193 182 -193c88 0 158 50 178 142h51c-25 -123 -117 -187 -230 -187h-22l-36 -51c44 8 88 -16 88 -68c0 -56 -39 -85 -98 -85z" />
    <glyph glyph-name="egrave" unicode="&#xe8;" horiz-adv-x="546" 
d="M93 215c0 -113 55 -178 168 -178c84 0 142 37 169 109h53c-33 -104 -119 -154 -224 -154c-143 0 -221 89 -221 225c0 174 108 314 267 314c148 0 222 -99 198 -258l-2 -16h-406c-3 -15 -2 -27 -2 -42zM303 486c-103 0 -178 -69 -202 -186h353c13 116 -35 186 -151 186z
M222 752h64l50 -147h-41z" />
    <glyph glyph-name="eacute" unicode="&#xe9;" horiz-adv-x="546" 
d="M93 215c0 -113 55 -178 168 -178c84 0 142 37 169 109h53c-33 -104 -119 -154 -224 -154c-143 0 -221 89 -221 225c0 174 108 314 267 314c148 0 222 -99 198 -258l-2 -16h-406c-3 -15 -2 -27 -2 -42zM303 486c-103 0 -178 -69 -202 -186h353c13 116 -35 186 -151 186z
M373 752h68l-112 -147h-44z" />
    <glyph glyph-name="ecircumflex" unicode="&#xea;" horiz-adv-x="546" 
d="M93 215c0 -113 55 -178 168 -178c84 0 142 37 169 109h53c-33 -104 -119 -154 -224 -154c-143 0 -221 89 -221 225c0 174 108 314 267 314c148 0 222 -99 198 -258l-2 -16h-406c-3 -15 -2 -27 -2 -42zM303 486c-103 0 -178 -69 -202 -186h353c13 116 -35 186 -151 186z
M304 740h49l91 -135h-40l-81 91l-104 -91h-43z" />
    <glyph glyph-name="edieresis" unicode="&#xeb;" horiz-adv-x="546" 
d="M93 215c0 -113 55 -178 168 -178c84 0 142 37 169 109h53c-33 -104 -119 -154 -224 -154c-143 0 -221 89 -221 225c0 174 108 314 267 314c148 0 222 -99 198 -258l-2 -16h-406c-3 -15 -2 -27 -2 -42zM303 486c-103 0 -178 -69 -202 -186h353c13 116 -35 186 -151 186z
M240 636c-20 0 -36 16 -36 36s17 37 37 37s36 -16 36 -36s-16 -37 -37 -37zM407 636c-20 0 -36 16 -36 36s16 37 37 37c20 0 36 -16 36 -36s-17 -37 -37 -37z" />
    <glyph glyph-name="igrave" unicode="&#xec;" horiz-adv-x="225" 
d="M125 523h53l-83 -523h-53zM71 752h64l50 -147h-41z" />
    <glyph glyph-name="iacute" unicode="&#xed;" horiz-adv-x="225" 
d="M125 523h53l-83 -523h-53zM224 752h68l-112 -147h-44z" />
    <glyph glyph-name="icircumflex" unicode="&#xee;" horiz-adv-x="225" 
d="M125 523h53l-83 -523h-53zM153 740h49l91 -135h-40l-81 91l-104 -91h-43z" />
    <glyph glyph-name="idieresis" unicode="&#xef;" horiz-adv-x="225" 
d="M101 636c-20 0 -37 16 -37 36s17 37 37 37c21 0 36 -16 36 -36s-16 -37 -36 -37zM249 636c-21 0 -37 16 -37 36s17 37 37 37s36 -16 36 -36s-16 -37 -36 -37zM125 523h53l-83 -523h-53z" />
    <glyph glyph-name="eth" unicode="&#xf0;" horiz-adv-x="586" 
d="M179 615l133 71c-35 31 -72 59 -115 87h70c29 -17 58 -38 88 -64l110 58l17 -31l-100 -52c87 -84 159 -212 159 -369c0 -181 -104 -323 -276 -323c-135 0 -227 99 -227 236c0 155 104 303 267 303c87 0 139 -42 172 -99c-29 92 -75 164 -139 228l-142 -75zM92 226
c0 -100 58 -189 174 -189c137 0 220 117 220 259c0 108 -62 190 -176 190c-139 0 -218 -121 -218 -260z" />
    <glyph glyph-name="ntilde" unicode="&#xf1;" horiz-adv-x="581" 
d="M100 377c11 71 13 109 14 146h50c0 -28 -2 -70 -9 -113c35 67 103 121 195 121c112 0 181 -67 157 -219l-50 -312h-53l51 322c19 111 -27 163 -115 163c-93 0 -179 -63 -198 -175l-49 -310h-53zM399 616c-48 0 -87 53 -122 53c-23 0 -44 -18 -52 -53h-40
c12 64 48 99 93 99c48 0 85 -53 122 -53c21 0 43 18 51 53h40c-13 -64 -48 -99 -92 -99z" />
    <glyph glyph-name="ograve" unicode="&#xf2;" horiz-adv-x="583" 
d="M267 -8c-140 0 -229 103 -229 235c0 165 111 303 274 303c144 0 229 -102 229 -233c0 -172 -109 -305 -274 -305zM269 37c135 0 217 112 217 259c0 108 -62 190 -176 190c-135 0 -218 -116 -218 -259c0 -108 65 -190 177 -190zM237 752h64l50 -147h-41z" />
    <glyph glyph-name="oacute" unicode="&#xf3;" horiz-adv-x="583" 
d="M267 -8c-140 0 -229 103 -229 235c0 165 111 303 274 303c144 0 229 -102 229 -233c0 -172 -109 -305 -274 -305zM269 37c135 0 217 112 217 259c0 108 -62 190 -176 190c-135 0 -218 -116 -218 -259c0 -108 65 -190 177 -190zM389 752h68l-112 -147h-44z" />
    <glyph glyph-name="ocircumflex" unicode="&#xf4;" horiz-adv-x="583" 
d="M267 -8c-140 0 -229 103 -229 235c0 165 111 303 274 303c144 0 229 -102 229 -233c0 -172 -109 -305 -274 -305zM269 37c135 0 217 112 217 259c0 108 -62 190 -176 190c-135 0 -218 -116 -218 -259c0 -108 65 -190 177 -190zM318 740h49l91 -135h-40l-81 91l-104 -91
h-43z" />
    <glyph glyph-name="otilde" unicode="&#xf5;" horiz-adv-x="583" 
d="M267 -8c-140 0 -229 103 -229 235c0 165 111 303 274 303c144 0 229 -102 229 -233c0 -172 -109 -305 -274 -305zM269 37c135 0 217 112 217 259c0 108 -62 190 -176 190c-135 0 -218 -116 -218 -259c0 -108 65 -190 177 -190zM393 616c-48 0 -87 53 -122 53
c-23 0 -44 -18 -52 -53h-40c12 64 48 99 93 99c48 0 85 -53 122 -53c21 0 43 18 51 53h40c-13 -64 -48 -99 -92 -99z" />
    <glyph glyph-name="odieresis" unicode="&#xf6;" horiz-adv-x="583" 
d="M267 -8c-140 0 -229 103 -229 235c0 165 111 303 274 303c144 0 229 -102 229 -233c0 -172 -109 -305 -274 -305zM269 37c135 0 217 112 217 259c0 108 -62 190 -176 190c-135 0 -218 -116 -218 -259c0 -108 65 -190 177 -190zM249 636c-20 0 -36 16 -36 36s17 37 37 37
s36 -16 36 -36s-16 -37 -37 -37zM416 636c-20 0 -36 16 -36 36s16 37 37 37c20 0 36 -16 36 -36s-17 -37 -37 -37z" />
    <glyph glyph-name="divide" unicode="&#xf7;" horiz-adv-x="514" 
d="M52 365h437l-7 -46h-438zM243 122c-23 0 -42 19 -42 43c0 23 19 42 42 42c24 0 43 -19 43 -42c0 -24 -19 -43 -43 -43zM290 477c-23 0 -42 19 -42 43c0 23 19 42 42 42c24 0 43 -19 43 -42c0 -24 -19 -43 -43 -43z" />
    <glyph glyph-name="oslash" unicode="&#xf8;" horiz-adv-x="583" 
d="M15 1l72 75c-31 41 -49 92 -49 151c0 165 111 303 274 303c64 0 115 -20 154 -55l66 70l29 -26l-69 -72c33 -42 49 -92 49 -150c0 -172 -109 -305 -274 -305c-64 0 -115 21 -154 56l-70 -73zM269 37c135 0 217 112 217 259c0 43 -10 81 -29 114l-312 -328
c29 -28 71 -45 124 -45zM92 227c0 -44 9 -83 29 -115l312 328c-29 29 -70 46 -123 46c-135 0 -218 -116 -218 -259z" />
    <glyph glyph-name="ugrave" unicode="&#xf9;" horiz-adv-x="577" 
d="M471 146c-11 -67 -13 -111 -12 -146h-51c-1 31 1 73 8 112c-37 -66 -102 -120 -194 -120c-111 0 -179 71 -155 219l50 312h53l-51 -322c-17 -108 25 -163 113 -163c92 0 177 63 196 175l49 310h53zM242 752h64l50 -147h-41z" />
    <glyph glyph-name="uacute" unicode="&#xfa;" horiz-adv-x="577" 
d="M471 146c-11 -67 -13 -111 -12 -146h-51c-1 31 1 73 8 112c-37 -66 -102 -120 -194 -120c-111 0 -179 71 -155 219l50 312h53l-51 -322c-17 -108 25 -163 113 -163c92 0 177 63 196 175l49 310h53zM388 752h68l-112 -147h-44z" />
    <glyph glyph-name="ucircumflex" unicode="&#xfb;" horiz-adv-x="577" 
d="M471 146c-11 -67 -13 -111 -12 -146h-51c-1 31 1 73 8 112c-37 -66 -102 -120 -194 -120c-111 0 -179 71 -155 219l50 312h53l-51 -322c-17 -108 25 -163 113 -163c92 0 177 63 196 175l49 310h53zM321 740h49l91 -135h-40l-81 91l-104 -91h-43z" />
    <glyph glyph-name="udieresis" unicode="&#xfc;" horiz-adv-x="577" 
d="M471 146c-11 -67 -13 -111 -12 -146h-51c-1 31 1 73 8 112c-37 -66 -102 -120 -194 -120c-111 0 -179 71 -155 219l50 312h53l-51 -322c-17 -108 25 -163 113 -163c92 0 177 63 196 175l49 310h53zM255 636c-20 0 -36 16 -36 36s17 37 37 37s36 -16 36 -36
s-16 -37 -37 -37zM422 636c-20 0 -36 16 -36 36s16 37 37 37c20 0 36 -16 36 -36s-17 -37 -37 -37z" />
    <glyph glyph-name="yacute" unicode="&#xfd;" horiz-adv-x="498" 
d="M191 48l-128 475h54l110 -417l228 417h57l-396 -705h-56zM356 752h68l-112 -147h-44z" />
    <glyph glyph-name="thorn" unicode="&#xfe;" horiz-adv-x="614" 
d="M162 773h53l-57 -366c36 69 109 124 201 124c119 0 210 -92 210 -233c0 -167 -91 -306 -258 -306c-120 0 -177 78 -196 142l-51 -316h-53zM309 36c133 0 204 114 204 259c0 121 -69 192 -162 192c-132 0 -221 -117 -221 -258c0 -120 72 -193 179 -193z" />
    <glyph glyph-name="ydieresis" unicode="&#xff;" horiz-adv-x="498" 
d="M191 48l-128 475h54l110 -417l228 417h57l-396 -705h-56zM225 636c-20 0 -36 16 -36 36s17 37 37 37s36 -16 36 -36s-16 -37 -37 -37zM392 636c-20 0 -36 16 -36 36s16 37 37 37c20 0 36 -16 36 -36s-17 -37 -37 -37z" />
    <glyph glyph-name="Amacron" unicode="&#x100;" horiz-adv-x="645" 
d="M473 219h-322l-112 -219h-54l368 715h74l145 -715h-54zM174 264h290l-82 406zM281 833h248l-7 -42h-248z" />
    <glyph glyph-name="amacron" unicode="&#x101;" horiz-adv-x="531" 
d="M201 -8c-113 0 -171 61 -171 145c0 125 111 163 238 163h135l6 42c15 95 -18 144 -121 144c-76 0 -130 -31 -151 -111h-53c27 116 120 156 206 156c125 0 192 -64 172 -193l-30 -188c-11 -71 -14 -113 -11 -150h-51c-1 25 0 59 3 86c-33 -55 -95 -94 -172 -94zM207 35
c88 0 162 51 175 138l14 86h-127c-110 0 -186 -24 -186 -122c0 -57 37 -102 124 -102zM198 689h243l-7 -42h-242z" />
    <glyph glyph-name="Abreve" unicode="&#x102;" horiz-adv-x="645" 
d="M473 219h-322l-112 -219h-54l368 715h74l145 -715h-54zM174 264h290l-82 406zM397 771c-72 0 -121 50 -121 122h44c3 -48 30 -78 77 -78c48 0 82 30 91 78h43c-8 -72 -67 -122 -134 -122z" />
    <glyph glyph-name="abreve" unicode="&#x103;" horiz-adv-x="531" 
d="M201 -8c-113 0 -171 61 -171 145c0 125 111 163 238 163h135l6 42c15 95 -18 144 -121 144c-76 0 -130 -31 -151 -111h-53c27 116 120 156 206 156c125 0 192 -64 172 -193l-30 -188c-11 -71 -14 -113 -11 -150h-51c-1 25 0 59 3 86c-33 -55 -95 -94 -172 -94zM207 35
c88 0 162 51 175 138l14 86h-127c-110 0 -186 -24 -186 -122c0 -57 37 -102 124 -102zM309 616c-71 0 -117 49 -117 121h44c3 -48 26 -77 73 -77s77 28 88 77h42c-8 -73 -65 -121 -130 -121z" />
    <glyph glyph-name="Aogonek" unicode="&#x104;" horiz-adv-x="645" 
d="M426 -107c0 51 53 87 92 108l-44 218h-323l-112 -219h-54l368 715h74l145 -715c-34 -21 -94 -52 -94 -102c0 -24 14 -40 47 -40c15 0 31 3 47 8l-6 -39c-13 -4 -28 -9 -51 -9c-55 0 -89 26 -89 75zM174 264h291l-83 406z" />
    <glyph glyph-name="aogonek" unicode="&#x105;" horiz-adv-x="531" 
d="M366 -182c-55 0 -89 26 -89 75c0 52 57 88 93 109c-1 27 0 57 3 84c-33 -55 -95 -94 -172 -94c-113 0 -171 61 -171 145c0 125 111 163 238 163h135l6 42c15 95 -18 144 -121 144c-76 0 -130 -31 -151 -111h-53c27 116 120 156 206 156c125 0 192 -64 172 -193l-30 -188
c-11 -71 -14 -113 -11 -150c-32 -22 -92 -52 -92 -102c0 -24 13 -40 48 -40c15 0 30 3 46 8l-6 -39c-13 -4 -28 -9 -51 -9zM207 35c88 0 162 51 175 138l14 86h-127c-110 0 -186 -24 -186 -122c0 -57 37 -102 124 -102z" />
    <glyph glyph-name="Cacute" unicode="&#x106;" horiz-adv-x="729" 
d="M377 -8c-194 0 -315 122 -315 317c0 227 150 415 378 415c136 0 252 -78 265 -224h-52c-20 116 -96 179 -215 179c-200 0 -318 -167 -318 -370c0 -171 90 -271 257 -271c125 0 217 71 256 192h53c-40 -150 -162 -238 -309 -238zM494 893h68l-97 -122h-45z" />
    <glyph glyph-name="cacute" unicode="&#x107;" horiz-adv-x="551" 
d="M276 -8c-149 0 -236 98 -236 238c0 180 120 301 270 301c112 0 196 -62 204 -177h-51c-7 89 -67 132 -155 132c-127 0 -213 -104 -213 -256c0 -121 67 -193 182 -193c88 0 158 50 178 142h51c-25 -123 -117 -187 -230 -187zM379 752h68l-112 -147h-44z" />
    <glyph glyph-name="Ccircumflex" unicode="&#x108;" horiz-adv-x="729" 
d="M377 -8c-194 0 -315 122 -315 317c0 227 150 415 378 415c136 0 252 -78 265 -224h-52c-20 116 -96 179 -215 179c-200 0 -318 -167 -318 -370c0 -171 90 -271 257 -271c125 0 217 71 256 192h53c-40 -150 -162 -238 -309 -238zM436 893h50l93 -122h-40l-82 78l-103 -78
h-43z" />
    <glyph glyph-name="ccircumflex" unicode="&#x109;" horiz-adv-x="551" 
d="M276 -8c-149 0 -236 98 -236 238c0 180 120 301 270 301c112 0 196 -62 204 -177h-51c-7 89 -67 132 -155 132c-127 0 -213 -104 -213 -256c0 -121 67 -193 182 -193c88 0 158 50 178 142h51c-25 -123 -117 -187 -230 -187zM307 740h49l91 -135h-40l-81 91l-104 -91h-43z
" />
    <glyph glyph-name="Cdotaccent" unicode="&#x10a;" horiz-adv-x="729" 
d="M377 -8c-194 0 -315 122 -315 317c0 227 150 415 378 415c136 0 252 -78 265 -224h-52c-20 116 -96 179 -215 179c-200 0 -318 -167 -318 -370c0 -171 90 -271 257 -271c125 0 217 71 256 192h53c-40 -150 -162 -238 -309 -238zM446 787c-21 0 -38 17 -38 37s17 38 38 38
s37 -17 37 -37s-16 -38 -37 -38z" />
    <glyph glyph-name="cdotaccent" unicode="&#x10b;" horiz-adv-x="551" 
d="M276 -8c-149 0 -236 98 -236 238c0 180 120 301 270 301c112 0 196 -62 204 -177h-51c-7 89 -67 132 -155 132c-127 0 -213 -104 -213 -256c0 -121 67 -193 182 -193c88 0 158 50 178 142h51c-25 -123 -117 -187 -230 -187zM329 635c-21 0 -38 17 -38 37
c0 21 17 38 38 38s37 -16 37 -37c0 -20 -16 -38 -37 -38z" />
    <glyph glyph-name="Ccaron" unicode="&#x10c;" horiz-adv-x="729" 
d="M377 -8c-194 0 -315 122 -315 317c0 227 150 415 378 415c136 0 252 -78 265 -224h-52c-20 116 -96 179 -215 179c-200 0 -318 -167 -318 -370c0 -171 90 -271 257 -271c125 0 217 71 256 192h53c-40 -150 -162 -238 -309 -238zM468 771h-49l-94 122h40l82 -78l104 78h43
z" />
    <glyph glyph-name="ccaron" unicode="&#x10d;" horiz-adv-x="551" 
d="M276 -8c-149 0 -236 98 -236 238c0 180 120 301 270 301c112 0 196 -62 204 -177h-51c-7 89 -67 132 -155 132c-127 0 -213 -104 -213 -256c0 -121 67 -193 182 -193c88 0 158 50 178 142h51c-25 -123 -117 -187 -230 -187zM341 613h-50l-90 135h40l80 -91l105 91h43z
" />
    <glyph glyph-name="Dcaron" unicode="&#x10e;" horiz-adv-x="692" 
d="M163 715h173c223 0 324 -131 324 -305c0 -243 -153 -410 -409 -410h-201zM249 46c220 0 354 136 354 364c0 146 -80 259 -269 259h-122l-99 -623h136zM402 771h-49l-94 122h40l82 -78l104 78h43z" />
    <glyph glyph-name="dcaron" unicode="&#x10f;" horiz-adv-x="610" 
d="M256 -8c-124 0 -217 89 -217 231c0 165 102 308 266 308c115 0 172 -77 188 -141l61 383h53l-96 -609c-13 -81 -15 -127 -15 -164h-51c0 32 4 82 9 117c-37 -72 -106 -125 -198 -125zM261 37c131 0 217 110 217 258c0 119 -70 191 -171 191c-133 0 -213 -115 -213 -260
c0 -120 70 -189 167 -189zM674 773h58l-56 -162h-40z" />
    <glyph glyph-name="Dcroat" unicode="&#x110;" horiz-adv-x="703" 
d="M46 381h75l53 334h173c223 0 324 -131 324 -305c0 -243 -152 -410 -410 -410h-200l53 337h-75zM260 46c220 0 354 136 354 364c0 147 -80 259 -269 259h-122l-46 -288h208l-7 -44h-208l-46 -291h136z" />
    <glyph glyph-name="dcroat" unicode="&#x111;" horiz-adv-x="610" 
d="M350 664h186l18 109h53l-17 -109h78l-7 -41h-78l-72 -459c-13 -81 -15 -127 -15 -164h-51c0 32 4 82 9 117c-37 -72 -106 -125 -198 -125c-124 0 -217 89 -217 231c0 165 102 308 266 308c115 0 172 -77 188 -141l37 233h-187zM307 486c-133 0 -213 -115 -213 -260
c0 -123 67 -189 167 -189c131 0 217 110 217 260c0 120 -68 189 -171 189z" />
    <glyph glyph-name="Emacron" unicode="&#x112;" horiz-adv-x="573" 
d="M163 715h406l-8 -46h-350l-44 -279h288l-7 -46h-288l-47 -298h374l-8 -46h-429zM255 833h248l-7 -42h-248z" />
    <glyph glyph-name="emacron" unicode="&#x113;" horiz-adv-x="546" 
d="M93 215c0 -113 55 -178 168 -178c84 0 142 37 169 109h53c-33 -104 -119 -154 -224 -154c-143 0 -221 89 -221 225c0 174 108 314 267 314c148 0 222 -99 198 -258l-2 -16h-406c-3 -15 -2 -27 -2 -42zM303 486c-103 0 -178 -69 -202 -186h353c13 116 -35 186 -151 186z
M207 689h243l-7 -42h-242z" />
    <glyph glyph-name="Ebreve" unicode="&#x114;" horiz-adv-x="573" 
d="M163 715h406l-8 -46h-350l-44 -279h288l-7 -46h-288l-47 -298h374l-8 -46h-429zM372 771c-72 0 -121 50 -121 122h44c3 -48 30 -78 77 -78c48 0 82 30 91 78h43c-8 -72 -67 -122 -134 -122z" />
    <glyph glyph-name="ebreve" unicode="&#x115;" horiz-adv-x="546" 
d="M93 215c0 -113 55 -178 168 -178c84 0 142 37 169 109h53c-33 -104 -119 -154 -224 -154c-143 0 -221 89 -221 225c0 174 108 314 267 314c148 0 222 -99 198 -258l-2 -16h-406c-3 -15 -2 -27 -2 -42zM303 486c-103 0 -178 -69 -202 -186h353c13 116 -35 186 -151 186z
M319 616c-71 0 -117 49 -117 121h44c3 -48 26 -77 73 -77s77 28 88 77h42c-8 -73 -65 -121 -130 -121z" />
    <glyph glyph-name="Edotaccent" unicode="&#x116;" horiz-adv-x="573" 
d="M163 715h406l-8 -46h-350l-44 -279h288l-7 -46h-288l-47 -298h374l-8 -46h-429zM373 787c-21 0 -38 17 -38 37s17 38 38 38s37 -17 37 -37s-16 -38 -37 -38z" />
    <glyph glyph-name="edotaccent" unicode="&#x117;" horiz-adv-x="546" 
d="M93 215c0 -113 55 -178 168 -178c84 0 142 37 169 109h53c-33 -104 -119 -154 -224 -154c-143 0 -221 89 -221 225c0 174 108 314 267 314c148 0 222 -99 198 -258l-2 -16h-406c-3 -15 -2 -27 -2 -42zM303 486c-103 0 -178 -69 -202 -186h353c13 116 -35 186 -151 186z
M325 635c-21 0 -38 17 -38 37c0 21 17 38 38 38s37 -16 37 -37c0 -20 -16 -38 -37 -38z" />
    <glyph glyph-name="Eogonek" unicode="&#x118;" horiz-adv-x="573" 
d="M163 715h406l-8 -46h-350l-44 -279h288l-7 -46h-288l-47 -298h373l-7 -46h-45c-37 -21 -95 -53 -95 -103c0 -23 13 -39 48 -39c15 0 30 3 46 8l-6 -39c-13 -4 -28 -9 -51 -9c-55 0 -89 25 -89 72c0 54 53 89 88 110h-325z" />
    <glyph glyph-name="eogonek" unicode="&#x119;" horiz-adv-x="546" 
d="M305 -182c-53 0 -89 26 -88 75c0 48 49 80 84 102c-15 -3 -27 -3 -42 -3c-143 0 -221 89 -221 225c0 174 108 314 267 314c148 0 222 -99 198 -258l-2 -16h-406c-3 -15 -2 -27 -2 -42c0 -113 55 -178 168 -178c84 0 142 37 169 109h53c-15 -43 -34 -74 -66 -101
c-60 -52 -148 -88 -148 -147c0 -24 14 -40 47 -40c16 0 31 3 47 8l-6 -39c-13 -4 -29 -9 -52 -9zM303 486c-103 0 -178 -70 -202 -186h353c13 116 -35 186 -151 186z" />
    <glyph glyph-name="Ecaron" unicode="&#x11a;" horiz-adv-x="573" 
d="M163 715h406l-8 -46h-350l-44 -279h288l-7 -46h-288l-47 -298h374l-8 -46h-429zM389 771h-49l-94 122h40l82 -78l104 78h43z" />
    <glyph glyph-name="ecaron" unicode="&#x11b;" horiz-adv-x="546" 
d="M93 215c0 -113 55 -178 168 -178c84 0 142 37 169 109h53c-33 -104 -119 -154 -224 -154c-143 0 -221 89 -221 225c0 174 108 314 267 314c148 0 222 -99 198 -258l-2 -16h-406c-3 -15 -2 -27 -2 -42zM303 486c-103 0 -178 -69 -202 -186h353c13 116 -35 186 -151 186z
M338 613h-50l-90 135h40l80 -91l105 91h43z" />
    <glyph glyph-name="Gcircumflex" unicode="&#x11c;" horiz-adv-x="762" 
d="M389 -8c-208 0 -325 139 -325 323c0 223 154 408 373 408c140 0 259 -68 275 -212h-55c-13 113 -106 167 -221 167c-192 0 -315 -162 -315 -363c0 -161 94 -277 269 -277c156 0 247 95 270 264h-225l8 47h277c-21 -251 -145 -357 -331 -357zM434 893h50l93 -122h-40
l-82 78l-103 -78h-43z" />
    <glyph glyph-name="gcircumflex" unicode="&#x11d;" horiz-adv-x="614" 
d="M264 62c124 0 218 108 218 251c0 104 -65 173 -172 173c-128 0 -211 -110 -211 -244c0 -104 57 -180 165 -180zM491 21c-23 -141 -114 -209 -251 -209c-141 0 -216 67 -227 158h53c12 -71 71 -113 172 -113c115 0 182 56 200 168l18 110c-37 -63 -101 -117 -197 -117
c-129 0 -215 90 -215 222c0 159 108 291 264 291c106 0 169 -60 190 -132l19 124h53zM326 740h49l91 -135h-40l-81 91l-104 -91h-43z" />
    <glyph glyph-name="Gbreve" unicode="&#x11e;" horiz-adv-x="762" 
d="M389 -8c-208 0 -325 139 -325 323c0 223 154 408 373 408c140 0 259 -68 275 -212h-55c-13 113 -106 167 -221 167c-192 0 -315 -162 -315 -363c0 -161 94 -277 269 -277c156 0 247 95 270 264h-225l8 47h277c-21 -251 -145 -357 -331 -357zM445 771
c-72 0 -121 50 -121 122h44c3 -48 30 -78 77 -78c48 0 82 30 91 78h43c-8 -72 -67 -122 -134 -122z" />
    <glyph glyph-name="gbreve" unicode="&#x11f;" horiz-adv-x="614" 
d="M264 62c124 0 218 108 218 251c0 104 -65 173 -172 173c-128 0 -211 -110 -211 -244c0 -104 57 -180 165 -180zM491 21c-23 -141 -114 -209 -251 -209c-141 0 -216 67 -227 158h53c12 -71 71 -113 172 -113c115 0 182 56 200 168l18 110c-37 -63 -101 -117 -197 -117
c-129 0 -215 90 -215 222c0 159 108 291 264 291c106 0 169 -60 190 -132l19 124h53zM340 616c-71 0 -117 49 -117 121h44c3 -48 26 -77 73 -77s77 28 88 77h42c-8 -73 -65 -121 -130 -121z" />
    <glyph glyph-name="Gdotaccent" unicode="&#x120;" horiz-adv-x="762" 
d="M389 -8c-208 0 -325 139 -325 323c0 223 154 408 373 408c140 0 259 -68 275 -212h-55c-13 113 -106 167 -221 167c-192 0 -315 -162 -315 -363c0 -161 94 -277 269 -277c156 0 247 95 270 264h-225l8 47h277c-21 -251 -145 -357 -331 -357zM450 787c-21 0 -38 17 -38 37
s17 38 38 38s37 -17 37 -37s-16 -38 -37 -38z" />
    <glyph glyph-name="gdotaccent" unicode="&#x121;" horiz-adv-x="614" 
d="M264 62c124 0 218 108 218 251c0 104 -65 173 -172 173c-128 0 -211 -110 -211 -244c0 -104 57 -180 165 -180zM491 21c-23 -141 -114 -209 -251 -209c-141 0 -216 67 -227 158h53c12 -71 71 -113 172 -113c115 0 182 56 200 168l18 110c-37 -63 -101 -117 -197 -117
c-129 0 -215 90 -215 222c0 159 108 291 264 291c106 0 169 -60 190 -132l19 124h53zM349 635c-21 0 -38 17 -38 37c0 21 17 38 38 38s37 -16 37 -37c0 -20 -16 -38 -37 -38z" />
    <glyph glyph-name="uni0122" unicode="&#x122;" horiz-adv-x="758" 
d="M389 -8c-208 0 -325 139 -325 323c0 223 154 408 373 408c140 0 259 -68 275 -212h-55c-13 113 -106 167 -221 167c-192 0 -315 -162 -315 -363c0 -161 94 -277 269 -277c156 0 247 95 270 264h-225l8 47h277c-21 -251 -145 -357 -331 -357zM242 -187l69 146l51 -15
l-87 -148z" />
    <glyph glyph-name="uni0123" unicode="&#x123;" horiz-adv-x="610" 
d="M264 62c124 0 218 108 218 251c0 104 -65 173 -172 173c-128 0 -211 -110 -211 -244c0 -104 57 -180 165 -180zM491 21c-23 -141 -114 -209 -251 -209c-141 0 -216 67 -227 158h53c12 -71 71 -113 172 -113c115 0 182 56 200 168l18 110c-37 -63 -101 -117 -197 -117
c-129 0 -215 90 -215 222c0 159 108 291 264 291c106 0 169 -60 190 -132l19 124h53zM415 753l-70 -146l-51 15l88 148z" />
    <glyph glyph-name="Hcircumflex" unicode="&#x124;" horiz-adv-x="721" 
d="M163 715h56l-53 -333h421l53 333h56l-113 -715h-56l53 335h-421l-53 -335h-56zM423 893h50l93 -122h-40l-82 78l-103 -78h-43z" />
    <glyph glyph-name="hcircumflex" unicode="&#x125;" horiz-adv-x="581" 
d="M162 773h53l-56 -357c33 60 98 115 191 115c112 0 181 -67 157 -219l-50 -312h-53l51 322c19 111 -27 163 -115 163c-93 0 -179 -63 -198 -175l-49 -310h-53zM356 938h50l93 -122h-40l-82 78l-103 -78h-43z" />
    <glyph glyph-name="Hbar" unicode="&#x126;" horiz-adv-x="721" 
d="M58 554h79l26 161h56l-26 -161h421l26 161h56l-26 -161h80l-7 -44h-80l-80 -510h-56l53 335h-421l-53 -335h-56l80 510h-79zM587 382l20 128h-421l-20 -128h421z" />
    <glyph glyph-name="hbar" unicode="&#x127;" horiz-adv-x="581" 
d="M67 664h78l17 109h53l-17 -109h186l-7 -41h-186l-32 -207c33 60 98 115 191 115c112 0 181 -67 157 -219l-50 -312h-53l51 322c19 115 -27 163 -115 163c-93 0 -179 -63 -198 -175l-49 -310h-53l98 623h-78z" />
    <glyph glyph-name="Itilde" unicode="&#x128;" horiz-adv-x="255" 
d="M168 715h56l-113 -715h-56zM272 774c-48 0 -87 53 -122 53c-23 0 -44 -19 -52 -54h-40c12 65 48 99 93 99c48 0 85 -52 122 -52c21 0 43 18 51 53h40c-13 -64 -48 -99 -92 -99z" />
    <glyph glyph-name="itilde" unicode="&#x129;" horiz-adv-x="225" 
d="M125 523h53l-83 -523h-53zM231 616c-48 0 -87 53 -122 53c-23 0 -44 -18 -52 -53h-40c12 64 48 99 93 99c48 0 85 -53 122 -53c21 0 43 18 51 53h40c-13 -64 -48 -99 -92 -99z" />
    <glyph glyph-name="Imacron" unicode="&#x12a;" horiz-adv-x="255" 
d="M168 715h56l-113 -715h-56zM92 833h248l-7 -42h-248z" />
    <glyph glyph-name="imacron" unicode="&#x12b;" horiz-adv-x="225" 
d="M91 689h174l-7 -42h-174zM125 523h53l-83 -523h-53z" />
    <glyph glyph-name="Ibreve" unicode="&#x12c;" horiz-adv-x="255" 
d="M168 715h56l-113 -715h-56zM206 771c-72 0 -121 50 -121 122h44c3 -48 30 -78 77 -78c48 0 82 30 91 78h43c-8 -72 -67 -122 -134 -122z" />
    <glyph glyph-name="ibreve" unicode="&#x12d;" horiz-adv-x="225" 
d="M125 523h53l-83 -523h-53zM167 616c-71 0 -117 49 -117 121h44c3 -48 26 -77 73 -77s77 28 88 77h42c-8 -73 -65 -121 -130 -121z" />
    <glyph glyph-name="Iogonek" unicode="&#x12e;" horiz-adv-x="255" 
d="M61 -182c-53 0 -89 26 -88 75c0 51 47 86 82 107l113 715h56l-112 -712c-35 -24 -87 -59 -87 -105c0 -24 14 -40 47 -40c16 0 31 3 47 8l-7 -39c-12 -4 -28 -9 -51 -9z" />
    <glyph glyph-name="iogonek" unicode="&#x12f;" horiz-adv-x="225" 
d="M125 523h53l-82 -520c-34 -24 -84 -57 -84 -105c0 -24 14 -40 46 -40c16 0 31 3 47 8l-6 -39c-13 -4 -29 -9 -52 -9c-51 0 -87 26 -87 75c0 51 48 88 83 109zM173 635c-21 0 -37 17 -37 37c0 21 17 38 38 38c20 0 37 -16 37 -37c0 -20 -17 -38 -38 -38z" />
    <glyph glyph-name="Idotaccent" unicode="&#x130;" horiz-adv-x="255" 
d="M168 715h56l-113 -715h-56zM211 787c-21 0 -38 17 -38 37s17 38 38 38s37 -17 37 -37s-16 -38 -37 -38z" />
    <glyph glyph-name="dotlessi" unicode="&#x131;" horiz-adv-x="225" 
d="M125 523h53l-83 -523h-53z" />
    <glyph glyph-name="IJ" unicode="&#x132;" horiz-adv-x="620" 
d="M146 715h56l-113 -715h-56zM305 -7c-63 0 -95 15 -115 28l7 46c27 -15 59 -28 107 -28c76 0 122 38 137 133l85 543h56l-87 -548c-19 -125 -94 -174 -190 -174z" />
    <glyph glyph-name="ij" unicode="&#x133;" horiz-adv-x="225" 
d="M173 635c-21 0 -37 17 -37 37c0 21 17 38 38 38c20 0 37 -16 37 -37c0 -20 -17 -38 -38 -38zM125 523h53l-83 -523h-53zM164 -143c60 3 81 30 90 86l92 580h53l-92 -583c-15 -87 -57 -126 -150 -127zM394 635c-21 0 -37 17 -37 37c0 21 17 38 38 38c20 0 37 -16 37 -37
c0 -20 -17 -38 -38 -38z" />
    <glyph glyph-name="Jcircumflex" unicode="&#x134;" horiz-adv-x="405" 
d="M113 -7c-63 0 -95 15 -115 28l7 46c27 -15 59 -28 107 -28c76 0 122 38 137 133l85 543h56l-87 -548c-19 -125 -94 -174 -190 -174zM356 893h50l93 -122h-40l-82 78l-103 -78h-43z" />
    <glyph glyph-name="jcircumflex" unicode="&#x135;" horiz-adv-x="225" 
d="M-57 -143c60 3 81 30 90 86l92 580h53l-92 -583c-15 -87 -57 -126 -150 -127zM152 740h49l91 -135h-40l-81 91l-104 -91h-43z" />
    <glyph glyph-name="uni0136" unicode="&#x136;" horiz-adv-x="599" 
d="M469 0l-304 367l398 348h66l-399 -346l302 -369h-63zM163 715h56l-113 -715h-56zM182 -187l69 146l51 -15l-87 -148z" />
    <glyph glyph-name="uni0137" unicode="&#x137;" horiz-adv-x="484" 
d="M162 773h53l-77 -488l286 238h68l-292 -241l225 -282h-62l-226 283l-44 -283h-53zM123 -187l69 146l51 -15l-87 -148z" />
    <glyph glyph-name="Lacute" unicode="&#x139;" horiz-adv-x="534" 
d="M163 715h56l-106 -669h348l-8 -46h-403zM248 893h68l-97 -122h-45z" />
    <glyph glyph-name="lacute" unicode="&#x13a;" horiz-adv-x="226" 
d="M164 773h54l-122 -773h-54zM249 938h68l-97 -122h-45z" />
    <glyph glyph-name="uni013B" unicode="&#x13b;" horiz-adv-x="530" 
d="M163 715h56l-106 -669h348l-8 -46h-403zM151 -187l69 146l51 -15l-87 -148z" />
    <glyph glyph-name="uni013C" unicode="&#x13c;" horiz-adv-x="222" 
d="M164 773h54l-122 -773h-54zM-28 -187l69 146l51 -15l-87 -148z" />
    <glyph glyph-name="Lcaron" unicode="&#x13d;" horiz-adv-x="534" 
d="M421 715h60l-65 -157h-40zM163 715h56l-106 -669h348l-8 -46h-403z" />
    <glyph glyph-name="lcaron" unicode="&#x13e;" horiz-adv-x="226" 
d="M164 773h54l-122 -773h-54zM285 773h58l-56 -162h-40z" />
    <glyph glyph-name="Ldot" unicode="&#x13f;" horiz-adv-x="534" 
d="M163 715h56l-106 -669h348l-8 -46h-403zM443 333c-24 0 -43 19 -43 43c0 23 19 42 42 42c24 0 43 -19 43 -42c0 -24 -19 -43 -42 -43z" />
    <glyph glyph-name="ldot" unicode="&#x140;" horiz-adv-x="283" 
d="M164 773h54l-122 -773h-54zM266 330c-24 0 -43 19 -43 43c0 23 19 42 42 42c24 0 43 -19 43 -42c0 -24 -19 -43 -42 -43z" />
    <glyph glyph-name="Lslash" unicode="&#x141;" horiz-adv-x="549" 
d="M40 304l77 27l61 384h56l-58 -364l236 83l-7 -47l-236 -83l-41 -258h347l-7 -46h-403l45 284l-77 -27z" />
    <glyph glyph-name="lslash" unicode="&#x142;" horiz-adv-x="248" 
d="M36 380l84 47l55 346h54l-49 -312l88 50l-8 -49l-88 -50l-65 -412h-54l60 379l-85 -48z" />
    <glyph glyph-name="Nacute" unicode="&#x143;" horiz-adv-x="717" 
d="M163 715h74l300 -638l102 638h53l-113 -715h-64l-308 653l-103 -653h-54zM493 893h68l-97 -122h-45z" />
    <glyph glyph-name="nacute" unicode="&#x144;" horiz-adv-x="581" 
d="M100 377c11 71 13 109 14 146h50c0 -28 -2 -70 -9 -113c35 67 103 121 195 121c112 0 181 -67 157 -219l-50 -312h-53l51 322c19 111 -27 163 -115 163c-93 0 -179 -63 -198 -175l-49 -310h-53zM395 752h68l-112 -147h-44z" />
    <glyph glyph-name="uni0145" unicode="&#x145;" horiz-adv-x="713" 
d="M163 715h74l300 -638l102 638h53l-113 -715h-64l-308 653l-103 -653h-54zM222 -187l69 146l51 -15l-87 -148z" />
    <glyph glyph-name="uni0146" unicode="&#x146;" horiz-adv-x="577" 
d="M100 377c11 71 13 109 14 146h50c0 -28 -2 -70 -9 -113c35 67 103 121 195 121c112 0 181 -67 157 -219l-50 -312h-53l51 322c19 111 -27 163 -115 163c-93 0 -179 -63 -198 -175l-49 -310h-53zM151 -187l69 146l51 -15l-87 -148z" />
    <glyph glyph-name="Ncaron" unicode="&#x147;" horiz-adv-x="717" 
d="M163 715h74l300 -638l102 638h53l-113 -715h-64l-308 653l-103 -653h-54zM467 771h-49l-94 122h40l82 -78l104 78h43z" />
    <glyph glyph-name="ncaron" unicode="&#x148;" horiz-adv-x="581" 
d="M100 377c11 71 13 109 14 146h50c0 -28 -2 -70 -9 -113c35 67 103 121 195 121c112 0 181 -67 157 -219l-50 -312h-53l51 322c19 111 -27 163 -115 163c-93 0 -179 -63 -198 -175l-49 -310h-53zM357 613h-50l-90 135h40l80 -91l105 91h43z" />
    <glyph glyph-name="napostrophe" unicode="&#x149;" horiz-adv-x="591" 
d="M110 377c11 71 13 109 14 146h50c0 -28 -2 -70 -9 -113c35 67 103 121 195 121c112 0 181 -67 157 -219l-50 -312h-53l51 322c19 111 -27 163 -115 163c-93 0 -179 -63 -198 -175l-49 -310h-53zM12 545l86 177l50 -23l-104 -171z" />
    <glyph glyph-name="Eng" unicode="&#x14a;" horiz-adv-x="717" 
d="M374 -144c79 0 129 35 148 135l-315 662l-103 -653h-54l113 715h75l301 -628l100 628h53l-113 -713c-21 -142 -99 -192 -200 -192c-56 0 -88 13 -107 22l8 46c23 -12 51 -22 94 -22z" />
    <glyph glyph-name="eng" unicode="&#x14b;" horiz-adv-x="581" 
d="M100 377c11 71 13 109 14 146h50c0 -28 -2 -70 -9 -113c35 67 103 121 195 121c112 0 181 -67 157 -219l-57 -357c-16 -96 -53 -138 -159 -143l7 45c64 5 88 29 100 102l57 363c19 111 -27 163 -115 163c-93 0 -179 -63 -198 -175l-49 -310h-53z" />
    <glyph glyph-name="Omacron" unicode="&#x14c;" horiz-adv-x="801" 
d="M763 396c0 -221 -158 -404 -375 -404c-200 0 -326 141 -326 329c0 216 160 402 380 402c200 0 321 -146 321 -327zM706 396c0 153 -96 281 -265 281c-194 0 -321 -164 -321 -356c-3 -164 105 -282 269 -282c189 0 317 160 317 357zM351 833h248l-7 -42h-248z" />
    <glyph glyph-name="omacron" unicode="&#x14d;" horiz-adv-x="583" 
d="M267 -8c-140 0 -229 103 -229 235c0 165 111 303 274 303c144 0 229 -102 229 -233c0 -172 -109 -305 -274 -305zM269 37c135 0 217 112 217 259c0 108 -62 190 -176 190c-135 0 -218 -116 -218 -259c0 -108 65 -190 177 -190zM221 689h243l-7 -42h-242z" />
    <glyph glyph-name="Obreve" unicode="&#x14e;" horiz-adv-x="801" 
d="M763 396c0 -221 -158 -404 -375 -404c-200 0 -326 141 -326 329c0 216 160 402 380 402c200 0 321 -146 321 -327zM706 396c0 153 -96 281 -265 281c-194 0 -321 -164 -321 -356c-3 -164 105 -282 269 -282c189 0 317 160 317 357zM464 771c-72 0 -121 50 -121 122h44
c3 -48 30 -78 77 -78c48 0 82 30 91 78h43c-8 -72 -67 -122 -134 -122z" />
    <glyph glyph-name="obreve" unicode="&#x14f;" horiz-adv-x="583" 
d="M267 -8c-140 0 -229 103 -229 235c0 165 111 303 274 303c144 0 229 -102 229 -233c0 -172 -109 -305 -274 -305zM269 37c135 0 217 112 217 259c0 108 -62 190 -176 190c-135 0 -218 -116 -218 -259c0 -108 65 -190 177 -190zM333 616c-71 0 -117 49 -117 121h44
c3 -48 26 -77 73 -77s77 28 88 77h42c-8 -73 -65 -121 -130 -121z" />
    <glyph glyph-name="Ohungarumlaut" unicode="&#x150;" horiz-adv-x="801" 
d="M763 396c0 -221 -158 -404 -375 -404c-200 0 -326 141 -326 329c0 216 160 402 380 402c200 0 321 -146 321 -327zM706 396c0 153 -96 281 -265 281c-194 0 -321 -164 -321 -356c-3 -164 105 -282 269 -282c189 0 317 160 317 357zM423 893h61l-75 -122h-40zM555 893h61
l-75 -122h-40z" />
    <glyph glyph-name="ohungarumlaut" unicode="&#x151;" horiz-adv-x="583" 
d="M267 -8c-140 0 -229 103 -229 235c0 165 111 303 274 303c144 0 229 -102 229 -233c0 -172 -109 -305 -274 -305zM269 37c135 0 217 112 217 259c0 108 -62 190 -176 190c-135 0 -218 -116 -218 -259c0 -108 65 -190 177 -190zM311 752h61l-86 -147h-41zM443 752h61
l-86 -147h-42z" />
    <glyph glyph-name="OE" unicode="&#x152;" horiz-adv-x="962" 
d="M389 0c-224 0 -327 131 -327 305c0 243 153 410 411 410h488l-8 -46h-335l-44 -279h273l-7 -46h-272l-48 -298h358l-7 -46h-482zM474 669c-220 0 -355 -135 -355 -363c0 -148 83 -260 272 -260h73l99 623h-89z" />
    <glyph glyph-name="oe" unicode="&#x153;" horiz-adv-x="990" 
d="M536 215c0 -113 55 -178 168 -178c84 0 143 37 170 109h53c-33 -104 -118 -154 -225 -154c-113 0 -180 54 -204 145c-43 -88 -123 -145 -231 -145c-140 0 -229 103 -229 235c0 165 111 303 274 303c109 0 183 -62 210 -153c43 92 120 154 227 154c148 0 222 -99 198 -258
l-3 -16h-406c-3 -15 -2 -27 -2 -42zM269 37c135 0 217 112 217 259c0 108 -62 190 -176 190c-135 0 -218 -116 -218 -259c0 -108 65 -190 177 -190zM746 486c-101 0 -178 -69 -202 -186h354c12 117 -35 186 -152 186z" />
    <glyph glyph-name="Racute" unicode="&#x154;" horiz-adv-x="610" 
d="M163 715h186c130 0 221 -59 218 -176c0 -134 -91 -198 -212 -209l179 -330h-60l-176 326h-141l-51 -326h-56zM308 371c120 0 204 43 204 168c1 92 -62 130 -165 130h-136l-47 -298h144zM402 893h68l-97 -122h-45z" />
    <glyph glyph-name="racute" unicode="&#x155;" horiz-adv-x="351" 
d="M100 377c11 71 13 109 14 146h50c0 -28 -2 -70 -9 -117c38 70 92 121 198 124l-8 -50c-103 -5 -186 -56 -207 -198l-45 -282h-53zM304 752h68l-112 -147h-44z" />
    <glyph glyph-name="uni0156" unicode="&#x156;" horiz-adv-x="606" 
d="M163 715h186c130 0 221 -59 218 -176c0 -134 -91 -198 -212 -209l179 -330h-60l-176 326h-141l-51 -326h-56zM308 371c120 0 204 43 204 168c1 92 -62 130 -165 130h-136l-47 -298h144zM183 -187l69 146l51 -15l-87 -148z" />
    <glyph glyph-name="uni0157" unicode="&#x157;" horiz-adv-x="347" 
d="M100 377c11 71 13 109 14 146h50c0 -28 -2 -70 -9 -117c38 70 92 121 198 124l-8 -50c-103 -5 -186 -56 -207 -198l-45 -282h-53zM-33 -187l69 146l51 -15l-87 -148z" />
    <glyph glyph-name="Rcaron" unicode="&#x158;" horiz-adv-x="610" 
d="M163 715h186c130 0 221 -59 218 -176c0 -134 -91 -198 -212 -209l179 -330h-60l-176 326h-141l-51 -326h-56zM308 371c120 0 204 43 204 168c1 92 -62 130 -165 130h-136l-47 -298h144zM373 771h-49l-94 122h40l82 -78l104 78h43z" />
    <glyph glyph-name="rcaron" unicode="&#x159;" horiz-adv-x="351" 
d="M100 377c11 71 13 109 14 146h50c0 -28 -2 -70 -9 -117c38 70 92 121 198 124l-8 -50c-103 -5 -186 -56 -207 -198l-45 -282h-53zM265 613h-50l-90 135h40l80 -91l105 91h43z" />
    <glyph glyph-name="Sacute" unicode="&#x15a;" 
d="M284 -8c-155 0 -253 85 -256 213h54c8 -99 74 -167 205 -167c116 0 193 60 193 165c0 79 -45 113 -172 147c-135 40 -201 82 -201 180c0 115 93 193 230 193c129 0 215 -61 222 -180h-52c-11 95 -75 134 -174 134c-111 0 -173 -53 -173 -145c0 -66 42 -99 168 -134
c141 -40 207 -83 207 -190c0 -130 -103 -216 -251 -216zM404 893h68l-97 -122h-45z" />
    <glyph glyph-name="sacute" unicode="&#x15b;" horiz-adv-x="467" 
d="M216 -9c-127 0 -194 65 -197 165h52c5 -72 45 -120 146 -120c80 0 133 35 133 106c0 55 -33 79 -121 103c-111 29 -157 66 -157 142c0 96 83 144 176 144c96 0 170 -41 178 -142h-51c-5 63 -49 97 -128 97c-75 0 -124 -32 -124 -96c0 -51 31 -74 122 -98
c102 -27 157 -58 157 -148c0 -96 -79 -153 -186 -153zM328 752h68l-112 -147h-44z" />
    <glyph glyph-name="Scircumflex" unicode="&#x15c;" 
d="M284 -8c-155 0 -253 85 -256 213h54c8 -99 74 -167 205 -167c116 0 193 60 193 165c0 79 -45 113 -172 147c-135 40 -201 82 -201 180c0 115 93 193 230 193c129 0 215 -61 222 -180h-52c-11 95 -75 134 -174 134c-111 0 -173 -53 -173 -145c0 -66 42 -99 168 -134
c141 -40 207 -83 207 -190c0 -130 -103 -216 -251 -216zM346 893h50l93 -122h-40l-82 78l-103 -78h-43z" />
    <glyph glyph-name="scircumflex" unicode="&#x15d;" horiz-adv-x="467" 
d="M216 -9c-127 0 -194 65 -197 165h52c5 -72 45 -120 146 -120c80 0 133 35 133 106c0 55 -33 79 -121 103c-111 29 -157 66 -157 142c0 96 83 144 176 144c96 0 170 -41 178 -142h-51c-5 63 -49 97 -128 97c-75 0 -124 -32 -124 -96c0 -51 31 -74 122 -98
c102 -27 157 -58 157 -148c0 -96 -79 -153 -186 -153zM256 740h49l91 -135h-40l-81 91l-104 -91h-43z" />
    <glyph glyph-name="uni015E" unicode="&#x15e;" horiz-adv-x="600" 
d="M220 -212c-51 0 -90 25 -95 78h44c3 -25 20 -42 51 -42c24 0 50 12 50 47c0 25 -19 36 -42 36c-16 0 -26 -5 -33 -9l-20 22l53 76c-125 19 -197 96 -200 209h54c8 -99 74 -167 205 -167c116 0 193 60 193 165c0 79 -45 113 -172 147c-135 40 -201 82 -201 180
c0 115 93 193 230 193c129 0 215 -61 222 -180h-52c-11 95 -75 134 -174 134c-111 0 -173 -53 -173 -145c0 -66 42 -99 168 -134c141 -40 207 -83 207 -190c0 -130 -103 -216 -251 -216h-17l-37 -51c44 8 88 -16 88 -68c0 -56 -39 -85 -98 -85z" />
    <glyph glyph-name="uni015F" unicode="&#x15f;" horiz-adv-x="463" 
d="M161 -212c-51 0 -90 25 -95 78h44c3 -25 20 -42 51 -42c24 0 50 12 50 47c0 25 -19 36 -42 36c-16 0 -26 -5 -33 -9l-20 22l52 75c-96 15 -146 74 -149 161h52c5 -72 45 -120 146 -120c80 0 133 35 133 106c0 55 -33 79 -121 103c-111 29 -157 66 -157 142
c0 96 83 144 176 144c96 0 170 -41 178 -142h-51c-5 63 -49 97 -128 97c-75 0 -124 -32 -124 -96c0 -51 31 -74 122 -98c102 -27 157 -58 157 -148c0 -96 -79 -153 -186 -153h-9l-36 -50c44 8 88 -16 88 -68c0 -56 -39 -85 -98 -85z" />
    <glyph glyph-name="Scaron" unicode="&#x160;" 
d="M284 -8c-155 0 -253 85 -256 213h54c8 -99 74 -167 205 -167c116 0 193 60 193 165c0 79 -45 113 -172 147c-135 40 -201 82 -201 180c0 115 93 193 230 193c129 0 215 -61 222 -180h-52c-11 95 -75 134 -174 134c-111 0 -173 -53 -173 -145c0 -66 42 -99 168 -134
c141 -40 207 -83 207 -190c0 -130 -103 -216 -251 -216zM373 771h-49l-94 122h40l82 -78l104 78h43z" />
    <glyph glyph-name="scaron" unicode="&#x161;" horiz-adv-x="467" 
d="M216 -9c-127 0 -194 65 -197 165h52c5 -72 45 -120 146 -120c80 0 133 35 133 106c0 55 -33 79 -121 103c-111 29 -157 66 -157 142c0 96 83 144 176 144c96 0 170 -41 178 -142h-51c-5 63 -49 97 -128 97c-75 0 -124 -32 -124 -96c0 -51 31 -74 122 -98
c102 -27 157 -58 157 -148c0 -96 -79 -153 -186 -153zM292 613h-50l-90 135h40l80 -91l105 91h43z" />
    <glyph glyph-name="Tcommaaccent" unicode="&#x162;" horiz-adv-x="563" 
d="M313 669h-221l7 46h500l-8 -46h-222l-105 -669h-56zM139 -187l69 146l51 -15l-87 -148z" />
    <glyph glyph-name="tcommaaccent" unicode="&#x163;" horiz-adv-x="336" 
d="M191 -7c-89 0 -126 55 -113 143l54 342h-77l7 45h77l19 119h53l-19 -119h136l-7 -45h-135l-55 -344c-11 -69 15 -96 67 -96c23 0 45 5 64 12l-7 -45c-17 -8 -39 -12 -64 -12zM51 -187l69 146l51 -15l-87 -148z" />
    <glyph glyph-name="Tcaron" unicode="&#x164;" horiz-adv-x="563" 
d="M313 669h-221l7 46h500l-8 -46h-222l-105 -669h-56zM377 771h-49l-94 122h40l82 -78l104 78h43z" />
    <glyph glyph-name="tcaron" unicode="&#x165;" horiz-adv-x="336" 
d="M191 -7c-89 0 -126 55 -113 143l54 342h-77l7 45h77l19 119h53l-19 -119h136l-7 -45h-135l-55 -344c-11 -69 15 -96 67 -96c23 0 45 5 64 12l-7 -45c-17 -8 -39 -12 -64 -12zM336 773h58l-56 -162h-40z" />
    <glyph glyph-name="Tbar" unicode="&#x166;" horiz-adv-x="563" 
d="M122 408h150l41 261h-221l7 46h500l-8 -46h-222l-41 -261h153l-7 -43h-153l-57 -365h-56l57 365h-149z" />
    <glyph glyph-name="tbar" unicode="&#x167;" horiz-adv-x="336" 
d="M34 341h76l22 137h-77l7 45h77l19 119h53l-19 -119h136l-7 -45h-135l-22 -137h135l-6 -39h-135l-27 -168c-11 -69 15 -96 67 -96c23 0 45 5 64 12l-7 -45c-17 -8 -39 -12 -64 -12c-89 0 -126 55 -113 143l26 166h-76z" />
    <glyph glyph-name="Utilde" unicode="&#x168;" horiz-adv-x="686" 
d="M320 -7c-181 0 -266 99 -238 280l71 442h55l-70 -442c-24 -155 38 -233 185 -233c128 0 196 63 219 210l74 465h56l-75 -472c-25 -159 -109 -250 -277 -250zM483 774c-48 0 -87 53 -122 53c-23 0 -44 -19 -52 -54h-40c12 65 48 99 93 99c48 0 85 -52 122 -52
c21 0 43 18 51 53h40c-13 -64 -48 -99 -92 -99z" />
    <glyph glyph-name="utilde" unicode="&#x169;" horiz-adv-x="577" 
d="M471 146c-11 -67 -13 -111 -12 -146h-51c-1 31 1 73 8 112c-37 -66 -102 -120 -194 -120c-111 0 -179 71 -155 219l50 312h53l-51 -322c-17 -108 25 -163 113 -163c92 0 177 63 196 175l49 310h53zM395 616c-48 0 -87 53 -122 53c-23 0 -44 -18 -52 -53h-40
c12 64 48 99 93 99c48 0 85 -53 122 -53c21 0 43 18 51 53h40c-13 -64 -48 -99 -92 -99z" />
    <glyph glyph-name="Umacron" unicode="&#x16a;" horiz-adv-x="686" 
d="M320 -7c-181 0 -266 99 -238 280l71 442h55l-70 -442c-24 -155 38 -233 185 -233c128 0 196 63 219 210l74 465h56l-75 -472c-25 -159 -109 -250 -277 -250zM303 833h248l-7 -42h-248z" />
    <glyph glyph-name="umacron" unicode="&#x16b;" horiz-adv-x="577" 
d="M471 146c-11 -67 -13 -111 -12 -146h-51c-1 31 1 73 8 112c-37 -66 -102 -120 -194 -120c-111 0 -179 71 -155 219l50 312h53l-51 -322c-17 -108 25 -163 113 -163c92 0 177 63 196 175l49 310h53zM220 689h243l-7 -42h-242z" />
    <glyph glyph-name="Ubreve" unicode="&#x16c;" horiz-adv-x="686" 
d="M320 -7c-181 0 -266 99 -238 280l71 442h55l-70 -442c-24 -155 38 -233 185 -233c128 0 196 63 219 210l74 465h56l-75 -472c-25 -159 -109 -250 -277 -250zM417 771c-72 0 -121 50 -121 122h44c3 -48 30 -78 77 -78c48 0 82 30 91 78h43c-8 -72 -67 -122 -134 -122z" />
    <glyph glyph-name="ubreve" unicode="&#x16d;" horiz-adv-x="577" 
d="M471 146c-11 -67 -13 -111 -12 -146h-51c-1 31 1 73 8 112c-37 -66 -102 -120 -194 -120c-111 0 -179 71 -155 219l50 312h53l-51 -322c-17 -108 25 -163 113 -163c92 0 177 63 196 175l49 310h53zM334 616c-71 0 -117 49 -117 121h44c3 -48 26 -77 73 -77s77 28 88 77
h42c-8 -73 -65 -121 -130 -121z" />
    <glyph glyph-name="Uring" unicode="&#x16e;" horiz-adv-x="686" 
d="M320 -7c-181 0 -266 99 -238 280l71 442h55l-70 -442c-24 -155 38 -233 185 -233c128 0 196 63 219 210l74 465h56l-75 -472c-25 -159 -109 -250 -277 -250zM422 762c36 0 62 27 62 66c0 36 -23 61 -59 61c-35 0 -63 -26 -63 -65c0 -35 24 -62 60 -62zM422 730
c-55 0 -97 43 -97 94c0 54 46 97 100 97c56 0 96 -41 96 -93c0 -56 -43 -98 -99 -98z" />
    <glyph glyph-name="uring" unicode="&#x16f;" horiz-adv-x="577" 
d="M471 146c-11 -67 -13 -111 -12 -146h-51c-1 31 1 73 8 112c-37 -66 -102 -120 -194 -120c-111 0 -179 71 -155 219l50 312h53l-51 -322c-17 -108 25 -163 113 -163c92 0 177 63 196 175l49 310h53zM341 633c36 0 62 26 62 65c0 36 -23 62 -59 62c-35 0 -63 -27 -63 -66
c0 -35 24 -61 60 -61zM341 601c-55 0 -97 42 -97 93c0 54 46 98 100 98c55 0 96 -42 96 -94c0 -55 -43 -97 -99 -97z" />
    <glyph glyph-name="Uhungarumlaut" unicode="&#x170;" horiz-adv-x="686" 
d="M320 -7c-181 0 -266 99 -238 280l71 442h55l-70 -442c-24 -155 38 -233 185 -233c128 0 196 63 219 210l74 465h56l-75 -472c-25 -159 -109 -250 -277 -250zM378 893h61l-75 -122h-40zM510 893h61l-75 -122h-40z" />
    <glyph glyph-name="uhungarumlaut" unicode="&#x171;" horiz-adv-x="577" 
d="M471 146c-11 -67 -13 -111 -12 -146h-51c-1 31 1 73 8 112c-37 -66 -102 -120 -194 -120c-111 0 -179 71 -155 219l50 312h53l-51 -322c-17 -108 25 -163 113 -163c92 0 177 63 196 175l49 310h53zM313 752h61l-86 -147h-41zM445 752h61l-86 -147h-42z" />
    <glyph glyph-name="Uogonek" unicode="&#x172;" horiz-adv-x="686" 
d="M331 -182c-55 0 -89 26 -89 75c0 48 42 81 83 100h-10c-179 3 -261 101 -233 280l71 442h55l-70 -442c-24 -155 37 -233 184 -233c127 0 196 63 220 211l74 464h56l-75 -472c-17 -109 -61 -186 -149 -225c-53 -24 -154 -48 -154 -120c0 -24 14 -40 47 -40c15 0 31 3 47 8
l-6 -39c-13 -4 -28 -9 -51 -9z" />
    <glyph glyph-name="uogonek" unicode="&#x173;" horiz-adv-x="577" 
d="M471 146c-11 -67 -13 -111 -12 -146c-35 -21 -92 -53 -92 -102c0 -24 14 -40 47 -40c16 0 31 3 47 8l-7 -39c-12 -4 -28 -9 -51 -9c-53 0 -89 26 -88 75c0 52 57 88 93 109c-1 31 1 71 8 110c-37 -66 -102 -120 -194 -120c-111 0 -179 71 -155 219l50 312h53l-51 -322
c-17 -108 25 -163 113 -163c92 0 177 63 196 175l49 310h53z" />
    <glyph glyph-name="Wcircumflex" unicode="&#x174;" horiz-adv-x="903" 
d="M95 715h56l66 -631l283 631h36l85 -633l268 633h53l-305 -715h-55l-80 613l-276 -613h-53zM512 893h50l93 -122h-40l-82 78l-103 -78h-43z" />
    <glyph glyph-name="wcircumflex" unicode="&#x175;" horiz-adv-x="763" 
d="M67 523h56l63 -461l212 461h46l66 -461l207 461h56l-241 -523h-61l-63 439l-204 -439h-60zM421 740h49l91 -135h-40l-81 91l-104 -91h-43z" />
    <glyph glyph-name="Ycircumflex" unicode="&#x176;" horiz-adv-x="579" 
d="M272 318l-184 397h59l161 -351l255 351h58l-294 -401l-49 -314h-56zM352 893h50l93 -122h-40l-82 78l-103 -78h-43z" />
    <glyph glyph-name="ycircumflex" unicode="&#x177;" horiz-adv-x="498" 
d="M191 48l-128 475h54l110 -417l228 417h57l-396 -705h-56zM284 740h49l91 -135h-40l-81 91l-104 -91h-43z" />
    <glyph glyph-name="Ydieresis" unicode="&#x178;" horiz-adv-x="579" 
d="M272 318l-184 397h59l161 -351l255 351h58l-294 -401l-49 -314h-56zM281 788c-21 0 -37 16 -37 36s17 37 37 37c21 0 36 -16 36 -36s-16 -37 -36 -37zM461 788c-20 0 -36 16 -36 36s16 37 37 37c20 0 36 -16 36 -36s-17 -37 -37 -37z" />
    <glyph glyph-name="Zacute" unicode="&#x179;" horiz-adv-x="591" 
d="M-13 11l543 659h-403l7 45h484l-1 -10l-539 -659h429l-8 -46h-514zM421 893h68l-97 -122h-45z" />
    <glyph glyph-name="zacute" unicode="&#x17a;" horiz-adv-x="471" 
d="M-17 9l404 469h-301l7 45h386l-2 -10l-400 -466h322l-8 -47h-410zM349 752h68l-112 -147h-44z" />
    <glyph glyph-name="Zdotaccent" unicode="&#x17b;" horiz-adv-x="591" 
d="M-13 11l543 659h-403l7 45h484l-1 -10l-539 -659h429l-8 -46h-514zM381 787c-21 0 -38 17 -38 37s17 38 38 38s37 -17 37 -37s-16 -38 -37 -38z" />
    <glyph glyph-name="zdotaccent" unicode="&#x17c;" horiz-adv-x="471" 
d="M-17 9l404 469h-301l7 45h386l-2 -10l-400 -466h322l-8 -47h-410zM298 635c-21 0 -38 17 -38 37c0 21 17 38 38 38s37 -16 37 -37c0 -20 -16 -38 -37 -38z" />
    <glyph glyph-name="Zcaron" unicode="&#x17d;" horiz-adv-x="591" 
d="M-13 11l543 659h-403l7 45h484l-1 -10l-539 -659h429l-8 -46h-514zM396 771h-49l-94 122h40l82 -78l104 78h43z" />
    <glyph glyph-name="zcaron" unicode="&#x17e;" horiz-adv-x="471" 
d="M-17 9l404 469h-301l7 45h386l-2 -10l-400 -466h322l-8 -47h-410zM313 613h-50l-90 135h40l80 -91l105 91h43z" />
    <glyph glyph-name="uni0192" unicode="&#x192;" horiz-adv-x="384" 
d="M54 403h98l31 163c21 109 79 158 162 158c36 0 57 -7 73 -15l-7 -42c-17 7 -34 12 -65 12c-57 0 -95 -35 -110 -115l-31 -161h141l-8 -44h-141l-102 -541h-53l102 541h-97z" />
    <glyph glyph-name="Aringacute" unicode="&#x1fa;" horiz-adv-x="645" 
d="M473 219h-322l-112 -219h-54l368 715h74l145 -715h-54zM174 264h290l-82 406zM400 781c36 0 62 27 62 66c0 36 -23 61 -59 61c-35 0 -63 -26 -63 -65c0 -35 24 -62 60 -62zM400 749c-55 0 -97 43 -97 94c0 54 46 97 100 97c56 0 96 -41 96 -93c0 -56 -43 -98 -99 -98z
M466 1091h68l-97 -122h-45z" />
    <glyph glyph-name="aringacute" unicode="&#x1fb;" horiz-adv-x="531" 
d="M201 -8c-113 0 -171 61 -171 145c0 125 111 163 238 163h135l6 42c15 95 -18 144 -121 144c-76 0 -130 -31 -151 -111h-53c27 116 120 156 206 156c125 0 192 -64 172 -193l-30 -188c-11 -71 -14 -113 -11 -150h-51c-1 25 0 59 3 86c-33 -55 -95 -94 -172 -94zM207 35
c88 0 162 51 175 138l14 86h-127c-110 0 -186 -24 -186 -122c0 -57 37 -102 124 -102zM319 623c36 0 62 26 62 65c0 36 -23 62 -59 62c-35 0 -63 -27 -63 -66c0 -35 24 -61 60 -61zM319 591c-55 0 -97 42 -97 93c0 54 46 98 100 98c55 0 96 -42 96 -94
c0 -55 -43 -97 -99 -97zM393 951h68l-97 -122h-45z" />
    <glyph glyph-name="AEacute" unicode="&#x1fc;" horiz-adv-x="950" 
d="M453 715h496l-8 -46h-350l-44 -279h288l-7 -46h-288l-47 -298h373l-7 -46h-429l34 220h-276l-142 -220h-59zM217 264h254l64 405h-55zM743 893h68l-97 -122h-45z" />
    <glyph glyph-name="aeacute" unicode="&#x1fd;" horiz-adv-x="892" 
d="M449 215c0 -113 50 -178 163 -178c83 0 139 36 166 109h52c-35 -104 -113 -154 -220 -154c-111 0 -177 52 -202 140c-35 -96 -117 -140 -206 -140c-115 0 -172 57 -172 141c0 126 112 166 240 166h133l7 43c15 95 -19 144 -122 144c-76 0 -130 -31 -151 -111h-53
c27 116 120 156 206 156c93 0 151 -36 167 -108c45 67 113 108 200 108c147 0 217 -99 193 -258l-3 -15h-396c-3 -15 -2 -28 -2 -43zM206 35c90 0 164 50 180 153l11 70h-128c-109 0 -186 -26 -186 -123c0 -57 38 -100 123 -100zM654 486c-101 0 -174 -70 -197 -187h343
c13 116 -30 187 -146 187zM557 752h68l-112 -147h-44z" />
    <glyph glyph-name="Oslashacute" unicode="&#x1fe;" horiz-adv-x="801" 
d="M33 5l99 102c-45 56 -70 130 -70 214c0 216 160 402 380 402c88 0 158 -28 213 -75l88 91l28 -30l-87 -90c51 -60 79 -136 79 -223c0 -221 -158 -404 -375 -404c-96 0 -173 31 -229 84l-97 -100zM706 396c0 74 -19 136 -57 186l-454 -469c47 -47 113 -74 194 -74
c189 0 317 160 317 357zM120 321c-1 -69 15 -128 48 -177l453 469c-45 40 -104 64 -180 64c-194 0 -321 -164 -321 -356zM510 893h68l-97 -122h-45z" />
    <glyph glyph-name="oslashacute" unicode="&#x1ff;" horiz-adv-x="583" 
d="M15 1l72 75c-31 41 -49 92 -49 151c0 165 111 303 274 303c64 0 115 -20 154 -55l66 70l29 -26l-69 -72c33 -42 49 -92 49 -150c0 -172 -109 -305 -274 -305c-64 0 -115 21 -154 56l-70 -73zM269 37c135 0 217 112 217 259c0 43 -10 81 -29 114l-312 -328
c29 -28 71 -45 124 -45zM92 227c0 -44 9 -83 29 -115l312 328c-29 29 -70 46 -123 46c-135 0 -218 -116 -218 -259zM389 752h68l-112 -147h-44z" />
    <glyph glyph-name="uni0218" unicode="&#x218;" horiz-adv-x="600" 
d="M284 -8c-155 0 -253 85 -256 213h54c8 -99 74 -167 205 -167c116 0 193 60 193 165c0 79 -45 113 -172 147c-135 40 -201 82 -201 180c0 115 93 193 230 193c129 0 215 -61 222 -180h-52c-11 95 -75 134 -174 134c-111 0 -173 -53 -173 -145c0 -66 42 -99 168 -134
c141 -40 207 -83 207 -190c0 -130 -103 -216 -251 -216zM152 -187l69 146l51 -15l-87 -148z" />
    <glyph glyph-name="uni0219" unicode="&#x219;" horiz-adv-x="463" 
d="M216 -9c-127 0 -194 65 -197 165h52c5 -72 45 -120 146 -120c80 0 133 35 133 106c0 55 -33 79 -121 103c-111 29 -157 66 -157 142c0 96 83 144 176 144c96 0 170 -41 178 -142h-51c-5 63 -49 97 -128 97c-75 0 -124 -32 -124 -96c0 -51 31 -74 122 -98
c102 -27 157 -58 157 -148c0 -96 -79 -153 -186 -153zM83 -187l69 146l51 -15l-87 -148z" />
    <glyph glyph-name="uni021A" unicode="&#x21a;" horiz-adv-x="563" 
d="M313 669h-221l7 46h500l-8 -46h-222l-105 -669h-56zM139 -187l69 146l51 -15l-87 -148z" />
    <glyph glyph-name="uni021B" unicode="&#x21b;" horiz-adv-x="336" 
d="M191 -7c-89 0 -126 55 -113 143l54 342h-77l7 45h77l19 119h53l-19 -119h136l-7 -45h-135l-55 -344c-11 -69 15 -96 67 -96c23 0 45 5 64 12l-7 -45c-17 -8 -39 -12 -64 -12zM51 -187l69 146l51 -15l-87 -148z" />
    <glyph glyph-name="uni0237" unicode="&#x237;" horiz-adv-x="225" 
d="M-57 -143c60 3 81 30 90 86l92 580h53l-92 -583c-15 -87 -57 -126 -150 -127z" />
    <glyph glyph-name="circumflex" unicode="&#x2c6;" horiz-adv-x="404" 
d="M248 740h49l91 -135h-40l-81 91l-104 -91h-43z" />
    <glyph glyph-name="caron" unicode="&#x2c7;" horiz-adv-x="404" 
d="M280 613h-50l-90 135h40l80 -91l105 91h43z" />
    <glyph glyph-name="breve" unicode="&#x2d8;" horiz-adv-x="404" 
d="M266 616c-71 0 -117 49 -117 121h44c3 -48 26 -77 73 -77s77 28 88 77h42c-8 -73 -65 -121 -130 -121z" />
    <glyph glyph-name="dotaccent" unicode="&#x2d9;" horiz-adv-x="404" 
d="M264 635c-21 0 -38 17 -38 37c0 21 17 38 38 38s37 -16 37 -37c0 -20 -16 -38 -37 -38z" />
    <glyph glyph-name="ring" unicode="&#x2da;" horiz-adv-x="404" 
d="M267 633c36 0 62 26 62 65c0 36 -23 62 -59 62c-35 0 -63 -27 -63 -66c0 -35 24 -61 60 -61zM267 601c-55 0 -97 42 -97 93c0 54 46 98 100 98c55 0 96 -42 96 -94c0 -55 -43 -97 -99 -97z" />
    <glyph glyph-name="ogonek" unicode="&#x2db;" horiz-adv-x="404" 
d="M154 -182c-55 0 -89 26 -89 75c0 50 57 89 93 107h54c-36 -21 -95 -53 -95 -102c0 -24 14 -40 47 -40c15 0 31 3 47 8l-6 -39c-13 -4 -28 -9 -51 -9z" />
    <glyph glyph-name="tilde" unicode="&#x2dc;" horiz-adv-x="404" 
d="M325 616c-48 0 -87 53 -122 53c-23 0 -44 -18 -52 -53h-40c12 64 48 99 93 99c48 0 85 -53 122 -53c21 0 43 18 51 53h40c-13 -64 -48 -99 -92 -99z" />
    <glyph glyph-name="hungarumlaut" unicode="&#x2dd;" horiz-adv-x="404" 
d="M229 752h61l-86 -147h-41zM361 752h61l-86 -147h-42z" />
    <glyph glyph-name="uni037E" unicode="&#x37e;" horiz-adv-x="237" 
d="M-26 -98l96 182l48 -24l-110 -177zM138 320c-24 0 -43 18 -43 42s19 42 42 42c24 0 43 -18 43 -42s-19 -42 -42 -42z" />
    <glyph glyph-name="tonos" unicode="&#x384;" horiz-adv-x="400" 
d="M315 752h68l-112 -147h-44z" />
    <glyph glyph-name="dieresistonos" unicode="&#x385;" horiz-adv-x="400" 
d="M257 785h62l-88 -147h-39zM342 636c-20 0 -36 17 -36 37s16 36 36 36c21 0 37 -16 37 -36s-16 -37 -37 -37zM124 636c-20 0 -37 17 -37 37s17 36 37 36s36 -16 36 -36s-16 -37 -36 -37z" />
    <glyph glyph-name="Alphatonos" unicode="&#x386;" horiz-adv-x="641" 
d="M473 219h-322l-112 -219h-54l368 715h74l145 -715h-54zM174 264h290l-82 406zM149 715h68l-112 -147h-44z" />
    <glyph glyph-name="anoteleia" unicode="&#x387;" horiz-adv-x="229" 
d="M123 281c-24 0 -43 19 -43 43c0 23 19 42 42 42c24 0 43 -19 43 -42c0 -24 -19 -43 -42 -43z" />
    <glyph glyph-name="Epsilontonos" unicode="&#x388;" horiz-adv-x="569" 
d="M163 715h406l-8 -46h-350l-44 -279h288l-7 -46h-288l-47 -298h374l-8 -46h-429zM25 715h68l-112 -147h-44z" />
    <glyph glyph-name="Etatonos" unicode="&#x389;" horiz-adv-x="717" 
d="M163 715h56l-53 -333h421l53 333h56l-113 -715h-56l53 335h-421l-53 -335h-56zM25 715h68l-112 -147h-44z" />
    <glyph glyph-name="Iotatonos" unicode="&#x38a;" horiz-adv-x="252" 
d="M168 715h56l-113 -715h-56zM25 715h68l-112 -147h-44z" />
    <glyph glyph-name="Omicrontonos" unicode="&#x38c;" horiz-adv-x="797" 
d="M763 396c0 -221 -158 -404 -375 -404c-200 0 -326 141 -326 329c0 216 160 402 380 402c200 0 321 -146 321 -327zM706 396c0 153 -96 281 -265 281c-194 0 -321 -164 -321 -356c-3 -164 105 -282 269 -282c189 0 317 160 317 357zM65 715h68l-112 -147h-44z" />
    <glyph glyph-name="Upsilontonos" unicode="&#x38e;" horiz-adv-x="575" 
d="M272 318l-184 397h59l161 -351l255 351h58l-294 -401l-49 -314h-56zM-11 715h68l-112 -147h-44z" />
    <glyph glyph-name="Omegatonos" unicode="&#x38f;" horiz-adv-x="806" 
d="M444 677c-196 0 -324 -158 -324 -351c0 -140 75 -237 190 -300l-5 -26h-275l7 44h175c-76 42 -149 146 -149 283c0 207 153 396 382 396c205 0 322 -153 322 -327c0 -149 -71 -276 -202 -352h168l-7 -44h-267l4 26c145 67 246 199 246 369c0 147 -87 282 -265 282z
M65 715h68l-112 -147h-44z" />
    <glyph glyph-name="iotadieresistonos" unicode="&#x390;" horiz-adv-x="222" 
d="M125 523h53l-82 -523h-54zM209 785h62l-88 -147h-39zM294 636c-20 0 -36 17 -36 37s16 36 36 36c21 0 37 -16 37 -36s-16 -37 -37 -37zM76 636c-20 0 -37 17 -37 37s17 36 37 36s36 -16 36 -36s-16 -37 -36 -37z" />
    <glyph glyph-name="Alpha" unicode="&#x391;" horiz-adv-x="641" 
d="M473 219h-322l-112 -219h-54l368 715h74l145 -715h-54zM174 264h290l-82 406z" />
    <glyph glyph-name="Beta" unicode="&#x392;" 
d="M163 715h193c125 0 198 -55 197 -163c0 -100 -53 -155 -149 -180c88 -16 134 -71 135 -156c0 -136 -99 -216 -243 -216h-246zM296 45c117 0 188 63 188 172c0 84 -51 132 -171 132h-153l-49 -304h185zM316 393c104 0 183 46 183 157c0 79 -49 120 -145 120h-143l-44 -277
h149z" />
    <glyph glyph-name="Gamma" unicode="&#x393;" horiz-adv-x="526" 
d="M163 715h404l-8 -46h-348l-105 -669h-56z" />
    <glyph glyph-name="uni0394" unicode="&#x394;" horiz-adv-x="646" 
d="M-10 11l363 704h79l143 -704l-1 -11h-585zM63 48h451l-129 628z" />
    <glyph glyph-name="Epsilon" unicode="&#x395;" horiz-adv-x="569" 
d="M163 715h406l-8 -46h-350l-44 -279h288l-7 -46h-288l-47 -298h374l-8 -46h-429z" />
    <glyph glyph-name="Zeta" unicode="&#x396;" horiz-adv-x="587" 
d="M-13 11l543 659h-403l7 45h484l-1 -10l-539 -659h429l-8 -46h-514z" />
    <glyph glyph-name="Eta" unicode="&#x397;" horiz-adv-x="717" 
d="M163 715h56l-53 -333h421l53 333h56l-113 -715h-56l53 335h-421l-53 -335h-56z" />
    <glyph glyph-name="Theta" unicode="&#x398;" horiz-adv-x="797" 
d="M763 396c0 -221 -158 -404 -375 -404c-200 0 -325 141 -325 329c0 216 159 402 379 402c200 0 321 -146 321 -327zM706 396c0 153 -96 281 -265 281c-195 0 -318 -164 -321 -356c0 -164 104 -282 269 -282c188 0 317 160 317 357zM269 387h295l-8 -48h-295z" />
    <glyph glyph-name="Iota" unicode="&#x399;" horiz-adv-x="252" 
d="M168 715h56l-113 -715h-56z" />
    <glyph glyph-name="Kappa" unicode="&#x39a;" horiz-adv-x="599" 
d="M469 0l-304 367l398 348h66l-399 -346l302 -369h-63zM163 715h56l-113 -715h-56z" />
    <glyph glyph-name="Lambda" unicode="&#x39b;" horiz-adv-x="632" 
d="M563 0h-54l-132 660l-338 -660h-54l368 715h66z" />
    <glyph glyph-name="Mu" unicode="&#x39c;" horiz-adv-x="851" 
d="M163 715h78l155 -614l350 614h80l-113 -715h-55l102 645l-371 -645h-18l-167 645l-102 -645h-52z" />
    <glyph glyph-name="Nu" unicode="&#x39d;" horiz-adv-x="714" 
d="M163 715h74l300 -638l102 638h53l-113 -715h-64l-308 653l-103 -653h-54z" />
    <glyph glyph-name="Xi" unicode="&#x39e;" horiz-adv-x="579" 
d="M579 715l-8 -49h-464l8 49h464zM481 386l-8 -48h-362l8 48h362zM12 49h480l-8 -49h-480z" />
    <glyph glyph-name="Omicron" unicode="&#x39f;" horiz-adv-x="797" 
d="M763 396c0 -221 -158 -404 -375 -404c-200 0 -326 141 -326 329c0 216 160 402 380 402c200 0 321 -146 321 -327zM706 396c0 153 -96 281 -265 281c-194 0 -321 -164 -321 -356c-3 -164 105 -282 269 -282c189 0 317 160 317 357z" />
    <glyph glyph-name="Pi" unicode="&#x3a0;" horiz-adv-x="707" 
d="M163 715h523l-113 -715h-56l105 668h-411l-105 -668h-56z" />
    <glyph glyph-name="Rho" unicode="&#x3a1;" horiz-adv-x="568" 
d="M163 715h180c131 0 220 -56 220 -180c0 -165 -117 -229 -262 -229h-147l-48 -306h-56zM304 351c129 0 204 58 204 183c0 97 -63 135 -171 135h-126l-50 -318h143z" />
    <glyph glyph-name="Sigma" unicode="&#x3a3;" horiz-adv-x="575" 
d="M93 49h400l-8 -49h-469l6 38l295 328l-194 300l8 49h444l-7 -46h-386l195 -304z" />
    <glyph glyph-name="Tau" unicode="&#x3a4;" horiz-adv-x="559" 
d="M313 669h-221l7 46h500l-8 -46h-222l-105 -669h-56z" />
    <glyph glyph-name="Upsilon" unicode="&#x3a5;" horiz-adv-x="575" 
d="M272 318l-184 397h59l161 -351l255 351h58l-294 -401l-49 -314h-56z" />
    <glyph glyph-name="Phi" unicode="&#x3a6;" horiz-adv-x="843" 
d="M415 52l-11 -68h-54l12 69c-189 16 -296 132 -296 283c0 200 173 330 393 330l10 65h54l-11 -67c188 -13 296 -132 296 -279c0 -200 -171 -333 -391 -333h-2zM123 338c0 -133 90 -224 245 -240l84 524c-172 -5 -329 -96 -329 -284zM751 384c0 126 -83 223 -246 236
l-83 -523c175 3 329 101 329 287z" />
    <glyph glyph-name="Chi" unicode="&#x3a7;" horiz-adv-x="614" 
d="M294 373l-171 342h58l154 -305l243 305h60l-281 -349l183 -366h-59l-166 329l-266 -329h-59z" />
    <glyph glyph-name="Psi" unicode="&#x3a8;" horiz-adv-x="761" 
d="M714 448c-24 -158 -110 -252 -323 -255l-30 -193h-54l30 194c-148 11 -243 89 -243 233c0 13 3 41 6 62l35 226h56l-35 -225c-4 -29 -6 -50 -6 -61c0 -113 67 -181 194 -190l76 476h53l-75 -477c157 3 239 69 262 216l41 261h54z" />
    <glyph glyph-name="uni03A9" unicode="&#x3a9;" horiz-adv-x="806" 
d="M444 677c-196 0 -324 -158 -324 -351c0 -140 75 -237 190 -300l-5 -26h-275l7 44h175c-76 42 -149 146 -149 283c0 207 153 396 382 396c205 0 322 -153 322 -327c0 -149 -71 -276 -202 -352h168l-7 -44h-267l4 26c145 67 246 199 246 369c0 147 -87 282 -265 282z" />
    <glyph glyph-name="Iotadieresis" unicode="&#x3aa;" horiz-adv-x="252" 
d="M168 715h56l-113 -715h-56zM123 788c-21 0 -37 16 -37 36s17 37 37 37c21 0 36 -16 36 -36s-16 -37 -36 -37zM303 788c-20 0 -36 16 -36 36s16 37 37 37c20 0 36 -16 36 -36s-17 -37 -37 -37z" />
    <glyph glyph-name="Upsilondieresis" unicode="&#x3ab;" horiz-adv-x="575" 
d="M272 318l-184 397h59l161 -351l255 351h58l-294 -401l-49 -314h-56zM286 788c-21 0 -37 16 -37 36s17 37 37 37c21 0 36 -16 36 -36s-16 -37 -36 -37zM466 788c-20 0 -36 16 -36 36s16 37 37 37c20 0 36 -16 36 -36s-17 -37 -37 -37z" />
    <glyph glyph-name="alphatonos" unicode="&#x3ac;" horiz-adv-x="593" 
d="M302 486c-131 0 -208 -113 -208 -260c0 -120 65 -189 164 -189c122 0 208 121 208 261c0 114 -67 188 -164 188zM249 -8c-124 0 -211 91 -211 232c0 166 101 307 263 307c112 0 163 -77 181 -137l20 129h53l-57 -359c-12 -81 -14 -127 -14 -164h-51c-1 32 2 82 9 119
c-37 -73 -101 -127 -193 -127zM408 752h68l-112 -147h-44z" />
    <glyph glyph-name="epsilontonos" unicode="&#x3ad;" horiz-adv-x="538" 
d="M452 389c-5 46 -36 97 -156 97c-88 0 -168 -30 -168 -112c0 -48 40 -82 104 -82h116l-8 -44h-116c-69 0 -133 -38 -133 -116c0 -67 68 -95 161 -95c100 0 163 34 186 111h52c-28 -109 -121 -156 -244 -156c-131 0 -210 49 -210 137c0 75 54 130 129 143
c-53 11 -91 52 -91 103c0 103 99 156 222 156c149 0 202 -70 207 -142h-51zM392 752h68l-112 -147h-44z" />
    <glyph glyph-name="etatonos" unicode="&#x3ae;" horiz-adv-x="577" 
d="M100 377c11 71 13 109 14 146h51c-1 -28 -3 -70 -10 -113c35 67 103 121 195 121c112 0 181 -67 157 -219l-79 -494h-53l80 504c19 111 -27 163 -115 163c-93 0 -179 -63 -198 -175l-48 -310h-54zM399 752h68l-112 -147h-44z" />
    <glyph glyph-name="iotatonos" unicode="&#x3af;" horiz-adv-x="222" 
d="M125 523h53l-82 -523h-54zM231 752h68l-112 -147h-44z" />
    <glyph glyph-name="upsilondieresistonos" unicode="&#x3b0;" horiz-adv-x="566" 
d="M122 222c-16 -100 18 -184 133 -184c92 0 152 50 169 158l51 327h54l-52 -331c-24 -144 -114 -200 -222 -200c-140 0 -208 101 -187 232l47 299h54zM367 785h62l-88 -147h-39zM452 636c-20 0 -36 17 -36 37s16 36 36 36c21 0 37 -16 37 -36s-16 -37 -37 -37zM234 636
c-20 0 -37 17 -37 37s17 36 37 36s36 -16 36 -36s-16 -37 -36 -37z" />
    <glyph glyph-name="alpha" unicode="&#x3b1;" horiz-adv-x="593" 
d="M302 486c-131 0 -208 -113 -208 -260c0 -120 65 -189 164 -189c122 0 208 121 208 261c0 114 -67 188 -164 188zM249 -8c-124 0 -211 91 -211 232c0 166 101 307 263 307c112 0 163 -77 181 -137l20 129h53l-57 -359c-12 -81 -14 -127 -14 -164h-51c-1 32 2 82 9 119
c-37 -73 -101 -127 -193 -127z" />
    <glyph glyph-name="beta" unicode="&#x3b2;" horiz-adv-x="591" 
d="M131 235c-16 -104 61 -199 168 -199c103 0 185 77 185 192c0 97 -68 163 -196 159l8 45c101 0 209 53 209 170c0 76 -47 130 -136 130c-109 0 -169 -67 -188 -179zM65 -182h-54l117 741c21 131 107 216 240 216c109 0 188 -66 188 -174c0 -96 -75 -174 -171 -190
c83 -16 154 -84 154 -182c0 -125 -89 -238 -238 -238c-88 0 -160 54 -188 130z" />
    <glyph glyph-name="gamma" unicode="&#x3b3;" horiz-adv-x="519" 
d="M485 523h56l-294 -516l-30 -189h-54l30 189l-138 516h57l117 -450z" />
    <glyph glyph-name="delta" unicode="&#x3b4;" horiz-adv-x="579" 
d="M555 728h-315l220 -264c41 -51 81 -105 81 -188c0 -152 -109 -284 -273 -284c-135 0 -230 100 -230 240c0 144 103 270 258 270c23 0 58 -4 81 -15l-213 253l5 33h392zM93 228c0 -112 69 -191 178 -191c128 0 215 105 215 236c0 104 -67 187 -179 187
c-127 0 -214 -101 -214 -232z" />
    <glyph glyph-name="epsilon" unicode="&#x3b5;" horiz-adv-x="538" 
d="M452 389c-5 46 -36 97 -156 97c-88 0 -168 -30 -168 -112c0 -48 40 -82 104 -82h116l-8 -44h-116c-69 0 -133 -38 -133 -116c0 -67 68 -95 161 -95c100 0 163 34 186 111h52c-28 -109 -121 -156 -244 -156c-131 0 -210 49 -210 137c0 75 54 130 129 143
c-53 11 -91 52 -91 103c0 103 99 156 222 156c149 0 202 -70 207 -142h-51z" />
    <glyph glyph-name="zeta" unicode="&#x3b6;" horiz-adv-x="475" 
d="M421 -29c0 -37 -19 -85 -38 -125h-48c14 33 33 79 33 112c0 29 -18 42 -62 42h-78c-115 0 -193 73 -193 180c0 208 229 420 400 547h-290l8 46h391l-3 -15c-249 -193 -451 -374 -451 -574c0 -87 59 -137 143 -137h80c76 0 108 -27 108 -76z" />
    <glyph glyph-name="eta" unicode="&#x3b7;" horiz-adv-x="577" 
d="M100 377c11 71 13 109 14 146h51c-1 -28 -3 -70 -10 -113c35 67 103 121 195 121c112 0 181 -67 157 -219l-79 -494h-53l80 504c19 111 -27 163 -115 163c-93 0 -179 -63 -198 -175l-48 -310h-54z" />
    <glyph glyph-name="theta" unicode="&#x3b8;" horiz-adv-x="601" 
d="M564 534c0 -113 -32 -273 -75 -367c-51 -112 -125 -175 -236 -175c-125 0 -192 82 -192 243c0 140 37 326 108 429c55 79 124 112 204 112c125 0 191 -78 191 -242zM370 731c-64 0 -117 -31 -158 -92c-35 -53 -63 -127 -80 -223h368c7 43 9 85 9 117
c0 136 -44 198 -139 198zM255 37c69 0 123 34 164 102c33 55 58 132 74 231h-367c-9 -56 -11 -99 -11 -134c0 -133 47 -199 140 -199z" />
    <glyph glyph-name="iota" unicode="&#x3b9;" horiz-adv-x="222" 
d="M125 523h53l-82 -523h-54z" />
    <glyph glyph-name="kappa" unicode="&#x3ba;" horiz-adv-x="489" 
d="M137 270l296 253h67l-301 -254l230 -269h-61l-232 269l-42 -269h-54l83 523h54z" />
    <glyph glyph-name="lambda" unicode="&#x3bb;" horiz-adv-x="518" 
d="M35 0h-57l281 521l-34 162c-7 33 -20 48 -53 48c-17 0 -42 -5 -58 -10l7 44c20 7 41 11 64 11c52 0 79 -27 90 -83l122 -601c7 -31 19 -51 48 -51c11 0 27 3 36 6l-7 -45c-11 -3 -28 -6 -43 -6c-44 0 -73 26 -84 79l-72 378z" />
    <glyph glyph-name="uni03BC" unicode="&#x3bc;" horiz-adv-x="579" 
d="M477 146c-11 -67 -13 -111 -12 -146h-51c-1 31 1 73 8 112c-35 -64 -102 -118 -190 -118c-60 0 -107 25 -127 80l-40 -256h-54l112 705h53l-52 -327c-16 -105 32 -158 116 -158c90 0 178 64 194 173l49 312h53z" />
    <glyph glyph-name="nu" unicode="&#x3bd;" horiz-adv-x="504" 
d="M63 523h56l102 -472l245 472h57l-276 -523h-69z" />
    <glyph glyph-name="xi" unicode="&#x3be;" horiz-adv-x="503" 
d="M126 728l8 45h408l-7 -45h-119c-105 0 -226 -49 -226 -169c0 -64 57 -119 144 -119h119l-8 -46h-129c-120 0 -227 -73 -227 -200c0 -100 74 -147 171 -147h63c76 0 108 -27 108 -76c0 -37 -18 -85 -37 -125h-49c14 33 33 79 33 112c0 29 -18 42 -62 42h-62
c-116 0 -220 61 -220 193c0 120 91 206 207 230c-64 20 -107 72 -107 135c0 83 59 147 144 170h-152z" />
    <glyph glyph-name="omicron" unicode="&#x3bf;" horiz-adv-x="579" 
d="M267 -8c-140 0 -229 103 -229 235c0 165 111 303 274 303c144 0 229 -102 229 -233c0 -172 -109 -305 -274 -305zM269 37c135 0 217 112 217 259c0 108 -62 190 -176 190c-135 0 -218 -116 -218 -259c0 -108 65 -190 177 -190z" />
    <glyph glyph-name="pi" unicode="&#x3c0;" horiz-adv-x="584" 
d="M454 146c-11 -67 -13 -111 -12 -146h-53c-1 39 3 95 11 146l53 332h-267l-76 -478h-53l75 478h-77l7 45h529l-8 -45h-77z" />
    <glyph glyph-name="rho" unicode="&#x3c1;" horiz-adv-x="589" 
d="M289 36c132 0 205 108 205 258c0 110 -53 193 -164 193c-140 0 -219 -120 -219 -259c0 -113 74 -192 178 -192zM45 -182h-53l74 471c21 138 119 242 262 242c144 0 222 -104 222 -234c0 -171 -92 -305 -259 -305c-100 0 -171 61 -195 144z" />
    <glyph glyph-name="uni03C2" unicode="&#x3c2;" horiz-adv-x="546" 
d="M323 47c77 0 109 -27 109 -76c0 -37 -19 -85 -38 -125h-48c14 33 33 79 33 112c0 29 -18 42 -62 42h-49c-139 0 -228 89 -228 230c0 180 118 301 269 301c111 0 198 -62 203 -177h-51c-7 88 -67 132 -155 132c-126 0 -211 -104 -211 -256c0 -107 55 -183 178 -183h50z
" />
    <glyph glyph-name="sigma" unicode="&#x3c3;" horiz-adv-x="611" 
d="M266 -8c-136 0 -228 98 -228 233c0 157 98 298 274 298h290l-8 -45h-164c69 -31 111 -100 111 -184c0 -164 -102 -302 -275 -302zM268 37c140 0 217 117 217 256c0 109 -69 185 -177 185c-140 0 -215 -115 -215 -252c0 -110 63 -189 175 -189z" />
    <glyph glyph-name="tau" unicode="&#x3c4;" horiz-adv-x="448" 
d="M270 -7c-92 0 -119 68 -106 150l53 335h-172l7 45h401l-7 -45h-176l-53 -334c-8 -51 -3 -106 58 -106c33 0 63 5 87 12l-8 -45c-19 -7 -45 -12 -84 -12z" />
    <glyph glyph-name="upsilon" unicode="&#x3c5;" horiz-adv-x="566" 
d="M122 222c-16 -100 18 -184 133 -184c92 0 152 50 169 158l51 327h54l-52 -331c-24 -144 -114 -200 -222 -200c-140 0 -208 101 -187 232l47 299h54z" />
    <glyph glyph-name="phi" unicode="&#x3c6;" horiz-adv-x="718" 
d="M405 531c184 -5 275 -105 275 -234c0 -189 -142 -297 -334 -302l-28 -177h-53l28 179c-146 11 -255 98 -255 243c0 144 88 264 228 288l-4 -44c-111 -29 -169 -132 -169 -243c0 -119 75 -189 207 -201l78 490c7 0 18 1 27 1zM353 40c163 3 271 95 271 258
c0 108 -68 178 -201 187z" />
    <glyph glyph-name="chi" unicode="&#x3c7;" horiz-adv-x="521" 
d="M246 130l-215 -312h-58l255 364l-99 272c-11 27 -23 32 -39 32c-11 0 -23 -3 -35 -7l7 43c12 5 26 8 42 8c35 0 56 -9 71 -52l91 -251l200 296h59l-241 -348l97 -264c13 -35 24 -52 51 -52c8 0 23 3 32 6l-7 -45c-11 -3 -28 -6 -41 -6c-43 0 -62 24 -81 75z" />
    <glyph glyph-name="psi" unicode="&#x3c8;" horiz-adv-x="713" 
d="M118 259c-19 -113 32 -206 178 -217l75 481h54l-77 -481c161 8 224 84 243 194l45 287h54l-46 -287c-21 -141 -108 -233 -302 -238l-28 -180h-54l29 181c-177 16 -246 126 -224 264l41 260h54z" />
    <glyph glyph-name="omega" unicode="&#x3c9;" horiz-adv-x="732" 
d="M380 170c-13 -88 31 -133 94 -133c123 0 162 154 162 258c0 94 -25 175 -133 191l7 44c129 -16 181 -109 181 -234c0 -132 -58 -304 -216 -304c-76 0 -123 48 -132 111c-24 -63 -72 -111 -148 -111c-102 0 -159 85 -159 203c0 159 82 316 261 335l-8 -44
c-141 -24 -198 -159 -198 -295c0 -88 35 -154 108 -154c64 0 116 52 129 137l27 177h53z" />
    <glyph glyph-name="iotadieresis" unicode="&#x3ca;" horiz-adv-x="222" 
d="M125 523h53l-82 -523h-54zM88 636c-20 0 -36 16 -36 36s17 37 37 37s36 -16 36 -36s-16 -37 -37 -37zM255 636c-20 0 -36 16 -36 36s16 37 37 37c20 0 36 -16 36 -36s-17 -37 -37 -37z" />
    <glyph glyph-name="upsilondieresis" unicode="&#x3cb;" horiz-adv-x="566" 
d="M122 222c-16 -100 18 -184 133 -184c92 0 152 50 169 158l51 327h54l-52 -331c-24 -144 -114 -200 -222 -200c-140 0 -208 101 -187 232l47 299h54zM257 636c-20 0 -36 16 -36 36s17 37 37 37s36 -16 36 -36s-16 -37 -37 -37zM424 636c-20 0 -36 16 -36 36s16 37 37 37
c20 0 36 -16 36 -36s-17 -37 -37 -37z" />
    <glyph glyph-name="omicrontonos" unicode="&#x3cc;" horiz-adv-x="579" 
d="M267 -8c-140 0 -229 103 -229 235c0 165 111 303 274 303c144 0 229 -102 229 -233c0 -172 -109 -305 -274 -305zM269 37c135 0 217 112 217 259c0 108 -62 190 -176 190c-135 0 -218 -116 -218 -259c0 -108 65 -190 177 -190zM410 752h68l-112 -147h-44z" />
    <glyph glyph-name="upsilontonos" unicode="&#x3cd;" horiz-adv-x="566" 
d="M122 222c-16 -100 18 -184 133 -184c92 0 152 50 169 158l51 327h54l-52 -331c-24 -144 -114 -200 -222 -200c-140 0 -208 101 -187 232l47 299h54zM395 752h68l-112 -147h-44z" />
    <glyph glyph-name="omegatonos" unicode="&#x3ce;" horiz-adv-x="732" 
d="M380 170c-13 -88 31 -133 94 -133c123 0 162 154 162 258c0 94 -25 175 -133 191l7 44c129 -16 181 -109 181 -234c0 -132 -58 -304 -216 -304c-76 0 -123 48 -132 111c-24 -63 -72 -111 -148 -111c-102 0 -159 85 -159 203c0 159 82 316 261 335l-8 -44
c-141 -24 -198 -159 -198 -295c0 -88 35 -154 108 -154c64 0 116 52 129 137l27 177h53zM486 752h68l-112 -147h-44z" />
    <glyph glyph-name="uni0401" unicode="&#x401;" horiz-adv-x="569" 
d="M163 715h406l-8 -46h-350l-44 -279h288l-7 -46h-288l-47 -298h374l-8 -46h-429zM284 788c-21 0 -37 16 -37 36s17 37 37 37c21 0 36 -16 36 -36s-16 -37 -36 -37zM464 788c-20 0 -36 16 -36 36s16 37 37 37c20 0 36 -16 36 -36s-17 -37 -37 -37z" />
    <glyph glyph-name="uni0402" unicode="&#x402;" horiz-adv-x="769" 
d="M500 -7c-45 0 -78 9 -91 16l7 47c15 -7 49 -17 85 -17c96 0 157 77 157 196c0 93 -50 150 -159 150c-111 0 -169 -63 -188 -82l-47 -303h-56l105 669h-221l7 46h510l-8 -46h-232l-48 -307c33 27 90 70 180 70c147 0 211 -79 211 -196c0 -141 -83 -243 -212 -243z" />
    <glyph glyph-name="uni0403" unicode="&#x403;" horiz-adv-x="526" 
d="M408 893h68l-97 -122h-45zM163 715h387l-8 -46h-331l-105 -669h-56z" />
    <glyph glyph-name="uni0404" unicode="&#x404;" horiz-adv-x="725" 
d="M686 230c-40 -150 -162 -238 -309 -238c-194 0 -315 122 -315 317c0 227 150 415 378 415c136 0 252 -78 265 -224h-52c-20 116 -96 179 -215 179c-175 0 -289 -129 -313 -297h385l-8 -47h-381c0 -7 -1 -19 -1 -26c0 -171 90 -271 257 -271c125 0 217 71 256 192h53z" />
    <glyph glyph-name="uni0405" unicode="&#x405;" horiz-adv-x="600" 
d="M284 -8c-155 0 -253 85 -256 213h54c8 -99 74 -167 205 -167c116 0 193 60 193 165c0 79 -45 113 -172 147c-135 40 -201 82 -201 180c0 115 93 193 230 193c129 0 215 -61 222 -180h-52c-11 95 -75 134 -174 134c-111 0 -173 -53 -173 -145c0 -66 42 -99 168 -134
c141 -40 207 -83 207 -190c0 -130 -103 -216 -251 -216z" />
    <glyph glyph-name="uni0406" unicode="&#x406;" horiz-adv-x="251" 
d="M168 715h56l-113 -715h-56z" />
    <glyph glyph-name="uni0407" unicode="&#x407;" horiz-adv-x="251" 
d="M168 715h56l-113 -715h-56zM123 788c-21 0 -37 16 -37 36s17 37 37 37c21 0 36 -16 36 -36s-16 -37 -36 -37zM303 788c-20 0 -36 16 -36 36s16 37 37 37c20 0 36 -16 36 -36s-17 -37 -37 -37z" />
    <glyph glyph-name="uni0408" unicode="&#x408;" horiz-adv-x="401" 
d="M113 -7c-63 0 -95 15 -115 28l7 46c27 -15 59 -28 107 -28c76 0 122 38 137 133l85 543h56l-87 -548c-19 -125 -94 -174 -190 -174z" />
    <glyph glyph-name="uni0409" unicode="&#x409;" horiz-adv-x="992" 
d="M299 668c-19 -85 -63 -275 -103 -427c-45 -172 -99 -247 -179 -247c-17 0 -29 2 -38 5l-12 6l8 49c3 -2 7 -4 11 -5c7 -3 17 -4 32 -4c56 0 92 66 133 217c24 83 50 198 71 290c12 54 24 108 37 163h395l-48 -306h113c132 0 221 -56 221 -180c0 -165 -117 -229 -262 -229
h-193l106 668h-292zM681 45c129 0 204 57 204 184c0 96 -63 135 -171 135h-115l-50 -319h132z" />
    <glyph glyph-name="uni040A" unicode="&#x40a;" horiz-adv-x="1009" 
d="M697 45c131 0 204 45 204 167c0 93 -62 124 -170 124h-119l-47 -291h132zM50 0l113 715h56l-53 -333h397l52 333h56l-52 -333h117c132 0 221 -49 221 -170c0 -161 -117 -212 -262 -212h-193l53 335h-396l-53 -335h-56z" />
    <glyph glyph-name="uni040B" unicode="&#x40b;" horiz-adv-x="782" 
d="M500 385c-130 0 -185 -82 -190 -89l-46 -296h-56l105 669h-221l7 46h510l-8 -46h-232l-48 -307c32 27 87 70 182 70c160 0 218 -93 193 -250l-29 -182h-55l28 181c23 139 -21 204 -140 204z" />
    <glyph glyph-name="uni040C" unicode="&#x40c;" horiz-adv-x="599" 
d="M469 0l-304 367l398 348h66l-399 -346l302 -369h-63zM163 715h56l-113 -715h-56zM425 893h68l-97 -122h-45z" />
    <glyph glyph-name="uni040D" unicode="&#x40d;" horiz-adv-x="716" 
d="M50 0l113 715h55l-99 -635l533 635h54l-113 -715h-55l100 635l-534 -635h-54zM349 893h65l49 -122h-41z" />
    <glyph glyph-name="uni040E" unicode="&#x40e;" horiz-adv-x="587" 
d="M364 771c-72 0 -122 50 -123 123h46c4 -52 31 -85 78 -85s80 33 91 85h45c-8 -73 -69 -123 -137 -123zM125 -6c-33 0 -51 8 -54 11l7 48c3 -1 22 -9 47 -9c53 0 89 37 132 105l-167 566h57l145 -505l282 505h56l-315 -559c-61 -107 -107 -162 -190 -162z" />
    <glyph glyph-name="uni040F" unicode="&#x40f;" horiz-adv-x="707" 
d="M50 0l113 715h56l-105 -668h411l105 668h56l-113 -715h-236l-23 -130h-47l18 130h-235z" />
    <glyph glyph-name="uni0410" unicode="&#x410;" horiz-adv-x="641" 
d="M473 219h-322l-112 -219h-54l368 715h74l145 -715h-54zM174 264h290l-82 406z" />
    <glyph glyph-name="uni0411" unicode="&#x411;" horiz-adv-x="575" 
d="M519 228c0 -165 -117 -228 -262 -228h-207l113 715h381l-8 -46h-325l-41 -262h129c131 0 220 -55 220 -179zM260 45c131 0 204 56 204 183c0 97 -62 133 -170 133h-131l-50 -316h147z" />
    <glyph glyph-name="uni0412" unicode="&#x412;" 
d="M163 715h193c125 0 198 -55 197 -163c0 -100 -53 -155 -149 -180c88 -16 134 -71 135 -156c0 -136 -99 -216 -243 -216h-246zM296 45c117 0 188 63 188 172c0 84 -51 132 -171 132h-153l-49 -304h185zM316 393c104 0 183 46 183 157c0 79 -49 120 -145 120h-143l-44 -277
h149z" />
    <glyph glyph-name="uni0413" unicode="&#x413;" horiz-adv-x="526" 
d="M163 715h387l-8 -46h-331l-105 -669h-56z" />
    <glyph glyph-name="uni0414" unicode="&#x414;" horiz-adv-x="696" 
d="M188 255c-31 -115 -58 -181 -94 -208h404l97 621h-301c-21 -83 -66 -274 -106 -413zM-2 -130h-47l29 177h47c45 19 77 90 112 215c24 84 52 198 76 290c13 54 27 108 41 163h402l-105 -668h100l-28 -177h-47l17 130h-572z" />
    <glyph glyph-name="uni0415" unicode="&#x415;" horiz-adv-x="569" 
d="M163 715h406l-8 -46h-350l-44 -279h288l-7 -46h-288l-47 -298h374l-8 -46h-429z" />
    <glyph glyph-name="uni0416" unicode="&#x416;" horiz-adv-x="858" 
d="M415 0h-55l113 715h55zM833 715h66l-365 -347l267 -368h-62l-263 368zM35 0h-70l394 374l-250 341h59l249 -348z" />
    <glyph glyph-name="uni0417" unicode="&#x417;" horiz-adv-x="587" 
d="M277 -8c-145 0 -236 83 -247 220h53c11 -105 74 -175 195 -175c126 0 191 76 191 175c0 84 -53 137 -166 137h-99l7 44h95c120 0 182 60 182 152c0 83 -49 134 -149 134c-99 0 -162 -62 -186 -145h-54c32 121 117 190 242 190c120 0 201 -63 201 -176
c0 -89 -59 -156 -148 -176c81 -21 129 -73 129 -162c0 -128 -90 -218 -246 -218z" />
    <glyph glyph-name="uni0418" unicode="&#x418;" horiz-adv-x="716" 
d="M50 0l113 715h55l-99 -635l533 635h54l-113 -715h-55l100 635l-534 -635h-54z" />
    <glyph glyph-name="uni0419" unicode="&#x419;" horiz-adv-x="716" 
d="M437 771c-72 0 -123 50 -123 123h46c3 -52 30 -85 77 -85c48 0 80 33 91 85h46c-8 -73 -70 -123 -137 -123zM50 0l113 715h55l-99 -635l533 635h54l-113 -715h-55l100 635l-534 -635h-54z" />
    <glyph glyph-name="uni041A" unicode="&#x41a;" horiz-adv-x="599" 
d="M469 0l-304 367l398 348h66l-399 -346l302 -369h-63zM163 715h56l-113 -715h-56z" />
    <glyph glyph-name="uni041B" unicode="&#x41b;" horiz-adv-x="686" 
d="M198 241c-45 -172 -100 -247 -181 -247c-17 0 -29 2 -38 5l-12 6l8 49c3 -2 7 -4 11 -5c7 -3 17 -4 32 -4c56 0 92 66 133 217c24 83 50 198 71 290c12 54 24 108 37 163h405l-113 -715h-56l106 668h-300c-19 -85 -63 -275 -103 -427z" />
    <glyph glyph-name="uni041C" unicode="&#x41c;" horiz-adv-x="851" 
d="M163 715h78l155 -614l350 614h80l-113 -715h-55l102 645l-371 -645h-18l-167 645l-102 -645h-52z" />
    <glyph glyph-name="uni041D" unicode="&#x41d;" horiz-adv-x="717" 
d="M163 715h56l-53 -333h421l53 333h56l-113 -715h-56l53 335h-421l-53 -335h-56z" />
    <glyph glyph-name="uni041E" unicode="&#x41e;" horiz-adv-x="797" 
d="M763 396c0 -221 -158 -404 -375 -404c-200 0 -326 141 -326 329c0 216 160 402 380 402c200 0 321 -146 321 -327zM706 396c0 153 -96 281 -265 281c-194 0 -321 -164 -321 -356c-3 -164 105 -282 269 -282c189 0 317 160 317 357z" />
    <glyph glyph-name="uni041F" unicode="&#x41f;" horiz-adv-x="707" 
d="M622 668h-411l-105 -668h-56l113 715h523l-113 -715h-56z" />
    <glyph glyph-name="uni0420" unicode="&#x420;" horiz-adv-x="568" 
d="M163 715h180c131 0 220 -56 220 -180c0 -165 -117 -229 -262 -229h-147l-48 -306h-56zM304 351c129 0 204 58 204 183c0 97 -63 135 -171 135h-126l-50 -318h143z" />
    <glyph glyph-name="uni0421" unicode="&#x421;" horiz-adv-x="725" 
d="M377 -8c-194 0 -315 122 -315 317c0 227 150 415 378 415c136 0 252 -78 265 -224h-52c-20 116 -96 179 -215 179c-200 0 -318 -167 -318 -370c0 -171 90 -271 257 -271c125 0 217 71 256 192h53c-40 -150 -162 -238 -309 -238z" />
    <glyph glyph-name="uni0422" unicode="&#x422;" horiz-adv-x="559" 
d="M313 669h-221l7 46h500l-8 -46h-222l-105 -669h-56z" />
    <glyph glyph-name="uni0423" unicode="&#x423;" horiz-adv-x="587" 
d="M125 -6c-33 0 -51 8 -54 11l7 48c3 -1 22 -9 47 -9c53 0 89 37 132 105l-167 566h57l145 -505l282 505h56l-315 -559c-61 -107 -107 -162 -190 -162z" />
    <glyph glyph-name="uni0424" unicode="&#x424;" horiz-adv-x="807" 
d="M332 -10l14 93c-181 8 -289 100 -289 249v7c0 188 150 300 376 300l14 86h55l-14 -86c180 -8 290 -102 290 -251v-7c0 -189 -150 -298 -377 -298l-14 -93h-55zM114 331c0 -129 91 -199 239 -206l73 473c-193 -3 -312 -93 -312 -259v-8zM721 385c0 133 -92 207 -239 212
l-74 -472c195 0 313 89 313 253v7z" />
    <glyph glyph-name="uni0425" unicode="&#x425;" horiz-adv-x="614" 
d="M294 373l-171 342h58l154 -305l243 305h60l-281 -349l183 -366h-59l-166 329l-266 -329h-59z" />
    <glyph glyph-name="uni0426" unicode="&#x426;" horiz-adv-x="724" 
d="M604 -130l18 130h-572l113 715h56l-105 -668h411l105 668h56l-105 -668h99l-29 -177h-47z" />
    <glyph glyph-name="uni0427" unicode="&#x427;" horiz-adv-x="636" 
d="M446 0l55 353c-32 -29 -97 -70 -201 -70c-153 0 -226 85 -199 250l29 182h56l-28 -181c-23 -139 21 -204 144 -204c120 0 182 60 209 82l48 303h55l-113 -715h-55z" />
    <glyph glyph-name="uni0428" unicode="&#x428;" horiz-adv-x="968" 
d="M163 715h56l-105 -668h308l105 668h56l-105 -668h308l105 668h56l-113 -715h-784z" />
    <glyph glyph-name="uni0429" unicode="&#x429;" horiz-adv-x="984" 
d="M865 -130l18 130h-833l113 715h56l-105 -668h308l105 668h56l-105 -668h308l105 668h56l-106 -668h100l-29 -177h-47z" />
    <glyph glyph-name="uni042A" unicode="&#x42a;" horiz-adv-x="663" 
d="M146 0l106 669h-170l7 46h226l-48 -306h123c132 0 221 -56 221 -180c0 -165 -117 -229 -262 -229h-203zM352 45c129 0 204 57 204 184c0 96 -63 135 -171 135h-125l-51 -319h143z" />
    <glyph glyph-name="uni042B" unicode="&#x42b;" horiz-adv-x="760" 
d="M50 0l113 715h56l-48 -306h123c132 0 221 -56 221 -180c0 -165 -117 -229 -262 -229h-203zM683 715h56l-113 -715h-56zM255 45c131 0 205 57 205 184c0 96 -63 135 -171 135h-126l-50 -319h142z" />
    <glyph glyph-name="uni042C" unicode="&#x42c;" horiz-adv-x="567" 
d="M50 0l113 715h56l-48 -306h123c132 0 221 -56 221 -180c0 -165 -117 -229 -262 -229h-203zM255 45c131 0 205 57 205 184c0 96 -63 135 -171 135h-126l-50 -319h142z" />
    <glyph glyph-name="uni042D" unicode="&#x42d;" horiz-adv-x="723" 
d="M318 -8c-147 0 -267 81 -283 236h53c21 -125 103 -191 232 -191c171 0 282 127 306 298h-383l8 47h380c1 9 1 19 1 28c0 165 -94 268 -245 268c-120 0 -202 -57 -250 -168h-54c52 141 163 214 304 214c180 0 303 -125 303 -313c0 -233 -151 -419 -372 -419z" />
    <glyph glyph-name="uni042E" unicode="&#x42e;" horiz-adv-x="998" 
d="M601 -8c-200 0 -313 141 -313 329v14h-129l-53 -335h-56l113 715h56l-53 -333h126c24 189 164 341 363 341c200 0 309 -146 309 -327c0 -221 -146 -404 -363 -404zM907 396c0 153 -85 281 -253 281c-195 0 -306 -164 -309 -356c0 -164 91 -282 257 -282
c189 0 305 160 305 357z" />
    <glyph glyph-name="uni042F" unicode="&#x42f;" horiz-adv-x="600" 
d="M466 354l50 316h-148c-131 0 -204 -58 -204 -175c0 -100 62 -141 170 -141h132zM50 0h-65l266 321c-91 17 -143 74 -143 174c0 155 117 220 262 220h209l-113 -715h-56l49 309h-130c-9 0 -18 1 -25 2z" />
    <glyph glyph-name="uni0430" unicode="&#x430;" horiz-adv-x="527" 
d="M201 -8c-113 0 -171 61 -171 145c0 125 111 163 238 163h135l6 42c15 95 -18 144 -121 144c-76 0 -130 -31 -151 -111h-53c27 116 120 156 206 156c125 0 192 -64 172 -193l-30 -188c-11 -71 -14 -113 -11 -150h-51c-1 25 0 59 3 86c-33 -55 -95 -94 -172 -94zM207 35
c88 0 162 51 175 138l14 86h-127c-110 0 -186 -24 -186 -122c0 -57 37 -102 124 -102z" />
    <glyph glyph-name="uni0431" unicode="&#x431;" horiz-adv-x="585" 
d="M273 -8c-144 0 -226 104 -226 244c0 41 4 72 9 105c43 253 113 426 375 429c88 1 134 7 159 14l-8 -46c-23 -8 -66 -15 -154 -16c-200 -3 -270 -106 -318 -315h3c36 71 110 123 210 123c146 0 224 -104 224 -235c0 -173 -109 -303 -274 -303zM276 37
c133 0 216 110 216 257c0 107 -56 192 -176 192c-135 0 -216 -116 -216 -250c0 -112 57 -199 176 -199z" />
    <glyph glyph-name="uni0432" unicode="&#x432;" horiz-adv-x="518" 
d="M123 523h184c103 0 159 -40 159 -119c0 -72 -48 -116 -121 -131c57 -8 109 -40 109 -114c0 -92 -71 -159 -199 -159h-215zM169 483l-29 -191h132c95 0 137 47 137 108c0 60 -37 83 -110 83h-130zM133 252l-33 -212h152c97 0 146 48 146 116s-39 96 -128 96h-137z" />
    <glyph glyph-name="uni0433" unicode="&#x433;" horiz-adv-x="437" 
d="M168 478l-75 -478h-53l83 523h315l-7 -45h-263z" />
    <glyph glyph-name="uni0434" unicode="&#x434;" horiz-adv-x="569" 
d="M444 478h-227c-5 -20 -31 -155 -55 -238c-27 -99 -49 -164 -86 -195h299zM-50 -127l28 172h32c48 15 73 88 108 211c13 48 28 113 40 169c7 32 14 65 20 98h326l-76 -478h86l-28 -172h-44l14 127h-435l-27 -127h-44z" />
    <glyph glyph-name="uni0435" unicode="&#x435;" horiz-adv-x="542" 
d="M93 215c0 -113 55 -178 168 -178c84 0 142 37 169 109h53c-33 -104 -119 -154 -224 -154c-143 0 -221 89 -221 225c0 174 108 314 267 314c148 0 222 -99 198 -258l-2 -16h-406c-3 -15 -2 -27 -2 -42zM303 486c-103 0 -178 -69 -202 -186h353c13 116 -35 186 -151 186z
" />
    <glyph glyph-name="uni0436" unicode="&#x436;" horiz-adv-x="687" 
d="M44 0h-67l291 283l-180 240h58l177 -246zM631 523h63l-262 -248l193 -275h-58l-191 276zM376 276l-44 -276h-52l83 523h52z" />
    <glyph glyph-name="uni0437" unicode="&#x437;" horiz-adv-x="480" 
d="M219 -8c-124 0 -191 62 -199 158h52c7 -68 51 -115 146 -115s143 58 143 118c0 59 -36 96 -120 96h-75l7 44h70c84 0 133 39 133 107c0 49 -34 88 -110 88c-73 0 -125 -38 -144 -107h-51c23 97 98 149 197 149c101 0 164 -51 164 -127c0 -69 -50 -118 -122 -130
c67 -11 107 -55 107 -119c0 -86 -77 -162 -198 -162z" />
    <glyph glyph-name="uni0438" unicode="&#x438;" horiz-adv-x="581" 
d="M40 0l83 523h53l-72 -450l384 450h51l-83 -523h-53l71 448l-383 -448h-51z" />
    <glyph glyph-name="uni0439" unicode="&#x439;" horiz-adv-x="581" 
d="M344 610c-72 0 -119 49 -119 121h46c3 -51 27 -82 74 -82s76 31 87 82h45c-8 -73 -65 -121 -133 -121zM40 0l83 523h53l-72 -450l384 450h51l-83 -523h-53l71 448l-383 -448h-51z" />
    <glyph glyph-name="uni043A" unicode="&#x43a;" horiz-adv-x="484" 
d="M137 279l-44 -279h-53l83 523h53l-39 -244l287 244h68l-293 -245l226 -278h-62z" />
    <glyph glyph-name="uni043B" unicode="&#x43b;" horiz-adv-x="553" 
d="M175 231c-45 -167 -80 -236 -159 -236c-13 0 -22 2 -29 5c-3 1 -6 3 -9 5l8 49l8 -4c7 -3 14 -4 22 -4c54 0 77 63 115 205c19 76 50 216 63 272h318l-83 -523h-53l75 478h-218c-16 -70 -39 -176 -58 -247z" />
    <glyph glyph-name="uni043C" unicode="&#x43c;" horiz-adv-x="696" 
d="M518 0l73 456l-279 -456h-17l-133 458l-73 -458h-49l84 523h72l124 -432l262 432h73l-84 -523h-53z" />
    <glyph glyph-name="uni043D" unicode="&#x43d;" horiz-adv-x="571" 
d="M432 248h-300l-39 -248h-53l83 523h53l-37 -230h301l36 230h53l-83 -523h-53z" />
    <glyph glyph-name="uni043E" unicode="&#x43e;" horiz-adv-x="579" 
d="M267 -8c-140 0 -229 103 -229 235c0 165 111 303 274 303c144 0 229 -102 229 -233c0 -172 -109 -305 -274 -305zM269 37c135 0 217 112 217 259c0 108 -62 190 -176 190c-135 0 -218 -116 -218 -259c0 -108 65 -190 177 -190z" />
    <glyph glyph-name="uni043F" unicode="&#x43f;" horiz-adv-x="561" 
d="M459 478h-291l-75 -478h-53l83 523h396l-83 -523h-53z" />
    <glyph glyph-name="uni0440" unicode="&#x440;" horiz-adv-x="608" 
d="M359 531c119 0 210 -92 210 -233c0 -167 -91 -306 -258 -306c-120 0 -177 77 -196 141l-51 -315h-53l86 541c12 80 16 127 17 164h50c0 -28 -4 -83 -11 -123c39 77 114 131 206 131zM309 36c133 0 204 114 204 259c0 121 -69 192 -162 192c-132 0 -221 -117 -221 -258
c0 -120 72 -193 179 -193z" />
    <glyph glyph-name="uni0441" unicode="&#x441;" horiz-adv-x="547" 
d="M276 -8c-149 0 -236 98 -236 238c0 180 120 301 270 301c112 0 196 -62 204 -177h-51c-7 89 -67 132 -155 132c-127 0 -213 -104 -213 -256c0 -121 67 -193 182 -193c88 0 158 50 178 142h51c-25 -123 -117 -187 -230 -187z" />
    <glyph glyph-name="uni0442" unicode="&#x442;" horiz-adv-x="460" 
d="M280 478l-76 -478h-53l75 478h-183l7 45h421l-7 -45h-184z" />
    <glyph glyph-name="uni0443" unicode="&#x443;" horiz-adv-x="494" 
d="M191 48l-128 475h54l110 -417l228 417h57l-396 -705h-56z" />
    <glyph glyph-name="uni0444" unicode="&#x444;" horiz-adv-x="668" 
d="M237 -182l28 174c-143 13 -227 98 -227 231v8c0 178 132 294 311 299l39 243h53l-39 -243c144 -12 227 -99 227 -231v-7c0 -179 -132 -295 -311 -300l-28 -174h-53zM92 223c0 -113 66 -180 179 -189l72 455c-147 -5 -251 -102 -251 -258v-8zM574 299
c0 113 -63 181 -178 190l-72 -456c147 5 250 104 250 259v7z" />
    <glyph glyph-name="uni0445" unicode="&#x445;" horiz-adv-x="489" 
d="M213 275l-140 248h60l117 -210l179 210h60l-214 -254l151 -269h-61l-128 232l-197 -232h-61z" />
    <glyph glyph-name="uni0446" unicode="&#x446;" horiz-adv-x="582" 
d="M456 -127l14 127h-430l83 523h53l-76 -478h291l75 478h53l-75 -478h83l-27 -172h-44z" />
    <glyph glyph-name="uni0447" unicode="&#x447;" horiz-adv-x="525" 
d="M348 0l41 257c-29 -27 -83 -65 -161 -65c-106 0 -173 61 -149 205l20 126h53l-21 -131c-17 -105 20 -154 107 -154c103 0 152 58 158 64l35 221h53l-83 -523h-53z" />
    <glyph glyph-name="uni0448" unicode="&#x448;" horiz-adv-x="824" 
d="M123 523h53l-76 -478h251l75 478h53l-75 -478h250l76 478h53l-83 -523h-660z" />
    <glyph glyph-name="uni0449" unicode="&#x449;" horiz-adv-x="846" 
d="M720 -127l14 127h-694l83 523h53l-76 -478h251l75 478h53l-75 -478h250l76 478h53l-76 -478h84l-27 -172h-44z" />
    <glyph glyph-name="uni044A" unicode="&#x44a;" horiz-adv-x="547" 
d="M187 478h-144l7 45h198l-32 -201h99c119 0 180 -57 180 -145c0 -116 -82 -177 -213 -177h-170zM209 277l-37 -233h118c100 0 149 51 149 128c0 68 -40 105 -132 105h-98z" />
    <glyph glyph-name="uni044B" unicode="&#x44b;" horiz-adv-x="649" 
d="M555 523h53l-83 -523h-53zM123 523h53l-32 -201h99c119 0 180 -57 180 -145c0 -116 -82 -177 -213 -177h-170zM137 277l-37 -233h118c100 0 149 51 149 128c0 68 -40 105 -132 105h-98z" />
    <glyph glyph-name="uni044C" unicode="&#x44c;" horiz-adv-x="475" 
d="M123 523h53l-32 -201h99c119 0 180 -57 180 -145c0 -116 -82 -177 -213 -177h-170zM137 277l-37 -233h118c100 0 149 51 149 128c0 68 -40 105 -132 105h-98z" />
    <glyph glyph-name="uni044D" unicode="&#x44d;" horiz-adv-x="554" 
d="M248 -8c-116 0 -206 72 -214 184h51c9 -87 74 -139 166 -139c120 0 192 83 207 208h-279l8 45h274v12c-1 117 -69 184 -173 184c-84 0 -152 -46 -179 -131h-51c32 114 121 175 229 175c144 0 229 -98 229 -238c0 -180 -110 -300 -268 -300z" />
    <glyph glyph-name="uni044E" unicode="&#x44e;" horiz-adv-x="763" 
d="M462 -8c-137 0 -220 103 -220 235c0 7 0 14 1 21h-111l-39 -248h-53l83 523h53l-37 -230h109c24 135 119 237 259 237c139 0 218 -102 218 -233c0 -172 -103 -305 -263 -305zM464 37c130 0 206 112 206 259c0 108 -57 190 -166 190c-131 0 -208 -116 -208 -259
c0 -108 56 -190 168 -190z" />
    <glyph glyph-name="uni044F" unicode="&#x44f;" horiz-adv-x="502" 
d="M366 257l35 222h-128c-89 0 -145 -39 -145 -119c0 -69 43 -103 130 -103h108zM54 0h-63l190 224c-67 15 -107 60 -107 132c0 115 91 167 203 167h184l-83 -523h-53l34 214h-112c-6 0 -10 0 -13 1z" />
    <glyph glyph-name="uni0451" unicode="&#x451;" horiz-adv-x="542" 
d="M93 215c0 -113 55 -178 168 -178c84 0 142 37 169 109h53c-33 -104 -119 -154 -224 -154c-143 0 -221 89 -221 225c0 174 108 314 267 314c148 0 222 -99 198 -258l-2 -16h-406c-3 -15 -2 -27 -2 -42zM303 486c-103 0 -178 -69 -202 -186h353c13 116 -35 186 -151 186z
M240 636c-20 0 -36 16 -36 36s17 37 37 37s36 -16 36 -36s-16 -37 -37 -37zM407 636c-20 0 -36 16 -36 36s16 37 37 37c20 0 36 -16 36 -36s-17 -37 -37 -37z" />
    <glyph glyph-name="uni0452" unicode="&#x452;" horiz-adv-x="577" 
d="M448 -60c-15 -87 -57 -126 -150 -127l7 44c60 3 81 30 90 86l60 379c19 115 -27 163 -115 163c-93 0 -179 -63 -198 -175l-49 -310h-53l99 623h-79l7 41h77l18 109h53l-18 -109h187l-7 -41h-185l-33 -207c33 60 98 115 191 115c112 0 181 -67 157 -219z" />
    <glyph glyph-name="uni0453" unicode="&#x453;" horiz-adv-x="437" 
d="M346 752h68l-112 -147h-44zM168 478l-75 -478h-53l83 523h315l-7 -45h-263z" />
    <glyph glyph-name="uni0454" unicode="&#x454;" horiz-adv-x="547" 
d="M506 178c-25 -121 -117 -186 -230 -186c-149 0 -236 98 -236 238c0 180 120 300 270 300c112 0 196 -62 204 -176h-51c-7 88 -67 131 -155 131c-108 0 -189 -76 -208 -192h273l-7 -45h-271v-18c0 -121 67 -194 182 -194c88 0 158 50 178 142h51z" />
    <glyph glyph-name="uni0455" unicode="&#x455;" horiz-adv-x="463" 
d="M216 -9c-127 0 -194 65 -197 165h52c5 -72 45 -120 146 -120c80 0 133 35 133 106c0 55 -33 79 -121 103c-111 29 -157 66 -157 142c0 96 83 144 176 144c96 0 170 -41 178 -142h-51c-5 63 -49 97 -128 97c-75 0 -124 -32 -124 -96c0 -51 31 -74 122 -98
c102 -27 157 -58 157 -148c0 -96 -79 -153 -186 -153z" />
    <glyph glyph-name="uni0456" unicode="&#x456;" horiz-adv-x="221" 
d="M173 635c-21 0 -37 17 -37 37c0 21 17 38 38 38c20 0 37 -16 37 -37c0 -20 -17 -38 -38 -38zM125 523h53l-83 -523h-53z" />
    <glyph glyph-name="uni0457" unicode="&#x457;" horiz-adv-x="221" 
d="M101 636c-20 0 -37 16 -37 36s17 37 37 37c21 0 36 -16 36 -36s-16 -37 -36 -37zM249 636c-21 0 -37 16 -37 36s17 37 37 37s36 -16 36 -36s-16 -37 -36 -37zM125 523h53l-83 -523h-53z" />
    <glyph glyph-name="uni0458" unicode="&#x458;" horiz-adv-x="221" 
d="M-57 -143c60 3 81 30 90 86l92 580h53l-92 -583c-15 -87 -57 -126 -150 -127zM173 635c-21 0 -37 17 -37 37c0 21 17 38 38 38c20 0 37 -16 37 -37c0 -20 -17 -38 -38 -38z" />
    <glyph glyph-name="uni0459" unicode="&#x459;" horiz-adv-x="789" 
d="M175 231c-45 -167 -80 -236 -159 -236c-13 0 -22 2 -29 5c-3 1 -6 3 -9 5l8 49l8 -4c7 -3 14 -4 22 -4c54 0 77 63 115 205c19 76 50 216 63 272h302l-32 -201h94c119 0 179 -57 179 -145c0 -116 -83 -177 -212 -177h-165l75 478h-202c-16 -70 -39 -176 -58 -247z
M457 277l-37 -233h113c100 0 148 51 148 128c0 68 -39 105 -131 105h-93z" />
    <glyph glyph-name="uni045A" unicode="&#x45a;" horiz-adv-x="798" 
d="M466 253l-32 -209h113c95 0 143 38 143 113c0 68 -39 96 -127 96h-97zM413 248h-281l-39 -248h-53l83 523h53l-37 -230h281l36 230h54l-36 -226h97c115 0 176 -47 176 -135c0 -116 -83 -162 -208 -162h-166z" />
    <glyph glyph-name="uni045B" unicode="&#x45b;" horiz-adv-x="577" 
d="M67 664h78l17 109h53l-17 -109h186l-7 -41h-186l-32 -207c33 60 98 115 191 115c112 0 181 -67 157 -219l-50 -312h-53l51 322c19 115 -27 163 -115 163c-93 0 -179 -63 -198 -175l-49 -310h-53l98 623h-78z" />
    <glyph glyph-name="uni045C" unicode="&#x45c;" horiz-adv-x="484" 
d="M137 279l-44 -279h-53l83 523h53l-39 -244l287 244h68l-293 -245l226 -278h-62zM357 752h68l-112 -147h-44z" />
    <glyph glyph-name="uni045D" unicode="&#x45d;" horiz-adv-x="581" 
d="M40 0l83 523h53l-72 -450l384 450h51l-83 -523h-53l71 448l-383 -448h-51zM249 752h64l50 -147h-41z" />
    <glyph glyph-name="uni045E" unicode="&#x45e;" horiz-adv-x="494" 
d="M292 610c-72 0 -119 49 -119 121h46c3 -51 27 -82 74 -82s76 31 87 82h45c-8 -73 -65 -121 -133 -121zM191 48l-128 475h54l110 -417l228 417h57l-396 -705h-56z" />
    <glyph glyph-name="uni045F" unicode="&#x45f;" horiz-adv-x="561" 
d="M40 0l83 523h53l-76 -478h291l75 478h53l-83 -523h-174l-23 -127h-43l18 127h-174z" />
    <glyph glyph-name="uni0490" unicode="&#x490;" horiz-adv-x="532" 
d="M106 0h-56l113 715h338l23 130h47l-27 -178h-333z" />
    <glyph glyph-name="uni0491" unicode="&#x491;" horiz-adv-x="429" 
d="M170 478l-76 -478h-53l83 523h262l28 127h43l-28 -172h-259z" />
    <glyph glyph-name="Wgrave" unicode="&#x1e80;" horiz-adv-x="903" 
d="M95 715h56l66 -631l283 631h36l85 -633l268 633h53l-305 -715h-55l-80 613l-276 -613h-53zM432 893h65l49 -122h-41z" />
    <glyph glyph-name="wgrave" unicode="&#x1e81;" horiz-adv-x="763" 
d="M67 523h56l63 -461l212 461h46l66 -461l207 461h56l-241 -523h-61l-63 439l-204 -439h-60zM335 752h64l50 -147h-41z" />
    <glyph glyph-name="Wacute" unicode="&#x1e82;" horiz-adv-x="903" 
d="M95 715h56l66 -631l283 631h36l85 -633l268 633h53l-305 -715h-55l-80 613l-276 -613h-53zM572 893h68l-97 -122h-45z" />
    <glyph glyph-name="wacute" unicode="&#x1e83;" horiz-adv-x="763" 
d="M67 523h56l63 -461l212 461h46l66 -461l207 461h56l-241 -523h-61l-63 439l-204 -439h-60zM499 752h68l-112 -147h-44z" />
    <glyph glyph-name="Wdieresis" unicode="&#x1e84;" horiz-adv-x="903" 
d="M95 715h56l66 -631l283 631h36l85 -633l268 633h53l-305 -715h-55l-80 613l-276 -613h-53zM440 788c-21 0 -37 16 -37 36s17 37 37 37c21 0 36 -16 36 -36s-16 -37 -36 -37zM620 788c-20 0 -36 16 -36 36s16 37 37 37c20 0 36 -16 36 -36s-17 -37 -37 -37z" />
    <glyph glyph-name="wdieresis" unicode="&#x1e85;" horiz-adv-x="763" 
d="M67 523h56l63 -461l212 461h46l66 -461l207 461h56l-241 -523h-61l-63 439l-204 -439h-60zM357 636c-20 0 -36 16 -36 36s17 37 37 37s36 -16 36 -36s-16 -37 -37 -37zM524 636c-20 0 -36 16 -36 36s16 37 37 37c20 0 36 -16 36 -36s-17 -37 -37 -37z" />
    <glyph glyph-name="Ygrave" unicode="&#x1ef2;" horiz-adv-x="579" 
d="M272 318l-184 397h59l161 -351l255 351h58l-294 -401l-49 -314h-56zM275 893h65l49 -122h-41z" />
    <glyph glyph-name="ygrave" unicode="&#x1ef3;" horiz-adv-x="498" 
d="M191 48l-128 475h54l110 -417l228 417h57l-396 -705h-56zM204 752h64l50 -147h-41z" />
    <glyph glyph-name="uni2009" unicode="&#x2009;" horiz-adv-x="109" 
 />
    <glyph glyph-name="endash" unicode="&#x2013;" horiz-adv-x="507" 
d="M51 300h410l-7 -45h-411z" />
    <glyph glyph-name="emdash" unicode="&#x2014;" horiz-adv-x="873" 
d="M51 300h776l-8 -45h-776z" />
    <glyph glyph-name="quoteleft" unicode="&#x2018;" horiz-adv-x="211" 
d="M89 551l104 171l33 -17l-87 -177z" />
    <glyph glyph-name="quoteright" unicode="&#x2019;" horiz-adv-x="211" 
d="M93 545l86 177l50 -23l-104 -171z" />
    <glyph glyph-name="quotesinglbase" unicode="&#x201a;" horiz-adv-x="211" 
d="M-12 -70l86 177l49 -23l-104 -171z" />
    <glyph glyph-name="quotedblleft" unicode="&#x201c;" horiz-adv-x="350" 
d="M89 551l104 171l33 -17l-87 -177zM229 551l103 171l33 -17l-87 -177z" />
    <glyph glyph-name="quotedblright" unicode="&#x201d;" horiz-adv-x="350" 
d="M93 545l86 177l50 -23l-104 -171zM232 545l87 177l50 -23l-104 -171z" />
    <glyph glyph-name="quotedblbase" unicode="&#x201e;" horiz-adv-x="350" 
d="M-12 -70l86 177l49 -23l-104 -171zM127 -70l87 177l49 -23l-104 -171z" />
    <glyph glyph-name="dagger" unicode="&#x2020;" horiz-adv-x="353" 
d="M193 536h-119l7 44h119l21 135h49l-22 -135h119l-7 -44h-118l-50 -315h-49z" />
    <glyph glyph-name="daggerdbl" unicode="&#x2021;" horiz-adv-x="353" 
d="M193 536h-119l7 44h119l21 135h49l-22 -135h119l-7 -44h-118l-22 -136h118l-7 -44h-117l-22 -135h-49l22 135h-119l6 44h119z" />
    <glyph glyph-name="bullet" unicode="&#x2022;" horiz-adv-x="320" 
d="M160 199c-60 0 -102 46 -102 102c0 61 46 110 110 110c60 0 103 -45 103 -101c0 -61 -44 -111 -111 -111z" />
    <glyph glyph-name="ellipsis" unicode="&#x2026;" horiz-adv-x="701" 
d="M78 -5c-24 0 -43 19 -43 42c0 24 19 43 42 43c24 0 43 -19 43 -43c0 -23 -19 -42 -42 -42zM312 -5c-24 0 -43 19 -43 42c0 24 19 43 42 43c24 0 43 -19 43 -43c0 -23 -19 -42 -42 -42zM546 -5c-24 0 -43 19 -43 42c0 24 18 43 42 43c23 0 43 -19 43 -43
c0 -23 -19 -42 -42 -42z" />
    <glyph glyph-name="perthousand" unicode="&#x2030;" horiz-adv-x="1109" 
d="M133 546c0 -55 33 -100 97 -100c67 0 114 54 114 129c0 53 -34 103 -97 103c-71 0 -114 -60 -114 -132zM229 404c-84 0 -145 62 -145 144c0 92 71 172 165 172c84 0 144 -64 144 -147c0 -96 -73 -169 -164 -169zM647 715h53l-567 -715h-52zM431 136
c0 -56 33 -101 97 -101c67 0 114 54 114 129c0 54 -34 104 -97 104c-71 0 -114 -60 -114 -132zM527 -7c-84 0 -145 62 -145 145c0 92 71 172 165 172c84 0 144 -64 144 -147c0 -96 -73 -170 -164 -170zM789 136c0 -56 33 -101 97 -101c67 0 114 54 114 129
c0 54 -34 104 -97 104c-71 0 -114 -60 -114 -132zM885 -7c-84 0 -145 62 -145 145c0 92 71 172 165 172c84 0 143 -64 143 -147c0 -96 -71 -170 -163 -170z" />
    <glyph glyph-name="uni2032" unicode="&#x2032;" horiz-adv-x="178" 
d="M139 715h60l-80 -209h-40z" />
    <glyph glyph-name="uni2033" unicode="&#x2033;" horiz-adv-x="309" 
d="M139 715h60l-80 -209h-40zM270 715h60l-80 -209h-41z" />
    <glyph glyph-name="guilsinglleft" unicode="&#x2039;" horiz-adv-x="294" 
d="M53 262l163 177h56l-162 -180l102 -176h-52z" />
    <glyph glyph-name="guilsinglright" unicode="&#x203a;" horiz-adv-x="294" 
d="M235 260l-163 -177h-56l162 180l-102 176h52z" />
    <glyph glyph-name="fraction" unicode="&#x2044;" horiz-adv-x="117" 
d="M343 715h47l-593 -715h-47z" />
    <glyph glyph-name="Euro" unicode="&#x20ac;" horiz-adv-x="657" 
d="M60 444h69c32 167 128 279 287 279c133 0 211 -71 218 -207h-53c-5 96 -59 162 -167 162c-128 0 -202 -89 -231 -234h249l-12 -38h-243l-16 -98h227l-12 -38h-220c-11 -115 29 -231 185 -231c103 0 177 55 208 176h51c-31 -149 -132 -223 -261 -223
c-178 0 -250 125 -237 278h-70l7 38h67l16 98h-69z" />
    <glyph glyph-name="uni20B4" unicode="&#x20b4;" horiz-adv-x="609" 
d="M539 198c-24 -110 -98 -206 -253 -206c-134 0 -211 69 -211 164c0 57 23 99 70 138l-97 13l118 3c39 27 90 50 154 77c23 9 42 18 59 26l-86 -2l-223 32l300 7l59 -8c51 35 70 71 70 126c0 67 -42 109 -137 109c-99 0 -151 -52 -174 -131h-52c27 102 98 176 229 176
c121 0 188 -63 188 -151c0 -59 -22 -100 -67 -137l107 -15l-132 -4c-35 -23 -77 -41 -130 -64c-32 -13 -60 -26 -85 -39l103 2l223 -31l-301 -7l-67 9c-53 -37 -74 -76 -74 -127c0 -71 53 -120 157 -120c128 0 176 76 197 160h55z" />
    <glyph glyph-name="uni20B8" unicode="&#x20b8;" horiz-adv-x="548" 
d="M93 676l6 39h489l-6 -39h-489zM286 538h-216l8 46h488l-8 -46h-216l-83 -538h-56z" />
    <glyph glyph-name="uni20BD" unicode="&#x20bd;" horiz-adv-x="600" 
d="M341 351c131 0 204 58 204 183c0 97 -63 135 -171 135h-126l-50 -318h143zM171 176l-28 -176h-55l28 176h-102l6 39h102l15 97h-102l6 39h102l58 364h179c131 0 220 -56 220 -180c0 -165 -117 -229 -262 -229h-147l-14 -91h237l-6 -39h-237z" />
    <glyph glyph-name="uni2116" unicode="&#x2116;" horiz-adv-x="1041" 
d="M867 344c-101 0 -162 71 -162 164c0 120 79 214 195 214c101 0 161 -72 161 -164c0 -122 -78 -214 -194 -214zM870 386c88 0 140 75 140 171c0 69 -38 124 -113 124c-89 0 -142 -78 -142 -172c0 -72 39 -123 115 -123zM163 715h74l260 -635l101 635h53l-113 -715h-64
l-268 650l-102 -650h-54zM691 262h321l-7 -43h-320z" />
    <glyph glyph-name="trademark" unicode="&#x2122;" horiz-adv-x="679" 
d="M389 715h53l61 -248l140 248h56l-50 -315h-39l42 267l-153 -267h-13l-70 267l-42 -267h-35zM189 684h-98l5 31h234l-5 -31h-98l-45 -284h-38z" />
    <glyph glyph-name="Omega" unicode="&#x2126;" horiz-adv-x="806" 
d="M444 677c-196 0 -324 -158 -324 -351c0 -140 75 -237 190 -300l-5 -26h-275l7 44h175c-76 42 -149 146 -149 283c0 207 153 396 382 396c205 0 322 -153 322 -327c0 -149 -71 -276 -202 -352h168l-7 -44h-267l4 26c145 67 246 199 246 369c0 147 -87 282 -265 282z" />
    <glyph glyph-name="onethird" unicode="&#x2153;" horiz-adv-x="716" 
d="M175 666l-97 -60l6 42l107 67h37l-55 -343h-45zM603 715h47l-593 -715h-47zM524 -4c-67 0 -122 30 -125 105h42c3 -43 32 -71 83 -71c43 0 81 23 81 72c0 35 -23 60 -66 60h-24l5 33h28c39 0 69 20 69 61c0 36 -24 57 -63 57c-45 0 -73 -27 -84 -66h-40
c11 60 60 100 125 100c56 0 105 -26 105 -88c0 -40 -24 -69 -67 -82c33 -8 58 -34 58 -77c0 -67 -59 -104 -127 -104z" />
    <glyph glyph-name="twothirds" unicode="&#x2154;" horiz-adv-x="760" 
d="M34 381l149 127c49 41 82 70 82 118c0 35 -25 58 -61 58c-41 0 -72 -25 -85 -78h-41c13 72 65 113 129 113c56 0 102 -33 102 -93c0 -58 -40 -90 -98 -141l-95 -78h164l-6 -35h-241zM660 715h47l-593 -715h-47zM568 -4c-67 0 -122 30 -125 105h42c3 -43 32 -71 83 -71
c43 0 81 23 81 72c0 35 -23 60 -66 60h-24l5 33h28c39 0 69 20 69 61c0 36 -24 57 -63 57c-45 0 -73 -27 -84 -66h-40c11 60 60 100 125 100c56 0 105 -26 105 -88c0 -40 -24 -69 -67 -82c33 -8 58 -34 58 -77c0 -67 -59 -104 -127 -104z" />
    <glyph glyph-name="oneeighth" unicode="&#x215b;" horiz-adv-x="711" 
d="M175 666l-97 -60l6 42l107 67h37l-55 -343h-45zM603 715h47l-593 -715h-47zM516 -4c-61 0 -122 30 -122 94c0 53 36 84 87 96c-28 11 -50 35 -50 67c0 59 56 94 116 94c52 0 108 -28 108 -87c0 -41 -28 -68 -69 -79c37 -15 60 -38 60 -81c0 -69 -58 -104 -130 -104z
M439 94c1 -39 28 -64 79 -64c43 0 83 19 83 71c0 41 -32 66 -77 66c-44 0 -85 -21 -85 -73zM474 252c0 -35 31 -54 67 -54c39 0 71 19 71 60c0 35 -28 55 -67 55c-37 0 -71 -18 -71 -61z" />
    <glyph glyph-name="threeeighths" unicode="&#x215c;" horiz-adv-x="754" 
d="M186 368c-67 0 -122 30 -125 105h42c3 -43 32 -71 83 -71c43 0 81 23 81 72c0 35 -23 60 -66 60h-24l5 33h28c39 0 69 20 69 61c0 36 -24 57 -63 57c-45 0 -73 -27 -84 -66h-40c11 60 60 100 125 100c56 0 105 -26 105 -88c0 -40 -24 -69 -67 -82c33 -8 58 -34 58 -77
c0 -67 -59 -104 -127 -104zM661 715h47l-593 -715h-47zM560 -4c-61 0 -122 30 -122 94c0 53 36 84 87 96c-28 11 -50 35 -50 67c0 59 56 94 116 94c52 0 108 -28 108 -87c0 -41 -28 -68 -69 -79c37 -15 60 -38 60 -81c0 -69 -58 -104 -130 -104zM483 94c1 -39 28 -64 79 -64
c43 0 83 19 83 71c0 41 -32 66 -77 66c-44 0 -85 -21 -85 -73zM518 252c0 -35 31 -54 67 -54c39 0 71 19 71 60c0 35 -28 55 -67 55c-37 0 -71 -18 -71 -61z" />
    <glyph glyph-name="fiveeighths" unicode="&#x215d;" horiz-adv-x="746" 
d="M173 368c-58 0 -112 28 -115 97h42c4 -39 30 -62 73 -62c51 0 83 34 83 91c0 43 -26 70 -71 70c-35 0 -58 -15 -77 -34h-23l32 185h199l-5 -35h-164l-18 -109c16 15 40 27 73 27c56 0 100 -37 100 -101c-1 -79 -52 -129 -129 -129zM651 715h47l-593 -715h-47zM551 -4
c-61 0 -122 30 -122 94c0 53 36 84 87 96c-28 11 -50 35 -50 67c0 59 56 94 116 94c52 0 108 -28 108 -87c0 -41 -28 -68 -69 -79c37 -15 60 -38 60 -81c0 -69 -58 -104 -130 -104zM474 94c1 -39 28 -64 79 -64c43 0 83 19 83 71c0 41 -32 66 -77 66c-44 0 -85 -21 -85 -73z
M509 252c0 -35 31 -54 67 -54c39 0 71 19 71 60c0 35 -28 55 -67 55c-37 0 -71 -18 -71 -61z" />
    <glyph glyph-name="seveneighths" unicode="&#x215e;" horiz-adv-x="702" 
d="M263 678h-182l6 37h241l-2 -6l-188 -337h-48zM593 715h47l-593 -715h-47zM508 -4c-61 0 -122 30 -122 94c0 53 36 84 87 96c-28 11 -50 35 -50 67c0 59 56 94 116 94c52 0 108 -28 108 -87c0 -41 -28 -68 -69 -79c37 -15 60 -38 60 -81c0 -69 -58 -104 -130 -104zM431 94
c1 -39 28 -64 79 -64c43 0 83 19 83 71c0 41 -32 66 -77 66c-44 0 -85 -21 -85 -73zM466 252c0 -35 31 -54 67 -54c39 0 71 19 71 60c0 35 -28 55 -67 55c-37 0 -71 -18 -71 -61z" />
    <glyph glyph-name="Delta" unicode="&#x2206;" horiz-adv-x="646" 
d="M-10 11l363 704h79l143 -704l-1 -11h-585zM63 48h451l-129 628z" />
    <glyph glyph-name="minus" unicode="&#x2212;" horiz-adv-x="514" 
d="M52 365h437l-7 -46h-438z" />
    <glyph glyph-name="approxequal" unicode="&#x2248;" horiz-adv-x="499" 
d="M57 347c11 64 53 102 109 102c75 0 144 -54 208 -54c33 0 57 24 64 56h42c-12 -65 -52 -102 -108 -102c-76 0 -146 53 -208 53c-35 0 -57 -23 -65 -55h-42zM30 180c11 64 53 102 109 102c75 0 144 -53 207 -53c35 0 58 23 65 55h42c-12 -65 -52 -102 -108 -102
c-76 0 -146 53 -209 53c-35 0 -56 -23 -64 -55h-42z" />
    <glyph glyph-name="notequal" unicode="&#x2260;" horiz-adv-x="488" 
d="M65 426h219l64 117h50l-64 -117h135l-8 -46h-152l-66 -121h200l-8 -46h-217l-63 -117h-50l63 117h-137l8 46h154l66 121h-202z" />
    <glyph glyph-name="lessequal" unicode="&#x2264;" horiz-adv-x="500" 
d="M59 327l2 13l416 198l-8 -54l-329 -153l279 -164l-8 -50zM16 45h384l-8 -45h-383z" />
    <glyph glyph-name="greaterequal" unicode="&#x2265;" horiz-adv-x="500" 
d="M27 45h384l-8 -45h-383zM456 328l-3 -13l-416 -198l9 54l329 153l-279 164l8 50z" />
    <glyph glyph-name="uni24C5" unicode="&#x24c5;" horiz-adv-x="848" 
d="M321 562h119c89 0 146 -35 146 -119v-3c0 -84 -59 -119 -144 -119h-69v-165h-52v406zM440 360c60 0 95 24 95 80v3c0 57 -35 78 -95 78h-67v-161h67zM432 23c180 0 331 141 331 336c0 192 -145 333 -329 333c-183 0 -331 -142 -331 -335c0 -195 152 -334 329 -334z
M432 -9c-204 0 -366 159 -366 366c0 204 162 367 368 367c208 0 366 -162 366 -365c0 -209 -162 -368 -368 -368z" />
    <glyph glyph-name="zero.tab" unicode="&#xe44f;" 
d="M117 297c-4 -27 -7 -53 -7 -77c0 -101 48 -181 168 -181s187 73 212 234l23 143c4 25 6 49 6 73c0 103 -45 188 -167 188c-117 0 -188 -80 -213 -236zM279 -8c-151 0 -224 96 -224 227c0 31 3 56 7 83l23 143c29 184 124 278 268 278c156 0 220 -102 220 -234
c0 -25 -2 -51 -6 -77l-23 -143c-29 -185 -117 -277 -265 -277z" />
    <glyph glyph-name="one.tab" unicode="&#xe450;" 
d="M392 653l-253 -176l8 55l258 183h52l-113 -715h-55z" />
    <glyph glyph-name="two.tab" unicode="&#xe451;" 
d="M6 13l342 292c79 66 145 140 145 238c0 77 -49 134 -138 134c-88 1 -159 -45 -190 -170h-52c27 147 124 216 245 216c112 0 191 -70 191 -179c0 -117 -77 -195 -172 -274l-266 -224h375l-7 -46h-475z" />
    <glyph glyph-name="three.tab" unicode="&#xe452;" 
d="M273 -8c-136 0 -231 79 -231 210h53c3 -99 63 -164 180 -164c109 0 189 58 189 178c0 75 -45 135 -149 135h-44l7 47h56c87 0 158 46 158 150c0 80 -52 128 -139 128c-92 0 -160 -53 -183 -149h-50c19 119 120 196 236 196c101 0 191 -58 191 -173
c0 -89 -53 -154 -141 -177c72 -19 115 -77 115 -157c0 -143 -108 -224 -248 -224z" />
    <glyph glyph-name="four.tab" unicode="&#xe453;" 
d="M385 161h-358l3 17l419 537h79l-80 -508h91l-8 -46h-91l-25 -161h-55zM393 207l73 463l-357 -463h284z" />
    <glyph glyph-name="five.tab" unicode="&#xe454;" 
d="M265 -8c-123 0 -215 70 -220 192h53c7 -88 64 -146 168 -146c126 0 200 90 200 221c0 92 -57 160 -158 160c-83 0 -134 -34 -177 -78h-21l60 374h390l-8 -48h-343l-41 -259c32 31 87 57 156 57c117 0 199 -84 199 -204c0 -153 -100 -269 -258 -269z" />
    <glyph glyph-name="six.tab" unicode="&#xe455;" 
d="M289 -8c-145 0 -229 82 -228 235c0 32 4 64 9 95l8 51c35 214 129 350 305 350c117 0 186 -58 193 -163h-53c-8 75 -51 116 -143 116c-136 0 -214 -108 -247 -299l-5 -34c43 72 119 112 203 112c119 0 213 -73 213 -200c0 -149 -103 -263 -255 -263zM115 208
c0 -99 61 -171 175 -171c121 0 198 94 198 215c0 95 -63 158 -171 158c-112 0 -202 -80 -202 -202z" />
    <glyph glyph-name="seven.tab" unicode="&#xe456;" 
d="M511 669h-389l7 46h462l-1 -9l-396 -706h-58z" />
    <glyph glyph-name="eight.tab" unicode="&#xe457;" 
d="M284 -8c-116 0 -232 64 -232 192c0 116 78 186 186 207c-61 21 -106 73 -106 145c0 115 104 187 221 187c103 0 198 -66 198 -173c0 -97 -60 -147 -149 -167c77 -25 131 -87 131 -171c0 -146 -117 -220 -249 -220zM108 190c0 -100 83 -151 179 -151c107 0 189 57 189 173
c0 90 -71 150 -171 150c-106 0 -197 -56 -197 -172zM187 537c0 -73 60 -130 152 -130c81 0 157 41 157 141c0 75 -62 130 -147 130c-82 0 -162 -45 -162 -141z" />
    <glyph glyph-name="nine.tab" unicode="&#xe458;" 
d="M254 -7c-111 0 -197 55 -208 171h54c12 -88 67 -125 158 -125c123 0 203 80 238 296l5 35c-43 -72 -118 -110 -202 -110c-116 0 -213 70 -213 202c0 151 105 261 259 261c141 0 223 -84 223 -233c0 -31 -4 -64 -9 -96l-9 -58c-40 -251 -141 -343 -296 -343zM142 464
c0 -99 64 -159 164 -159c114 0 208 77 208 202c0 99 -57 172 -170 172c-123 0 -202 -91 -202 -215z" />
    <glyph glyph-name="cent.tab" unicode="&#xe459;" 
d="M290 -8l-20 -127h-40l21 132c-117 19 -186 108 -186 232c0 180 120 299 270 302l16 98h40l-16 -101c93 -12 161 -73 168 -174h-51c-5 76 -55 119 -124 130l-71 -447h7c85 0 156 43 180 142h51c-27 -128 -122 -187 -232 -187h-13zM120 229c0 -105 50 -171 138 -188l70 445
c-124 -5 -208 -107 -208 -257z" />
    <glyph glyph-name="dollar.tab" unicode="&#xe45a;" 
d="M277 -8l-20 -127h-40l20 131c-128 16 -202 96 -205 209h53c7 -88 58 -150 159 -165l50 311c-124 37 -184 84 -184 179c0 115 99 193 234 193h8l15 90h40l-15 -93c104 -15 171 -73 178 -177h-51c-9 80 -58 120 -134 131l-45 -284c133 -40 196 -80 196 -184
c0 -131 -99 -214 -246 -214h-13zM482 201c0 73 -39 108 -150 140l-48 -304h7c117 0 191 60 191 164zM163 532c0 -61 33 -97 139 -131l43 277h-6c-109 0 -176 -54 -176 -146z" />
    <glyph glyph-name="Euro.tab" unicode="&#xe45b;" 
d="M54 444h63c31 183 122 278 262 279c125 0 195 -71 198 -203h-52c-4 100 -46 159 -146 158c-113 0 -180 -75 -207 -234h228l-14 -38h-220l-16 -98h202l-13 -38h-195c-13 -121 9 -231 163 -231c96 0 159 51 191 172h51c-34 -157 -125 -219 -242 -219
c-176 0 -234 118 -218 278h-62l6 38h62l15 98h-62z" />
    <glyph glyph-name="a.alt" unicode="&#xe4c0;" horiz-adv-x="597" 
d="M302 486c-131 0 -208 -113 -208 -260c0 -120 65 -189 164 -189c122 0 208 121 208 261c0 114 -67 188 -164 188zM249 -8c-124 0 -211 91 -211 232c0 166 101 307 263 307c112 0 163 -77 181 -137l20 129h53l-57 -359c-12 -81 -14 -127 -14 -164h-51c-1 32 2 82 9 119
c-37 -73 -101 -127 -193 -127z" />
    <glyph glyph-name="t.alt" unicode="&#xe4d3;" horiz-adv-x="323" 
d="M145 478h-88l8 45h87l19 119h53l-19 -119h127l-7 -45h-127l-75 -478h-53z" />
    <glyph glyph-name="f_i" unicode="&#xfb01;" horiz-adv-x="549" 
d="M63 523h79l16 97c19 116 83 156 161 156c27 0 46 -5 61 -10l-7 -43c-14 5 -32 8 -53 8c-56 0 -94 -26 -109 -113l-15 -95h145l-7 -45h-145l-76 -478h-53l75 478h-79zM496 635c-21 0 -37 17 -37 37c0 21 17 38 38 38c20 0 37 -16 37 -37c0 -20 -17 -38 -38 -38zM448 523
h53l-83 -523h-53z" />
    <glyph glyph-name="f_l" unicode="&#xfb02;" horiz-adv-x="549" 
d="M63 523h79l16 97c19 116 83 156 161 156c27 0 46 -5 61 -10l-7 -43c-14 5 -32 8 -53 8c-56 0 -94 -26 -109 -113l-15 -95h145l-7 -45h-145l-76 -478h-53l75 478h-79zM487 773h54l-122 -773h-54z" />
    <glyph glyph-name="three.sub" horiz-adv-x="312" 
d="M113 -91c-67 0 -122 30 -125 105h42c3 -43 32 -71 83 -71c43 0 81 23 81 72c0 35 -23 60 -66 60h-24l5 33h28c39 0 69 20 69 61c0 36 -24 57 -63 57c-45 0 -73 -27 -84 -66h-40c11 60 60 100 125 100c56 0 105 -26 105 -88c0 -40 -24 -69 -67 -82c33 -8 58 -34 58 -77
c0 -67 -59 -104 -127 -104z" />
    <glyph glyph-name="two.den" horiz-adv-x="289" 
d="M-27 9l149 127c49 41 82 70 82 118c0 35 -25 58 -61 58c-41 0 -72 -25 -85 -78h-41c13 72 65 113 129 113c56 0 102 -33 102 -93c0 -58 -40 -90 -98 -141l-95 -78h164l-6 -35h-241z" />
    <glyph glyph-name="dotaccent.uc" horiz-adv-x="404" 
d="M288 787c-21 0 -38 17 -38 37s17 38 38 38s37 -17 37 -37s-16 -38 -37 -38z" />
    <glyph glyph-name="two.oldtab" horiz-adv-x="600" 
d="M16 13l291 222c74 55 168 127 168 226c0 83 -57 122 -137 122c-89 0 -157 -54 -181 -163h-51c24 132 117 207 235 207c100 0 189 -52 189 -166c0 -116 -97 -184 -198 -261l-203 -155h354l-7 -45h-462z" />
    <glyph glyph-name="uni044C.bgr" horiz-adv-x="469" 
d="M221 -8c-125 0 -186 74 -166 201l54 330h53l-31 -192c17 3 58 8 107 8c121 0 185 -64 185 -156c0 -119 -89 -191 -202 -191zM220 36c96 0 147 61 147 142c0 73 -43 117 -135 117c-45 0 -89 -5 -108 -8l-16 -98c-15 -97 23 -153 112 -153z" />
    <glyph glyph-name="breve.uc" horiz-adv-x="404" 
d="M292 771c-72 0 -121 50 -121 122h44c3 -48 30 -78 77 -78c48 0 82 30 91 78h43c-8 -72 -67 -122 -134 -122z" />
    <glyph glyph-name="uni0439.bgr" horiz-adv-x="573" 
d="M339 616c-71 0 -116 49 -117 121h44c3 -48 27 -77 74 -77s78 28 87 77h43c-9 -73 -66 -121 -131 -121zM471 146c-11 -67 -13 -111 -12 -146h-51c-1 31 1 73 8 112c-37 -66 -102 -120 -194 -120c-111 0 -179 71 -155 219l50 312h53l-51 -322c-17 -108 25 -163 113 -163
c92 0 177 63 196 175l49 310h53z" />
    <glyph glyph-name="caron.uc" horiz-adv-x="404" 
d="M306 771h-49l-94 122h40l82 -78l104 78h43z" />
    <glyph glyph-name="circumflex.uc" horiz-adv-x="404" 
d="M271 893h50l93 -122h-40l-82 78l-103 -78h-43z" />
    <glyph glyph-name="uni0414.bgr" horiz-adv-x="692" 
d="M408 670l-319 -623h447zM-12 -130h-47l29 177h65l345 668h73l137 -668h65l-29 -177h-47l18 130h-584z" />
    <glyph glyph-name="uni0416.bgr" horiz-adv-x="858" 
d="M415 0h-55l113 715h55zM833 715h66l-365 -347l267 -368h-62l-263 368zM35 0h-70l394 374l-250 341h59l249 -348z" />
    <glyph glyph-name="four.oldtab" horiz-adv-x="600" 
d="M373 66h-362l2 17l422 535h78l-80 -508h96l-7 -44h-96l-26 -163h-54zM379 110l75 466l-366 -466h291z" />
    <glyph glyph-name="one.oldtab" horiz-adv-x="600" 
d="M377 559l-245 -163l8 53l253 170h47l-98 -619h-53z" />
    <glyph glyph-name="acute.uc" horiz-adv-x="404" 
d="M327 893h68l-97 -122h-45z" />
    <glyph glyph-name="uni041A.bgr" horiz-adv-x="599" 
d="M563 715h66l-399 -346l302 -369h-63l-304 367zM106 0h-56l113 715h56z" />
    <glyph glyph-name="uni0436.bgr" horiz-adv-x="687" 
d="M402 773h52l-122 -773h-52zM44 0h-67l291 283l-180 240h58l177 -246zM631 523h63l-262 -248l193 -275h-58l-191 276z" />
    <glyph glyph-name="macron.uc" horiz-adv-x="404" 
d="M166 833h248l-7 -42h-248z" />
    <glyph glyph-name="dieresis.uc" horiz-adv-x="404" 
d="M198 788c-21 0 -37 16 -37 36s17 37 37 37c21 0 36 -16 36 -36s-16 -37 -36 -37zM378 788c-20 0 -36 16 -36 36s16 37 37 37c20 0 36 -16 36 -36s-17 -37 -37 -37z" />
    <glyph glyph-name="six.oldtab" horiz-adv-x="600" 
d="M289 -8c-149 0 -218 93 -218 221c0 32 4 64 8 92l12 71c40 244 153 347 292 347c115 0 181 -54 189 -159h-53c-8 72 -49 114 -137 114c-108 0 -200 -81 -237 -297l-7 -42c41 71 117 105 197 105c125 0 202 -75 202 -199c0 -145 -101 -253 -248 -253zM124 207
c0 -101 54 -172 167 -172c115 0 190 88 190 207c0 93 -51 158 -159 158c-109 0 -198 -76 -198 -193z" />
    <glyph glyph-name="uni0432.bgr" horiz-adv-x="491" 
d="M225 -8c-145 0 -194 104 -170 253l52 315c23 141 90 220 215 220c105 0 162 -67 159 -166c-3 -92 -57 -183 -145 -199c75 -16 117 -79 114 -170c-3 -134 -85 -253 -225 -253zM319 738c-92 0 -140 -63 -159 -176l-22 -124h138c103 0 150 91 153 175c1 79 -38 125 -110 125
zM226 36c105 0 169 97 172 209c0 85 -40 150 -129 150h-138l-25 -150c-23 -136 17 -209 120 -209z" />
    <glyph glyph-name="grave.uc" horiz-adv-x="404" 
d="M192 893h65l49 -122h-41z" />
    <glyph glyph-name="at.uc" horiz-adv-x="902" 
d="M460 -58c-260 0 -394 187 -394 383c0 247 203 426 423 426c231 0 374 -153 374 -345c0 -189 -104 -254 -181 -254c-72 0 -104 35 -107 96c-24 -51 -83 -103 -153 -103c-91 0 -148 60 -149 156c0 131 86 237 196 237c71 0 113 -41 124 -90l13 82h52l-36 -233
c-11 -65 5 -106 61 -106c67 0 131 61 131 214c0 172 -116 302 -327 302c-202 0 -370 -156 -370 -383c0 -176 113 -338 345 -338c128 0 209 38 264 97h51c-50 -79 -165 -141 -317 -141zM433 186c74 0 148 76 148 186c0 77 -41 124 -110 124c-80 0 -146 -82 -143 -193
c0 -72 40 -117 105 -117z" />
    <glyph glyph-name="bar.uc" horiz-adv-x="245" 
d="M110 778h45v-862h-44z" />
    <glyph glyph-name="backslash.uc" horiz-adv-x="395" 
d="M117 778h49l136 -862h-49z" />
    <glyph glyph-name="uni0424.bgr" horiz-adv-x="809" 
d="M333 -10l11 69c-176 13 -287 107 -287 269v8c0 205 156 322 382 327l10 62h55l-10 -62c173 -13 285 -108 285 -271v-8c0 -206 -153 -320 -380 -325l-11 -69h-55zM723 388c0 146 -95 222 -236 233l-81 -520c193 8 317 99 317 280v7zM114 328c0 -143 95 -216 236 -227
l82 520c-193 -5 -318 -105 -318 -284v-9z" />
    <glyph glyph-name="yen.oldtab" horiz-adv-x="600" 
d="M111 334h166l-147 360h56l132 -330l226 330h54l-249 -360h165l-6 -38h-174l-15 -94h174l-6 -38h-174l-25 -164h-53l25 164h-176l7 38h175l14 94h-175z" />
    <glyph glyph-name="slash.uc" horiz-adv-x="395" 
d="M383 778h52l-407 -862h-51z" />
    <glyph glyph-name="braceright.uc" horiz-adv-x="368" 
d="M123 779c139 -8 188 -77 144 -208l-27 -77c-27 -74 -7 -131 96 -136l-6 -40c-104 1 -142 -37 -138 -121l6 -96c8 -141 -68 -188 -212 -188l6 40c109 3 163 35 155 151l-5 93c-5 93 46 132 114 145c-68 19 -93 73 -64 157l26 76c39 109 3 156 -102 163z" />
    <glyph glyph-name="braceleft.uc" horiz-adv-x="367" 
d="M265 -88c-139 8 -188 79 -144 208l27 78c24 76 9 130 -97 135l7 41c104 -1 142 37 138 121l-6 95c-8 143 68 189 212 189l-7 -41c-109 -3 -163 -33 -155 -150l6 -93c3 -94 -46 -130 -115 -144c68 -19 94 -74 65 -158l-26 -76c-39 -111 -3 -157 102 -164z" />
    <glyph glyph-name="Euro.oldtab" horiz-adv-x="600" 
d="M57 431h61c31 177 123 269 259 270c121 0 191 -69 194 -197h-51c-4 95 -47 154 -144 153c-109 0 -177 -73 -204 -226h226l-13 -38h-219l-14 -94h200l-13 -37h-193c-13 -117 12 -225 161 -225c93 0 156 51 187 168h50c-34 -151 -124 -213 -238 -213
c-170 0 -230 115 -214 270h-62l7 37h61l15 94h-62z" />
    <glyph glyph-name="uni0442.bgr" horiz-adv-x="891" 
d="M100 377c11 71 13 109 14 146h50c0 -28 -1 -68 -8 -109c36 67 96 117 177 117c83 0 137 -41 148 -129c39 83 115 129 190 129c107 0 174 -64 150 -220l-49 -311h-53l50 318c17 116 -23 167 -108 167c-80 0 -160 -59 -179 -172l-49 -313h-53l50 321
c19 111 -23 164 -108 164c-82 0 -163 -63 -179 -172l-50 -313h-53z" />
    <glyph glyph-name="bracketright.uc" horiz-adv-x="344" 
d="M-7 -41h153l122 776h-153l8 43h205l-137 -862h-205z" />
    <glyph glyph-name="bracketleft.uc" horiz-adv-x="344" 
d="M174 778h206l-8 -43h-152l-123 -776h153l-7 -43h-206z" />
    <glyph glyph-name="parenright.uc" horiz-adv-x="301" 
d="M160 783c55 -84 100 -198 100 -342c0 -214 -93 -398 -237 -539h-57c149 156 238 327 238 538c0 139 -43 255 -96 343h52z" />
    <glyph glyph-name="parenleft.uc" horiz-adv-x="301" 
d="M161 -98c-55 84 -99 198 -99 342c0 214 92 398 236 539h57c-149 -156 -238 -327 -238 -538c0 -139 43 -255 96 -343h-52z" />
    <glyph glyph-name="guillemotright.uc" horiz-adv-x="452" 
d="M406 300l-164 -182h-56l164 185l-104 181h52zM248 300l-164 -182h-56l164 185l-104 181h52z" />
    <glyph glyph-name="guillemotleft.uc" horiz-adv-x="452" 
d="M56 302l163 182h56l-163 -185l103 -181h-52zM213 302l164 182h56l-164 -185l104 -181h-52z" />
    <glyph glyph-name="guilsinglright.uc" horiz-adv-x="294" 
d="M248 300l-164 -182h-56l164 185l-104 181h52z" />
    <glyph glyph-name="guilsinglleft.uc" horiz-adv-x="294" 
d="M56 302l163 182h56l-163 -185l103 -181h-52z" />
    <glyph glyph-name="emdash.uc" horiz-adv-x="873" 
d="M60 355h777l-8 -46h-776z" />
    <glyph glyph-name="endash.uc" horiz-adv-x="507" 
d="M60 355h411l-8 -46h-410z" />
    <glyph glyph-name="hyphen.uc" horiz-adv-x="362" 
d="M76 358h235l-8 -50h-235z" />
    <glyph glyph-name="exclamdown.uc" horiz-adv-x="276" 
d="M123 0h-59l94 536h42zM200 719c24 0 43 -18 43 -41c0 -24 -19 -43 -42 -43c-24 0 -43 19 -43 43c0 23 19 41 42 41z" />
    <glyph glyph-name="questiondown.uc" horiz-adv-x="481" 
d="M322 475c-13 -88 -69 -128 -132 -178c-58 -42 -105 -79 -105 -155c0 -69 55 -105 126 -105c84 0 146 50 165 150h51c-19 -125 -108 -195 -221 -195c-107 0 -175 58 -175 150c0 100 64 140 132 191c58 45 100 77 111 147l9 56h48zM327 719c24 0 42 -18 42 -41
c0 -24 -18 -43 -41 -43c-24 0 -43 19 -43 43c0 23 19 41 42 41z" />
    <glyph glyph-name="caron.alt" horiz-adv-x="338" 
d="M236 773h58l-56 -162h-40z" />
    <glyph glyph-name="registered.alt" horiz-adv-x="848" 
d="M307 566h123c87 0 145 -33 145 -114v-2c0 -67 -41 -100 -98 -109l122 -183h-57l-119 176h-64v-176h-52v408zM429 373c60 0 95 22 95 75v3c0 56 -36 74 -95 74h-70v-152h70zM432 23c180 0 331 141 331 336c0 192 -145 333 -329 333c-183 0 -331 -142 -331 -335
c0 -195 152 -334 329 -334zM432 -9c-204 0 -366 159 -366 366c0 204 162 367 368 367c208 0 366 -162 366 -365c0 -209 -162 -368 -368 -368z" />
    <glyph glyph-name="space_uni0326.alt" horiz-adv-x="404" 
d="M345 753l-70 -146l-51 15l88 148z" />
    <glyph glyph-name="tcommaaccent.alt" horiz-adv-x="323" 
d="M-6 -187l69 146l51 -15l-87 -148zM145 478h-88l8 45h87l19 119h53l-19 -119h127l-7 -45h-127l-75 -478h-53z" />
    <glyph glyph-name="tcaron.alt" horiz-adv-x="323" 
d="M145 478h-88l8 45h87l19 119h53l-19 -119h127l-7 -45h-127l-75 -478h-53zM337 773h58l-56 -162h-40z" />
    <glyph glyph-name="germandbls.alt" horiz-adv-x="599" 
d="M364 -7c-95 0 -160 48 -165 144h52c7 -61 45 -99 114 -99c66 0 120 38 120 104c0 58 -42 89 -97 126c-58 37 -103 69 -103 122c0 107 203 138 203 250c0 61 -51 92 -120 92c-100 0 -167 -57 -186 -172l-89 -560h-53l89 564c23 139 118 212 243 212c85 0 167 -42 167 -134
c0 -134 -203 -168 -203 -245c0 -31 33 -51 96 -94c61 -42 107 -84 107 -159c0 -89 -76 -151 -175 -151z" />
    <glyph glyph-name="atilde.alt" horiz-adv-x="597" 
d="M302 486c-131 0 -208 -113 -208 -260c0 -120 65 -189 164 -189c122 0 208 121 208 261c0 114 -67 188 -164 188zM249 -8c-124 0 -211 91 -211 232c0 166 101 307 263 307c112 0 163 -77 181 -137l20 129h53l-57 -359c-12 -81 -14 -127 -14 -164h-51c-1 32 2 82 9 119
c-37 -73 -101 -127 -193 -127zM399 616c-48 0 -87 53 -122 53c-23 0 -44 -18 -52 -53h-40c12 64 48 99 93 99c48 0 85 -53 122 -53c21 0 43 18 51 53h40c-13 -64 -48 -99 -92 -99z" />
    <glyph glyph-name="aringacute.alt" horiz-adv-x="597" 
d="M302 486c-131 0 -208 -113 -208 -260c0 -120 65 -189 164 -189c122 0 208 121 208 261c0 114 -67 188 -164 188zM249 -8c-124 0 -211 91 -211 232c0 166 101 307 263 307c112 0 163 -77 181 -137l20 129h53l-57 -359c-12 -81 -14 -127 -14 -164h-51c-1 32 2 82 9 119
c-37 -73 -101 -127 -193 -127zM341 623c36 0 62 26 62 65c0 36 -23 62 -59 62c-35 0 -63 -27 -63 -66c0 -35 24 -61 60 -61zM341 591c-55 0 -97 42 -97 93c0 54 46 98 100 98c55 0 96 -42 96 -94c0 -55 -43 -97 -99 -97zM415 951h68l-97 -122h-45z" />
    <glyph glyph-name="uni20B4.old" horiz-adv-x="595" 
d="M528 192c-24 -106 -101 -199 -253 -199c-128 0 -202 61 -202 157c0 56 23 97 68 134l-93 13l114 3c37 27 85 50 145 74c23 9 43 18 60 27l-83 -2l-216 30l292 7l55 -8c55 37 70 74 70 123c0 71 -47 104 -132 104c-96 0 -147 -50 -171 -126h-50c24 98 98 170 225 170
c113 0 180 -54 180 -146c0 -56 -22 -96 -67 -132l106 -15l-131 -3c-32 -21 -73 -41 -124 -62c-31 -13 -58 -26 -81 -39l100 3l216 -30l-292 -8l-66 9c-51 -37 -71 -76 -71 -124c0 -69 50 -115 150 -115c123 0 178 75 197 155h54z" />
    <glyph glyph-name="aring.alt" horiz-adv-x="597" 
d="M302 486c-131 0 -208 -113 -208 -260c0 -120 65 -189 164 -189c122 0 208 121 208 261c0 114 -67 188 -164 188zM249 -8c-124 0 -211 91 -211 232c0 166 101 307 263 307c112 0 163 -77 181 -137l20 129h53l-57 -359c-12 -81 -14 -127 -14 -164h-51c-1 32 2 82 9 119
c-37 -73 -101 -127 -193 -127zM347 633c36 0 62 26 62 65c0 36 -23 62 -59 62c-35 0 -63 -27 -63 -66c0 -35 24 -61 60 -61zM347 601c-55 0 -97 42 -97 93c0 54 46 98 100 98c55 0 96 -42 96 -94c0 -55 -43 -97 -99 -97z" />
    <glyph glyph-name="aogonek.alt" horiz-adv-x="597" 
d="M484 0c-34 -21 -93 -53 -93 -102c0 -24 13 -40 48 -40c15 0 30 3 46 8l-6 -39c-13 -4 -28 -9 -51 -9c-55 0 -89 26 -89 75c0 53 57 88 94 109c-1 31 2 80 9 117c-37 -73 -101 -127 -193 -127c-124 0 -211 91 -211 232c0 166 101 307 263 307c112 0 163 -77 181 -137
l20 129h53l-57 -359c-12 -81 -14 -127 -14 -164zM302 486c-131 0 -208 -113 -208 -260c0 -120 65 -189 164 -189c122 0 208 121 208 261c0 114 -67 188 -164 188z" />
    <glyph glyph-name="amacron.alt" horiz-adv-x="597" 
d="M302 486c-131 0 -208 -113 -208 -260c0 -120 65 -189 164 -189c122 0 208 121 208 261c0 114 -67 188 -164 188zM249 -8c-124 0 -211 91 -211 232c0 166 101 307 263 307c112 0 163 -77 181 -137l20 129h53l-57 -359c-12 -81 -14 -127 -14 -164h-51c-1 32 2 82 9 119
c-37 -73 -101 -127 -193 -127zM224 689h243l-7 -42h-242z" />
    <glyph glyph-name="agrave.alt" horiz-adv-x="597" 
d="M302 486c-131 0 -208 -113 -208 -260c0 -120 65 -189 164 -189c122 0 208 121 208 261c0 114 -67 188 -164 188zM249 -8c-124 0 -211 91 -211 232c0 166 101 307 263 307c112 0 163 -77 181 -137l20 129h53l-57 -359c-12 -81 -14 -127 -14 -164h-51c-1 32 2 82 9 119
c-37 -73 -101 -127 -193 -127zM239 752h64l50 -147h-41z" />
    <glyph glyph-name="adieresis.alt" horiz-adv-x="597" 
d="M302 486c-131 0 -208 -113 -208 -260c0 -120 65 -189 164 -189c122 0 208 121 208 261c0 114 -67 188 -164 188zM249 -8c-124 0 -211 91 -211 232c0 166 101 307 263 307c112 0 163 -77 181 -137l20 129h53l-57 -359c-12 -81 -14 -127 -14 -164h-51c-1 32 2 82 9 119
c-37 -73 -101 -127 -193 -127zM256 636c-20 0 -36 16 -36 36s17 37 37 37s36 -16 36 -36s-16 -37 -37 -37zM423 636c-20 0 -36 16 -36 36s16 37 37 37c20 0 36 -16 36 -36s-17 -37 -37 -37z" />
    <glyph glyph-name="acircumflex.alt" horiz-adv-x="597" 
d="M302 486c-131 0 -208 -113 -208 -260c0 -120 65 -189 164 -189c122 0 208 121 208 261c0 114 -67 188 -164 188zM249 -8c-124 0 -211 91 -211 232c0 166 101 307 263 307c112 0 163 -77 181 -137l20 129h53l-57 -359c-12 -81 -14 -127 -14 -164h-51c-1 32 2 82 9 119
c-37 -73 -101 -127 -193 -127zM321 740h49l91 -135h-40l-81 91l-104 -91h-43z" />
    <glyph glyph-name="abreve.alt" horiz-adv-x="597" 
d="M302 486c-131 0 -208 -113 -208 -260c0 -120 65 -189 164 -189c122 0 208 121 208 261c0 114 -67 188 -164 188zM249 -8c-124 0 -211 91 -211 232c0 166 101 307 263 307c112 0 163 -77 181 -137l20 129h53l-57 -359c-12 -81 -14 -127 -14 -164h-51c-1 32 2 82 9 119
c-37 -73 -101 -127 -193 -127zM335 616c-71 0 -117 49 -117 121h44c3 -48 26 -77 73 -77s77 28 88 77h42c-8 -73 -65 -121 -130 -121z" />
    <glyph glyph-name="aacute.alt" horiz-adv-x="597" 
d="M302 486c-131 0 -208 -113 -208 -260c0 -120 65 -189 164 -189c122 0 208 121 208 261c0 114 -67 188 -164 188zM249 -8c-124 0 -211 91 -211 232c0 166 101 307 263 307c112 0 163 -77 181 -137l20 129h53l-57 -359c-12 -81 -14 -127 -14 -164h-51c-1 32 2 82 9 119
c-37 -73 -101 -127 -193 -127zM390 752h68l-112 -147h-44z" />
    <glyph glyph-name="ring.uc" horiz-adv-x="404" 
d="M291 786c36 0 62 27 62 66c0 36 -23 61 -59 61c-35 0 -63 -26 -63 -65c0 -35 24 -62 60 -62zM291 754c-55 0 -97 43 -97 94c0 54 46 97 100 97c56 0 96 -41 96 -93c0 -56 -43 -98 -99 -98z" />
    <glyph glyph-name="uni043F.locl" horiz-adv-x="573" 
d="M184 689h320l-6 -42h-321zM471 146c-11 -67 -13 -111 -12 -146h-51c-1 31 1 73 8 112c-37 -66 -102 -120 -194 -120c-111 0 -179 71 -155 219l50 312h53l-51 -322c-17 -108 25 -163 113 -163c92 0 177 63 196 175l49 310h53z" />
    <glyph glyph-name="minus.sup" horiz-adv-x="327" 
d="M93 618h248l-6 -36h-248z" />
    <glyph glyph-name="uni041B.bgr" horiz-adv-x="641" 
d="M382 670l-343 -670h-54l368 715h74l145 -715h-54z" />
    <glyph glyph-name="plus.sup" horiz-adv-x="327" 
d="M192 582h-105l6 36h105l18 109h38l-18 -109h105l-6 -36h-105l-17 -109h-38z" />
    <glyph glyph-name="nine.sup" horiz-adv-x="321" 
d="M224 777c73 0 115 -46 116 -111c0 -17 -1 -41 -4 -58l-3 -21c-19 -113 -69 -161 -149 -161c-64 0 -105 28 -108 88h41c4 -35 22 -53 69 -53c56 0 89 37 104 128l1 9c-20 -29 -54 -45 -93 -45c-56 0 -105 33 -105 97c0 74 55 127 131 127zM297 670c0 40 -26 73 -74 73
c-49 0 -85 -34 -85 -89c0 -41 25 -69 72 -69s87 29 87 85z" />
    <glyph glyph-name="eight.sup" horiz-adv-x="318" 
d="M195 426c-61 0 -122 30 -122 94c0 53 36 84 87 96c-28 11 -50 35 -50 67c0 59 56 94 116 94c52 0 108 -28 108 -87c0 -41 -28 -68 -69 -79c37 -15 60 -38 60 -81c0 -69 -58 -104 -130 -104zM118 524c1 -39 28 -64 79 -64c43 0 83 19 83 71c0 41 -32 66 -77 66
c-44 0 -85 -21 -85 -73zM153 682c0 -35 31 -54 67 -54c39 0 71 19 71 60c0 35 -28 55 -67 55c-37 0 -71 -18 -71 -61z" />
    <glyph glyph-name="seven.sup" horiz-adv-x="273" 
d="M269 736h-182l6 37h241l-2 -6l-188 -337h-48z" />
    <glyph glyph-name="six.sup" horiz-adv-x="321" 
d="M199 426c-73 0 -116 47 -116 115c0 15 1 33 4 50l3 22c19 112 76 164 153 164c52 0 96 -26 99 -85h-40c-4 32 -25 49 -62 50c-53 0 -91 -36 -106 -128l-2 -9c20 29 54 45 93 45c56 0 105 -34 105 -97c0 -76 -52 -127 -131 -127zM126 533c0 -40 26 -74 74 -74
c51 0 85 35 85 90c0 41 -24 69 -71 69c-48 0 -88 -29 -88 -85z" />
    <glyph glyph-name="five.sup" horiz-adv-x="299" 
d="M179 426c-58 0 -112 28 -115 97h42c4 -39 30 -62 73 -62c51 0 83 34 83 91c0 43 -26 70 -71 70c-35 0 -58 -15 -77 -34h-23l32 185h199l-5 -35h-164l-18 -109c16 15 40 27 73 27c56 0 100 -37 100 -101c-1 -79 -52 -129 -129 -129z" />
    <glyph glyph-name="four.sup" horiz-adv-x="314" 
d="M233 504h-179l3 15l204 254h58l-38 -235h48l-6 -34h-46l-12 -74h-44zM239 538l32 199l-159 -199h127z" />
    <glyph glyph-name="three.sup" horiz-adv-x="312" 
d="M192 426c-67 0 -122 30 -125 105h42c3 -43 32 -71 83 -71c43 0 81 23 81 72c0 35 -23 60 -66 60h-24l5 33h28c39 0 69 20 69 61c0 36 -24 57 -63 57c-45 0 -73 -27 -84 -66h-40c11 60 60 100 125 100c56 0 105 -26 105 -88c0 -40 -24 -69 -67 -82c33 -8 58 -34 58 -77
c0 -67 -59 -104 -127 -104z" />
    <glyph glyph-name="two.sup" horiz-adv-x="289" 
d="M40 439l149 127c49 41 82 70 82 118c0 35 -25 58 -61 58c-41 0 -72 -25 -85 -78h-41c13 72 65 113 129 113c56 0 102 -33 102 -93c0 -58 -40 -90 -98 -141l-95 -78h164l-6 -35h-241z" />
    <glyph glyph-name="one.sup" horiz-adv-x="223" 
d="M181 724l-97 -60l6 42l107 67h37l-55 -343h-45z" />
    <glyph glyph-name="zero.sup" horiz-adv-x="354" 
d="M127 559c0 -52 24 -97 87 -97c83 0 113 88 113 180c0 52 -25 99 -85 99c-88 0 -115 -99 -115 -182zM213 426c-84 0 -130 54 -130 135c0 112 50 216 159 216c83 0 129 -53 129 -137c0 -114 -47 -214 -158 -214z" />
    <glyph glyph-name="minus.sub" horiz-adv-x="327" 
d="M14 100h248l-7 -36h-248z" />
    <glyph glyph-name="plus.sub" horiz-adv-x="327" 
d="M112 64h-105l7 36h104l18 109h38l-18 -109h106l-7 -36h-105l-17 -109h-38z" />
    <glyph glyph-name="nine.sub" horiz-adv-x="321" 
d="M145 260c73 0 115 -46 116 -111c0 -17 -1 -41 -4 -58l-3 -21c-19 -113 -69 -161 -149 -161c-64 0 -105 28 -108 88h41c4 -35 22 -53 69 -53c56 0 89 37 104 128l1 9c-20 -29 -54 -45 -93 -45c-56 0 -105 33 -105 97c0 74 55 127 131 127zM218 153c0 40 -26 73 -74 73
c-49 0 -85 -34 -85 -89c0 -41 25 -69 72 -69s87 29 87 85z" />
    <glyph glyph-name="eight.sub" horiz-adv-x="318" 
d="M116 -91c-61 0 -122 30 -122 94c0 53 36 84 87 96c-28 11 -50 35 -50 67c0 59 56 94 116 94c52 0 108 -28 108 -87c0 -41 -28 -68 -69 -79c37 -15 60 -38 60 -81c0 -69 -58 -104 -130 -104zM39 7c1 -39 28 -64 79 -64c43 0 83 19 83 71c0 41 -32 66 -77 66
c-44 0 -85 -21 -85 -73zM74 165c0 -35 31 -54 67 -54c39 0 71 19 71 60c0 35 -28 55 -67 55c-37 0 -71 -18 -71 -61z" />
    <glyph glyph-name="seven.sub" horiz-adv-x="273" 
d="M190 219h-182l6 37h241l-2 -6l-188 -337h-48z" />
    <glyph glyph-name="six.sub" horiz-adv-x="321" 
d="M119 -91c-73 0 -116 47 -116 115c0 15 1 33 4 50l3 22c19 112 76 164 153 164c52 0 96 -26 99 -85h-40c-4 32 -25 49 -62 50c-53 0 -91 -36 -106 -128l-2 -9c20 29 54 45 93 45c56 0 105 -34 105 -97c0 -76 -52 -127 -131 -127zM46 16c0 -40 26 -74 74 -74
c51 0 85 35 85 90c0 41 -24 69 -71 69c-48 0 -88 -29 -88 -85z" />
    <glyph glyph-name="five.sub" horiz-adv-x="299" 
d="M100 -91c-58 0 -112 28 -115 97h42c4 -39 30 -62 73 -62c51 0 83 34 83 91c0 43 -26 70 -71 70c-35 0 -58 -15 -77 -34h-23l32 185h199l-5 -35h-164l-18 -109c16 15 40 27 73 27c56 0 100 -37 100 -101c-1 -79 -52 -129 -129 -129z" />
    <glyph glyph-name="four.sub" horiz-adv-x="314" 
d="M154 -13h-179l3 15l204 254h58l-38 -235h48l-6 -34h-46l-12 -74h-44zM160 21l32 199l-159 -199h127z" />
    <glyph glyph-name="uni043F.bgr" horiz-adv-x="577" 
d="M100 377c11 71 13 109 14 146h50c0 -28 -2 -70 -9 -113c35 67 103 121 195 121c112 0 181 -67 157 -219l-50 -312h-53l51 322c19 111 -27 163 -115 163c-93 0 -179 -63 -198 -175l-49 -310h-53z" />
    <glyph glyph-name="two.sub" horiz-adv-x="289" 
d="M-39 -78l149 127c49 41 82 70 82 118c0 35 -25 58 -61 58c-41 0 -72 -25 -85 -78h-41c13 72 65 113 129 113c56 0 102 -33 102 -93c0 -58 -40 -90 -98 -141l-95 -78h164l-6 -35h-241z" />
    <glyph glyph-name="one.sub" horiz-adv-x="223" 
d="M102 207l-97 -60l6 42l107 67h37l-55 -343h-45z" />
    <glyph glyph-name="zero.sub" horiz-adv-x="354" 
d="M48 42c0 -52 24 -97 87 -97c83 0 113 88 113 180c0 52 -25 99 -85 99c-88 0 -115 -99 -115 -182zM134 -91c-84 0 -130 54 -130 135c0 112 50 216 159 216c83 0 129 -53 129 -137c0 -114 -47 -214 -158 -214z" />
    <glyph glyph-name="nine.den" horiz-adv-x="321" 
d="M157 347c73 0 115 -46 116 -111c0 -17 -1 -41 -4 -58l-3 -21c-19 -113 -69 -161 -149 -161c-64 0 -105 28 -108 88h41c4 -35 22 -53 69 -53c56 0 89 37 104 128l1 9c-20 -29 -54 -45 -93 -45c-56 0 -105 33 -105 97c0 74 55 127 131 127zM230 240c0 40 -26 73 -74 73
c-49 0 -85 -34 -85 -89c0 -41 25 -69 72 -69s87 29 87 85z" />
    <glyph glyph-name="eight.den" horiz-adv-x="318" 
d="M128 -4c-61 0 -122 30 -122 94c0 53 36 84 87 96c-28 11 -50 35 -50 67c0 59 56 94 116 94c52 0 108 -28 108 -87c0 -41 -28 -68 -69 -79c37 -15 60 -38 60 -81c0 -69 -58 -104 -130 -104zM51 94c1 -39 28 -64 79 -64c43 0 83 19 83 71c0 41 -32 66 -77 66
c-44 0 -85 -21 -85 -73zM86 252c0 -35 31 -54 67 -54c39 0 71 19 71 60c0 35 -28 55 -67 55c-37 0 -71 -18 -71 -61z" />
    <glyph glyph-name="seven.den" horiz-adv-x="273" 
d="M202 306h-182l6 37h241l-2 -6l-188 -337h-48z" />
    <glyph glyph-name="six.den" horiz-adv-x="321" 
d="M131 -3c-73 0 -116 47 -116 115c0 15 1 33 4 50l3 22c19 112 76 164 153 164c52 0 96 -26 99 -85h-40c-4 32 -25 49 -62 50c-53 0 -91 -36 -106 -128l-2 -9c20 29 54 45 93 45c56 0 105 -34 105 -97c0 -76 -52 -127 -131 -127zM58 104c0 -40 26 -74 74 -74
c51 0 85 35 85 90c0 41 -24 69 -71 69c-48 0 -88 -29 -88 -85z" />
    <glyph glyph-name="five.den" horiz-adv-x="299" 
d="M111 -4c-58 0 -112 28 -115 97h42c4 -39 30 -62 73 -62c51 0 83 34 83 91c0 43 -26 70 -71 70c-35 0 -58 -15 -77 -34h-23l32 185h199l-5 -35h-164l-18 -109c16 15 40 27 73 27c56 0 100 -37 100 -101c-1 -79 -52 -129 -129 -129z" />
    <glyph glyph-name="four.den" horiz-adv-x="314" 
d="M165 74h-179l3 15l204 254h58l-38 -235h48l-6 -34h-46l-12 -74h-44zM171 108l32 199l-159 -199h127z" />
    <glyph glyph-name="three.den" horiz-adv-x="312" 
d="M124 -4c-67 0 -122 30 -125 105h42c3 -43 32 -71 83 -71c43 0 81 23 81 72c0 35 -23 60 -66 60h-24l5 33h28c39 0 69 20 69 61c0 36 -24 57 -63 57c-45 0 -73 -27 -84 -66h-40c11 60 60 100 125 100c56 0 105 -26 105 -88c0 -40 -24 -69 -67 -82c33 -8 58 -34 58 -77
c0 -67 -59 -104 -127 -104z" />
    <glyph glyph-name="uni0442.locl" horiz-adv-x="879" 
d="M188 689h600l-7 -42h-599zM777 146c-11 -71 -13 -109 -13 -146h-51c-1 29 2 69 9 112c-35 -68 -98 -120 -179 -120s-137 41 -148 129c-39 -83 -115 -129 -190 -129c-106 0 -174 64 -150 220l49 311h53l-50 -318c-19 -116 21 -167 108 -167c80 0 160 59 179 172l50 313h53
l-51 -321c-19 -111 24 -164 108 -164c83 0 161 63 180 172l49 313h53z" />
    <glyph glyph-name="uni20BD.old" horiz-adv-x="580" 
d="M320 336c121 0 190 55 190 175c0 92 -59 129 -159 129h-118l-47 -304h134zM160 168l-26 -168h-51l26 168h-95l6 38h95l14 93h-96l6 37h96l53 348h167c123 0 207 -55 207 -172c0 -158 -109 -220 -245 -220h-138l-13 -86h221l-5 -38h-222z" />
    <glyph glyph-name="one.den" horiz-adv-x="223" 
d="M114 294l-97 -60l6 42l107 67h37l-55 -343h-45z" />
    <glyph glyph-name="zero.den" horiz-adv-x="354" 
d="M60 129c0 -52 24 -97 87 -97c83 0 113 88 113 180c0 52 -25 99 -85 99c-88 0 -115 -99 -115 -182zM146 -4c-84 0 -130 54 -130 135c0 112 50 216 159 216c83 0 129 -53 129 -137c0 -114 -47 -214 -158 -214z" />
    <glyph glyph-name="nine.num" horiz-adv-x="321" 
d="M215 719c73 0 115 -46 116 -111c0 -17 -1 -41 -4 -58l-3 -21c-19 -113 -69 -161 -149 -161c-64 0 -105 28 -108 88h41c4 -35 22 -53 69 -53c56 0 89 37 104 128l1 9c-20 -29 -54 -45 -93 -45c-56 0 -105 33 -105 97c0 74 55 127 131 127zM288 612c0 40 -26 73 -74 73
c-49 0 -85 -34 -85 -89c0 -41 25 -69 72 -69s87 29 87 85z" />
    <glyph glyph-name="eight.num" horiz-adv-x="318" 
d="M186 368c-61 0 -122 30 -122 94c0 53 36 84 87 96c-28 11 -50 35 -50 67c0 59 56 94 116 94c52 0 108 -28 108 -87c0 -41 -28 -68 -69 -79c37 -15 60 -38 60 -81c0 -69 -58 -104 -130 -104zM109 466c1 -39 28 -64 79 -64c43 0 83 19 83 71c0 41 -32 66 -77 66
c-44 0 -85 -21 -85 -73zM144 624c0 -35 31 -54 67 -54c39 0 71 19 71 60c0 35 -28 55 -67 55c-37 0 -71 -18 -71 -61z" />
    <glyph glyph-name="seven.num" horiz-adv-x="273" 
d="M260 678h-182l6 37h241l-2 -6l-188 -337h-48z" />
    <glyph glyph-name="six.num" horiz-adv-x="321" 
d="M190 368c-73 0 -116 47 -116 115c0 15 1 33 4 50l3 22c19 112 76 164 153 164c52 0 96 -26 99 -85h-40c-4 32 -25 49 -62 50c-53 0 -91 -36 -106 -128l-2 -9c20 29 54 45 93 45c56 0 105 -34 105 -97c0 -76 -52 -127 -131 -127zM117 475c0 -40 26 -74 74 -74
c51 0 85 35 85 90c0 41 -24 69 -71 69c-48 0 -88 -29 -88 -85z" />
    <glyph glyph-name="five.num" horiz-adv-x="299" 
d="M170 368c-58 0 -112 28 -115 97h42c4 -39 30 -62 73 -62c51 0 83 34 83 91c0 43 -26 70 -71 70c-35 0 -58 -15 -77 -34h-23l32 185h199l-5 -35h-164l-18 -109c16 15 40 27 73 27c56 0 100 -37 100 -101c-1 -79 -52 -129 -129 -129z" />
    <glyph glyph-name="four.num" horiz-adv-x="314" 
d="M224 446h-179l3 15l204 254h58l-38 -235h48l-6 -34h-46l-12 -74h-44zM230 480l32 199l-159 -199h127z" />
    <glyph glyph-name="three.num" horiz-adv-x="312" 
d="M183 368c-67 0 -122 30 -125 105h42c3 -43 32 -71 83 -71c43 0 81 23 81 72c0 35 -23 60 -66 60h-24l5 33h28c39 0 69 20 69 61c0 36 -24 57 -63 57c-45 0 -73 -27 -84 -66h-40c11 60 60 100 125 100c56 0 105 -26 105 -88c0 -40 -24 -69 -67 -82c33 -8 58 -34 58 -77
c0 -67 -59 -104 -127 -104z" />
    <glyph glyph-name="two.num" horiz-adv-x="289" 
d="M31 381l149 127c49 41 82 70 82 118c0 35 -25 58 -61 58c-41 0 -72 -25 -85 -78h-41c13 72 65 113 129 113c56 0 102 -33 102 -93c0 -58 -40 -90 -98 -141l-95 -78h164l-6 -35h-241z" />
    <glyph glyph-name="one.num" horiz-adv-x="223" 
d="M172 666l-97 -60l6 42l107 67h37l-55 -343h-45z" />
    <glyph glyph-name="zero.num" horiz-adv-x="354" 
d="M118 501c0 -52 24 -97 87 -97c83 0 113 88 113 180c0 52 -25 99 -85 99c-88 0 -115 -99 -115 -182zM204 368c-84 0 -130 54 -130 135c0 112 50 216 159 216c83 0 129 -53 129 -137c0 -114 -47 -214 -158 -214z" />
    <glyph glyph-name="uni045D.bgr" horiz-adv-x="573" 
d="M471 146c-11 -67 -13 -111 -12 -146h-51c-1 31 1 73 8 112c-37 -66 -102 -120 -194 -120c-111 0 -179 71 -155 219l50 312h53l-51 -322c-17 -108 25 -163 113 -163c92 0 177 63 196 175l49 310h53zM242 752h64l50 -147h-41z" />
    <glyph glyph-name="braceright.tab" horiz-adv-x="304" 
d="M119 775c127 -7 172 -79 127 -206l-40 -111c-27 -71 -8 -119 75 -134l-6 -40c-87 -9 -119 -51 -116 -119l3 -127c5 -140 -66 -183 -190 -186l7 41c87 3 136 30 133 147l-2 124c-3 89 45 124 113 142c-62 22 -95 69 -66 157l39 110c37 108 9 154 -83 161z" />
    <glyph glyph-name="braceleft.tab" horiz-adv-x="304" 
d="M195 -148c-127 8 -171 80 -126 207l40 111c25 71 7 118 -76 133l7 41c87 9 118 50 115 118l-3 128c-5 141 68 182 190 185l-6 -41c-89 -3 -136 -29 -133 -146l2 -124c0 -91 -45 -124 -114 -143c64 -23 97 -68 66 -156l-38 -110c-37 -108 -9 -154 83 -161z" />
    <glyph glyph-name="bracketright.tab" horiz-adv-x="304" 
d="M-19 -105h131l133 838h-132l7 43h184l-146 -924h-185z" />
    <glyph glyph-name="bracketleft.tab" horiz-adv-x="304" 
d="M156 776h185l-7 -43h-131l-133 -838h132l-7 -43h-185z" />
    <glyph glyph-name="parenright.tab" horiz-adv-x="304" 
d="M164 773c49 -87 91 -198 91 -355c0 -217 -94 -414 -230 -566h-56c143 160 231 355 231 564c0 152 -41 268 -88 357h52z" />
    <glyph glyph-name="parenleft.tab" horiz-adv-x="304" 
d="M151 -148c-48 87 -91 196 -91 355c0 216 95 417 231 566h55c-141 -160 -230 -355 -230 -564c-1 -151 40 -268 88 -357h-53z" />
    <glyph glyph-name="semicolon.tab" horiz-adv-x="304" 
d="M6 -98l96 182l48 -24l-110 -177zM170 320c-24 0 -43 18 -43 42s19 42 42 42c24 0 43 -18 43 -42s-19 -42 -42 -42z" />
    <glyph glyph-name="uni20B8.tab" horiz-adv-x="600" 
d="M122 676l7 39h489l-7 -39h-489zM316 538h-217l8 46h489l-8 -46h-217l-83 -538h-56z" />
    <glyph glyph-name="colon.tab" horiz-adv-x="304" 
d="M113 -5c-23 0 -42 19 -42 42c0 24 18 43 42 43c23 0 43 -19 43 -43c0 -23 -19 -42 -43 -42zM165 320c-23 0 -42 18 -42 42s18 42 42 42c23 0 43 -18 43 -42s-19 -42 -43 -42z" />
    <glyph glyph-name="comma.tab" horiz-adv-x="304" 
d="M17 -98l96 182l48 -24l-110 -177z" />
    <glyph glyph-name="period.tab" horiz-adv-x="304" 
d="M114 -5c-24 0 -43 19 -43 42c0 24 19 43 42 43c24 0 43 -19 43 -43c0 -23 -19 -42 -42 -42z" />
    <glyph glyph-name="greaterequal.tab" 
d="M79 45h384l-8 -45h-383zM508 328l-3 -13l-416 -198l9 54l329 153l-279 164l8 50z" />
    <glyph glyph-name="eight.oldtab" horiz-adv-x="600" 
d="M281 -8c-120 0 -225 68 -225 189c0 115 83 185 184 204c-61 23 -103 74 -103 143c0 117 101 195 218 195c100 0 191 -61 191 -172c0 -96 -61 -153 -148 -174c76 -24 128 -83 128 -164c0 -139 -113 -221 -245 -221zM191 528c0 -72 56 -126 145 -126c85 0 156 51 156 148
c0 75 -56 129 -140 129c-88 0 -161 -55 -161 -151zM111 184c0 -88 66 -146 173 -146c100 0 187 58 187 175c0 84 -64 145 -167 145c-104 0 -193 -62 -193 -174z" />
    <glyph glyph-name="lessequal.tab" 
d="M111 327l2 13l416 198l-8 -54l-329 -153l279 -164l-8 -50zM68 45h384l-8 -45h-383z" />
    <glyph glyph-name="greater.tab" 
d="M506 321l-2 -13l-417 -204l8 54l333 159l-281 171l8 50z" />
    <glyph glyph-name="less.tab" 
d="M110 321l2 13l417 204l-8 -54l-333 -159l281 -170l-8 -51z" />
    <glyph glyph-name="approxequal.tab" 
d="M111 347c11 64 53 102 109 102c75 0 144 -54 208 -54c33 0 57 24 64 56h42c-12 -65 -52 -102 -108 -102c-76 0 -146 53 -208 53c-35 0 -57 -23 -65 -55h-42zM84 180c11 64 53 102 109 102c75 0 144 -53 207 -53c35 0 58 23 65 55h42c-12 -65 -52 -102 -108 -102
c-76 0 -146 53 -209 53c-35 0 -56 -23 -64 -55h-42z" />
    <glyph glyph-name="uni043A.bgr" horiz-adv-x="484" 
d="M137 279l-44 -279h-53l122 773h53l-78 -494l287 244h68l-293 -245l226 -278h-62z" />
    <glyph glyph-name="notequal.tab" 
d="M123 426h219l64 117h50l-64 -117h135l-8 -46h-152l-66 -121h200l-8 -46h-217l-63 -117h-50l63 117h-137l8 46h154l66 121h-202z" />
    <glyph glyph-name="five.oldtab" horiz-adv-x="600" 
d="M88 83c8 -89 65 -143 168 -143c124 0 198 93 198 218c0 86 -51 158 -152 158c-82 0 -134 -32 -178 -76h-19l60 379h382l-7 -47h-338l-43 -270c35 31 88 58 155 58c118 0 196 -83 196 -198c0 -149 -96 -266 -256 -266c-119 0 -209 63 -217 187h51z" />
    <glyph glyph-name="uni043D.bgr" horiz-adv-x="571" 
d="M432 248h-300l-39 -248h-53l83 523h53l-37 -230h301l36 230h53l-83 -523h-53z" />
    <glyph glyph-name="equal.tab" 
d="M97 259h404l-8 -46h-404zM123 426h404l-8 -46h-404z" />
    <glyph glyph-name="divide.tab" 
d="M97 365h437l-7 -46h-438zM288 122c-23 0 -42 19 -42 43c0 23 19 42 42 42c24 0 43 -19 43 -42c0 -24 -19 -43 -43 -43zM335 477c-23 0 -42 19 -42 43c0 23 19 42 42 42c24 0 43 -19 43 -42c0 -24 -19 -43 -43 -43z" />
    <glyph glyph-name="multiply.tab" 
d="M96 175l180 161l-139 160l33 31l140 -161l180 161l29 -33l-181 -161l140 -160l-34 -30l-140 160l-180 -160z" />
    <glyph glyph-name="plusminus.tab" 
d="M286 330h-195l7 45h195l32 199h48l-32 -199h195l-8 -45h-195l-31 -199h-48zM46 45h438l-8 -45h-437z" />
    <glyph glyph-name="minus.tab" 
d="M97 365h437l-7 -46h-438z" />
    <glyph glyph-name="plus.tab" 
d="M284 319h-195l8 46h194l34 209h48l-34 -209h195l-7 -46h-195l-33 -209h-48z" />
    <glyph glyph-name="uni0433.locl" horiz-adv-x="221" 
d="M91 689h174l-7 -42h-174zM125 523h53l-83 -523h-53z" />
    <glyph glyph-name="perthousand.tab" horiz-adv-x="1004" 
d="M139 542c1 -52 32 -88 81 -88c69 0 103 67 103 134c-1 52 -28 92 -80 92c-69 0 -104 -70 -104 -138zM219 413c-73 0 -127 51 -127 132c0 90 57 176 152 176c72 0 126 -50 126 -133c0 -88 -55 -175 -151 -175zM611 715h52l-567 -715h-52zM383 123c0 -53 30 -88 81 -88
c68 0 102 68 102 133c-1 52 -28 93 -80 93c-68 0 -103 -72 -103 -138zM463 -7c-74 0 -128 51 -128 132c0 90 57 177 152 177c72 0 127 -51 127 -134c0 -88 -58 -175 -151 -175zM705 123c1 -53 32 -88 81 -88c69 0 103 68 103 133c-1 52 -28 93 -80 93
c-69 0 -104 -72 -104 -138zM785 -7c-73 0 -127 51 -127 132c0 90 57 177 152 177c72 0 126 -50 126 -134c0 -88 -55 -175 -151 -175z" />
    <glyph glyph-name="uni0446.bgr" horiz-adv-x="590" 
d="M474 -127l14 127h-80c-1 31 1 73 8 112c-37 -66 -102 -120 -194 -120c-111 0 -179 71 -155 219l50 312h53l-51 -322c-17 -108 25 -163 113 -163c92 0 177 63 196 175l49 310h53l-67 -424c-3 -23 -5 -41 -5 -54h87l-27 -172h-44z" />
    <glyph glyph-name="percent.tab" horiz-adv-x="804" 
d="M142 543c0 -56 31 -103 98 -103c69 0 116 55 115 132c0 55 -31 106 -98 106c-72 0 -115 -60 -115 -135zM238 398c-84 0 -146 63 -146 147c0 94 71 175 167 175c86 0 146 -65 146 -150c0 -99 -74 -172 -167 -172zM671 715h53l-567 -715h-52zM472 138
c0 -55 33 -103 98 -103c71 0 116 54 116 133c0 55 -33 106 -98 106c-72 0 -116 -60 -116 -136zM569 -7c-84 0 -146 63 -146 148c0 92 71 175 167 175c86 0 145 -65 145 -150c0 -99 -74 -173 -166 -173z" />
    <glyph glyph-name="tilde.uc" horiz-adv-x="404" 
d="M352 774c-48 0 -87 53 -122 53c-23 0 -44 -19 -52 -54h-40c12 65 48 99 93 99c48 0 85 -52 122 -52c21 0 43 18 51 53h40c-13 -64 -48 -99 -92 -99z" />
    <glyph glyph-name="uni0447.bgr" horiz-adv-x="530" 
d="M351 0l41 257c-29 -26 -81 -65 -161 -65c-105 0 -172 62 -148 211l20 120h53l-21 -131c-17 -105 23 -154 107 -154c102 0 151 58 157 64l35 221h54l-83 -523h-54z" />
    <glyph glyph-name="hungarumlaut.uc" horiz-adv-x="404" 
d="M247 893h61l-75 -122h-40zM379 893h61l-75 -122h-40z" />
    <glyph glyph-name="uni0438.bgr" horiz-adv-x="573" 
d="M471 146c-11 -67 -13 -111 -12 -146h-51c-1 31 1 73 8 112c-37 -66 -102 -120 -194 -120c-111 0 -179 71 -155 219l50 312h53l-51 -322c-17 -108 25 -163 113 -163c92 0 177 63 196 175l49 310h53z" />
    <glyph glyph-name="f.short" horiz-adv-x="327" 
d="M63 523h79l16 97c19 116 83 156 161 156c27 0 46 -5 61 -10l-7 -43c-14 5 -32 8 -53 8c-56 0 -94 -26 -109 -113l-15 -95h145l-7 -45h-145l-76 -478h-53l75 478h-79z" />
    <glyph glyph-name="f_f.short" horiz-adv-x="603" 
d="M63 523h79l15 93c16 109 85 150 164 150c28 0 46 -3 62 -10l-6 -43c-16 6 -34 9 -54 9c-59 0 -100 -27 -113 -107l-15 -92h223l16 97c19 116 83 156 161 156c27 0 46 -5 61 -10l-7 -43c-14 5 -31 8 -52 8c-56 0 -95 -26 -110 -113l-15 -95h145l-7 -45h-145l-76 -478h-53
l75 478h-223l-75 -478h-53l75 478h-79z" />
    <glyph glyph-name="uni021B.alt" horiz-adv-x="323" 
d="M-6 -187l69 146l51 -15l-87 -148zM145 478h-88l8 45h87l19 119h53l-19 -119h127l-7 -45h-127l-75 -478h-53z" />
    <glyph glyph-name="tbar.alt" horiz-adv-x="319" 
d="M36 341h87l22 137h-88l8 45h87l19 119h53l-19 -119h127l-7 -45h-127l-22 -137h127l-6 -40h-127l-47 -301h-53l47 301h-88z" />
    <glyph glyph-name="uni043B.bgr" horiz-adv-x="508" 
d="M442 0h-56l-102 472l-246 -472h-56l275 523h69z" />
    <glyph glyph-name="uni0437.bgr" horiz-adv-x="464" 
d="M172 -188c-136 0 -191 92 -191 188h53c1 -83 46 -143 141 -143c103 0 163 83 163 185c0 85 -45 139 -134 139h-70l7 43h68c101 0 152 68 152 152c0 72 -43 112 -114 112c-73 0 -122 -42 -141 -113h-51c23 100 97 155 194 155c104 0 164 -65 164 -153
c0 -90 -56 -159 -140 -175c68 -15 116 -67 116 -160c0 -128 -78 -230 -217 -230z" />
    <glyph glyph-name="uni20B4.oldtab" horiz-adv-x="600" 
d="M545 192c-24 -107 -113 -199 -265 -199c-127 0 -201 59 -201 154c0 56 23 98 68 137l-96 13l118 3c37 27 84 50 144 74c23 9 43 18 60 27l-85 -2l-216 30l291 7l57 -8c56 37 71 74 71 123c0 71 -47 104 -132 104c-96 0 -147 -50 -171 -126h-50c24 98 97 170 224 170
c113 0 181 -54 181 -146c0 -56 -22 -96 -67 -133l103 -14l-127 -3c-33 -21 -74 -41 -125 -62c-31 -13 -58 -26 -81 -39l97 3l216 -30l-292 -8l-63 9c-52 -39 -72 -77 -72 -126c0 -68 51 -113 151 -113c125 0 188 75 209 155h53z" />
    <glyph glyph-name="nine.oldtab" horiz-adv-x="600" 
d="M489 414c0 100 -55 169 -168 169s-191 -88 -191 -207c0 -93 55 -157 160 -157c108 0 199 78 199 195zM323 627c147 0 219 -95 219 -226c0 -28 -3 -55 -8 -83l-12 -78c-40 -251 -146 -344 -290 -344c-117 0 -189 57 -198 169h53c9 -80 54 -124 146 -124
c118 0 196 74 233 290l8 49c-41 -71 -116 -105 -197 -105c-120 0 -202 75 -202 199c0 144 104 253 248 253z" />
    <glyph glyph-name="uni0434.bgr" horiz-adv-x="610" 
d="M264 62c124 0 218 108 218 251c0 104 -65 173 -172 173c-128 0 -211 -110 -211 -244c0 -104 57 -180 165 -180zM491 21c-23 -141 -114 -209 -251 -209c-141 0 -216 67 -227 158h53c12 -71 71 -113 172 -113c115 0 182 56 200 168l18 110c-37 -63 -101 -117 -197 -117
c-129 0 -215 90 -215 222c0 159 108 291 264 291c106 0 169 -60 190 -132l19 124h53z" />
    <glyph glyph-name="uni20BD.tab" horiz-adv-x="600" 
d="M344 351c129 0 204 58 204 183c0 97 -63 135 -171 135h-120l-51 -318h138zM179 176l-28 -176h-55l28 176h-97l7 39h96l15 97h-97l7 39h96l58 364h173c132 0 221 -56 221 -180c0 -165 -117 -229 -262 -229h-142l-14 -91h232l-6 -39h-232z" />
    <glyph glyph-name="florin.tab" 
d="M134 403h117l29 149c24 124 100 172 183 172c44 0 70 -9 86 -17l-6 -43c-17 8 -42 15 -79 15c-59 0 -112 -33 -131 -129l-28 -147h172l-7 -44h-174l-103 -541h-53l103 541h-116z" />
    <glyph glyph-name="yen.tab" 
d="M110 344h172l-151 371h58l135 -340l232 340h56l-257 -371h171l-7 -39h-179l-15 -97h179l-7 -39h-178l-27 -169h-54l26 169h-182l6 39h182l15 97h-181z" />
    <glyph glyph-name="sterling.tab" 
d="M69 368h74c-3 35 -6 70 -6 107c0 140 74 248 234 248c125 0 194 -67 197 -183h-54c-4 80 -45 136 -145 136c-124 0 -177 -87 -177 -202c0 -39 3 -71 6 -106h227l-7 -41h-217c2 -22 3 -45 3 -70c0 -64 -11 -107 -38 -150c73 -13 144 -67 210 -67c56 0 97 32 108 104h49
c-13 -96 -70 -152 -158 -152c-92 0 -172 73 -240 73c-44 0 -71 -29 -80 -65h-48c10 47 47 98 106 109c27 39 39 83 39 143c0 24 -1 48 -4 75h-85z" />
    <glyph glyph-name="uni0449.bgr" horiz-adv-x="895" 
d="M779 -127l13 127h-79c-1 29 2 69 9 112c-35 -68 -98 -120 -179 -120s-137 41 -148 129c-39 -83 -115 -129 -190 -129c-106 0 -174 64 -150 220l49 311h53l-50 -318c-19 -116 21 -167 108 -167c80 0 160 59 179 172l50 313h53l-51 -321c-19 -111 24 -164 108 -164
c83 0 161 63 180 172l49 313h53l-67 -424c-4 -27 -5 -41 -6 -54h87l-27 -172h-44z" />
    <glyph glyph-name="uni044A.bgr" horiz-adv-x="552" 
d="M43 478l7 45h195l-31 -192c17 3 58 8 107 8c121 0 184 -64 184 -156c0 -119 -88 -191 -201 -191c-125 0 -186 74 -166 201l47 285h-142zM303 36c95 0 147 61 147 142c0 73 -43 117 -135 117c-45 0 -89 -5 -108 -8l-16 -98c-16 -97 23 -153 112 -153z" />
    <glyph glyph-name="uni0431.locl" horiz-adv-x="579" 
d="M267 -8c-140 0 -229 103 -229 235c0 169 111 293 274 293c20 0 44 -6 49 -9c-104 56 -237 79 -237 171c0 56 44 91 117 91h186c75 0 113 8 136 13l-8 -46c-12 -5 -55 -15 -132 -15h-184c-49 0 -68 -20 -68 -49c0 -37 40 -59 96 -83c107 -48 274 -108 274 -296
c0 -172 -109 -305 -274 -305zM269 37c135 0 217 112 217 259c0 110 -62 190 -176 190c-135 0 -218 -116 -218 -259c0 -108 65 -190 177 -190z" />
    <glyph glyph-name="space.tab" horiz-adv-x="304" 
 />
    <glyph glyph-name="nine.old" horiz-adv-x="588" 
d="M320 627c149 0 222 -95 222 -222c0 -32 -2 -59 -7 -87l-12 -78c-40 -251 -149 -344 -293 -344c-117 0 -189 57 -198 169h52c11 -80 55 -124 147 -124c117 0 199 74 236 290l8 49c-41 -71 -119 -105 -200 -105c-123 0 -206 75 -206 199c0 144 104 253 251 253zM489 414
c0 100 -56 169 -171 169c-116 0 -193 -88 -193 -207c0 -92 55 -157 163 -157c109 0 201 78 201 195z" />
    <glyph glyph-name="eight.old" horiz-adv-x="576" 
d="M265 -8c-123 0 -229 68 -229 189c0 114 86 187 186 205c-61 23 -105 73 -105 142c0 117 103 195 222 195c102 0 195 -61 195 -172c0 -96 -65 -152 -150 -173c76 -24 130 -84 130 -165c0 -139 -114 -221 -249 -221zM92 184c0 -87 68 -146 176 -146c101 0 190 58 190 175
c0 84 -66 145 -170 145s-196 -62 -196 -174zM172 528c0 -72 58 -126 148 -126c85 0 159 51 159 148c0 75 -58 129 -143 129c-90 0 -164 -55 -164 -151z" />
    <glyph glyph-name="uni20B8.old" horiz-adv-x="534" 
d="M92 656l6 38h475l-7 -38h-474zM280 522h-210l8 44h473l-7 -44h-211l-80 -522h-55z" />
    <glyph glyph-name="seven.old" horiz-adv-x="503" 
d="M456 574h-381l7 44h450l-1 -9l-404 -706h-58z" />
    <glyph glyph-name="six.old" horiz-adv-x="588" 
d="M279 -8c-151 0 -224 93 -224 221c0 29 4 64 8 92l12 71c40 244 151 347 297 347c108 0 179 -54 187 -159h-52c-9 72 -51 114 -139 114c-113 0 -202 -81 -239 -297l-7 -42c41 71 119 105 200 105c123 0 206 -76 206 -199c0 -145 -101 -253 -249 -253zM108 207
c0 -101 58 -172 173 -172s192 88 192 207c0 93 -56 158 -164 158c-109 0 -201 -76 -201 -193z" />
    <glyph glyph-name="five.old" horiz-adv-x="554" 
d="M58 83c8 -89 65 -143 168 -143c124 0 198 93 198 218c0 86 -51 158 -152 158c-82 0 -134 -32 -178 -76h-20l61 379h382l-7 -47h-338l-43 -270c35 31 87 58 155 58c118 0 196 -83 196 -198c0 -149 -96 -266 -256 -266c-119 0 -209 63 -217 187h51z" />
    <glyph glyph-name="uni20B4.tab" horiz-adv-x="600" 
d="M529 198c-21 -109 -97 -207 -246 -207c-131 0 -205 68 -205 164c0 57 24 100 69 139l-91 13l112 3c39 27 87 52 150 77c23 9 42 17 59 26l-76 -2l-223 32l278 7l68 -9c51 36 67 75 67 127c0 67 -41 109 -132 109c-95 0 -146 -54 -169 -131h-52c27 102 96 176 224 176
c119 0 183 -63 183 -151c0 -59 -21 -101 -65 -138l99 -14l-122 -4c-33 -23 -75 -42 -128 -65c-32 -13 -59 -25 -82 -38l88 2l223 -31l-279 -7l-73 10c-52 -39 -73 -78 -73 -129c0 -72 50 -120 151 -120c123 0 172 76 190 161h55z" />
    <glyph glyph-name="four.old" horiz-adv-x="599" 
d="M370 66h-372l2 17l433 535h78l-81 -508h100l-6 -44h-100l-26 -163h-54zM377 110l74 466l-374 -466h300z" />
    <glyph glyph-name="three.old" horiz-adv-x="569" 
d="M248 -104c-134 0 -234 75 -237 210h52c4 -104 71 -166 188 -166c108 0 184 58 184 174c0 84 -50 142 -151 142h-48l7 46h51c103 0 162 51 162 151c0 81 -55 129 -143 129c-96 0 -159 -55 -179 -151h-50c19 117 112 196 233 196c111 0 193 -64 193 -172
c0 -92 -49 -154 -137 -177c72 -20 118 -77 118 -162c0 -139 -104 -220 -243 -220z" />
    <glyph glyph-name="two.old" horiz-adv-x="531" 
d="M-21 13l291 222c75 56 167 127 167 226c1 81 -57 122 -136 122c-89 0 -157 -54 -181 -163h-51c24 132 117 207 235 207c100 0 189 -52 189 -166c0 -116 -97 -184 -198 -261l-203 -155h354l-7 -45h-462z" />
    <glyph glyph-name="three.oldtab" horiz-adv-x="600" 
d="M266 -104c-134 0 -234 75 -237 210h52c4 -104 71 -166 188 -166c108 0 185 58 185 174c0 84 -51 142 -152 142h-47l6 46h52c101 0 162 51 162 151c0 81 -56 129 -144 129c-95 0 -158 -55 -179 -151h-49c19 117 110 196 233 196c111 0 193 -64 193 -172
c0 -92 -50 -154 -138 -177c72 -20 118 -77 118 -162c0 -139 -104 -220 -243 -220z" />
    <glyph glyph-name="one.old" horiz-adv-x="365" 
d="M237 559l-180 -112l8 53l189 119h46l-97 -619h-54z" />
    <glyph glyph-name="zero.old" horiz-adv-x="630" 
d="M112 303c-3 -23 -5 -44 -5 -64c0 -114 57 -201 190 -201c121 0 200 83 224 238l6 41c4 23 5 44 5 63c0 119 -59 202 -185 202c-119 0 -204 -81 -229 -238zM294 -8c-163 0 -242 108 -242 249c0 21 2 44 5 65l6 42c29 179 140 279 285 279c163 0 240 -108 240 -249
c0 -21 -2 -43 -6 -65l-6 -41c-28 -176 -127 -280 -282 -280z" />
    <glyph glyph-name="uni0430.alt" horiz-adv-x="593" 
d="M302 486c-131 0 -208 -113 -208 -260c0 -120 65 -189 164 -189c122 0 208 121 208 261c0 114 -67 188 -164 188zM249 -8c-124 0 -211 91 -211 232c0 166 101 307 263 307c112 0 163 -77 181 -137l20 129h53l-57 -359c-12 -81 -14 -127 -14 -164h-51c-1 32 2 82 9 119
c-37 -73 -101 -127 -193 -127z" />
    <glyph glyph-name="yen.old" horiz-adv-x="540" 
d="M79 334h166l-152 360h56l137 -330l229 330h56l-254 -360h166l-7 -38h-174l-15 -94h174l-6 -38h-174l-25 -164h-53l25 164h-176l6 38h176l14 94h-175z" />
    <glyph glyph-name="uni20B8.oldtab" horiz-adv-x="600" 
d="M122 656l7 38h475l-7 -38h-475zM310 522h-210l8 44h474l-7 -44h-211l-80 -522h-55z" />
    <glyph glyph-name="sterling.old" horiz-adv-x="583" 
d="M64 358h71c-3 33 -6 67 -6 103c0 135 76 240 230 240c121 0 189 -65 192 -177h-53c-4 79 -44 132 -141 132c-121 0 -174 -84 -174 -196c0 -36 3 -69 6 -102h220l-6 -40h-211c2 -22 3 -45 3 -69c0 -61 -10 -105 -37 -145c71 -13 143 -65 207 -65c53 0 94 29 105 100h47
c-12 -92 -69 -147 -154 -147c-88 0 -168 71 -235 71c-43 0 -69 -28 -78 -63h-47c11 47 46 96 103 105c27 39 38 81 38 140c0 23 -1 48 -4 73h-83z" />
    <glyph glyph-name="Euro.old" horiz-adv-x="650" 
d="M57 431h66c32 162 125 270 280 270c128 0 206 -69 211 -200h-52c-5 93 -57 156 -162 156c-124 0 -194 -85 -223 -226h241l-11 -38h-236l-16 -94h220l-11 -37h-214c-8 -111 26 -225 179 -225c100 0 174 55 202 172h50c-31 -145 -129 -217 -253 -217
c-173 0 -244 121 -231 270h-67l7 37h64l15 94h-66z" />
    <glyph glyph-name="dollar.old" horiz-adv-x="592" 
d="M270 -7l-19 -124h-40l20 127c-125 16 -198 91 -201 203h53c7 -85 55 -145 155 -160l47 301c-121 36 -179 83 -179 174c0 112 97 187 229 187h7l14 88h40l-14 -91c100 -15 167 -71 172 -171h-49c-9 77 -58 116 -130 127l-44 -276c128 -37 192 -80 192 -179
c0 -127 -97 -206 -241 -206h-12zM469 194c0 72 -39 104 -145 136l-47 -294h6c113 0 186 57 186 158zM159 516c0 -59 32 -94 134 -126l42 267h-5c-107 0 -171 -53 -171 -141z" />
    <glyph glyph-name="uni0434.locl" horiz-adv-x="610" 
d="M264 62c124 0 218 108 218 251c0 104 -65 173 -172 173c-128 0 -211 -110 -211 -244c0 -104 57 -180 165 -180zM491 21c-23 -141 -114 -209 -251 -209c-141 0 -216 67 -227 158h53c12 -71 71 -113 172 -113c115 0 182 56 200 168l18 110c-37 -63 -101 -117 -197 -117
c-129 0 -215 90 -215 222c0 159 108 291 264 291c106 0 169 -60 190 -132l19 124h53z" />
    <glyph glyph-name="space_uni0326" horiz-adv-x="404" 
d="M74 -187l69 146l51 -15l-87 -148z" />
    <glyph glyph-name="seven.oldtab" horiz-adv-x="600" 
d="M497 574h-381l7 44h450l-1 -9l-404 -706h-58z" />
    <glyph glyph-name="dollar.oldtab" horiz-adv-x="600" 
d="M167 516c0 -59 32 -94 135 -126l42 267h-5c-108 0 -172 -53 -172 -141zM477 194c0 72 -39 104 -145 136l-47 -294h6c113 0 186 57 186 158zM278 -7l-19 -124h-39l20 127c-125 16 -198 91 -202 203h53c7 -85 56 -147 156 -160l47 301c-121 38 -179 82 -179 174
c0 112 96 187 228 187h8l14 88h39l-14 -91c100 -15 166 -71 173 -171h-50c-9 77 -58 116 -130 127l-44 -276c131 -37 192 -80 192 -179c0 -127 -97 -206 -240 -206h-13z" />
    <glyph glyph-name="uni20BD.oldtab" horiz-adv-x="600" 
d="M335 336c121 0 191 55 191 175c0 92 -60 129 -160 129h-118l-47 -304h134zM175 168l-26 -168h-50l26 168h-95l5 38h96l14 93h-96l6 37h96l53 348h167c123 0 207 -55 207 -172c0 -158 -110 -220 -245 -220h-138l-14 -86h222l-5 -38h-223z" />
    <glyph glyph-name="idotaccent" horiz-adv-x="225" 
d="M173 635c-21 0 -37 17 -37 37c0 21 17 38 38 38c20 0 37 -16 37 -37c0 -20 -17 -38 -38 -38zM125 523h53l-83 -523h-53z" />
    <glyph glyph-name="uni0433.bgr" horiz-adv-x="444" 
d="M194 -9c-111 0 -175 53 -175 133c0 92 62 136 193 165c110 24 148 52 148 118c0 52 -39 81 -107 81c-69 0 -123 -35 -143 -99h-49c27 99 108 142 196 142c92 0 155 -40 155 -124c0 -88 -57 -133 -193 -160c-111 -23 -146 -61 -146 -125c0 -53 41 -87 121 -87
c88 0 140 51 157 120h51c-21 -95 -99 -164 -208 -164z" />
    <glyph glyph-name="sterling.oldtab" horiz-adv-x="600" 
d="M72 358h71c-3 33 -6 67 -6 103c0 135 76 240 230 240c121 0 189 -65 192 -177h-53c-4 79 -44 132 -141 132c-120 0 -175 -84 -175 -196c0 -36 3 -69 6 -102h221l-7 -40h-210c1 -23 3 -45 3 -69c0 -61 -10 -105 -37 -145c71 -13 143 -65 207 -65c53 0 94 29 105 100h47
c-12 -92 -70 -147 -154 -147c-88 0 -168 71 -235 71c-43 0 -69 -28 -78 -63h-47c11 47 46 96 103 105c27 39 38 81 38 140c0 23 -1 48 -4 73h-83z" />
    <glyph glyph-name="zero.oldtab" horiz-adv-x="600" 
d="M278 -8c-147 0 -222 94 -222 220c0 25 1 46 4 69l14 87c25 161 123 259 267 259s217 -99 217 -226c0 -21 -2 -44 -5 -65l-13 -87c-27 -167 -117 -257 -262 -257zM115 279c-3 -23 -5 -46 -5 -67c3 -101 49 -174 169 -174c119 0 183 74 206 215l14 87c3 21 5 41 5 60
c-1 109 -57 182 -166 182c-116 0 -188 -79 -209 -216z" />
    <glyph glyph-name="uni044E.bgr" horiz-adv-x="764" 
d="M463 -8c-137 0 -220 103 -220 235c0 7 0 14 1 21h-111l-39 -248h-53l122 773h53l-75 -480h108c24 135 119 237 259 237c139 0 218 -102 218 -233c0 -172 -103 -305 -263 -305zM465 37c130 0 206 112 206 259c0 108 -57 190 -166 190c-131 0 -207 -116 -207 -259
c0 -108 56 -190 167 -190z" />
    <glyph glyph-name="uni0448.bgr" horiz-adv-x="879" 
d="M777 146c-11 -71 -13 -109 -13 -146h-51c-1 29 2 69 9 112c-35 -68 -98 -120 -179 -120s-137 41 -148 129c-39 -83 -115 -129 -190 -129c-106 0 -174 64 -150 220l49 311h53l-50 -318c-19 -116 21 -167 108 -167c80 0 160 59 179 172l50 313h53l-51 -321
c-19 -111 24 -164 108 -164c83 0 161 63 180 172l49 313h53z" />
    <glyph glyph-name="uni02BC" unicode="&#x2bc;" horiz-adv-x="211" 
d="M93 545l86 177l50 -23l-104 -171z" />
    <glyph glyph-name="uni00AD" unicode="&#xad;" horiz-adv-x="338" 
d="M66 302h209l-7 -50h-210z" />
    </font>
</defs>
</svg>
