<?xml version="1.0" standalone="no"?>
<!DOCTYPE svg PUBLIC "-//W3C//DTD SVG 1.1//EN" "http://www.w3.org/Graphics/SVG/1.1/DTD/svg11.dtd" >
<svg xmlns="http://www.w3.org/2000/svg" xmlns:xlink="http://www.w3.org/1999/xlink" version="1.1">
<metadata>
Created by FontForge 20190801 at Mon Jul  4 10:31:44 2016
 By Jimmy Wärting
LCG stand for Latin, Cyrillic and Greek.
</metadata>
<defs>
<font id="GraphikLCG-Light" horiz-adv-x="604" >
  <font-face 
    font-family="Graphik LCG"
    font-weight="300"
    font-stretch="normal"
    units-per-em="1000"
    panose-1="2 11 4 3 3 2 2 6 2 3"
    ascent="818"
    descent="-182"
    x-height="523"
    cap-height="715"
    bbox="-224 -212 1069 1091"
    underline-thickness="50"
    underline-position="-100"
    stemh="45"
    stemv="53"
    unicode-range="U+000D-FB02"
  />
<missing-glyph horiz-adv-x="504" 
 />
    <glyph glyph-name="f_f" unicode="ff" horiz-adv-x="615" 
d="M105 478h-79v45h79v86c0 109 60 159 148 159c25 0 39 -2 58 -9v-45c-15 5 -33 9 -56 9c-59 0 -97 -33 -97 -109v-91h226v94c0 109 60 159 148 159c24 0 38 -2 57 -9v-45c-15 5 -33 9 -56 9c-57 0 -96 -33 -96 -109v-99h145v-45h-145v-478h-53v478h-226v-478h-53v478z" />
    <glyph glyph-name=".notdef" horiz-adv-x="504" 
 />
    <glyph glyph-name="NULL" horiz-adv-x="0" 
 />
    <glyph glyph-name="NULL" horiz-adv-x="0" 
 />
    <glyph glyph-name="CR" unicode="&#xd;" horiz-adv-x="251" 
 />
    <glyph glyph-name="space" unicode=" " horiz-adv-x="251" 
 />
    <glyph glyph-name="exclam" unicode="!" horiz-adv-x="275" 
d="M136 -5c-24 0 -43 19 -43 42c0 24 19 43 43 43c23 0 42 -19 42 -43c0 -23 -19 -42 -42 -42zM107 715h59l-8 -536h-42z" />
    <glyph glyph-name="quotedbl" unicode="&#x22;" horiz-adv-x="309" 
d="M58 715h58l-9 -209h-40zM189 715h58l-9 -209h-40z" />
    <glyph glyph-name="numbersign" unicode="#" horiz-adv-x="496" 
d="M286 295h-120l-28 -196h-45l28 196h-90v45h97l23 157h-92v45h98l26 173h45l-26 -173h120l26 173h45l-26 -173h93v-45h-99l-23 -157h94v-45h-101l-28 -196h-45zM173 340h120l23 157h-120z" />
    <glyph glyph-name="dollar" unicode="$" horiz-adv-x="610" 
d="M283 -7c-162 8 -227 101 -240 212h54c11 -85 54 -159 186 -167v314c-143 24 -213 76 -213 184c0 107 87 182 213 187v90h40v-91c119 -8 191 -72 206 -179h-51c-16 81 -64 127 -155 134v-283c152 -24 226 -69 226 -199c0 -110 -89 -198 -226 -203v-127h-40v128zM495 191
c0 94 -45 133 -172 154v-308c105 5 172 68 172 154zM122 540c0 -73 34 -116 161 -140v277c-100 -4 -161 -54 -161 -137z" />
    <glyph glyph-name="percent" unicode="%" horiz-adv-x="770" 
d="M197 440c61 0 107 43 107 119c0 73 -46 119 -107 119c-60 0 -107 -44 -107 -121c0 -76 47 -117 107 -117zM197 398c-81 0 -157 63 -157 159s74 163 157 163c85 0 156 -68 156 -161c0 -98 -74 -161 -156 -161zM585 715h50l-455 -715h-51zM568 36c61 0 107 43 107 119
c0 73 -44 118 -107 118c-60 0 -107 -44 -107 -120s47 -117 107 -117zM568 -7c-81 0 -156 64 -156 160s72 163 156 163c85 0 157 -68 157 -161c0 -99 -75 -162 -157 -162z" />
    <glyph glyph-name="ampersand" unicode="&#x26;" horiz-adv-x="667" 
d="M504 146l125 -146h-66l-91 106c-45 -59 -110 -113 -210 -113c-129 0 -213 81 -213 193c0 113 82 171 173 217c-47 59 -73 104 -73 160c0 96 75 156 162 156s148 -63 148 -144c0 -85 -69 -143 -162 -183l177 -208l96 178h51zM264 38c80 0 136 43 179 103l-195 231
c-77 -37 -145 -90 -145 -181c0 -92 58 -153 161 -153zM201 563c0 -47 27 -86 72 -141c84 39 135 81 135 154c0 59 -38 100 -99 100s-108 -41 -108 -113z" />
    <glyph glyph-name="quotesingle" unicode="'" horiz-adv-x="178" 
d="M58 715h58l-9 -209h-40z" />
    <glyph glyph-name="parenleft" unicode="(" horiz-adv-x="303" 
d="M220 -148c-91 107 -165 261 -165 460c0 200 74 352 165 461h54c-90 -111 -163 -256 -163 -461c0 -204 73 -349 163 -460h-54z" />
    <glyph glyph-name="parenright" unicode=")" horiz-adv-x="303" 
d="M26 -146c90 111 163 256 163 460c0 205 -73 350 -163 461h53c91 -110 165 -260 165 -461c0 -200 -73 -352 -165 -460h-53z" />
    <glyph glyph-name="asterisk" unicode="*" horiz-adv-x="421" 
d="M88 450l90 117l-132 40l15 44l128 -51l-4 143h48l-4 -143l128 51l14 -44l-132 -40l90 -117l-37 -27l-84 122l-83 -122z" />
    <glyph glyph-name="plus" unicode="+" horiz-adv-x="514" 
d="M231 319h-195v46h195v209h48v-209h195v-46h-195v-209h-48v209z" />
    <glyph glyph-name="comma" unicode="," horiz-adv-x="233" 
d="M33 -99l77 183l52 -24l-93 -177z" />
    <glyph glyph-name="hyphen" unicode="-" horiz-adv-x="337" 
d="M62 302h209v-50h-209v50z" />
    <glyph glyph-name="period" unicode="." horiz-adv-x="233" 
d="M114 -5c-23 0 -42 19 -42 42c0 24 19 43 42 43c24 0 43 -19 43 -43c0 -23 -19 -42 -43 -42z" />
    <glyph glyph-name="slash" unicode="/" horiz-adv-x="395" 
d="M304 776h50l-291 -924h-50z" />
    <glyph glyph-name="zero" unicode="0" horiz-adv-x="663" 
d="M332 39c141 0 214 100 214 291v60c0 176 -80 287 -217 287s-215 -104 -215 -289v-61c0 -191 81 -288 218 -288zM332 -8c-171 0 -275 127 -275 335v60c0 209 101 336 272 336c170 0 274 -129 274 -333v-61c0 -208 -98 -337 -271 -337z" />
    <glyph glyph-name="one" unicode="1" horiz-adv-x="372" 
d="M191 657l-164 -114v52l172 120h47v-715h-55v657z" />
    <glyph glyph-name="two" unicode="2" horiz-adv-x="541" 
d="M20 13l287 297c76 79 112 143 112 220c0 96 -60 147 -152 147s-156 -53 -171 -170h-52c11 135 99 216 223 216s208 -71 208 -195c0 -88 -48 -166 -136 -253l-231 -229h377v-46h-465v13z" />
    <glyph glyph-name="three" unicode="3" horiz-adv-x="571" 
d="M276 -8c-147 0 -234 96 -239 210h51c8 -90 67 -164 189 -164c116 0 179 59 179 160c0 92 -51 153 -163 153h-52v47h48c104 0 145 60 145 136c0 81 -51 142 -147 142c-100 0 -163 -62 -172 -149h-50c8 108 96 196 222 196c127 0 201 -86 201 -188
c0 -79 -46 -134 -117 -157c85 -19 142 -80 142 -180c0 -130 -97 -206 -237 -206z" />
    <glyph glyph-name="four" unicode="4" horiz-adv-x="599" 
d="M402 161h-369v17l346 537h78v-508h99v-46h-99v-161h-55v161zM402 207v467l-295 -467h295z" />
    <glyph glyph-name="five" unicode="5" horiz-adv-x="565" 
d="M268 -8c-145 0 -219 87 -230 192h54c11 -80 61 -146 176 -146s182 73 182 194c0 112 -73 187 -172 187c-88 0 -140 -33 -177 -78h-21v374h390v-48h-343v-262c31 31 85 60 160 60c124 0 220 -90 220 -233c0 -149 -101 -240 -239 -240z" />
    <glyph glyph-name="six" unicode="6" 
d="M309 -8c-181 0 -249 133 -249 301v52c0 262 112 378 269 378c105 0 184 -51 201 -163h-53c-15 77 -65 116 -151 116c-124 0 -208 -90 -211 -314v-29c32 79 116 122 200 122c149 0 234 -100 234 -229c0 -139 -94 -234 -240 -234zM309 37c111 0 183 76 183 187
s-65 186 -184 186c-101 0 -187 -67 -187 -177c0 -108 64 -196 188 -196z" />
    <glyph glyph-name="seven" unicode="7" horiz-adv-x="508" 
d="M415 669h-387v46h457v-9l-279 -706h-57z" />
    <glyph glyph-name="eight" unicode="8" horiz-adv-x="587" 
d="M292 -8c-122 0 -240 70 -240 207c0 101 68 164 157 188c-73 21 -127 75 -127 156c0 111 102 180 210 180s209 -71 209 -178c0 -84 -52 -135 -125 -158c92 -24 155 -86 155 -186c0 -139 -112 -209 -239 -209zM292 39c107 0 182 56 182 164c0 103 -80 159 -180 159
c-99 0 -185 -57 -185 -161c0 -108 83 -162 183 -162zM295 407c85 0 150 48 150 138c0 77 -65 133 -153 133s-154 -52 -154 -135c0 -89 78 -136 157 -136z" />
    <glyph glyph-name="nine" unicode="9" horiz-adv-x="603" 
d="M281 -7c-117 0 -199 59 -219 171h54c19 -80 73 -125 166 -125c126 0 204 77 204 300v38c-32 -76 -119 -117 -203 -117c-145 0 -233 97 -233 230c0 139 94 233 241 233c169 0 249 -119 249 -295v-82c0 -252 -96 -353 -259 -353zM290 305c103 0 189 66 189 172
c0 111 -64 202 -188 202c-112 0 -184 -76 -184 -187s65 -187 183 -187z" />
    <glyph glyph-name="colon" unicode=":" horiz-adv-x="241" 
d="M118 -5c-23 0 -42 19 -42 42c0 24 19 43 42 43c24 0 43 -19 43 -43c0 -23 -19 -42 -43 -42zM118 320c-23 0 -42 18 -42 42s19 42 42 42c24 0 43 -18 43 -42s-19 -42 -43 -42z" />
    <glyph glyph-name="semicolon" unicode=";" horiz-adv-x="241" 
d="M23 -99l77 183l53 -24l-94 -177zM123 320c-23 0 -42 18 -42 42s19 42 42 42c24 0 43 -18 43 -42s-19 -42 -43 -42z" />
    <glyph glyph-name="less" unicode="&#x3c;" horiz-adv-x="500" 
d="M51 315v14l384 211v-52l-306 -166l306 -166v-52z" />
    <glyph glyph-name="equal" unicode="=" horiz-adv-x="488" 
d="M40 259h404v-46h-404v46zM40 426h404v-46h-404v46z" />
    <glyph glyph-name="greater" unicode="&#x3e;" horiz-adv-x="500" 
d="M61 156l306 166l-306 166v52l384 -211v-14l-384 -211v52z" />
    <glyph glyph-name="question" unicode="?" horiz-adv-x="481" 
d="M188 236c0 80 45 124 100 179c45 45 85 83 85 146c0 68 -41 117 -130 117c-88 0 -147 -57 -155 -150h-51c8 117 89 195 207 195c125 0 184 -75 184 -160c0 -80 -49 -122 -103 -176c-51 -51 -89 -87 -89 -155v-53h-48v57zM211 -5c-24 0 -43 19 -43 42c0 24 19 43 43 43
c23 0 42 -19 42 -43c0 -23 -19 -42 -42 -42z" />
    <glyph glyph-name="at" unicode="@" horiz-adv-x="913" 
d="M460 -147c-268 0 -414 196 -414 409c0 243 198 426 426 426c239 0 393 -160 393 -366c0 -184 -97 -252 -176 -252c-75 0 -107 37 -114 101c-24 -52 -81 -108 -154 -108c-94 0 -159 66 -159 174c0 133 90 232 194 232c73 0 118 -42 131 -93l9 84h53l-28 -240
c-9 -68 12 -110 68 -110c68 0 129 64 129 210c0 189 -128 325 -346 325c-208 0 -376 -161 -376 -382c0 -193 124 -367 364 -367c132 0 215 44 272 104h50c-49 -81 -168 -147 -322 -147zM430 105c77 0 147 78 147 185c0 88 -45 136 -117 136c-75 0 -144 -74 -144 -189
c0 -84 46 -132 114 -132z" />
    <glyph glyph-name="A" unicode="A" horiz-adv-x="658" 
d="M290 715h74l257 -715h-56l-79 219h-322l-78 -219h-53zM180 264h290l-145 405z" />
    <glyph glyph-name="B" unicode="B" horiz-adv-x="608" 
d="M92 715h203c126 0 217 -51 217 -181v-4c0 -81 -41 -132 -122 -155c108 -20 157 -77 157 -174v-4c0 -131 -86 -197 -222 -197h-233v715zM324 45c113 0 169 52 169 152v4c0 99 -63 148 -188 148h-158v-304h177zM296 393c109 0 161 47 161 138v4c0 93 -58 135 -163 135h-147
v-277h149z" />
    <glyph glyph-name="C" unicode="C" horiz-adv-x="729" 
d="M385 -8c-204 0 -332 145 -332 361v8c0 211 145 363 332 363c147 0 268 -77 289 -224h-56c-23 116 -99 179 -232 179c-160 0 -276 -128 -276 -317v-8c0 -193 105 -315 276 -315c129 0 221 67 244 191h52c-27 -155 -142 -238 -297 -238z" />
    <glyph glyph-name="D" unicode="D" horiz-adv-x="690" 
d="M274 46c204 0 302 129 302 310v8c0 176 -93 305 -303 305h-125v-623h126zM92 715h186c236 0 356 -152 356 -351v-9c0 -198 -114 -355 -358 -355h-184v715z" />
    <glyph glyph-name="E" unicode="E" horiz-adv-x="570" 
d="M92 715h411v-46h-355v-279h288v-46h-288v-298h373v-46h-429v715z" />
    <glyph glyph-name="F" unicode="F" horiz-adv-x="544" 
d="M92 715h407v-46h-351v-284h276v-46h-276v-339h-56v715z" />
    <glyph glyph-name="G" unicode="G" horiz-adv-x="760" 
d="M396 -8c-215 0 -343 151 -343 361v8c0 208 145 363 341 363c136 0 261 -65 287 -213h-56c-27 119 -115 168 -230 168c-172 0 -285 -131 -285 -317v-8c0 -190 102 -316 286 -316c168 0 250 103 253 260v4h-220v47h274v-41c0 -205 -123 -316 -307 -316z" />
    <glyph glyph-name="H" unicode="H" horiz-adv-x="721" 
d="M92 715h56v-333h421v333h56v-715h-56v335h-421v-335h-56v715z" />
    <glyph glyph-name="I" unicode="I" horiz-adv-x="254" 
d="M97 715h56v-715h-56v715z" />
    <glyph glyph-name="J" unicode="J" horiz-adv-x="405" 
d="M137 -7c-51 0 -81 11 -100 20v47c25 -11 54 -21 97 -21c80 0 129 40 129 144v532h56v-534c0 -132 -78 -188 -182 -188z" />
    <glyph glyph-name="K" unicode="K" horiz-adv-x="603" 
d="M92 715h56v-352l347 353h64l-346 -349l363 -367h-68l-360 361v-361h-56v715z" />
    <glyph glyph-name="L" unicode="L" horiz-adv-x="534" 
d="M92 715h56v-669h347v-46h-403v715z" />
    <glyph glyph-name="M" unicode="M" horiz-adv-x="855" 
d="M92 715h80l252 -614l253 614h78v-715h-55v645l-269 -645h-18l-269 645v-645h-52v715z" />
    <glyph glyph-name="N" unicode="N" horiz-adv-x="717" 
d="M92 715h76l400 -638v638h53v-715h-66l-409 653v-653h-54v715z" />
    <glyph glyph-name="O" unicode="O" horiz-adv-x="805" 
d="M403 39c171 0 288 134 288 317v8c0 173 -114 313 -290 313c-175 0 -291 -135 -291 -315v-8c0 -182 128 -315 293 -315zM403 -8c-204 0 -350 161 -350 361v8c0 203 147 362 348 362c202 0 348 -159 348 -360v-8c0 -202 -146 -363 -346 -363z" />
    <glyph glyph-name="P" unicode="P" horiz-adv-x="572" 
d="M92 715h189c139 0 244 -56 244 -201v-4c0 -148 -104 -204 -243 -204h-134v-306h-56v715zM286 351c116 0 183 48 183 159v4c0 116 -73 155 -185 155h-136v-318h138z" />
    <glyph glyph-name="Q" unicode="Q" horiz-adv-x="805" 
d="M579 40c-51 -31 -109 -48 -176 -48c-204 0 -350 161 -350 361v8c0 203 147 362 348 362c202 0 348 -159 348 -360v-8c0 -119 -50 -221 -131 -288l88 -94l-34 -33zM403 39c53 0 101 12 143 37l-101 110l34 33l106 -116c68 57 106 146 106 253v8c0 173 -114 313 -290 313
c-175 0 -291 -135 -291 -315v-8c0 -182 128 -315 293 -315z" />
    <glyph glyph-name="R" unicode="R" horiz-adv-x="610" 
d="M92 715h196c139 0 243 -53 243 -192v-4c0 -120 -78 -173 -185 -189l227 -330h-62l-224 326h-139v-326h-56v715zM291 371c116 0 184 44 184 148v4c0 109 -72 146 -184 146h-143v-298h143z" />
    <glyph glyph-name="S" unicode="S" horiz-adv-x="606" 
d="M308 -8c-178 0 -250 97 -266 213h55c11 -90 64 -167 211 -167c112 0 185 65 185 153c0 100 -49 136 -192 157c-157 23 -231 75 -231 188c0 111 92 187 225 187s214 -65 230 -180h-51c-17 89 -72 134 -179 134c-111 0 -173 -50 -173 -137c0 -78 39 -121 188 -142
c160 -24 237 -70 237 -203c0 -112 -95 -203 -239 -203z" />
    <glyph glyph-name="T" unicode="T" horiz-adv-x="563" 
d="M252 669h-222v46h499v-46h-222v-669h-55v669z" />
    <glyph glyph-name="U" unicode="U" horiz-adv-x="686" 
d="M338 -7c-161 0 -256 91 -256 263v459h55v-453c0 -153 69 -222 202 -222c137 0 206 66 206 235v440h56v-448c0 -171 -86 -274 -263 -274z" />
    <glyph glyph-name="V" unicode="V" horiz-adv-x="641" 
d="M29 715h55l239 -660l232 660h52l-253 -715h-66z" />
    <glyph glyph-name="W" unicode="W" horiz-adv-x="924" 
d="M33 715h56l164 -630l189 630h39l182 -632l173 632h51l-196 -715h-54l-176 616l-186 -616h-53z" />
    <glyph glyph-name="X" unicode="X" horiz-adv-x="650" 
d="M293 370l-226 345h61l200 -303l198 303h58l-228 -346l244 -369h-63l-217 328l-217 -328h-57z" />
    <glyph glyph-name="Y" unicode="Y" horiz-adv-x="582" 
d="M268 318l-245 397h62l212 -350l202 350h56l-231 -398v-317h-56v318z" />
    <glyph glyph-name="Z" unicode="Z" horiz-adv-x="591" 
d="M27 11l443 658h-407v46h485v-10l-437 -657h431v-48h-515v11z" />
    <glyph glyph-name="bracketleft" unicode="[" horiz-adv-x="344" 
d="M93 776h206v-43h-153v-838h153v-43h-206v924z" />
    <glyph glyph-name="backslash" unicode="\" horiz-adv-x="395" 
d="M37 776h50l291 -924h-50z" />
    <glyph glyph-name="bracketright" unicode="]" horiz-adv-x="344" 
d="M42 -105h152v838h-152v43h205v-924h-205v43z" />
    <glyph glyph-name="asciicircum" unicode="^" horiz-adv-x="482" 
d="M213 715h53l167 -293h-55l-139 245l-140 -245h-53z" />
    <glyph glyph-name="underscore" unicode="_" horiz-adv-x="393" 
d="M-1 -107h391v-44h-391v44z" />
    <glyph glyph-name="grave" unicode="`" horiz-adv-x="404" 
d="M92 752h65l68 -147h-41z" />
    <glyph glyph-name="a" unicode="a" horiz-adv-x="533" 
d="M221 -8c-104 0 -177 50 -177 149c0 121 116 158 245 158h109v47c0 99 -40 140 -132 140c-80 0 -135 -34 -147 -111h-52c11 109 103 156 201 156c108 0 183 -52 183 -185v-346h-53v80c-33 -51 -89 -88 -177 -88zM225 35c96 0 173 57 173 134v89h-107
c-109 0 -194 -23 -194 -117c0 -68 41 -106 128 -106z" />
    <glyph glyph-name="b" unicode="b" horiz-adv-x="616" 
d="M334 -8c-103 0 -172 63 -199 127v-119h-53v773h53v-372c29 67 107 130 199 130c132 0 235 -101 235 -264v-8c0 -164 -99 -267 -235 -267zM330 37c111 0 184 79 184 220v8c0 144 -85 221 -185 221c-102 0 -195 -77 -195 -221v-8c0 -143 88 -220 196 -220z" />
    <glyph glyph-name="c" unicode="c" horiz-adv-x="560" 
d="M293 -8c-141 0 -250 105 -250 264v8c0 160 111 267 250 267c106 0 205 -56 218 -174h-52c-13 88 -83 129 -166 129c-109 0 -195 -84 -195 -222v-8c0 -138 85 -219 195 -219c87 0 161 51 174 144h49c-13 -112 -104 -189 -223 -189z" />
    <glyph glyph-name="d" unicode="d" horiz-adv-x="616" 
d="M278 -8c-133 0 -235 96 -235 262v8c0 161 104 269 243 269c104 0 161 -59 191 -124v366h53v-773h-53v121c-29 -63 -101 -129 -199 -129zM283 37c107 0 195 77 195 221v8c0 144 -78 220 -187 220c-112 0 -193 -82 -193 -222v-8c0 -143 81 -219 185 -219z" />
    <glyph glyph-name="e" unicode="e" horiz-adv-x="558" 
d="M291 -8c-151 0 -248 107 -248 264v8c0 157 100 267 240 267c126 0 229 -82 229 -255v-19h-414c3 -141 68 -220 193 -220c88 0 145 36 164 109h53c-23 -100 -104 -154 -217 -154zM457 300c-5 128 -71 186 -174 186c-102 0 -172 -71 -183 -186h357z" />
    <glyph glyph-name="f" unicode="f" horiz-adv-x="337" 
d="M105 478h-79v45h79v94c0 109 60 159 148 159c25 0 39 -2 58 -9v-45c-15 5 -33 9 -56 9c-59 0 -97 -33 -97 -109v-99h146v-45h-146v-478h-53v478z" />
    <glyph glyph-name="g" unicode="g" horiz-adv-x="616" 
d="M288 -188c-151 0 -221 74 -234 158h54c15 -68 70 -113 179 -113c112 0 190 51 190 180v107c-29 -63 -101 -127 -198 -127c-133 0 -236 98 -236 250v7c0 149 104 257 243 257c103 0 162 -57 191 -121v113h53v-488c0 -155 -103 -223 -242 -223zM284 62
c106 0 194 77 194 208v8c0 132 -78 208 -187 208c-112 0 -193 -79 -193 -210v-8c0 -130 82 -206 186 -206z" />
    <glyph glyph-name="h" unicode="h" horiz-adv-x="587" 
d="M82 773h53v-352c24 57 91 110 185 110c111 0 186 -60 186 -209v-322h-53v325c0 112 -52 160 -145 160c-87 0 -173 -59 -173 -168v-317h-53v773z" />
    <glyph glyph-name="i" unicode="i" horiz-adv-x="225" 
d="M84 523h53v-523h-53v523zM110 635c-21 0 -38 17 -38 38c0 20 17 37 38 37s37 -17 37 -37c0 -21 -16 -38 -37 -38z" />
    <glyph glyph-name="j" unicode="j" horiz-adv-x="225" 
d="M7 -143c60 5 77 35 77 91v575h53v-571c0 -92 -34 -136 -130 -140v45zM110 635c-21 0 -38 17 -38 38c0 20 17 37 38 37s37 -17 37 -37c0 -21 -16 -38 -37 -38z" />
    <glyph glyph-name="k" unicode="k" horiz-adv-x="491" 
d="M82 773h53v-496l255 246h63l-255 -244l272 -279h-66l-269 277v-277h-53v773z" />
    <glyph glyph-name="l" unicode="l" horiz-adv-x="226" 
d="M84 773h54v-773h-54v773z" />
    <glyph glyph-name="m" unicode="m" horiz-adv-x="908" 
d="M82 523h53v-99c24 57 85 107 171 107c79 0 137 -33 160 -117c33 75 106 117 186 117c101 0 175 -55 175 -204v-327h-53v330c0 112 -47 155 -131 155c-80 0 -162 -57 -162 -166v-319h-53v330c0 112 -47 155 -131 155c-80 0 -162 -57 -162 -166v-319h-53v523z" />
    <glyph glyph-name="n" unicode="n" horiz-adv-x="587" 
d="M82 523h53v-102c24 57 91 110 185 110c111 0 186 -60 186 -209v-322h-53v325c0 112 -52 160 -145 160c-87 0 -173 -59 -173 -168v-317h-53v523z" />
    <glyph glyph-name="o" unicode="o" horiz-adv-x="595" 
d="M296 37c112 0 197 85 197 220v8c0 139 -85 221 -197 221s-198 -85 -198 -221v-8c0 -134 84 -220 198 -220zM295 -8c-141 0 -252 110 -252 265v8c0 157 113 266 253 266c141 0 252 -106 252 -265v-8c0 -157 -112 -266 -253 -266z" />
    <glyph glyph-name="p" unicode="p" horiz-adv-x="616" 
d="M82 523h53v-122c29 67 107 130 199 130c132 0 235 -101 235 -264v-8c0 -164 -99 -267 -235 -267c-103 0 -172 63 -199 127v-301h-53v705zM330 37c111 0 184 79 184 220v8c0 144 -85 221 -185 221c-102 0 -195 -77 -195 -221v-8c0 -143 88 -220 196 -220z" />
    <glyph glyph-name="q" unicode="q" horiz-adv-x="616" 
d="M477 121c-29 -63 -101 -129 -199 -129c-133 0 -235 96 -235 262v8c0 161 104 269 243 269c104 0 161 -59 191 -124v116h53v-705h-53v303zM283 37c107 0 195 77 195 221v8c0 144 -78 220 -187 220c-112 0 -193 -82 -193 -222v-8c0 -143 81 -219 185 -219z" />
    <glyph glyph-name="r" unicode="r" horiz-adv-x="352" 
d="M82 523h53v-110c29 64 81 114 177 117v-50c-101 -5 -177 -51 -177 -190v-290h-53v523z" />
    <glyph glyph-name="s" unicode="s" horiz-adv-x="469" 
d="M239 -9c-124 0 -194 65 -201 165h51c9 -72 53 -120 150 -120c88 0 133 39 133 103c0 67 -38 87 -137 106c-128 24 -180 56 -180 146c0 88 84 140 172 140c93 0 169 -38 182 -142h-51c-13 68 -56 97 -132 97c-73 0 -122 -37 -122 -93c0 -59 36 -82 143 -101
c111 -21 176 -46 176 -149c0 -88 -64 -152 -184 -152z" />
    <glyph glyph-name="t" unicode="t" horiz-adv-x="342" 
d="M230 -7c-84 0 -128 49 -128 133v352h-77v45h77v119h53v-119h137v-45h-137v-348c0 -64 30 -92 78 -92c27 0 47 4 66 11v-45c-17 -7 -37 -11 -69 -11z" />
    <glyph glyph-name="u" unicode="u" horiz-adv-x="583" 
d="M261 -8c-108 0 -184 56 -184 200v331h53v-328c0 -112 51 -157 143 -157c84 0 171 57 171 167v318h53v-523h-53v100c-24 -56 -91 -108 -183 -108z" />
    <glyph glyph-name="v" unicode="v" horiz-adv-x="522" 
d="M25 523h58l178 -470l177 470h54l-197 -523h-69z" />
    <glyph glyph-name="w" unicode="w" horiz-adv-x="780" 
d="M29 523h57l140 -458l143 458h45l138 -458l141 458h54l-165 -523h-61l-130 438l-139 -438h-60z" />
    <glyph glyph-name="x" unicode="x" horiz-adv-x="515" 
d="M223 270l-182 253h63l151 -213l149 213h59l-179 -249l198 -274h-63l-166 234l-166 -234h-58z" />
    <glyph glyph-name="y" unicode="y" horiz-adv-x="512" 
d="M232 45l-207 478h57l179 -417l167 417h54l-290 -705h-55z" />
    <glyph glyph-name="z" unicode="z" horiz-adv-x="478" 
d="M24 9l340 469h-310v45h393v-10l-337 -466h330v-47h-416v9z" />
    <glyph glyph-name="braceleft" unicode="{" horiz-adv-x="367" 
d="M321 -148c-136 0 -210 52 -181 199l22 114c13 69 -16 129 -120 129v40c104 0 133 60 120 129l-22 114c-29 147 45 199 181 199v-42c-105 0 -152 -34 -131 -156l23 -120c15 -84 -26 -128 -94 -144c68 -16 109 -60 94 -144l-23 -120c-21 -122 26 -156 131 -156v-42z" />
    <glyph glyph-name="bar" unicode="|" horiz-adv-x="245" 
d="M98 776h45v-924h-45v924z" />
    <glyph glyph-name="braceright" unicode="}" horiz-adv-x="367" 
d="M42 -106c102 0 154 34 130 156l-22 120c-15 84 26 128 94 144c-68 16 -109 60 -94 144l22 120c24 122 -28 156 -130 156v42c138 0 208 -52 181 -199l-23 -114c-13 -69 16 -129 121 -129v-40c-105 0 -134 -60 -121 -129l23 -114c27 -147 -43 -199 -181 -199v42z" />
    <glyph glyph-name="asciitilde" unicode="~" horiz-adv-x="442" 
d="M46 232c7 69 46 110 97 110c64 0 107 -60 150 -60c29 0 51 25 54 62h44c-7 -72 -46 -110 -94 -110c-67 0 -109 60 -152 60c-29 0 -50 -26 -55 -62h-44z" />
    <glyph glyph-name="uni00A0" unicode="&#xa0;" horiz-adv-x="284" 
 />
    <glyph glyph-name="exclamdown" unicode="&#xa1;" horiz-adv-x="276" 
d="M136 602c24 0 43 -18 43 -41c0 -24 -19 -43 -43 -43c-23 0 -42 19 -42 43c0 23 19 41 42 41zM165 -117h-59l8 536h42z" />
    <glyph glyph-name="cent" unicode="&#xa2;" horiz-adv-x="557" 
d="M270 -7c-131 11 -227 107 -227 263v8c0 156 100 255 227 266v99h40v-99c100 -5 188 -63 201 -173h-52c-12 81 -73 121 -149 128v-447c81 5 144 56 157 143h49c-13 -106 -97 -180 -206 -188v-128h-40v128zM98 256c0 -132 73 -210 172 -218v447c-99 -11 -172 -89 -172 -221
v-8z" />
    <glyph glyph-name="sterling" unicode="&#xa3;" horiz-adv-x="593" 
d="M49 368h71c-13 45 -24 92 -24 151c0 123 92 204 216 204c129 0 200 -74 211 -183h-54c-15 88 -57 136 -157 136c-94 0 -159 -64 -159 -157c0 -59 11 -104 23 -151h229v-41h-218c11 -41 19 -84 19 -137c0 -31 -7 -57 -18 -81c75 -13 150 -69 213 -69c61 0 99 32 103 104
h48c-7 -92 -59 -152 -146 -152c-92 0 -171 73 -238 73c-47 0 -73 -30 -78 -65h-48c6 44 34 95 94 108c12 23 20 50 20 83c0 49 -11 92 -24 136h-83v41z" />
    <glyph glyph-name="yen" unicode="&#xa5;" horiz-adv-x="552" 
d="M73 344h171l-216 371h60l195 -340l183 340h54l-203 -371h171v-39h-180v-97h180v-39h-180v-169h-54v169h-181v39h181v97h-181v39z" />
    <glyph glyph-name="brokenbar" unicode="&#xa6;" horiz-adv-x="248" 
d="M98 297h45v-445h-45v445zM98 776h45v-409h-45v409z" />
    <glyph glyph-name="section" unicode="&#xa7;" horiz-adv-x="539" 
d="M266 -137c-105 0 -180 54 -185 153h55c7 -68 49 -107 129 -107c81 0 120 44 120 107c0 69 -37 98 -154 127c-109 29 -185 67 -185 164c0 71 55 118 128 137c-45 28 -70 61 -70 128c0 91 78 152 169 152c103 0 163 -53 170 -146h-54c-7 64 -36 100 -115 100
c-72 0 -118 -41 -118 -105c0 -67 33 -93 146 -125c111 -32 187 -66 187 -166c0 -68 -47 -116 -122 -136c47 -27 70 -66 70 -129c0 -89 -70 -154 -171 -154zM325 169c72 16 111 50 111 110c0 67 -52 92 -145 119l-77 23c-67 -12 -115 -50 -115 -110c0 -69 55 -92 148 -119z
" />
    <glyph glyph-name="dieresis" unicode="&#xa8;" horiz-adv-x="404" 
d="M117 636c-21 0 -37 17 -37 37s16 36 37 36c20 0 36 -16 36 -36s-16 -37 -36 -37zM283 636c-20 0 -36 17 -36 37s16 36 36 36c21 0 37 -16 37 -36s-16 -37 -37 -37z" />
    <glyph glyph-name="copyright" unicode="&#xa9;" horiz-adv-x="848" 
d="M424 151c-121 0 -195 81 -195 205v7c0 122 85 205 194 205c89 0 159 -45 171 -133h-52c-11 61 -51 91 -119 91c-82 0 -140 -63 -140 -163v-6c0 -101 53 -163 141 -163c67 0 114 35 125 99h49c-12 -92 -82 -142 -174 -142zM421 23c180 0 331 141 331 336
c0 192 -145 333 -329 333c-183 0 -331 -142 -331 -335c0 -195 152 -334 329 -334zM421 -9c-204 0 -366 159 -366 366c0 204 162 367 368 367c208 0 366 -162 366 -365c0 -209 -162 -368 -368 -368z" />
    <glyph glyph-name="ordfeminine" unicode="&#xaa;" horiz-adv-x="422" 
d="M176 302c-80 0 -139 38 -139 117c0 96 90 125 194 125h81v33c0 72 -30 104 -99 104c-60 0 -97 -25 -108 -80h-50c8 83 81 122 161 122c88 0 146 -42 146 -146v-268h-50v60c-25 -39 -68 -67 -136 -67zM184 342c71 0 128 41 128 100v65h-79c-83 0 -145 -18 -145 -87
c0 -51 31 -78 96 -78z" />
    <glyph glyph-name="guillemotleft" unicode="&#xab;" horiz-adv-x="452" 
d="M54 261l135 178h54l-132 -178l132 -178h-54zM212 261l135 178h54l-132 -178l132 -178h-54z" />
    <glyph glyph-name="registered" unicode="&#xae;" horiz-adv-x="518" 
d="M183 621h75c51 0 83 -22 83 -67v-1c0 -35 -20 -54 -51 -61l65 -99h-41l-61 93h-33v-93h-37v228zM257 514c32 0 48 13 48 38v1c0 28 -17 39 -48 39h-37v-78h37zM257 310c108 0 191 81 191 193s-82 194 -191 194s-191 -83 -191 -195c0 -113 84 -192 191 -192zM257 282
c-123 0 -222 96 -222 220c0 123 97 222 222 222s222 -97 222 -221c0 -125 -99 -221 -222 -221z" />
    <glyph glyph-name="macron" unicode="&#xaf;" horiz-adv-x="404" 
d="M79 689h242v-42h-242v42z" />
    <glyph glyph-name="degree" unicode="&#xb0;" horiz-adv-x="411" 
d="M204 466c60 0 104 48 104 109s-44 110 -104 110c-61 0 -106 -49 -106 -110s45 -109 106 -109zM204 427c-85 0 -153 67 -153 148c0 82 68 149 153 149c84 0 152 -67 152 -149c0 -81 -68 -148 -152 -148z" />
    <glyph glyph-name="plusminus" unicode="&#xb1;" horiz-adv-x="514" 
d="M231 330h-195v45h195v199h48v-199h195v-45h-195v-199h-48v199zM36 45h438v-45h-438v45z" />
    <glyph glyph-name="twosuperior" unicode="&#xb2;" horiz-adv-x="291" 
d="M15 381l130 131c41 43 62 72 62 108c0 40 -26 64 -66 64c-44 0 -68 -27 -75 -78h-41c4 72 49 113 117 113s109 -39 109 -98c0 -47 -24 -80 -72 -127l-90 -87h166v-35h-240v9z" />
    <glyph glyph-name="threesuperior" unicode="&#xb3;" horiz-adv-x="312" 
d="M153 368c-80 0 -126 44 -129 105h41c5 -39 31 -71 87 -71c51 0 78 24 78 67c0 39 -26 65 -73 65h-27v33h25c45 0 66 24 66 59s-24 59 -67 59c-47 0 -72 -27 -77 -66h-40c4 56 46 100 118 100c68 0 109 -39 109 -91c0 -39 -24 -64 -59 -75c40 -9 70 -38 70 -85
c0 -64 -47 -100 -122 -100z" />
    <glyph glyph-name="acute" unicode="&#xb4;" horiz-adv-x="404" 
d="M243 752h65l-92 -147h-41z" />
    <glyph glyph-name="mu" unicode="&#xb5;" horiz-adv-x="584" 
d="M83 523h53v-337c0 -105 58 -148 147 -148c85 0 166 57 166 167v318h53v-523h-53v100c-24 -57 -84 -106 -173 -106c-60 0 -113 20 -140 77v-253h-53v705z" />
    <glyph glyph-name="paragraph" unicode="&#xb6;" horiz-adv-x="563" 
d="M271 353h-14c-124 0 -212 59 -212 177c0 124 91 185 212 185h208v-815h-46v777h-103v-777h-45v453z" />
    <glyph glyph-name="periodcentered" unicode="&#xb7;" horiz-adv-x="233" 
d="M114 281c-23 0 -42 19 -42 43c0 23 19 42 42 42c24 0 43 -19 43 -42c0 -24 -19 -43 -43 -43z" />
    <glyph glyph-name="cedilla" unicode="&#xb8;" horiz-adv-x="404" 
d="M210 -212c-55 0 -91 31 -96 78h44c4 -23 21 -42 50 -42c31 0 50 17 50 44c0 29 -22 39 -45 39c-17 0 -29 -5 -36 -8l-26 21l45 80h43l-35 -61c49 11 101 -13 101 -73c0 -51 -43 -78 -95 -78z" />
    <glyph glyph-name="onesuperior" unicode="&#xb9;" horiz-adv-x="221" 
d="M109 668l-88 -61v41l96 67h37v-343h-45v296z" />
    <glyph glyph-name="ordmasculine" unicode="&#xba;" horiz-adv-x="479" 
d="M238 344c84 0 146 64 146 166v6c0 101 -62 164 -146 164c-83 0 -147 -64 -147 -165v-6c0 -100 62 -165 147 -165zM237 302c-112 0 -198 84 -198 207v6c0 124 88 207 199 207c112 0 198 -81 198 -206v-6c0 -128 -87 -208 -199 -208z" />
    <glyph glyph-name="guillemotright" unicode="&#xbb;" horiz-adv-x="452" 
d="M179 261l-132 178h54l135 -178l-135 -178h-54zM337 261l-132 178h54l135 -178l-135 -178h-54z" />
    <glyph glyph-name="onequarter" unicode="&#xbc;" horiz-adv-x="665" 
d="M112 668l-88 -61v41l96 67h37v-343h-45v296zM561 715h45l-516 -715h-45zM543 74h-178v15l164 254h57v-235h47v-34h-47v-74h-43v74zM544 108v201l-128 -201h128z" />
    <glyph glyph-name="onehalf" unicode="&#xbd;" horiz-adv-x="669" 
d="M113 668l-88 -61v41l96 67h37v-343h-45v296zM545 715h45l-516 -715h-45zM389 9l130 131c41 43 62 72 62 108c0 40 -26 64 -66 64c-44 0 -68 -27 -75 -78h-41c4 72 49 113 117 113s109 -39 109 -98c0 -47 -24 -80 -72 -127l-90 -87h166v-35h-240v9z" />
    <glyph glyph-name="threequarters" unicode="&#xbe;" horiz-adv-x="679" 
d="M156 368c-80 0 -126 44 -129 105h41c5 -39 31 -71 87 -71c51 0 78 24 78 67c0 39 -26 65 -73 65h-27v33h25c45 0 66 24 66 59s-24 59 -67 59c-47 0 -72 -27 -77 -66h-40c4 56 46 100 118 100c68 0 109 -39 109 -91c0 -39 -24 -64 -59 -75c40 -9 70 -38 70 -85
c0 -64 -47 -100 -122 -100zM602 715h45l-516 -715h-45zM553 74h-178v15l164 254h57v-235h47v-34h-47v-74h-43v74zM554 108v201l-128 -201h128z" />
    <glyph glyph-name="questiondown" unicode="&#xbf;" horiz-adv-x="481" 
d="M288 362c0 -80 -45 -124 -100 -179c-45 -45 -85 -83 -85 -146c0 -68 41 -117 130 -117c88 0 147 57 155 150h51c-8 -117 -89 -195 -207 -195c-125 0 -184 75 -184 160c0 80 49 122 103 176c51 51 89 87 89 155v53h48v-57zM265 602c24 0 43 -18 43 -41
c0 -24 -19 -43 -43 -43c-23 0 -42 19 -42 43c0 23 19 41 42 41z" />
    <glyph glyph-name="Agrave" unicode="&#xc0;" horiz-adv-x="658" 
d="M290 715h74l257 -715h-56l-79 219h-322l-78 -219h-53zM180 264h290l-145 405zM220 893h66l64 -122h-42z" />
    <glyph glyph-name="Aacute" unicode="&#xc1;" horiz-adv-x="658" 
d="M290 715h74l257 -715h-56l-79 219h-322l-78 -219h-53zM180 264h290l-145 405zM359 893h66l-88 -122h-42z" />
    <glyph glyph-name="Acircumflex" unicode="&#xc2;" horiz-adv-x="658" 
d="M290 715h74l257 -715h-56l-79 219h-322l-78 -219h-53zM180 264h290l-145 405zM299 893h50l108 -122h-42l-92 78l-93 -78h-41z" />
    <glyph glyph-name="Atilde" unicode="&#xc3;" horiz-adv-x="658" 
d="M290 715h74l257 -715h-56l-79 219h-322l-78 -219h-53zM180 264h290l-145 405zM385 774c-48 0 -89 53 -123 53c-23 0 -41 -19 -46 -54h-41c8 64 43 99 87 99c47 0 86 -53 123 -53c23 0 41 19 46 54h40c-8 -64 -43 -99 -86 -99z" />
    <glyph glyph-name="Adieresis" unicode="&#xc4;" horiz-adv-x="658" 
d="M290 715h74l257 -715h-56l-79 219h-322l-78 -219h-53zM180 264h290l-145 405zM233 788c-21 0 -37 17 -37 37c0 19 16 36 37 36c20 0 36 -17 36 -36c0 -20 -16 -37 -36 -37zM413 788c-20 0 -36 17 -36 37c0 19 16 36 36 36s36 -17 36 -36c0 -20 -16 -37 -36 -37z" />
    <glyph glyph-name="Aring" unicode="&#xc5;" horiz-adv-x="658" 
d="M290 715h74l257 -715h-56l-79 219h-322l-78 -219h-53zM180 264h290l-145 405zM323 786c35 0 61 28 61 64s-26 64 -61 64s-61 -28 -61 -64s26 -64 61 -64zM323 754c-52 0 -98 44 -98 96s46 95 98 95c54 0 98 -43 98 -95s-44 -96 -98 -96z" />
    <glyph glyph-name="AE" unicode="&#xc6;" horiz-adv-x="950" 
d="M392 715h491v-46h-355v-279h288v-46h-288v-298h373v-46h-429v220h-276l-110 -220h-57zM218 264h254v405h-51z" />
    <glyph glyph-name="Ccedilla" unicode="&#xc7;" horiz-adv-x="729" 
d="M371 -212c-55 0 -91 31 -96 78h44c4 -23 21 -42 50 -42c31 0 50 17 50 44c0 29 -22 39 -45 39c-17 0 -29 -5 -36 -8l-26 21l41 73c-187 13 -300 155 -300 360v8c0 211 145 363 332 363c147 0 268 -77 289 -224h-56c-23 116 -99 179 -232 179c-160 0 -276 -128 -276 -317
v-8c0 -193 105 -315 276 -315c129 0 221 67 244 191h52c-26 -150 -138 -235 -287 -238l-30 -53c49 11 101 -13 101 -73c0 -51 -43 -78 -95 -78z" />
    <glyph glyph-name="Egrave" unicode="&#xc8;" horiz-adv-x="570" 
d="M92 715h411v-46h-355v-279h288v-46h-288v-298h373v-46h-429v715zM196 893h66l64 -122h-42z" />
    <glyph glyph-name="Eacute" unicode="&#xc9;" horiz-adv-x="570" 
d="M92 715h411v-46h-355v-279h288v-46h-288v-298h373v-46h-429v715zM335 893h66l-88 -122h-42z" />
    <glyph glyph-name="Ecircumflex" unicode="&#xca;" horiz-adv-x="570" 
d="M92 715h411v-46h-355v-279h288v-46h-288v-298h373v-46h-429v715zM275 893h50l108 -122h-42l-92 78l-93 -78h-41z" />
    <glyph glyph-name="Edieresis" unicode="&#xcb;" horiz-adv-x="570" 
d="M92 715h411v-46h-355v-279h288v-46h-288v-298h373v-46h-429v715zM209 788c-21 0 -37 17 -37 37c0 19 16 36 37 36c20 0 36 -17 36 -36c0 -20 -16 -37 -36 -37zM389 788c-20 0 -36 17 -36 37c0 19 16 36 36 36s36 -17 36 -36c0 -20 -16 -37 -36 -37z" />
    <glyph glyph-name="Igrave" unicode="&#xcc;" horiz-adv-x="254" 
d="M97 715h56v-715h-56v715zM22 893h66l64 -122h-42z" />
    <glyph glyph-name="Iacute" unicode="&#xcd;" horiz-adv-x="254" 
d="M97 715h56v-715h-56v715zM161 893h66l-88 -122h-42z" />
    <glyph glyph-name="Icircumflex" unicode="&#xce;" horiz-adv-x="254" 
d="M97 715h56v-715h-56v715zM101 893h50l108 -122h-42l-92 78l-93 -78h-41z" />
    <glyph glyph-name="Idieresis" unicode="&#xcf;" horiz-adv-x="254" 
d="M97 715h56v-715h-56v715zM35 788c-21 0 -37 17 -37 37c0 19 16 36 37 36c20 0 36 -17 36 -36c0 -20 -16 -37 -36 -37zM215 788c-20 0 -36 17 -36 37c0 19 16 36 36 36s36 -17 36 -36c0 -20 -16 -37 -36 -37z" />
    <glyph glyph-name="Eth" unicode="&#xd0;" horiz-adv-x="701" 
d="M28 381h75v334h185c236 0 356 -152 356 -351v-9c0 -198 -113 -355 -358 -355h-183v337h-75v44zM284 46c204 0 303 129 303 310v8c0 176 -93 305 -304 305h-124v-288h208v-44h-208v-291h125z" />
    <glyph glyph-name="Ntilde" unicode="&#xd1;" horiz-adv-x="717" 
d="M92 715h76l400 -638v638h53v-715h-66l-409 653v-653h-54v715zM429 774c-48 0 -89 53 -123 53c-23 0 -41 -19 -46 -54h-41c8 64 43 99 87 99c47 0 86 -53 123 -53c23 0 41 19 46 54h40c-8 -64 -43 -99 -86 -99z" />
    <glyph glyph-name="Ograve" unicode="&#xd2;" horiz-adv-x="805" 
d="M403 39c171 0 288 134 288 317v8c0 173 -114 313 -290 313c-175 0 -291 -135 -291 -315v-8c0 -182 128 -315 293 -315zM403 -8c-204 0 -350 161 -350 361v8c0 203 147 362 348 362c202 0 348 -159 348 -360v-8c0 -202 -146 -363 -346 -363zM297 893h66l64 -122h-42z" />
    <glyph glyph-name="Oacute" unicode="&#xd3;" horiz-adv-x="805" 
d="M403 39c171 0 288 134 288 317v8c0 173 -114 313 -290 313c-175 0 -291 -135 -291 -315v-8c0 -182 128 -315 293 -315zM403 -8c-204 0 -350 161 -350 361v8c0 203 147 362 348 362c202 0 348 -159 348 -360v-8c0 -202 -146 -363 -346 -363zM436 893h66l-88 -122h-42z" />
    <glyph glyph-name="Ocircumflex" unicode="&#xd4;" horiz-adv-x="805" 
d="M403 39c171 0 288 134 288 317v8c0 173 -114 313 -290 313c-175 0 -291 -135 -291 -315v-8c0 -182 128 -315 293 -315zM403 -8c-204 0 -350 161 -350 361v8c0 203 147 362 348 362c202 0 348 -159 348 -360v-8c0 -202 -146 -363 -346 -363zM376 893h50l108 -122h-42
l-92 78l-93 -78h-41z" />
    <glyph glyph-name="Otilde" unicode="&#xd5;" horiz-adv-x="805" 
d="M403 39c171 0 288 134 288 317v8c0 173 -114 313 -290 313c-175 0 -291 -135 -291 -315v-8c0 -182 128 -315 293 -315zM403 -8c-204 0 -350 161 -350 361v8c0 203 147 362 348 362c202 0 348 -159 348 -360v-8c0 -202 -146 -363 -346 -363zM462 774c-48 0 -89 53 -123 53
c-23 0 -41 -19 -46 -54h-41c8 64 43 99 87 99c47 0 86 -53 123 -53c23 0 41 19 46 54h40c-8 -64 -43 -99 -86 -99z" />
    <glyph glyph-name="Odieresis" unicode="&#xd6;" horiz-adv-x="805" 
d="M403 39c171 0 288 134 288 317v8c0 173 -114 313 -290 313c-175 0 -291 -135 -291 -315v-8c0 -182 128 -315 293 -315zM403 -8c-204 0 -350 161 -350 361v8c0 203 147 362 348 362c202 0 348 -159 348 -360v-8c0 -202 -146 -363 -346 -363zM310 788c-21 0 -37 17 -37 37
c0 19 16 36 37 36c20 0 36 -17 36 -36c0 -20 -16 -37 -36 -37zM490 788c-20 0 -36 17 -36 37c0 19 16 36 36 36s36 -17 36 -36c0 -20 -16 -37 -36 -37z" />
    <glyph glyph-name="multiply" unicode="&#xd7;" horiz-adv-x="487" 
d="M45 174l161 160l-161 161l31 32l161 -161l161 161l31 -32l-161 -161l161 -160l-31 -31l-161 160l-161 -160z" />
    <glyph glyph-name="Oslash" unicode="&#xd8;" horiz-adv-x="805" 
d="M41 5l97 107c-55 64 -85 148 -85 241v8c0 203 147 362 348 362c87 0 161 -29 221 -78l85 94l29 -30l-84 -92c61 -65 97 -154 97 -254v-8c0 -202 -146 -363 -346 -363c-95 0 -176 34 -236 90l-96 -106zM403 39c171 0 288 134 288 317v8c0 87 -26 160 -73 216l-417 -461
c52 -51 122 -80 202 -80zM110 354c0 -81 23 -150 63 -203l416 458c-48 43 -112 68 -188 68c-175 0 -291 -135 -291 -315v-8z" />
    <glyph glyph-name="Ugrave" unicode="&#xd9;" horiz-adv-x="686" 
d="M338 -7c-161 0 -256 91 -256 263v459h55v-453c0 -153 69 -222 202 -222c137 0 206 66 206 235v440h56v-448c0 -171 -86 -274 -263 -274zM238 893h66l64 -122h-42z" />
    <glyph glyph-name="Uacute" unicode="&#xda;" horiz-adv-x="686" 
d="M338 -7c-161 0 -256 91 -256 263v459h55v-453c0 -153 69 -222 202 -222c137 0 206 66 206 235v440h56v-448c0 -171 -86 -274 -263 -274zM377 893h66l-88 -122h-42z" />
    <glyph glyph-name="Ucircumflex" unicode="&#xdb;" horiz-adv-x="686" 
d="M338 -7c-161 0 -256 91 -256 263v459h55v-453c0 -153 69 -222 202 -222c137 0 206 66 206 235v440h56v-448c0 -171 -86 -274 -263 -274zM317 893h50l108 -122h-42l-92 78l-93 -78h-41z" />
    <glyph glyph-name="Udieresis" unicode="&#xdc;" horiz-adv-x="686" 
d="M338 -7c-161 0 -256 91 -256 263v459h55v-453c0 -153 69 -222 202 -222c137 0 206 66 206 235v440h56v-448c0 -171 -86 -274 -263 -274zM251 788c-21 0 -37 17 -37 37c0 19 16 36 37 36c20 0 36 -17 36 -36c0 -20 -16 -37 -36 -37zM431 788c-20 0 -36 17 -36 37
c0 19 16 36 36 36s36 -17 36 -36c0 -20 -16 -37 -36 -37z" />
    <glyph glyph-name="Yacute" unicode="&#xdd;" horiz-adv-x="582" 
d="M268 318l-245 397h62l212 -350l202 350h56l-231 -398v-317h-56v318zM328 893h66l-88 -122h-42z" />
    <glyph glyph-name="Thorn" unicode="&#xde;" horiz-adv-x="572" 
d="M92 715h56v-144h133c139 0 244 -52 244 -196v-4c0 -147 -105 -199 -244 -199h-133v-172h-56v715zM284 217c116 0 185 43 185 154v4c0 114 -73 150 -185 150h-136v-308h136z" />
    <glyph glyph-name="germandbls" unicode="&#xdf;" horiz-adv-x="574" 
d="M320 -7c-41 0 -73 8 -94 16v46c24 -11 53 -17 92 -17c77 0 156 38 156 170v7c0 118 -92 203 -216 200v46c112 -3 159 73 159 142v4c0 76 -47 125 -136 125c-92 0 -146 -62 -146 -158v-574h-53v572c0 124 87 204 199 204c116 0 187 -70 187 -169v-4
c0 -73 -47 -138 -128 -162c103 -21 189 -108 189 -226v-6c0 -163 -104 -216 -209 -216z" />
    <glyph glyph-name="agrave" unicode="&#xe0;" horiz-adv-x="533" 
d="M221 -8c-104 0 -177 50 -177 149c0 121 116 158 245 158h109v47c0 99 -40 140 -132 140c-80 0 -135 -34 -147 -111h-52c11 109 103 156 201 156c108 0 183 -52 183 -185v-346h-53v80c-33 -51 -89 -88 -177 -88zM225 35c96 0 173 57 173 134v89h-107
c-109 0 -194 -23 -194 -117c0 -68 41 -106 128 -106zM161 752h65l68 -147h-41z" />
    <glyph glyph-name="aacute" unicode="&#xe1;" horiz-adv-x="533" 
d="M221 -8c-104 0 -177 50 -177 149c0 121 116 158 245 158h109v47c0 99 -40 140 -132 140c-80 0 -135 -34 -147 -111h-52c11 109 103 156 201 156c108 0 183 -52 183 -185v-346h-53v80c-33 -51 -89 -88 -177 -88zM225 35c96 0 173 57 173 134v89h-107
c-109 0 -194 -23 -194 -117c0 -68 41 -106 128 -106zM308 752h65l-92 -147h-41z" />
    <glyph glyph-name="acircumflex" unicode="&#xe2;" horiz-adv-x="533" 
d="M221 -8c-104 0 -177 50 -177 149c0 121 116 158 245 158h109v47c0 99 -40 140 -132 140c-80 0 -135 -34 -147 -111h-52c11 109 103 156 201 156c108 0 183 -52 183 -185v-346h-53v80c-33 -51 -89 -88 -177 -88zM225 35c96 0 173 57 173 134v89h-107
c-109 0 -194 -23 -194 -117c0 -68 41 -106 128 -106zM238 740h50l108 -135h-42l-92 90l-93 -90h-41z" />
    <glyph glyph-name="atilde" unicode="&#xe3;" horiz-adv-x="533" 
d="M221 -8c-104 0 -177 50 -177 149c0 121 116 158 245 158h109v47c0 99 -40 140 -132 140c-80 0 -135 -34 -147 -111h-52c11 109 103 156 201 156c108 0 183 -52 183 -185v-346h-53v80c-33 -51 -89 -88 -177 -88zM225 35c96 0 173 57 173 134v89h-107
c-109 0 -194 -23 -194 -117c0 -68 41 -106 128 -106zM330 616c-47 0 -89 53 -124 53c-21 0 -40 -20 -45 -53h-41c8 64 43 99 87 99c48 0 87 -53 123 -53c21 0 41 18 46 53h40c-8 -64 -43 -99 -86 -99z" />
    <glyph glyph-name="adieresis" unicode="&#xe4;" horiz-adv-x="533" 
d="M221 -8c-104 0 -177 50 -177 149c0 121 116 158 245 158h109v47c0 99 -40 140 -132 140c-80 0 -135 -34 -147 -111h-52c11 109 103 156 201 156c108 0 183 -52 183 -185v-346h-53v80c-33 -51 -89 -88 -177 -88zM225 35c96 0 173 57 173 134v89h-107
c-109 0 -194 -23 -194 -117c0 -68 41 -106 128 -106zM185 636c-21 0 -37 17 -37 37s16 36 37 36c20 0 36 -16 36 -36s-16 -37 -36 -37zM351 636c-20 0 -36 17 -36 37s16 36 36 36c21 0 37 -16 37 -36s-16 -37 -37 -37z" />
    <glyph glyph-name="aring" unicode="&#xe5;" horiz-adv-x="533" 
d="M221 -8c-104 0 -177 50 -177 149c0 121 116 158 245 158h109v47c0 99 -40 140 -132 140c-80 0 -135 -34 -147 -111h-52c11 109 103 156 201 156c108 0 183 -52 183 -185v-346h-53v80c-33 -51 -89 -88 -177 -88zM225 35c96 0 173 57 173 134v89h-107
c-109 0 -194 -23 -194 -117c0 -68 41 -106 128 -106zM268 633c35 0 61 27 61 63c0 37 -26 64 -61 64s-61 -27 -61 -64c0 -36 26 -63 61 -63zM268 601c-52 0 -98 43 -98 95s46 96 98 96c54 0 98 -44 98 -96s-44 -95 -98 -95z" />
    <glyph glyph-name="ae" unicode="&#xe6;" horiz-adv-x="901" 
d="M638 -8c-100 0 -173 50 -209 131c-35 -88 -111 -131 -208 -131c-104 0 -177 48 -177 148c0 123 115 159 243 159h113v46c0 99 -42 141 -134 141c-80 0 -135 -34 -147 -111h-52c11 109 104 156 201 156c87 0 148 -33 171 -114c39 72 106 114 193 114
c123 0 223 -82 223 -255v-18h-403c3 -141 64 -221 187 -221c85 0 142 36 159 109h53c-21 -100 -104 -154 -213 -154zM226 35c95 0 174 55 174 146v77h-112c-109 0 -191 -24 -191 -118c0 -68 41 -105 129 -105zM801 299c-5 129 -69 187 -169 187s-168 -72 -179 -187h348z" />
    <glyph glyph-name="ccedilla" unicode="&#xe7;" horiz-adv-x="560" 
d="M274 -212c-55 0 -91 31 -96 78h44c4 -23 21 -42 50 -42c31 0 50 17 50 44c0 29 -22 39 -45 39c-17 0 -29 -5 -36 -8l-26 21l42 75c-124 16 -214 116 -214 261v8c0 160 111 267 250 267c106 0 205 -56 218 -174h-52c-13 88 -83 129 -166 129c-109 0 -195 -84 -195 -222v-8
c0 -138 85 -219 195 -219c87 0 161 51 174 144h49c-13 -111 -102 -186 -218 -189l-30 -53c49 11 101 -13 101 -73c0 -51 -43 -78 -95 -78z" />
    <glyph glyph-name="egrave" unicode="&#xe8;" horiz-adv-x="558" 
d="M291 -8c-151 0 -248 107 -248 264v8c0 157 100 267 240 267c126 0 229 -82 229 -255v-19h-414c3 -141 68 -220 193 -220c88 0 145 36 164 109h53c-23 -100 -104 -154 -217 -154zM457 300c-5 128 -71 186 -174 186c-102 0 -172 -71 -183 -186h357zM175 752h65l68 -147h-41
z" />
    <glyph glyph-name="eacute" unicode="&#xe9;" horiz-adv-x="558" 
d="M291 -8c-151 0 -248 107 -248 264v8c0 157 100 267 240 267c126 0 229 -82 229 -255v-19h-414c3 -141 68 -220 193 -220c88 0 145 36 164 109h53c-23 -100 -104 -154 -217 -154zM457 300c-5 128 -71 186 -174 186c-102 0 -172 -71 -183 -186h357zM322 752h65l-92 -147
h-41z" />
    <glyph glyph-name="ecircumflex" unicode="&#xea;" horiz-adv-x="558" 
d="M291 -8c-151 0 -248 107 -248 264v8c0 157 100 267 240 267c126 0 229 -82 229 -255v-19h-414c3 -141 68 -220 193 -220c88 0 145 36 164 109h53c-23 -100 -104 -154 -217 -154zM457 300c-5 128 -71 186 -174 186c-102 0 -172 -71 -183 -186h357zM258 740h50l108 -135
h-42l-92 90l-93 -90h-41z" />
    <glyph glyph-name="edieresis" unicode="&#xeb;" horiz-adv-x="558" 
d="M291 -8c-151 0 -248 107 -248 264v8c0 157 100 267 240 267c126 0 229 -82 229 -255v-19h-414c3 -141 68 -220 193 -220c88 0 145 36 164 109h53c-23 -100 -104 -154 -217 -154zM457 300c-5 128 -71 186 -174 186c-102 0 -172 -71 -183 -186h357zM199 636
c-21 0 -37 17 -37 37s16 36 37 36c20 0 36 -16 36 -36s-16 -37 -36 -37zM365 636c-20 0 -36 17 -36 37s16 36 36 36c21 0 37 -16 37 -36s-16 -37 -37 -37z" />
    <glyph glyph-name="igrave" unicode="&#xec;" horiz-adv-x="225" 
d="M84 523h53v-523h-53v523zM1 752h65l68 -147h-41z" />
    <glyph glyph-name="iacute" unicode="&#xed;" horiz-adv-x="225" 
d="M84 523h53v-523h-53v523zM154 752h65l-92 -147h-41z" />
    <glyph glyph-name="icircumflex" unicode="&#xee;" horiz-adv-x="225" 
d="M84 523h53v-523h-53v523zM87 740h50l108 -135h-42l-92 90l-93 -90h-41z" />
    <glyph glyph-name="idieresis" unicode="&#xef;" horiz-adv-x="225" 
d="M36 636c-20 0 -36 17 -36 37s16 36 36 36s37 -16 37 -36s-17 -37 -37 -37zM185 636c-20 0 -37 17 -37 37s17 36 37 36s36 -16 36 -36s-16 -37 -36 -37zM84 523h53v-523h-53v523z" />
    <glyph glyph-name="eth" unicode="&#xf0;" horiz-adv-x="598" 
d="M140 615l121 70c-39 32 -81 61 -124 88h71c29 -16 61 -36 96 -63l98 58l19 -33l-87 -50c106 -93 214 -231 214 -407v-18c0 -158 -112 -268 -253 -268s-252 110 -252 265v8c0 157 113 266 239 266c88 0 141 -39 180 -91c-37 81 -98 155 -171 220l-132 -76zM295 37
c113 0 198 85 198 221v13c0 132 -84 215 -200 215c-109 0 -195 -85 -195 -221v-8c0 -134 84 -220 197 -220z" />
    <glyph glyph-name="ntilde" unicode="&#xf1;" horiz-adv-x="587" 
d="M82 523h53v-102c24 57 91 110 185 110c111 0 186 -60 186 -209v-322h-53v325c0 112 -52 160 -145 160c-87 0 -173 -59 -173 -168v-317h-53v523zM352 616c-47 0 -89 53 -124 53c-21 0 -40 -20 -45 -53h-41c8 64 43 99 87 99c48 0 87 -53 123 -53c21 0 41 18 46 53h40
c-8 -64 -43 -99 -86 -99z" />
    <glyph glyph-name="ograve" unicode="&#xf2;" horiz-adv-x="595" 
d="M296 37c112 0 197 85 197 220v8c0 139 -85 221 -197 221s-198 -85 -198 -221v-8c0 -134 84 -220 198 -220zM295 -8c-141 0 -252 110 -252 265v8c0 157 113 266 253 266c141 0 252 -106 252 -265v-8c0 -157 -112 -266 -253 -266zM188 752h65l68 -147h-41z" />
    <glyph glyph-name="oacute" unicode="&#xf3;" horiz-adv-x="595" 
d="M296 37c112 0 197 85 197 220v8c0 139 -85 221 -197 221s-198 -85 -198 -221v-8c0 -134 84 -220 198 -220zM295 -8c-141 0 -252 110 -252 265v8c0 157 113 266 253 266c141 0 252 -106 252 -265v-8c0 -157 -112 -266 -253 -266zM335 752h65l-92 -147h-41z" />
    <glyph glyph-name="ocircumflex" unicode="&#xf4;" horiz-adv-x="595" 
d="M296 37c112 0 197 85 197 220v8c0 139 -85 221 -197 221s-198 -85 -198 -221v-8c0 -134 84 -220 198 -220zM295 -8c-141 0 -252 110 -252 265v8c0 157 113 266 253 266c141 0 252 -106 252 -265v-8c0 -157 -112 -266 -253 -266zM271 740h50l108 -135h-42l-92 90l-93 -90
h-41z" />
    <glyph glyph-name="otilde" unicode="&#xf5;" horiz-adv-x="595" 
d="M296 37c112 0 197 85 197 220v8c0 139 -85 221 -197 221s-198 -85 -198 -221v-8c0 -134 84 -220 198 -220zM295 -8c-141 0 -252 110 -252 265v8c0 157 113 266 253 266c141 0 252 -106 252 -265v-8c0 -157 -112 -266 -253 -266zM357 616c-47 0 -89 53 -124 53
c-21 0 -40 -20 -45 -53h-41c8 64 43 99 87 99c48 0 87 -53 123 -53c21 0 41 18 46 53h40c-8 -64 -43 -99 -86 -99z" />
    <glyph glyph-name="odieresis" unicode="&#xf6;" horiz-adv-x="595" 
d="M296 37c112 0 197 85 197 220v8c0 139 -85 221 -197 221s-198 -85 -198 -221v-8c0 -134 84 -220 198 -220zM295 -8c-141 0 -252 110 -252 265v8c0 157 113 266 253 266c141 0 252 -106 252 -265v-8c0 -157 -112 -266 -253 -266zM212 636c-21 0 -37 17 -37 37s16 36 37 36
c20 0 36 -16 36 -36s-16 -37 -36 -37zM378 636c-20 0 -36 17 -36 37s16 36 36 36c21 0 37 -16 37 -36s-16 -37 -37 -37z" />
    <glyph glyph-name="divide" unicode="&#xf7;" horiz-adv-x="514" 
d="M255 122c-24 0 -43 19 -43 43c0 23 19 42 43 42c23 0 42 -19 42 -42c0 -24 -19 -43 -42 -43zM36 365h438v-46h-438v46zM255 477c-24 0 -43 19 -43 43c0 23 19 42 43 42c23 0 42 -19 42 -42c0 -24 -19 -43 -42 -43z" />
    <glyph glyph-name="oslash" unicode="&#xf8;" horiz-adv-x="595" 
d="M31 0l72 80c-39 47 -60 106 -60 177v8c0 157 113 266 253 266c63 0 118 -21 162 -58l64 72l29 -25l-66 -73c39 -47 63 -108 63 -181v-8c0 -157 -112 -266 -253 -266c-64 0 -121 21 -165 60l-69 -77zM296 37c112 0 197 85 197 220v8c0 59 -15 107 -42 144l-289 -321
c36 -34 81 -51 134 -51zM98 257c0 -55 13 -102 39 -139l288 319c-35 33 -78 49 -129 49c-112 0 -198 -85 -198 -221v-8z" />
    <glyph glyph-name="ugrave" unicode="&#xf9;" horiz-adv-x="583" 
d="M261 -8c-108 0 -184 56 -184 200v331h53v-328c0 -112 51 -157 143 -157c84 0 171 57 171 167v318h53v-523h-53v100c-24 -56 -91 -108 -183 -108zM182 752h65l68 -147h-41z" />
    <glyph glyph-name="uacute" unicode="&#xfa;" horiz-adv-x="583" 
d="M261 -8c-108 0 -184 56 -184 200v331h53v-328c0 -112 51 -157 143 -157c84 0 171 57 171 167v318h53v-523h-53v100c-24 -56 -91 -108 -183 -108zM329 752h65l-92 -147h-41z" />
    <glyph glyph-name="ucircumflex" unicode="&#xfb;" horiz-adv-x="583" 
d="M261 -8c-108 0 -184 56 -184 200v331h53v-328c0 -112 51 -157 143 -157c84 0 171 57 171 167v318h53v-523h-53v100c-24 -56 -91 -108 -183 -108zM265 740h50l108 -135h-42l-92 90l-93 -90h-41z" />
    <glyph glyph-name="udieresis" unicode="&#xfc;" horiz-adv-x="583" 
d="M261 -8c-108 0 -184 56 -184 200v331h53v-328c0 -112 51 -157 143 -157c84 0 171 57 171 167v318h53v-523h-53v100c-24 -56 -91 -108 -183 -108zM206 636c-21 0 -37 17 -37 37s16 36 37 36c20 0 36 -16 36 -36s-16 -37 -36 -37zM372 636c-20 0 -36 17 -36 37s16 36 36 36
c21 0 37 -16 37 -36s-16 -37 -37 -37z" />
    <glyph glyph-name="yacute" unicode="&#xfd;" horiz-adv-x="512" 
d="M232 45l-207 478h57l179 -417l167 417h54l-290 -705h-55zM297 752h65l-92 -147h-41z" />
    <glyph glyph-name="thorn" unicode="&#xfe;" horiz-adv-x="616" 
d="M82 773h53v-372c32 69 107 130 200 130c132 0 234 -101 234 -264v-8c0 -164 -99 -267 -235 -267c-103 0 -172 63 -199 127v-301h-53v955zM330 37c111 0 184 79 184 220v8c0 144 -84 221 -184 221c-104 0 -196 -77 -196 -221v-8c0 -143 88 -220 196 -220z" />
    <glyph glyph-name="ydieresis" unicode="&#xff;" horiz-adv-x="512" 
d="M232 45l-207 478h57l179 -417l167 417h54l-290 -705h-55zM176 636c-21 0 -37 17 -37 37s16 36 37 36c20 0 36 -16 36 -36s-16 -37 -36 -37zM342 636c-20 0 -36 17 -36 37s16 36 36 36c21 0 37 -16 37 -36s-16 -37 -37 -37z" />
    <glyph glyph-name="Amacron" unicode="&#x100;" horiz-adv-x="658" 
d="M290 715h74l257 -715h-56l-79 219h-322l-78 -219h-53zM180 264h290l-145 405zM199 833h248v-42h-248v42z" />
    <glyph glyph-name="amacron" unicode="&#x101;" horiz-adv-x="533" 
d="M221 -8c-104 0 -177 50 -177 149c0 121 116 158 245 158h109v47c0 99 -40 140 -132 140c-80 0 -135 -34 -147 -111h-52c11 109 103 156 201 156c108 0 183 -52 183 -185v-346h-53v80c-33 -51 -89 -88 -177 -88zM225 35c96 0 173 57 173 134v89h-107
c-109 0 -194 -23 -194 -117c0 -68 41 -106 128 -106zM147 689h242v-42h-242v42z" />
    <glyph glyph-name="Abreve" unicode="&#x102;" horiz-adv-x="658" 
d="M290 715h74l257 -715h-56l-79 219h-322l-78 -219h-53zM180 264h290l-145 405zM321 771c-67 0 -123 52 -126 122h44c5 -47 35 -78 82 -78s79 31 86 78h43c-5 -70 -60 -122 -129 -122z" />
    <glyph glyph-name="abreve" unicode="&#x103;" horiz-adv-x="533" 
d="M221 -8c-104 0 -177 50 -177 149c0 121 116 158 245 158h109v47c0 99 -40 140 -132 140c-80 0 -135 -34 -147 -111h-52c11 109 103 156 201 156c108 0 183 -52 183 -185v-346h-53v80c-33 -51 -89 -88 -177 -88zM225 35c96 0 173 57 173 134v89h-107
c-109 0 -194 -23 -194 -117c0 -68 41 -106 128 -106zM266 616c-68 0 -118 49 -122 121h44c5 -47 31 -77 78 -77s76 30 83 77h42c-4 -72 -57 -121 -125 -121z" />
    <glyph glyph-name="Aogonek" unicode="&#x104;" horiz-adv-x="658" 
d="M581 -182c-59 0 -93 30 -93 75c0 44 34 82 77 107l-79 219h-322l-78 -219h-53l257 715h74l256 -713c-56 -35 -81 -64 -81 -100c0 -27 16 -44 49 -44c19 0 36 3 51 10v-39c-16 -7 -34 -11 -58 -11zM180 264h290l-145 405z" />
    <glyph glyph-name="aogonek" unicode="&#x105;" horiz-adv-x="533" 
d="M413 -182c-59 0 -93 30 -93 75c0 47 37 85 78 108v79c-33 -51 -89 -88 -177 -88c-104 0 -177 50 -177 149c0 121 116 158 245 158h109v47c0 99 -40 140 -132 140c-80 0 -135 -34 -147 -111h-52c11 109 103 156 201 156c108 0 183 -52 183 -185v-344
c-53 -32 -80 -65 -80 -100c0 -27 16 -44 49 -44c17 0 35 3 50 10v-39c-15 -7 -34 -11 -57 -11zM225 35c96 0 173 57 173 134v89h-107c-109 0 -194 -23 -194 -117c0 -68 41 -106 128 -106z" />
    <glyph glyph-name="Cacute" unicode="&#x106;" horiz-adv-x="729" 
d="M385 -8c-204 0 -332 145 -332 361v8c0 211 145 363 332 363c147 0 268 -77 289 -224h-56c-23 116 -99 179 -232 179c-160 0 -276 -128 -276 -317v-8c0 -193 105 -315 276 -315c129 0 221 67 244 191h52c-27 -155 -142 -238 -297 -238zM423 893h66l-88 -122h-42z" />
    <glyph glyph-name="cacute" unicode="&#x107;" horiz-adv-x="560" 
d="M293 -8c-141 0 -250 105 -250 264v8c0 160 111 267 250 267c106 0 205 -56 218 -174h-52c-13 88 -83 129 -166 129c-109 0 -195 -84 -195 -222v-8c0 -138 85 -219 195 -219c87 0 161 51 174 144h49c-13 -112 -104 -189 -223 -189zM329 752h65l-92 -147h-41z" />
    <glyph glyph-name="Ccircumflex" unicode="&#x108;" horiz-adv-x="729" 
d="M385 -8c-204 0 -332 145 -332 361v8c0 211 145 363 332 363c147 0 268 -77 289 -224h-56c-23 116 -99 179 -232 179c-160 0 -276 -128 -276 -317v-8c0 -193 105 -315 276 -315c129 0 221 67 244 191h52c-27 -155 -142 -238 -297 -238zM363 893h50l108 -122h-42l-92 78
l-93 -78h-41z" />
    <glyph glyph-name="ccircumflex" unicode="&#x109;" horiz-adv-x="560" 
d="M293 -8c-141 0 -250 105 -250 264v8c0 160 111 267 250 267c106 0 205 -56 218 -174h-52c-13 88 -83 129 -166 129c-109 0 -195 -84 -195 -222v-8c0 -138 85 -219 195 -219c87 0 161 51 174 144h49c-13 -112 -104 -189 -223 -189zM265 740h50l108 -135h-42l-92 90
l-93 -90h-41z" />
    <glyph glyph-name="Cdotaccent" unicode="&#x10a;" horiz-adv-x="729" 
d="M385 -8c-204 0 -332 145 -332 361v8c0 211 145 363 332 363c147 0 268 -77 289 -224h-56c-23 116 -99 179 -232 179c-160 0 -276 -128 -276 -317v-8c0 -193 105 -315 276 -315c129 0 221 67 244 191h52c-27 -155 -142 -238 -297 -238zM384 787c-21 0 -38 17 -38 38
c0 20 17 37 38 37s38 -17 38 -37c0 -21 -17 -38 -38 -38z" />
    <glyph glyph-name="cdotaccent" unicode="&#x10b;" horiz-adv-x="560" 
d="M293 -8c-141 0 -250 105 -250 264v8c0 160 111 267 250 267c106 0 205 -56 218 -174h-52c-13 88 -83 129 -166 129c-109 0 -195 -84 -195 -222v-8c0 -138 85 -219 195 -219c87 0 161 51 174 144h49c-13 -112 -104 -189 -223 -189zM289 635c-21 0 -38 17 -38 38
c0 20 17 37 38 37s38 -17 38 -37c0 -21 -17 -38 -38 -38z" />
    <glyph glyph-name="Ccaron" unicode="&#x10c;" horiz-adv-x="729" 
d="M385 -8c-204 0 -332 145 -332 361v8c0 211 145 363 332 363c147 0 268 -77 289 -224h-56c-23 116 -99 179 -232 179c-160 0 -276 -128 -276 -317v-8c0 -193 105 -315 276 -315c129 0 221 67 244 191h52c-27 -155 -142 -238 -297 -238zM252 893h42l93 -77l94 77h41
l-111 -122h-50z" />
    <glyph glyph-name="ccaron" unicode="&#x10d;" horiz-adv-x="560" 
d="M293 -8c-141 0 -250 105 -250 264v8c0 160 111 267 250 267c106 0 205 -56 218 -174h-52c-13 88 -83 129 -166 129c-109 0 -195 -84 -195 -222v-8c0 -138 85 -219 195 -219c87 0 161 51 174 144h49c-13 -112 -104 -189 -223 -189zM155 748h42l92 -90l93 90h41l-110 -135
h-50z" />
    <glyph glyph-name="Dcaron" unicode="&#x10e;" horiz-adv-x="690" 
d="M274 46c204 0 302 129 302 310v8c0 176 -93 305 -303 305h-125v-623h126zM92 715h186c236 0 356 -152 356 -351v-9c0 -198 -114 -355 -358 -355h-184v715zM179 893h42l93 -77l94 77h41l-111 -122h-50z" />
    <glyph glyph-name="dcaron" unicode="&#x10f;" horiz-adv-x="616" 
d="M278 -8c-133 0 -235 96 -235 262v8c0 161 104 269 243 269c104 0 161 -59 191 -124v366h53v-773h-53v121c-29 -63 -101 -129 -199 -129zM283 37c107 0 195 77 195 221v8c0 144 -78 220 -187 220c-112 0 -193 -82 -193 -222v-8c0 -143 81 -219 185 -219zM597 773h60
l-33 -162h-39z" />
    <glyph glyph-name="Dcroat" unicode="&#x110;" horiz-adv-x="701" 
d="M28 381h75v334h185c236 0 356 -152 356 -351v-9c0 -198 -113 -355 -358 -355h-183v337h-75v44zM284 46c204 0 303 129 303 310v8c0 176 -93 305 -304 305h-124v-288h208v-44h-208v-291h125z" />
    <glyph glyph-name="dcroat" unicode="&#x111;" horiz-adv-x="616" 
d="M288 664h189v109h53v-109h77v-41h-77v-623h-53v121c-29 -63 -101 -129 -199 -129c-133 0 -235 96 -235 262v8c0 161 104 269 243 269c104 0 161 -59 191 -124v216h-189v41zM283 37c107 0 195 77 195 221v8c0 144 -78 220 -187 220c-112 0 -193 -82 -193 -222v-8
c0 -143 81 -219 185 -219z" />
    <glyph glyph-name="Emacron" unicode="&#x112;" horiz-adv-x="570" 
d="M92 715h411v-46h-355v-279h288v-46h-288v-298h373v-46h-429v715zM175 833h248v-42h-248v42z" />
    <glyph glyph-name="emacron" unicode="&#x113;" horiz-adv-x="558" 
d="M291 -8c-151 0 -248 107 -248 264v8c0 157 100 267 240 267c126 0 229 -82 229 -255v-19h-414c3 -141 68 -220 193 -220c88 0 145 36 164 109h53c-23 -100 -104 -154 -217 -154zM457 300c-5 128 -71 186 -174 186c-102 0 -172 -71 -183 -186h357zM161 689h242v-42h-242
v42z" />
    <glyph glyph-name="Ebreve" unicode="&#x114;" horiz-adv-x="570" 
d="M92 715h411v-46h-355v-279h288v-46h-288v-298h373v-46h-429v715zM301 771c-67 0 -123 52 -126 122h44c5 -47 35 -78 82 -78s79 31 86 78h43c-5 -70 -60 -122 -129 -122z" />
    <glyph glyph-name="ebreve" unicode="&#x115;" horiz-adv-x="558" 
d="M291 -8c-151 0 -248 107 -248 264v8c0 157 100 267 240 267c126 0 229 -82 229 -255v-19h-414c3 -141 68 -220 193 -220c88 0 145 36 164 109h53c-23 -100 -104 -154 -217 -154zM457 300c-5 128 -71 186 -174 186c-102 0 -172 -71 -183 -186h357zM276 616
c-68 0 -118 49 -122 121h44c5 -47 31 -77 78 -77s76 30 83 77h42c-4 -72 -57 -121 -125 -121z" />
    <glyph glyph-name="Edotaccent" unicode="&#x116;" horiz-adv-x="570" 
d="M92 715h411v-46h-355v-279h288v-46h-288v-298h373v-46h-429v715zM299 787c-21 0 -38 17 -38 38c0 20 17 37 38 37s38 -17 38 -37c0 -21 -17 -38 -38 -38z" />
    <glyph glyph-name="edotaccent" unicode="&#x117;" horiz-adv-x="558" 
d="M291 -8c-151 0 -248 107 -248 264v8c0 157 100 267 240 267c126 0 229 -82 229 -255v-19h-414c3 -141 68 -220 193 -220c88 0 145 36 164 109h53c-23 -100 -104 -154 -217 -154zM457 300c-5 128 -71 186 -174 186c-102 0 -172 -71 -183 -186h357zM282 635
c-21 0 -38 17 -38 38c0 20 17 37 38 37s38 -17 38 -37c0 -21 -17 -38 -38 -38z" />
    <glyph glyph-name="Eogonek" unicode="&#x118;" horiz-adv-x="570" 
d="M437 -182c-59 0 -94 30 -94 75c0 44 35 83 78 107h-329v715h411v-46h-355v-279h288v-46h-288v-298h373v-46h-51c-49 -32 -75 -62 -75 -98c0 -27 14 -44 49 -44c18 0 35 3 50 10v-39c-15 -7 -34 -11 -57 -11z" />
    <glyph glyph-name="eogonek" unicode="&#x119;" horiz-adv-x="558" 
d="M374 -182c-59 0 -93 30 -93 75c0 43 34 81 77 108c-22 -6 -44 -9 -67 -9c-151 0 -248 107 -248 264v8c0 157 100 267 240 267c126 0 229 -82 229 -255v-19h-414c3 -141 68 -220 193 -220c88 0 145 36 164 109h53c-15 -65 -52 -100 -80 -123c-45 -37 -96 -73 -96 -121
c0 -27 16 -44 49 -44c17 0 35 3 50 10v-39c-15 -7 -33 -11 -57 -11zM457 300c-5 128 -71 186 -174 186c-102 0 -172 -71 -183 -186h357z" />
    <glyph glyph-name="Ecaron" unicode="&#x11a;" horiz-adv-x="570" 
d="M92 715h411v-46h-355v-279h288v-46h-288v-298h373v-46h-429v715zM166 893h42l93 -77l94 77h41l-111 -122h-50z" />
    <glyph glyph-name="ecaron" unicode="&#x11b;" horiz-adv-x="558" 
d="M291 -8c-151 0 -248 107 -248 264v8c0 157 100 267 240 267c126 0 229 -82 229 -255v-19h-414c3 -141 68 -220 193 -220c88 0 145 36 164 109h53c-23 -100 -104 -154 -217 -154zM457 300c-5 128 -71 186 -174 186c-102 0 -172 -71 -183 -186h357zM148 748h42l92 -90
l93 90h41l-110 -135h-50z" />
    <glyph glyph-name="Gcircumflex" unicode="&#x11c;" horiz-adv-x="760" 
d="M396 -8c-215 0 -343 151 -343 361v8c0 208 145 363 341 363c136 0 261 -65 287 -213h-56c-27 119 -115 168 -230 168c-172 0 -285 -131 -285 -317v-8c0 -190 102 -316 286 -316c168 0 250 103 253 260v4h-220v47h274v-41c0 -205 -123 -316 -307 -316zM366 893h50
l108 -122h-42l-92 78l-93 -78h-41z" />
    <glyph glyph-name="gcircumflex" unicode="&#x11d;" horiz-adv-x="616" 
d="M288 -188c-151 0 -221 74 -234 158h54c15 -68 70 -113 179 -113c112 0 190 51 190 180v107c-29 -63 -101 -127 -198 -127c-133 0 -236 98 -236 250v7c0 149 104 257 243 257c103 0 162 -57 191 -121v113h53v-488c0 -155 -103 -223 -242 -223zM284 62
c106 0 194 77 194 208v8c0 132 -78 208 -187 208c-112 0 -193 -79 -193 -210v-8c0 -130 82 -206 186 -206zM265 740h50l108 -135h-42l-92 90l-93 -90h-41z" />
    <glyph glyph-name="Gbreve" unicode="&#x11e;" horiz-adv-x="760" 
d="M396 -8c-215 0 -343 151 -343 361v8c0 208 145 363 341 363c136 0 261 -65 287 -213h-56c-27 119 -115 168 -230 168c-172 0 -285 -131 -285 -317v-8c0 -190 102 -316 286 -316c168 0 250 103 253 260v4h-220v47h274v-41c0 -205 -123 -316 -307 -316zM388 771
c-67 0 -123 52 -126 122h44c5 -47 35 -78 82 -78s79 31 86 78h43c-5 -70 -60 -122 -129 -122z" />
    <glyph glyph-name="gbreve" unicode="&#x11f;" horiz-adv-x="616" 
d="M288 -188c-151 0 -221 74 -234 158h54c15 -68 70 -113 179 -113c112 0 190 51 190 180v107c-29 -63 -101 -127 -198 -127c-133 0 -236 98 -236 250v7c0 149 104 257 243 257c103 0 162 -57 191 -121v113h53v-488c0 -155 -103 -223 -242 -223zM284 62
c106 0 194 77 194 208v8c0 132 -78 208 -187 208c-112 0 -193 -79 -193 -210v-8c0 -130 82 -206 186 -206zM288 616c-68 0 -118 49 -122 121h44c5 -47 31 -77 78 -77s76 30 83 77h42c-4 -72 -57 -121 -125 -121z" />
    <glyph glyph-name="Gdotaccent" unicode="&#x120;" horiz-adv-x="760" 
d="M396 -8c-215 0 -343 151 -343 361v8c0 208 145 363 341 363c136 0 261 -65 287 -213h-56c-27 119 -115 168 -230 168c-172 0 -285 -131 -285 -317v-8c0 -190 102 -316 286 -316c168 0 250 103 253 260v4h-220v47h274v-41c0 -205 -123 -316 -307 -316zM390 787
c-21 0 -38 17 -38 38c0 20 17 37 38 37s38 -17 38 -37c0 -21 -17 -38 -38 -38z" />
    <glyph glyph-name="gdotaccent" unicode="&#x121;" horiz-adv-x="616" 
d="M288 -188c-151 0 -221 74 -234 158h54c15 -68 70 -113 179 -113c112 0 190 51 190 180v107c-29 -63 -101 -127 -198 -127c-133 0 -236 98 -236 250v7c0 149 104 257 243 257c103 0 162 -57 191 -121v113h53v-488c0 -155 -103 -223 -242 -223zM284 62
c106 0 194 77 194 208v8c0 132 -78 208 -187 208c-112 0 -193 -79 -193 -210v-8c0 -130 82 -206 186 -206zM289 635c-21 0 -38 17 -38 38c0 20 17 37 38 37s38 -17 38 -37c0 -21 -17 -38 -38 -38z" />
    <glyph glyph-name="uni0122" unicode="&#x122;" horiz-adv-x="756" 
d="M396 -8c-215 0 -343 151 -343 361v8c0 208 145 363 341 363c136 0 261 -65 287 -213h-56c-27 119 -115 168 -230 168c-172 0 -285 -131 -285 -317v-8c0 -190 102 -316 286 -316c168 0 250 103 253 260v4h-220v47h274v-41c0 -205 -123 -316 -307 -316zM318 -188l58 147
l51 -15l-75 -148z" />
    <glyph glyph-name="uni0123" unicode="&#x123;" horiz-adv-x="612" 
d="M288 -188c-151 0 -221 74 -234 158h54c15 -68 70 -113 179 -113c112 0 190 51 190 180v107c-29 -63 -101 -127 -198 -127c-133 0 -236 98 -236 250v7c0 149 104 257 243 257c103 0 162 -57 191 -121v113h53v-488c0 -155 -103 -223 -242 -223zM284 62
c106 0 194 77 194 208v8c0 132 -78 208 -187 208c-112 0 -193 -79 -193 -210v-8c0 -130 82 -206 186 -206zM260 622l75 148l35 -17l-58 -146z" />
    <glyph glyph-name="Hcircumflex" unicode="&#x124;" horiz-adv-x="721" 
d="M92 715h56v-333h421v333h56v-715h-56v335h-421v-335h-56v715zM334 893h50l108 -122h-42l-92 78l-93 -78h-41z" />
    <glyph glyph-name="hcircumflex" unicode="&#x125;" horiz-adv-x="587" 
d="M82 773h53v-352c24 57 91 110 185 110c111 0 186 -60 186 -209v-322h-53v325c0 112 -52 160 -145 160c-87 0 -173 -59 -173 -168v-317h-53v773zM276 938h50l108 -122h-42l-92 78l-93 -78h-41z" />
    <glyph glyph-name="Hbar" unicode="&#x126;" horiz-adv-x="721" 
d="M13 554h79v161h56v-161h421v161h56v-161h79v-44h-79v-510h-56v335h-421v-335h-56v510h-79v44zM569 382v128h-421v-128h421z" />
    <glyph glyph-name="hbar" unicode="&#x127;" horiz-adv-x="587" 
d="M4 664h78v109h53v-109h189v-41h-189v-202c24 57 91 110 185 110c111 0 186 -60 186 -209v-322h-53v325c0 112 -52 160 -145 160c-87 0 -173 -59 -173 -168v-317h-53v623h-78v41z" />
    <glyph glyph-name="Itilde" unicode="&#x128;" horiz-adv-x="254" 
d="M97 715h56v-715h-56v715zM188 774c-48 0 -89 53 -123 53c-23 0 -41 -19 -46 -54h-41c8 64 43 99 87 99c47 0 86 -53 123 -53c23 0 41 19 46 54h40c-8 -64 -43 -99 -86 -99z" />
    <glyph glyph-name="itilde" unicode="&#x129;" horiz-adv-x="225" 
d="M84 523h53v-523h-53v523zM174 616c-47 0 -89 53 -124 53c-21 0 -40 -20 -45 -53h-41c8 64 43 99 87 99c48 0 87 -53 123 -53c21 0 41 18 46 53h40c-8 -64 -43 -99 -86 -99z" />
    <glyph glyph-name="Imacron" unicode="&#x12a;" horiz-adv-x="254" 
d="M97 715h56v-715h-56v715zM1 833h248v-42h-248v42z" />
    <glyph glyph-name="imacron" unicode="&#x12b;" horiz-adv-x="225" 
d="M24 689h173v-42h-173v42zM84 523h53v-523h-53v523z" />
    <glyph glyph-name="Ibreve" unicode="&#x12c;" horiz-adv-x="254" 
d="M97 715h56v-715h-56v715zM125 771c-67 0 -123 52 -126 122h44c5 -47 35 -78 82 -78s79 31 86 78h43c-5 -70 -60 -122 -129 -122z" />
    <glyph glyph-name="ibreve" unicode="&#x12d;" horiz-adv-x="225" 
d="M84 523h53v-523h-53v523zM110 616c-68 0 -118 49 -122 121h44c5 -47 31 -77 78 -77s76 30 83 77h42c-4 -72 -57 -121 -125 -121z" />
    <glyph glyph-name="Iogonek" unicode="&#x12e;" horiz-adv-x="254" 
d="M124 -182c-59 0 -94 30 -94 75c0 44 31 79 67 106v716h56v-713c-43 -29 -71 -61 -71 -100c0 -27 14 -44 49 -44c18 0 35 3 50 10v-39c-15 -7 -34 -11 -57 -11z" />
    <glyph glyph-name="iogonek" unicode="&#x12f;" horiz-adv-x="225" 
d="M113 -182c-59 0 -93 30 -93 75s29 78 64 105v525h53v-521c-40 -31 -66 -61 -66 -100c0 -27 16 -44 49 -44c17 0 35 3 50 10v-39c-15 -7 -33 -11 -57 -11zM110 635c-21 0 -38 17 -38 38c0 20 17 37 38 37s37 -17 37 -37c0 -21 -16 -38 -37 -38z" />
    <glyph glyph-name="Idotaccent" unicode="&#x130;" horiz-adv-x="254" 
d="M97 715h56v-715h-56v715zM125 787c-21 0 -38 17 -38 38c0 20 17 37 38 37s38 -17 38 -37c0 -21 -17 -38 -38 -38z" />
    <glyph glyph-name="dotlessi" unicode="&#x131;" horiz-adv-x="225" 
d="M84 523h53v-523h-53v523z" />
    <glyph glyph-name="IJ" unicode="&#x132;" horiz-adv-x="620" 
d="M97 715h56v-715h-56v715zM351 -7c-51 0 -81 11 -100 20v47c25 -11 54 -21 97 -21c80 0 129 40 129 144v532h56v-534c0 -132 -78 -188 -182 -188z" />
    <glyph glyph-name="ij" unicode="&#x133;" horiz-adv-x="225" 
d="M84 523h53v-523h-53v523zM110 635c-21 0 -38 17 -38 38c0 20 17 37 38 37s37 -17 37 -37c0 -21 -16 -38 -37 -38zM228 -143c60 5 77 35 77 91v575h53v-571c0 -92 -34 -136 -130 -140v45zM331 635c-21 0 -38 17 -38 38c0 20 17 37 38 37s37 -17 37 -37
c0 -21 -16 -38 -37 -38z" />
    <glyph glyph-name="Jcircumflex" unicode="&#x134;" horiz-adv-x="405" 
d="M137 -7c-51 0 -81 11 -100 20v47c25 -11 54 -21 97 -21c80 0 129 40 129 144v532h56v-534c0 -132 -78 -188 -182 -188zM266 893h50l108 -122h-42l-92 78l-93 -78h-41z" />
    <glyph glyph-name="jcircumflex" unicode="&#x135;" horiz-adv-x="225" 
d="M7 -143c60 5 77 35 77 91v575h53v-571c0 -92 -34 -136 -130 -140v45zM87 740h50l108 -135h-42l-92 90l-93 -90h-41z" />
    <glyph glyph-name="uni0136" unicode="&#x136;" horiz-adv-x="599" 
d="M92 715h56v-352l347 353h64l-346 -349l363 -367h-68l-360 361v-361h-56v715zM240 -188l58 147l51 -15l-75 -148z" />
    <glyph glyph-name="uni0137" unicode="&#x137;" horiz-adv-x="487" 
d="M82 773h53v-496l255 246h63l-255 -244l272 -279h-66l-269 277v-277h-53v773zM183 -188l58 147l51 -15l-75 -148z" />
    <glyph glyph-name="Lacute" unicode="&#x139;" horiz-adv-x="534" 
d="M92 715h56v-669h347v-46h-403v715zM159 893h66l-88 -122h-42z" />
    <glyph glyph-name="lacute" unicode="&#x13a;" horiz-adv-x="226" 
d="M84 773h54v-773h-54v773zM148 938h66l-88 -122h-42z" />
    <glyph glyph-name="uni013B" unicode="&#x13b;" horiz-adv-x="530" 
d="M92 715h56v-669h347v-46h-403v715zM217 -188l58 147l51 -15l-75 -148z" />
    <glyph glyph-name="uni013C" unicode="&#x13c;" horiz-adv-x="222" 
d="M84 773h54v-773h-54v773zM38 -188l58 147l51 -15l-75 -148z" />
    <glyph glyph-name="Lcaron" unicode="&#x13d;" horiz-adv-x="534" 
d="M328 715h59l-44 -157h-39zM92 715h56v-669h347v-46h-403v715z" />
    <glyph glyph-name="lcaron" unicode="&#x13e;" horiz-adv-x="226" 
d="M84 773h54v-773h-54v773zM205 773h60l-33 -162h-39z" />
    <glyph glyph-name="Ldot" unicode="&#x13f;" horiz-adv-x="534" 
d="M92 715h56v-669h347v-46h-403v715zM419 333c-23 0 -42 19 -42 43c0 23 19 42 42 42c24 0 43 -19 43 -42c0 -24 -19 -43 -43 -43z" />
    <glyph glyph-name="ldot" unicode="&#x140;" horiz-adv-x="283" 
d="M84 773h54v-773h-54v773zM249 330c-23 0 -42 19 -42 43c0 23 19 42 42 42c24 0 43 -19 43 -42c0 -24 -19 -43 -43 -43z" />
    <glyph glyph-name="Lslash" unicode="&#x141;" horiz-adv-x="549" 
d="M34 304l73 27v384h56v-364l222 83v-45l-222 -83v-260h347v-46h-403v286l-73 -27v45z" />
    <glyph glyph-name="lslash" unicode="&#x142;" horiz-adv-x="243" 
d="M16 378l77 48v347h53v-313l81 51v-46l-81 -51v-414h-53v380l-77 -48v46z" />
    <glyph glyph-name="Nacute" unicode="&#x143;" horiz-adv-x="717" 
d="M92 715h76l400 -638v638h53v-715h-66l-409 653v-653h-54v715zM403 893h66l-88 -122h-42z" />
    <glyph glyph-name="nacute" unicode="&#x144;" horiz-adv-x="587" 
d="M82 523h53v-102c24 57 91 110 185 110c111 0 186 -60 186 -209v-322h-53v325c0 112 -52 160 -145 160c-87 0 -173 -59 -173 -168v-317h-53v523zM330 752h65l-92 -147h-41z" />
    <glyph glyph-name="uni0145" unicode="&#x145;" horiz-adv-x="713" 
d="M92 715h76l400 -638v638h53v-715h-66l-409 653v-653h-54v715zM274 -188l58 147l51 -15l-75 -148z" />
    <glyph glyph-name="uni0146" unicode="&#x146;" horiz-adv-x="583" 
d="M82 523h53v-102c24 57 91 110 185 110c111 0 186 -60 186 -209v-322h-53v325c0 112 -52 160 -145 160c-87 0 -173 -59 -173 -168v-317h-53v523zM218 -188l58 147l51 -15l-75 -148z" />
    <glyph glyph-name="Ncaron" unicode="&#x147;" horiz-adv-x="717" 
d="M92 715h76l400 -638v638h53v-715h-66l-409 653v-653h-54v715zM232 893h42l93 -77l94 77h41l-111 -122h-50z" />
    <glyph glyph-name="ncaron" unicode="&#x148;" horiz-adv-x="587" 
d="M82 523h53v-102c24 57 91 110 185 110c111 0 186 -60 186 -209v-322h-53v325c0 112 -52 160 -145 160c-87 0 -173 -59 -173 -168v-317h-53v523zM156 748h42l92 -90l93 90h41l-110 -135h-50z" />
    <glyph glyph-name="napostrophe" unicode="&#x149;" horiz-adv-x="594" 
d="M88 523h53v-102c24 57 91 110 185 110c111 0 186 -60 186 -209v-322h-53v325c0 112 -52 160 -145 160c-87 0 -173 -59 -173 -168v-317h-53v523zM-35 545l75 177l51 -22l-92 -172z" />
    <glyph glyph-name="Eng" unicode="&#x14a;" horiz-adv-x="717" 
d="M439 -190c-51 0 -81 9 -100 20v47c25 -11 55 -21 98 -21c79 0 128 39 129 139l-420 658v-653h-54v715h76l400 -625v625h53v-713c0 -137 -77 -192 -182 -192z" />
    <glyph glyph-name="eng" unicode="&#x14b;" horiz-adv-x="587" 
d="M366 -143c64 7 87 35 87 102v366c0 112 -52 160 -145 160c-87 0 -173 -59 -173 -168v-317h-53v523h53v-102c24 57 91 110 185 110c111 0 186 -60 186 -209v-359c0 -101 -40 -146 -140 -151v45z" />
    <glyph glyph-name="Omacron" unicode="&#x14c;" horiz-adv-x="805" 
d="M403 39c171 0 288 134 288 317v8c0 173 -114 313 -290 313c-175 0 -291 -135 -291 -315v-8c0 -182 128 -315 293 -315zM403 -8c-204 0 -350 161 -350 361v8c0 203 147 362 348 362c202 0 348 -159 348 -360v-8c0 -202 -146 -363 -346 -363zM276 833h248v-42h-248v42z" />
    <glyph glyph-name="omacron" unicode="&#x14d;" horiz-adv-x="595" 
d="M296 37c112 0 197 85 197 220v8c0 139 -85 221 -197 221s-198 -85 -198 -221v-8c0 -134 84 -220 198 -220zM295 -8c-141 0 -252 110 -252 265v8c0 157 113 266 253 266c141 0 252 -106 252 -265v-8c0 -157 -112 -266 -253 -266zM174 689h242v-42h-242v42z" />
    <glyph glyph-name="Obreve" unicode="&#x14e;" horiz-adv-x="805" 
d="M403 39c171 0 288 134 288 317v8c0 173 -114 313 -290 313c-175 0 -291 -135 -291 -315v-8c0 -182 128 -315 293 -315zM403 -8c-204 0 -350 161 -350 361v8c0 203 147 362 348 362c202 0 348 -159 348 -360v-8c0 -202 -146 -363 -346 -363zM398 771
c-67 0 -123 52 -126 122h44c5 -47 35 -78 82 -78s79 31 86 78h43c-5 -70 -60 -122 -129 -122z" />
    <glyph glyph-name="obreve" unicode="&#x14f;" horiz-adv-x="595" 
d="M296 37c112 0 197 85 197 220v8c0 139 -85 221 -197 221s-198 -85 -198 -221v-8c0 -134 84 -220 198 -220zM295 -8c-141 0 -252 110 -252 265v8c0 157 113 266 253 266c141 0 252 -106 252 -265v-8c0 -157 -112 -266 -253 -266zM294 616c-68 0 -118 49 -122 121h44
c5 -47 31 -77 78 -77s76 30 83 77h42c-4 -72 -57 -121 -125 -121z" />
    <glyph glyph-name="Ohungarumlaut" unicode="&#x150;" horiz-adv-x="805" 
d="M403 39c171 0 288 134 288 317v8c0 173 -114 313 -290 313c-175 0 -291 -135 -291 -315v-8c0 -182 128 -315 293 -315zM403 -8c-204 0 -350 161 -350 361v8c0 203 147 362 348 362c202 0 348 -159 348 -360v-8c0 -202 -146 -363 -346 -363zM355 893h60l-65 -122h-40z
M487 893h60l-65 -122h-40z" />
    <glyph glyph-name="ohungarumlaut" unicode="&#x151;" horiz-adv-x="595" 
d="M296 37c112 0 197 85 197 220v8c0 139 -85 221 -197 221s-198 -85 -198 -221v-8c0 -134 84 -220 198 -220zM295 -8c-141 0 -252 110 -252 265v8c0 157 113 266 253 266c141 0 252 -106 252 -265v-8c0 -157 -112 -266 -253 -266zM258 752h60l-69 -147h-40zM390 752h60
l-69 -147h-40z" />
    <glyph glyph-name="OE" unicode="&#x152;" horiz-adv-x="960" 
d="M53 359c0 197 113 356 358 356h482v-46h-340v-279h273v-46h-273v-298h358v-46h-502c-236 0 -356 152 -356 351v8zM413 669c-204 0 -303 -129 -303 -310v-8c0 -176 93 -305 304 -305h84v623h-85z" />
    <glyph glyph-name="oe" unicode="&#x153;" horiz-adv-x="1007" 
d="M295 -8c-141 0 -252 110 -252 265v8c0 157 113 266 253 266c104 0 187 -56 224 -151c35 93 110 151 213 151c125 0 228 -82 228 -255v-19h-414c3 -141 69 -220 194 -220c87 0 146 36 163 109h53c-21 -100 -104 -154 -217 -154c-112 0 -188 58 -221 151
c-37 -93 -120 -151 -224 -151zM296 37c112 0 197 85 197 220v8c0 139 -85 221 -197 221s-198 -85 -198 -221v-8c0 -134 84 -220 198 -220zM907 300c-5 128 -73 186 -174 186s-173 -71 -184 -186h358z" />
    <glyph glyph-name="Racute" unicode="&#x154;" horiz-adv-x="610" 
d="M92 715h196c139 0 243 -53 243 -192v-4c0 -120 -78 -173 -185 -189l227 -330h-62l-224 326h-139v-326h-56v715zM291 371c116 0 184 44 184 148v4c0 109 -72 146 -184 146h-143v-298h143zM330 893h66l-88 -122h-42z" />
    <glyph glyph-name="racute" unicode="&#x155;" horiz-adv-x="352" 
d="M82 523h53v-110c29 64 81 114 177 117v-50c-101 -5 -177 -51 -177 -190v-290h-53v523zM233 752h65l-92 -147h-41z" />
    <glyph glyph-name="uni0156" unicode="&#x156;" horiz-adv-x="606" 
d="M92 715h196c139 0 243 -53 243 -192v-4c0 -120 -78 -173 -185 -189l227 -330h-62l-224 326h-139v-326h-56v715zM291 371c116 0 184 44 184 148v4c0 109 -72 146 -184 146h-143v-298h143zM232 -188l58 147l51 -15l-75 -148z" />
    <glyph glyph-name="uni0157" unicode="&#x157;" horiz-adv-x="348" 
d="M82 523h53v-110c29 64 81 114 177 117v-50c-101 -5 -177 -51 -177 -190v-290h-53v523zM35 -188l58 147l51 -15l-75 -148z" />
    <glyph glyph-name="Rcaron" unicode="&#x158;" horiz-adv-x="610" 
d="M92 715h196c139 0 243 -53 243 -192v-4c0 -120 -78 -173 -185 -189l227 -330h-62l-224 326h-139v-326h-56v715zM291 371c116 0 184 44 184 148v4c0 109 -72 146 -184 146h-143v-298h143zM159 893h42l93 -77l94 77h41l-111 -122h-50z" />
    <glyph glyph-name="rcaron" unicode="&#x159;" horiz-adv-x="352" 
d="M82 523h53v-110c29 64 81 114 177 117v-50c-101 -5 -177 -51 -177 -190v-290h-53v523zM59 748h42l92 -90l93 90h41l-110 -135h-50z" />
    <glyph glyph-name="Sacute" unicode="&#x15a;" horiz-adv-x="606" 
d="M308 -8c-178 0 -250 97 -266 213h55c11 -90 64 -167 211 -167c112 0 185 65 185 153c0 100 -49 136 -192 157c-157 23 -231 75 -231 188c0 111 92 187 225 187s214 -65 230 -180h-51c-17 89 -72 134 -179 134c-111 0 -173 -50 -173 -137c0 -78 39 -121 188 -142
c160 -24 237 -70 237 -203c0 -112 -95 -203 -239 -203zM330 893h66l-88 -122h-42z" />
    <glyph glyph-name="sacute" unicode="&#x15b;" horiz-adv-x="469" 
d="M239 -9c-124 0 -194 65 -201 165h51c9 -72 53 -120 150 -120c88 0 133 39 133 103c0 67 -38 87 -137 106c-128 24 -180 56 -180 146c0 88 84 140 172 140c93 0 169 -38 182 -142h-51c-13 68 -56 97 -132 97c-73 0 -122 -37 -122 -93c0 -59 36 -82 143 -101
c111 -21 176 -46 176 -149c0 -88 -64 -152 -184 -152zM272 752h65l-92 -147h-41z" />
    <glyph glyph-name="Scircumflex" unicode="&#x15c;" horiz-adv-x="606" 
d="M308 -8c-178 0 -250 97 -266 213h55c11 -90 64 -167 211 -167c112 0 185 65 185 153c0 100 -49 136 -192 157c-157 23 -231 75 -231 188c0 111 92 187 225 187s214 -65 230 -180h-51c-17 89 -72 134 -179 134c-111 0 -173 -50 -173 -137c0 -78 39 -121 188 -142
c160 -24 237 -70 237 -203c0 -112 -95 -203 -239 -203zM270 893h50l108 -122h-42l-92 78l-93 -78h-41z" />
    <glyph glyph-name="scircumflex" unicode="&#x15d;" horiz-adv-x="469" 
d="M239 -9c-124 0 -194 65 -201 165h51c9 -72 53 -120 150 -120c88 0 133 39 133 103c0 67 -38 87 -137 106c-128 24 -180 56 -180 146c0 88 84 140 172 140c93 0 169 -38 182 -142h-51c-13 68 -56 97 -132 97c-73 0 -122 -37 -122 -93c0 -59 36 -82 143 -101
c111 -21 176 -46 176 -149c0 -88 -64 -152 -184 -152zM208 740h50l108 -135h-42l-92 90l-93 -90h-41z" />
    <glyph glyph-name="uni015E" unicode="&#x15e;" horiz-adv-x="602" 
d="M277 -212c-55 0 -91 31 -96 78h44c4 -23 21 -42 50 -42c31 0 50 17 50 44c0 29 -22 39 -45 39c-17 0 -29 -5 -36 -8l-26 21l42 75c-144 16 -205 103 -218 210h55c11 -90 64 -167 211 -167c112 0 185 65 185 153c0 100 -49 136 -192 157c-157 23 -231 75 -231 188
c0 111 92 187 225 187s214 -65 230 -180h-51c-17 89 -72 134 -179 134c-111 0 -173 -50 -173 -137c0 -78 39 -121 188 -142c160 -24 237 -70 237 -203c0 -112 -95 -203 -239 -203h-7l-30 -53c49 11 101 -13 101 -73c0 -51 -43 -78 -95 -78z" />
    <glyph glyph-name="uni015F" unicode="&#x15f;" horiz-adv-x="465" 
d="M218 -212c-55 0 -91 31 -96 78h44c4 -23 21 -42 50 -42c31 0 50 17 50 44c0 29 -22 39 -45 39c-17 0 -29 -5 -36 -8l-26 21l41 74c-100 12 -155 73 -162 162h51c9 -72 53 -120 150 -120c88 0 133 39 133 103c0 67 -38 87 -137 106c-128 24 -180 56 -180 146
c0 88 84 140 172 140c93 0 169 -38 182 -142h-51c-13 68 -56 97 -132 97c-73 0 -122 -37 -122 -93c0 -59 36 -82 143 -101c111 -21 176 -46 176 -149c0 -88 -64 -151 -181 -152l-30 -52c49 11 101 -13 101 -73c0 -51 -43 -78 -95 -78z" />
    <glyph glyph-name="Scaron" unicode="&#x160;" horiz-adv-x="606" 
d="M308 -8c-178 0 -250 97 -266 213h55c11 -90 64 -167 211 -167c112 0 185 65 185 153c0 100 -49 136 -192 157c-157 23 -231 75 -231 188c0 111 92 187 225 187s214 -65 230 -180h-51c-17 89 -72 134 -179 134c-111 0 -173 -50 -173 -137c0 -78 39 -121 188 -142
c160 -24 237 -70 237 -203c0 -112 -95 -203 -239 -203zM158 893h42l93 -77l94 77h41l-111 -122h-50z" />
    <glyph glyph-name="scaron" unicode="&#x161;" horiz-adv-x="469" 
d="M239 -9c-124 0 -194 65 -201 165h51c9 -72 53 -120 150 -120c88 0 133 39 133 103c0 67 -38 87 -137 106c-128 24 -180 56 -180 146c0 88 84 140 172 140c93 0 169 -38 182 -142h-51c-13 68 -56 97 -132 97c-73 0 -122 -37 -122 -93c0 -59 36 -82 143 -101
c111 -21 176 -46 176 -149c0 -88 -64 -152 -184 -152zM98 748h42l92 -90l93 90h41l-110 -135h-50z" />
    <glyph glyph-name="Tcommaaccent" unicode="&#x162;" horiz-adv-x="563" 
d="M252 669h-222v46h499v-46h-222v-669h-55v669zM207 -188l58 147l51 -15l-75 -148z" />
    <glyph glyph-name="tcommaaccent" unicode="&#x163;" horiz-adv-x="342" 
d="M230 -7c-84 0 -128 49 -128 133v352h-77v45h77v119h53v-119h137v-45h-137v-348c0 -64 30 -92 78 -92c27 0 47 4 66 11v-45c-17 -7 -37 -11 -69 -11zM112 -188l58 147l51 -15l-75 -148z" />
    <glyph glyph-name="Tcaron" unicode="&#x164;" horiz-adv-x="563" 
d="M252 669h-222v46h499v-46h-222v-669h-55v669zM144 893h42l93 -77l94 77h41l-111 -122h-50z" />
    <glyph glyph-name="tcaron" unicode="&#x165;" horiz-adv-x="342" 
d="M230 -7c-84 0 -128 49 -128 133v352h-77v45h77v119h53v-119h137v-45h-137v-348c0 -64 30 -92 78 -92c27 0 47 4 66 11v-45c-17 -7 -37 -11 -69 -11zM256 773h60l-33 -162h-39z" />
    <glyph glyph-name="Tbar" unicode="&#x166;" horiz-adv-x="563" 
d="M100 408h152v261h-222v46h499v-46h-222v-261h153v-43h-153v-365h-55v365h-152v43z" />
    <glyph glyph-name="tbar" unicode="&#x167;" horiz-adv-x="342" 
d="M25 341h77v137h-77v45h77v119h53v-119h137v-45h-137v-137h137v-39h-137v-172c0 -64 30 -92 78 -92c27 0 47 4 66 11v-45c-17 -7 -37 -11 -69 -11c-84 0 -128 49 -128 133v176h-77v39z" />
    <glyph glyph-name="Utilde" unicode="&#x168;" horiz-adv-x="686" 
d="M338 -7c-161 0 -256 91 -256 263v459h55v-453c0 -153 69 -222 202 -222c137 0 206 66 206 235v440h56v-448c0 -171 -86 -274 -263 -274zM403 774c-48 0 -89 53 -123 53c-23 0 -41 -19 -46 -54h-41c8 64 43 99 87 99c47 0 86 -53 123 -53c23 0 41 19 46 54h40
c-8 -64 -43 -99 -86 -99z" />
    <glyph glyph-name="utilde" unicode="&#x169;" horiz-adv-x="583" 
d="M261 -8c-108 0 -184 56 -184 200v331h53v-328c0 -112 51 -157 143 -157c84 0 171 57 171 167v318h53v-523h-53v100c-24 -56 -91 -108 -183 -108zM351 616c-47 0 -89 53 -124 53c-21 0 -40 -20 -45 -53h-41c8 64 43 99 87 99c48 0 87 -53 123 -53c21 0 41 18 46 53h40
c-8 -64 -43 -99 -86 -99z" />
    <glyph glyph-name="Umacron" unicode="&#x16a;" horiz-adv-x="686" 
d="M338 -7c-161 0 -256 91 -256 263v459h55v-453c0 -153 69 -222 202 -222c137 0 206 66 206 235v440h56v-448c0 -171 -86 -274 -263 -274zM217 833h248v-42h-248v42z" />
    <glyph glyph-name="umacron" unicode="&#x16b;" horiz-adv-x="583" 
d="M261 -8c-108 0 -184 56 -184 200v331h53v-328c0 -112 51 -157 143 -157c84 0 171 57 171 167v318h53v-523h-53v100c-24 -56 -91 -108 -183 -108zM168 689h242v-42h-242v42z" />
    <glyph glyph-name="Ubreve" unicode="&#x16c;" horiz-adv-x="686" 
d="M338 -7c-161 0 -256 91 -256 263v459h55v-453c0 -153 69 -222 202 -222c137 0 206 66 206 235v440h56v-448c0 -171 -86 -274 -263 -274zM339 771c-67 0 -123 52 -126 122h44c5 -47 35 -78 82 -78s79 31 86 78h43c-5 -70 -60 -122 -129 -122z" />
    <glyph glyph-name="ubreve" unicode="&#x16d;" horiz-adv-x="583" 
d="M261 -8c-108 0 -184 56 -184 200v331h53v-328c0 -112 51 -157 143 -157c84 0 171 57 171 167v318h53v-523h-53v100c-24 -56 -91 -108 -183 -108zM288 616c-68 0 -118 49 -122 121h44c5 -47 31 -77 78 -77s76 30 83 77h42c-4 -72 -57 -121 -125 -121z" />
    <glyph glyph-name="Uring" unicode="&#x16e;" horiz-adv-x="686" 
d="M338 -7c-161 0 -256 91 -256 263v459h55v-453c0 -153 69 -222 202 -222c137 0 206 66 206 235v440h56v-448c0 -171 -86 -274 -263 -274zM341 762c35 0 61 28 61 64s-26 64 -61 64s-61 -28 -61 -64s26 -64 61 -64zM341 730c-52 0 -98 44 -98 96s46 95 98 95
c54 0 98 -43 98 -95s-44 -96 -98 -96z" />
    <glyph glyph-name="uring" unicode="&#x16f;" horiz-adv-x="583" 
d="M261 -8c-108 0 -184 56 -184 200v331h53v-328c0 -112 51 -157 143 -157c84 0 171 57 171 167v318h53v-523h-53v100c-24 -56 -91 -108 -183 -108zM288 617c35 0 61 27 61 63c0 37 -26 64 -61 64s-61 -27 -61 -64c0 -36 26 -63 61 -63zM288 585c-52 0 -98 43 -98 95
s46 96 98 96c54 0 98 -44 98 -96s-44 -95 -98 -95z" />
    <glyph glyph-name="Uhungarumlaut" unicode="&#x170;" horiz-adv-x="686" 
d="M338 -7c-161 0 -256 91 -256 263v459h55v-453c0 -153 69 -222 202 -222c137 0 206 66 206 235v440h56v-448c0 -171 -86 -274 -263 -274zM296 893h60l-65 -122h-40zM428 893h60l-65 -122h-40z" />
    <glyph glyph-name="uhungarumlaut" unicode="&#x171;" horiz-adv-x="583" 
d="M261 -8c-108 0 -184 56 -184 200v331h53v-328c0 -112 51 -157 143 -157c84 0 171 57 171 167v318h53v-523h-53v100c-24 -56 -91 -108 -183 -108zM252 752h60l-69 -147h-40zM384 752h60l-69 -147h-40z" />
    <glyph glyph-name="Uogonek" unicode="&#x172;" horiz-adv-x="686" 
d="M381 -182c-59 0 -93 30 -93 75c0 41 30 78 71 101c-7 0 -14 -1 -21 -1c-161 0 -256 91 -256 263v459h55v-453c0 -153 69 -222 202 -222c137 0 206 66 206 235v440h56v-448c0 -125 -47 -213 -136 -250c-70 -29 -126 -61 -126 -115c0 -27 16 -44 49 -44c17 0 35 3 50 10
v-39c-15 -7 -33 -11 -57 -11z" />
    <glyph glyph-name="uogonek" unicode="&#x173;" horiz-adv-x="583" 
d="M460 -182c-59 0 -93 30 -93 75s36 84 77 107v100c-24 -56 -91 -108 -183 -108c-108 0 -184 56 -184 200v331h53v-328c0 -112 51 -157 143 -157c84 0 171 57 171 167v318h53v-520c-53 -35 -80 -65 -80 -101c0 -27 17 -44 50 -44c17 0 35 3 50 10v-39
c-15 -7 -34 -11 -57 -11z" />
    <glyph glyph-name="Wcircumflex" unicode="&#x174;" horiz-adv-x="924" 
d="M33 715h56l164 -630l189 630h39l182 -632l173 632h51l-196 -715h-54l-176 616l-186 -616h-53zM435 893h50l108 -122h-42l-92 78l-93 -78h-41z" />
    <glyph glyph-name="wcircumflex" unicode="&#x175;" horiz-adv-x="780" 
d="M29 523h57l140 -458l143 458h45l138 -458l141 458h54l-165 -523h-61l-130 438l-139 -438h-60zM364 740h50l108 -135h-42l-92 90l-93 -90h-41z" />
    <glyph glyph-name="Ycircumflex" unicode="&#x176;" horiz-adv-x="582" 
d="M268 318l-245 397h62l212 -350l202 350h56l-231 -398v-317h-56v318zM268 893h50l108 -122h-42l-92 78l-93 -78h-41z" />
    <glyph glyph-name="ycircumflex" unicode="&#x177;" horiz-adv-x="512" 
d="M232 45l-207 478h57l179 -417l167 417h54l-290 -705h-55zM231 740h50l108 -135h-42l-92 90l-93 -90h-41z" />
    <glyph glyph-name="Ydieresis" unicode="&#x178;" horiz-adv-x="582" 
d="M268 318l-245 397h62l212 -350l202 350h56l-231 -398v-317h-56v318zM202 788c-21 0 -37 17 -37 37c0 19 16 36 37 36c20 0 36 -17 36 -36c0 -20 -16 -37 -36 -37zM382 788c-20 0 -36 17 -36 37c0 19 16 36 36 36s36 -17 36 -36c0 -20 -16 -37 -36 -37z" />
    <glyph glyph-name="Zacute" unicode="&#x179;" horiz-adv-x="591" 
d="M27 11l443 658h-407v46h485v-10l-437 -657h431v-48h-515v11zM333 893h66l-88 -122h-42z" />
    <glyph glyph-name="zacute" unicode="&#x17a;" horiz-adv-x="478" 
d="M24 9l340 469h-310v45h393v-10l-337 -466h330v-47h-416v9zM285 752h65l-92 -147h-41z" />
    <glyph glyph-name="Zdotaccent" unicode="&#x17b;" horiz-adv-x="591" 
d="M27 11l443 658h-407v46h485v-10l-437 -657h431v-48h-515v11zM296 787c-21 0 -38 17 -38 38c0 20 17 37 38 37s38 -17 38 -37c0 -21 -17 -38 -38 -38z" />
    <glyph glyph-name="zdotaccent" unicode="&#x17c;" horiz-adv-x="478" 
d="M24 9l340 469h-310v45h393v-10l-337 -466h330v-47h-416v9zM245 635c-21 0 -38 17 -38 38c0 20 17 37 38 37s38 -17 38 -37c0 -21 -17 -38 -38 -38z" />
    <glyph glyph-name="Zcaron" unicode="&#x17d;" horiz-adv-x="591" 
d="M27 11l443 658h-407v46h485v-10l-437 -657h431v-48h-515v11zM161 893h42l93 -77l94 77h41l-111 -122h-50z" />
    <glyph glyph-name="zcaron" unicode="&#x17e;" horiz-adv-x="478" 
d="M24 9l340 469h-310v45h393v-10l-337 -466h330v-47h-416v9zM111 748h42l92 -90l93 90h41l-110 -135h-50z" />
    <glyph glyph-name="uni0192" unicode="&#x192;" horiz-adv-x="384" 
d="M29 403h95l25 163c16 112 74 158 161 158c31 0 49 -4 68 -11v-46c-15 7 -36 12 -67 12c-60 0 -98 -35 -110 -115l-25 -161h145v-44h-151l-83 -541h-53l83 541h-88v44z" />
    <glyph glyph-name="Aringacute" unicode="&#x1fa;" horiz-adv-x="658" 
d="M290 715h74l257 -715h-56l-79 219h-322l-78 -219h-53zM180 264h290l-145 405zM326 781c35 0 61 28 61 64s-26 64 -61 64s-61 -28 -61 -64s26 -64 61 -64zM326 749c-52 0 -98 44 -98 96s46 95 98 95c54 0 98 -43 98 -95s-44 -96 -98 -96zM365 1091h66l-88 -122h-42z" />
    <glyph glyph-name="aringacute" unicode="&#x1fb;" horiz-adv-x="533" 
d="M221 -8c-104 0 -177 50 -177 149c0 121 116 158 245 158h109v47c0 99 -40 140 -132 140c-80 0 -135 -34 -147 -111h-52c11 109 103 156 201 156c108 0 183 -52 183 -185v-346h-53v80c-33 -51 -89 -88 -177 -88zM225 35c96 0 173 57 173 134v89h-107
c-109 0 -194 -23 -194 -117c0 -68 41 -106 128 -106zM269 623c35 0 61 27 61 63c0 37 -26 64 -61 64s-61 -27 -61 -64c0 -36 26 -63 61 -63zM269 591c-52 0 -98 43 -98 95s46 96 98 96c54 0 98 -44 98 -96s-44 -95 -98 -95zM311 951h66l-88 -122h-42z" />
    <glyph glyph-name="AEacute" unicode="&#x1fc;" horiz-adv-x="950" 
d="M392 715h491v-46h-355v-279h288v-46h-288v-298h373v-46h-429v220h-276l-110 -220h-57zM218 264h254v405h-51zM644 893h66l-88 -122h-42z" />
    <glyph glyph-name="aeacute" unicode="&#x1fd;" horiz-adv-x="901" 
d="M638 -8c-100 0 -173 50 -209 131c-35 -88 -111 -131 -208 -131c-104 0 -177 48 -177 148c0 123 115 159 243 159h113v46c0 99 -42 141 -134 141c-80 0 -135 -34 -147 -111h-52c11 109 104 156 201 156c87 0 148 -33 171 -114c39 72 106 114 193 114
c123 0 223 -82 223 -255v-18h-403c3 -141 64 -221 187 -221c85 0 142 36 159 109h53c-21 -100 -104 -154 -213 -154zM226 35c95 0 174 55 174 146v77h-112c-109 0 -191 -24 -191 -118c0 -68 41 -105 129 -105zM801 299c-5 129 -69 187 -169 187s-168 -72 -179 -187h348z
M493 752h65l-92 -147h-41z" />
    <glyph glyph-name="Oslashacute" unicode="&#x1fe;" horiz-adv-x="805" 
d="M41 5l97 107c-55 64 -85 148 -85 241v8c0 203 147 362 348 362c87 0 161 -29 221 -78l85 94l29 -30l-84 -92c61 -65 97 -154 97 -254v-8c0 -202 -146 -363 -346 -363c-95 0 -176 34 -236 90l-96 -106zM403 39c171 0 288 134 288 317v8c0 87 -26 160 -73 216l-417 -461
c52 -51 122 -80 202 -80zM110 354c0 -81 23 -150 63 -203l416 458c-48 43 -112 68 -188 68c-175 0 -291 -135 -291 -315v-8zM437 893h66l-88 -122h-42z" />
    <glyph glyph-name="oslashacute" unicode="&#x1ff;" horiz-adv-x="595" 
d="M31 0l72 80c-39 47 -60 106 -60 177v8c0 157 113 266 253 266c63 0 118 -21 162 -58l64 72l29 -25l-66 -73c39 -47 63 -108 63 -181v-8c0 -157 -112 -266 -253 -266c-64 0 -121 21 -165 60l-69 -77zM296 37c112 0 197 85 197 220v8c0 59 -15 107 -42 144l-289 -321
c36 -34 81 -51 134 -51zM98 257c0 -55 13 -102 39 -139l288 319c-35 33 -78 49 -129 49c-112 0 -198 -85 -198 -221v-8zM334 752h65l-92 -147h-41z" />
    <glyph glyph-name="uni0218" unicode="&#x218;" horiz-adv-x="602" 
d="M308 -8c-178 0 -250 97 -266 213h55c11 -90 64 -167 211 -167c112 0 185 65 185 153c0 100 -49 136 -192 157c-157 23 -231 75 -231 188c0 111 92 187 225 187s214 -65 230 -180h-51c-17 89 -72 134 -179 134c-111 0 -173 -50 -173 -137c0 -78 39 -121 188 -142
c160 -24 237 -70 237 -203c0 -112 -95 -203 -239 -203zM220 -188l58 147l51 -15l-75 -148z" />
    <glyph glyph-name="uni0219" unicode="&#x219;" horiz-adv-x="465" 
d="M239 -9c-124 0 -194 65 -201 165h51c9 -72 53 -120 150 -120c88 0 133 39 133 103c0 67 -38 87 -137 106c-128 24 -180 56 -180 146c0 88 84 140 172 140c93 0 169 -38 182 -142h-51c-13 68 -56 97 -132 97c-73 0 -122 -37 -122 -93c0 -59 36 -82 143 -101
c111 -21 176 -46 176 -149c0 -88 -64 -152 -184 -152zM161 -188l58 147l51 -15l-75 -148z" />
    <glyph glyph-name="uni021A" unicode="&#x21a;" horiz-adv-x="563" 
d="M252 669h-222v46h499v-46h-222v-669h-55v669zM207 -188l58 147l51 -15l-75 -148z" />
    <glyph glyph-name="uni021B" unicode="&#x21b;" horiz-adv-x="342" 
d="M230 -7c-84 0 -128 49 -128 133v352h-77v45h77v119h53v-119h137v-45h-137v-348c0 -64 30 -92 78 -92c27 0 47 4 66 11v-45c-17 -7 -37 -11 -69 -11zM112 -188l58 147l51 -15l-75 -148z" />
    <glyph glyph-name="uni0237" unicode="&#x237;" horiz-adv-x="225" 
d="M7 -143c60 5 77 35 77 91v575h53v-571c0 -92 -34 -136 -130 -140v45z" />
    <glyph glyph-name="circumflex" unicode="&#x2c6;" horiz-adv-x="404" 
d="M176 740h50l108 -135h-42l-92 90l-93 -90h-41z" />
    <glyph glyph-name="caron" unicode="&#x2c7;" horiz-adv-x="404" 
d="M66 748h42l92 -90l93 90h41l-110 -135h-50z" />
    <glyph glyph-name="breve" unicode="&#x2d8;" horiz-adv-x="404" 
d="M199 616c-68 0 -118 49 -122 121h44c5 -47 31 -77 78 -77s76 30 83 77h42c-4 -72 -57 -121 -125 -121z" />
    <glyph glyph-name="dotaccent" unicode="&#x2d9;" horiz-adv-x="404" 
d="M200 635c-21 0 -38 17 -38 38c0 20 17 37 38 37s38 -17 38 -37c0 -21 -17 -38 -38 -38z" />
    <glyph glyph-name="ring" unicode="&#x2da;" horiz-adv-x="404" 
d="M200 633c35 0 61 27 61 63c0 37 -26 64 -61 64s-61 -27 -61 -64c0 -36 26 -63 61 -63zM200 601c-52 0 -98 43 -98 95s46 96 98 96c54 0 98 -44 98 -96s-44 -95 -98 -95z" />
    <glyph glyph-name="ogonek" unicode="&#x2db;" horiz-adv-x="404" 
d="M217 -182c-59 0 -93 30 -93 75c0 47 36 84 79 107h48c-49 -32 -76 -62 -76 -98c0 -27 16 -44 49 -44c17 0 35 3 50 10v-39c-15 -7 -34 -11 -57 -11z" />
    <glyph glyph-name="tilde" unicode="&#x2dc;" horiz-adv-x="404" 
d="M264 616c-47 0 -89 53 -124 53c-21 0 -40 -20 -45 -53h-41c8 64 43 99 87 99c48 0 87 -53 123 -53c21 0 41 18 46 53h40c-8 -64 -43 -99 -86 -99z" />
    <glyph glyph-name="hungarumlaut" unicode="&#x2dd;" horiz-adv-x="404" 
d="M161 752h60l-69 -147h-40zM293 752h60l-69 -147h-40z" />
    <glyph glyph-name="uni037E" unicode="&#x37e;" horiz-adv-x="237" 
d="M23 -99l77 183l53 -24l-94 -177zM123 320c-23 0 -42 18 -42 42s19 42 42 42c24 0 43 -18 43 -42s-19 -42 -43 -42z" />
    <glyph glyph-name="tonos" unicode="&#x384;" horiz-adv-x="400" 
d="M243 752h65l-92 -147h-41z" />
    <glyph glyph-name="dieresistonos" unicode="&#x385;" horiz-adv-x="400" 
d="M208 785h61l-64 -147h-40zM309 636c-20 0 -37 17 -37 37s17 36 37 36s37 -16 37 -36s-17 -37 -37 -37zM91 636c-20 0 -37 17 -37 37s17 36 37 36s37 -16 37 -36s-17 -37 -37 -37z" />
    <glyph glyph-name="Alphatonos" unicode="&#x386;" horiz-adv-x="654" 
d="M290 715h74l257 -715h-56l-79 219h-322l-78 -219h-53zM180 264h290l-145 405zM93 715h65l-92 -147h-41z" />
    <glyph glyph-name="anoteleia" unicode="&#x387;" horiz-adv-x="229" 
d="M114 281c-23 0 -42 19 -42 43c0 23 19 42 42 42c24 0 43 -19 43 -42c0 -24 -19 -43 -43 -43z" />
    <glyph glyph-name="Epsilontonos" unicode="&#x388;" horiz-adv-x="566" 
d="M92 715h411v-46h-355v-279h288v-46h-288v-298h373v-46h-429v715zM-37 715h65l-92 -147h-41z" />
    <glyph glyph-name="Etatonos" unicode="&#x389;" horiz-adv-x="717" 
d="M92 715h56v-333h421v333h56v-715h-56v335h-421v-335h-56v715zM-37 715h65l-92 -147h-41z" />
    <glyph glyph-name="Iotatonos" unicode="&#x38a;" horiz-adv-x="251" 
d="M97 715h56v-715h-56v715zM-37 715h65l-92 -147h-41z" />
    <glyph glyph-name="Omicrontonos" unicode="&#x38c;" horiz-adv-x="801" 
d="M403 39c171 0 288 134 288 317v8c0 173 -114 313 -290 313c-175 0 -291 -135 -291 -315v-8c0 -182 128 -315 293 -315zM403 -8c-204 0 -350 161 -350 361v8c0 203 147 362 348 362c202 0 348 -159 348 -360v-8c0 -202 -146 -363 -346 -363zM29 715h65l-92 -147h-41z" />
    <glyph glyph-name="Upsilontonos" unicode="&#x38e;" horiz-adv-x="578" 
d="M268 318l-245 397h62l212 -350l202 350h56l-231 -398v-317h-56v318zM-72 715h65l-92 -147h-41z" />
    <glyph glyph-name="Omegatonos" unicode="&#x38f;" horiz-adv-x="805" 
d="M110 359c0 -160 83 -266 215 -333v-26h-270v44h174c-88 48 -176 156 -176 315v8c0 179 129 356 350 356c220 0 349 -175 349 -355v-8c0 -168 -90 -268 -175 -316h173v-44h-270v26c127 61 214 164 214 335v8c0 151 -99 308 -291 308s-293 -154 -293 -310v-8zM29 715h65
l-92 -147h-41z" />
    <glyph glyph-name="iotadieresistonos" unicode="&#x390;" horiz-adv-x="222" 
d="M84 523h54v-523h-54v523zM133 785h61l-64 -147h-40zM234 636c-20 0 -37 17 -37 37s17 36 37 36s37 -16 37 -36s-17 -37 -37 -37zM16 636c-20 0 -37 17 -37 37s17 36 37 36s37 -16 37 -36s-17 -37 -37 -37z" />
    <glyph glyph-name="Alpha" unicode="&#x391;" horiz-adv-x="654" 
d="M290 715h74l257 -715h-56l-79 219h-322l-78 -219h-53zM180 264h290l-145 405z" />
    <glyph glyph-name="Beta" unicode="&#x392;" 
d="M92 715h203c126 0 217 -51 217 -181v-4c0 -81 -41 -132 -122 -155c108 -20 157 -77 157 -174v-4c0 -131 -86 -197 -222 -197h-233v715zM324 45c113 0 169 52 169 152v4c0 99 -63 148 -188 148h-158v-304h177zM296 393c109 0 161 47 161 138v4c0 93 -58 135 -163 135h-147
v-277h149z" />
    <glyph glyph-name="Gamma" unicode="&#x393;" horiz-adv-x="526" 
d="M92 715h404v-46h-348v-669h-56v715z" />
    <glyph glyph-name="uni0394" unicode="&#x394;" horiz-adv-x="658" 
d="M37 11l253 704h79l252 -704v-11h-584v11zM102 48h451l-226 628z" />
    <glyph glyph-name="Epsilon" unicode="&#x395;" horiz-adv-x="566" 
d="M92 715h411v-46h-355v-279h288v-46h-288v-298h373v-46h-429v715z" />
    <glyph glyph-name="Zeta" unicode="&#x396;" horiz-adv-x="587" 
d="M27 11l443 658h-407v46h485v-10l-437 -657h431v-48h-515v11z" />
    <glyph glyph-name="Eta" unicode="&#x397;" horiz-adv-x="717" 
d="M92 715h56v-333h421v333h56v-715h-56v335h-421v-335h-56v715z" />
    <glyph glyph-name="Theta" unicode="&#x398;" horiz-adv-x="801" 
d="M404 -8c-205 0 -351 161 -351 361v8c0 203 146 362 349 362c201 0 347 -159 347 -360v-8c0 -202 -146 -363 -345 -363zM404 39c170 0 287 134 287 317v8c0 173 -115 313 -289 313c-176 0 -292 -135 -292 -315v-8c0 -182 127 -315 294 -315zM253 387h295v-48h-295v48z" />
    <glyph glyph-name="Iota" unicode="&#x399;" horiz-adv-x="251" 
d="M97 715h56v-715h-56v715z" />
    <glyph glyph-name="Kappa" unicode="&#x39a;" horiz-adv-x="599" 
d="M92 715h56v-352l347 353h64l-346 -349l363 -367h-68l-360 361v-361h-56v715z" />
    <glyph glyph-name="Lambda" unicode="&#x39b;" horiz-adv-x="643" 
d="M614 0h-55l-236 660l-235 -660h-52l256 715h66z" />
    <glyph glyph-name="Mu" unicode="&#x39c;" horiz-adv-x="851" 
d="M92 715h80l252 -614l253 614h78v-715h-55v645l-269 -645h-18l-269 645v-645h-52v715z" />
    <glyph glyph-name="Nu" unicode="&#x39d;" horiz-adv-x="714" 
d="M92 715h76l400 -638v638h53v-715h-66l-409 653v-653h-54v715z" />
    <glyph glyph-name="Xi" unicode="&#x39e;" horiz-adv-x="581" 
d="M527 715v-49h-474v49h474zM472 386v-48h-363v48h363zM45 49h490v-49h-490v49z" />
    <glyph glyph-name="Omicron" unicode="&#x39f;" horiz-adv-x="801" 
d="M403 39c171 0 288 134 288 317v8c0 173 -114 313 -290 313c-175 0 -291 -135 -291 -315v-8c0 -182 128 -315 293 -315zM403 -8c-204 0 -350 161 -350 361v8c0 203 147 362 348 362c202 0 348 -159 348 -360v-8c0 -202 -146 -363 -346 -363z" />
    <glyph glyph-name="Pi" unicode="&#x3a0;" horiz-adv-x="707" 
d="M92 715h523v-715h-56v668h-411v-668h-56v715z" />
    <glyph glyph-name="Rho" unicode="&#x3a1;" horiz-adv-x="568" 
d="M92 715h189c139 0 244 -56 244 -201v-4c0 -148 -104 -204 -243 -204h-134v-306h-56v715zM286 351c116 0 183 48 183 159v4c0 116 -73 155 -185 155h-136v-318h138z" />
    <glyph glyph-name="Sigma" unicode="&#x3a3;" horiz-adv-x="573" 
d="M61 666v49h449v-46h-385l236 -303l-236 -317h403v-49h-470v38l241 324z" />
    <glyph glyph-name="Tau" unicode="&#x3a4;" horiz-adv-x="559" 
d="M252 669h-222v46h499v-46h-222v-669h-55v669z" />
    <glyph glyph-name="Upsilon" unicode="&#x3a5;" horiz-adv-x="578" 
d="M268 318l-245 397h62l212 -350l202 350h56l-231 -398v-317h-56v318z" />
    <glyph glyph-name="Phi" unicode="&#x3a6;" horiz-adv-x="845" 
d="M396 52c-215 8 -343 146 -343 304v6c0 160 128 298 343 303v66h53v-66c215 -5 343 -142 343 -301v-6c0 -160 -127 -301 -343 -306v-68h-53v68zM110 356c0 -141 110 -248 286 -259v525c-187 -8 -286 -119 -286 -260v-6zM735 365c0 135 -99 249 -286 257v-525
c183 8 286 116 286 261v7z" />
    <glyph glyph-name="Chi" unicode="&#x3a7;" horiz-adv-x="646" 
d="M293 370l-226 345h61l200 -303l198 303h58l-228 -346l244 -369h-63l-217 328l-217 -328h-57z" />
    <glyph glyph-name="Psi" unicode="&#x3a8;" horiz-adv-x="758" 
d="M351 193c-188 5 -282 113 -282 269v253h56v-249c0 -141 73 -221 226 -228v477h54v-477c156 5 230 80 230 243v234h54v-245c0 -155 -82 -269 -284 -277v-193h-54v193z" />
    <glyph glyph-name="uni03A9" unicode="&#x3a9;" horiz-adv-x="805" 
d="M110 359c0 -160 83 -266 215 -333v-26h-270v44h174c-88 48 -176 156 -176 315v8c0 179 129 356 350 356c220 0 349 -175 349 -355v-8c0 -168 -90 -268 -175 -316h173v-44h-270v26c127 61 214 164 214 335v8c0 151 -99 308 -291 308s-293 -154 -293 -310v-8z" />
    <glyph glyph-name="Iotadieresis" unicode="&#x3aa;" horiz-adv-x="251" 
d="M97 715h56v-715h-56v715zM35 788c-21 0 -37 17 -37 37c0 19 16 36 37 36c20 0 36 -17 36 -36c0 -20 -16 -37 -36 -37zM215 788c-20 0 -36 17 -36 37c0 19 16 36 36 36s36 -17 36 -36c0 -20 -16 -37 -36 -37z" />
    <glyph glyph-name="Upsilondieresis" unicode="&#x3ab;" horiz-adv-x="578" 
d="M268 318l-245 397h62l212 -350l202 350h56l-231 -398v-317h-56v318zM207 788c-21 0 -37 17 -37 37c0 19 16 36 37 36c20 0 36 -17 36 -36c0 -20 -16 -37 -36 -37zM387 788c-20 0 -36 17 -36 37c0 19 16 36 36 36s36 -17 36 -36c0 -20 -16 -37 -36 -37z" />
    <glyph glyph-name="alphatonos" unicode="&#x3ac;" horiz-adv-x="602" 
d="M279 37c100 0 189 77 189 221v8c0 144 -78 220 -182 220c-105 0 -188 -82 -188 -222v-8c0 -143 82 -219 181 -219zM274 -8c-124 0 -231 96 -231 262v8c0 161 108 269 239 269c97 0 155 -58 184 -122v114h54v-523h-54v120c-27 -62 -99 -128 -192 -128zM346 752h65
l-92 -147h-41z" />
    <glyph glyph-name="epsilontonos" unicode="&#x3ad;" horiz-adv-x="541" 
d="M161 271c-60 9 -102 54 -102 111c0 77 58 149 213 149s209 -59 222 -142h-53c-10 55 -44 97 -168 97c-113 0 -160 -38 -160 -106c0 -44 37 -88 111 -88h116v-44h-118c-84 0 -122 -45 -122 -105c0 -75 65 -106 168 -106c110 0 171 37 182 112h51
c-15 -105 -103 -157 -232 -157c-143 0 -223 54 -223 150c0 68 47 116 115 129zM325 752h65l-92 -147h-41z" />
    <glyph glyph-name="etatonos" unicode="&#x3ae;" horiz-adv-x="583" 
d="M82 523h53v-102c24 57 91 110 185 110c111 0 186 -60 186 -209v-504h-53v507c0 112 -52 160 -145 160c-87 0 -173 -59 -173 -168v-317h-53v523zM331 752h65l-92 -147h-41z" />
    <glyph glyph-name="iotatonos" unicode="&#x3af;" horiz-adv-x="222" 
d="M84 523h54v-523h-54v523zM157 752h65l-92 -147h-41z" />
    <glyph glyph-name="upsilondieresistonos" unicode="&#x3b0;" horiz-adv-x="569" 
d="M284 -8c-111 0 -209 70 -209 214v317h53v-315c0 -113 62 -170 157 -170c96 0 156 56 156 169v316h54v-319c0 -144 -99 -212 -211 -212zM297 785h61l-64 -147h-40zM398 636c-20 0 -37 17 -37 37s17 36 37 36s37 -16 37 -36s-17 -37 -37 -37zM180 636c-20 0 -37 17 -37 37
s17 36 37 36s37 -16 37 -36s-17 -37 -37 -37z" />
    <glyph glyph-name="alpha" unicode="&#x3b1;" horiz-adv-x="602" 
d="M279 37c100 0 189 77 189 221v8c0 144 -78 220 -182 220c-105 0 -188 -82 -188 -222v-8c0 -143 82 -219 181 -219zM274 -8c-124 0 -231 96 -231 262v8c0 161 108 269 239 269c97 0 155 -58 184 -122v114h54v-523h-54v120c-27 -62 -99 -128 -192 -128z" />
    <glyph glyph-name="beta" unicode="&#x3b2;" horiz-adv-x="590" 
d="M279 433c120 -5 181 73 181 152v4c0 87 -58 143 -158 143c-108 0 -166 -69 -166 -177v-330c0 -117 93 -188 181 -188c97 0 177 58 177 175v7c0 112 -79 172 -215 168v46zM372 413c91 -13 177 -77 177 -192v-8c0 -141 -106 -221 -229 -221c-80 0 -152 47 -184 114v-288
h-54v735c0 135 82 223 221 223c132 0 211 -78 211 -185v-4c0 -83 -62 -155 -142 -174z" />
    <glyph glyph-name="gamma" unicode="&#x3b3;" horiz-adv-x="536" 
d="M458 523h55l-217 -516v-189h-53v189l-219 516h57l189 -450z" />
    <glyph glyph-name="delta" unicode="&#x3b4;" horiz-adv-x="586" 
d="M107 773h392v-45h-311l251 -259c56 -59 104 -121 104 -215v-7c0 -146 -108 -255 -251 -255c-141 0 -249 110 -249 254v6c0 125 102 244 235 244c23 0 54 -3 81 -14l-252 259v32zM488 253c0 112 -79 200 -195 200s-195 -90 -195 -201v-6c0 -117 78 -209 195 -209
c114 0 195 87 195 210v6z" />
    <glyph glyph-name="epsilon" unicode="&#x3b5;" horiz-adv-x="541" 
d="M161 271c-60 9 -102 54 -102 111c0 77 58 149 213 149s209 -59 222 -142h-53c-10 55 -44 97 -168 97c-113 0 -160 -38 -160 -106c0 -44 37 -88 111 -88h116v-44h-118c-84 0 -122 -45 -122 -105c0 -75 65 -106 168 -106c110 0 171 37 182 112h51
c-15 -105 -103 -157 -232 -157c-143 0 -223 54 -223 150c0 68 47 116 115 129z" />
    <glyph glyph-name="zeta" unicode="&#x3b6;" horiz-adv-x="485" 
d="M268 0c-128 0 -225 80 -225 208c0 199 186 394 327 519h-295v46h396v-15c-229 -200 -373 -374 -373 -547c0 -108 74 -164 170 -164h81c85 0 123 -34 123 -93c0 -39 -9 -76 -20 -108h-49c9 31 17 67 17 98c0 39 -21 56 -72 56h-80z" />
    <glyph glyph-name="eta" unicode="&#x3b7;" horiz-adv-x="583" 
d="M82 523h53v-102c24 57 91 110 185 110c111 0 186 -60 186 -209v-504h-53v507c0 112 -52 160 -145 160c-87 0 -173 -59 -173 -168v-317h-53v523z" />
    <glyph glyph-name="theta" unicode="&#x3b8;" 
d="M542 361c0 -240 -87 -369 -240 -369c-152 0 -239 127 -239 367v51c0 239 87 366 238 366c149 0 241 -126 241 -365v-50zM301 731c-119 0 -184 -108 -184 -311v-4h370v4c-3 205 -69 311 -186 311zM302 37c121 0 184 110 185 322v11h-370v-12c1 -211 64 -321 185 -321z" />
    <glyph glyph-name="iota" unicode="&#x3b9;" horiz-adv-x="222" 
d="M84 523h54v-523h-54v523z" />
    <glyph glyph-name="kappa" unicode="&#x3ba;" horiz-adv-x="490" 
d="M136 266l266 257h63l-267 -255l276 -268h-65l-273 264v-264h-54v523h54v-257z" />
    <glyph glyph-name="lambda" unicode="&#x3bb;" horiz-adv-x="531" 
d="M171 679c-13 36 -31 52 -63 52c-17 0 -40 -6 -57 -11v45c19 7 44 11 67 11c51 0 80 -27 100 -83l218 -597c12 -31 29 -55 58 -55c11 0 26 3 35 6v-45c-11 -3 -26 -6 -41 -6c-46 0 -79 27 -98 80l-135 381l-175 -457h-55l203 521z" />
    <glyph glyph-name="uni03BC" unicode="&#x3bc;" horiz-adv-x="584" 
d="M83 523h53v-337c0 -105 58 -148 147 -148c85 0 166 57 166 167v318h53v-523h-53v100c-24 -57 -84 -106 -173 -106c-60 0 -113 20 -140 77v-253h-53v705z" />
    <glyph glyph-name="nu" unicode="&#x3bd;" horiz-adv-x="518" 
d="M25 523h58l178 -470l177 470h54l-197 -523h-69z" />
    <glyph glyph-name="xi" unicode="&#x3be;" horiz-adv-x="506" 
d="M359 47c87 0 124 -34 124 -93c0 -39 -11 -76 -20 -108h-50c9 31 17 67 17 98c0 39 -21 56 -72 56h-67c-144 0 -248 77 -248 209c0 118 79 190 169 211c-73 24 -115 79 -115 151c0 70 46 136 131 157h-174v45h417v-45h-118c-111 0 -201 -57 -201 -156
c0 -69 54 -132 152 -132h122v-46h-129c-122 0 -199 -78 -199 -185c0 -105 78 -162 194 -162h67z" />
    <glyph glyph-name="omicron" unicode="&#x3bf;" horiz-adv-x="591" 
d="M296 37c112 0 197 85 197 220v8c0 139 -85 221 -197 221s-198 -85 -198 -221v-8c0 -134 84 -220 198 -220zM295 -8c-141 0 -252 110 -252 265v8c0 157 113 266 253 266c141 0 252 -106 252 -265v-8c0 -157 -112 -266 -253 -266z" />
    <glyph glyph-name="pi" unicode="&#x3c0;" horiz-adv-x="588" 
d="M433 478h-278v-478h-53v478h-77v45h538v-45h-77v-478h-53v478z" />
    <glyph glyph-name="rho" unicode="&#x3c1;" horiz-adv-x="592" 
d="M309 37c111 0 185 85 185 220v7c0 138 -78 222 -189 222c-112 0 -191 -85 -191 -221v-8c0 -139 84 -220 195 -220zM310 -8c-97 0 -165 60 -194 127v-301h-54v449c0 157 102 264 243 264c140 0 244 -107 244 -265v-8c0 -164 -101 -266 -239 -266z" />
    <glyph glyph-name="uni03C2" unicode="&#x3c2;" horiz-adv-x="556" 
d="M98 256c0 -120 66 -209 197 -209h49c87 0 124 -34 124 -93c0 -39 -9 -76 -20 -108h-49c8 31 16 67 16 98c0 39 -21 56 -72 56h-49c-148 0 -251 99 -251 256v8c0 160 111 267 250 267c106 0 205 -56 218 -174h-52c-13 88 -83 129 -166 129c-109 0 -195 -84 -195 -222v-8z
" />
    <glyph glyph-name="sigma" unicode="&#x3c3;" horiz-adv-x="607" 
d="M295 -8c-141 0 -252 110 -252 265v8c0 155 107 258 254 258h280v-45h-164c79 -31 135 -105 135 -212v-8c0 -157 -112 -266 -253 -266zM296 37c112 0 197 86 197 220v8c0 136 -83 213 -196 213c-115 0 -199 -80 -199 -213v-8c0 -134 84 -220 198 -220z" />
    <glyph glyph-name="tau" unicode="&#x3c4;" horiz-adv-x="462" 
d="M328 -7c-91 0 -131 62 -131 146v339h-172v45h408v-45h-183v-340c0 -67 27 -100 81 -100c27 0 59 4 78 11v-45c-17 -7 -48 -11 -81 -11z" />
    <glyph glyph-name="upsilon" unicode="&#x3c5;" horiz-adv-x="569" 
d="M284 -8c-111 0 -209 70 -209 214v317h53v-315c0 -113 62 -170 157 -170c96 0 156 56 156 169v316h54v-319c0 -144 -99 -212 -211 -212z" />
    <glyph glyph-name="phi" unicode="&#x3c6;" horiz-adv-x="737" 
d="M694 265c0 -171 -127 -268 -300 -271v-176h-53v176c-189 8 -298 112 -298 261v8c0 150 90 244 204 265v-44c-88 -25 -149 -96 -149 -221v-8c0 -125 82 -209 243 -217v491c11 1 30 2 41 2c212 0 312 -113 312 -258v-8zM639 272c0 129 -82 213 -245 214v-448
c156 5 245 85 245 226v8z" />
    <glyph glyph-name="chi" unicode="&#x3c7;" horiz-adv-x="531" 
d="M243 179l-143 272c-15 27 -27 33 -44 33c-10 0 -21 -3 -34 -8v45c12 4 28 7 43 7c35 0 56 -11 79 -54l131 -247l161 296h58l-193 -347l141 -265c17 -32 30 -51 57 -51c9 0 23 3 32 6v-46c-11 -3 -26 -6 -39 -6c-43 0 -70 27 -97 78l-126 238l-172 -312h-57z" />
    <glyph glyph-name="psi" unicode="&#x3c8;" horiz-adv-x="727" 
d="M123 246c0 -108 58 -194 214 -205v482h53v-482c152 11 214 97 214 204v278h53v-277c0 -133 -84 -237 -267 -248v-180h-53v180c-190 11 -268 117 -268 252v273h54v-277z" />
    <glyph glyph-name="omega" unicode="&#x3c9;" horiz-adv-x="745" 
d="M399 173c0 -88 52 -136 116 -136c88 0 131 77 131 198v7c0 112 -31 225 -162 244v45c160 -16 217 -143 217 -289v-8c0 -138 -65 -242 -180 -242c-81 0 -130 45 -149 110c-17 -63 -64 -110 -148 -110c-116 0 -181 103 -181 243v8c0 146 62 272 217 288v-45
c-128 -19 -162 -131 -162 -243v-8c0 -123 44 -198 132 -198c64 0 115 48 115 136v178h54v-178z" />
    <glyph glyph-name="iotadieresis" unicode="&#x3ca;" horiz-adv-x="222" 
d="M84 523h54v-523h-54v523zM29 636c-21 0 -37 17 -37 37s16 36 37 36c20 0 36 -16 36 -36s-16 -37 -36 -37zM195 636c-20 0 -36 17 -36 37s16 36 36 36c21 0 37 -16 37 -36s-16 -37 -37 -37z" />
    <glyph glyph-name="upsilondieresis" unicode="&#x3cb;" horiz-adv-x="569" 
d="M284 -8c-111 0 -209 70 -209 214v317h53v-315c0 -113 62 -170 157 -170c96 0 156 56 156 169v316h54v-319c0 -144 -99 -212 -211 -212zM201 636c-21 0 -37 17 -37 37s16 36 37 36c20 0 36 -16 36 -36s-16 -37 -36 -37zM367 636c-20 0 -36 17 -36 37s16 36 36 36
c21 0 37 -16 37 -36s-16 -37 -37 -37z" />
    <glyph glyph-name="omicrontonos" unicode="&#x3cc;" horiz-adv-x="591" 
d="M296 37c112 0 197 85 197 220v8c0 139 -85 221 -197 221s-198 -85 -198 -221v-8c0 -134 84 -220 198 -220zM295 -8c-141 0 -252 110 -252 265v8c0 157 113 266 253 266c141 0 252 -106 252 -265v-8c0 -157 -112 -266 -253 -266zM343 752h65l-92 -147h-41z" />
    <glyph glyph-name="upsilontonos" unicode="&#x3cd;" horiz-adv-x="569" 
d="M284 -8c-111 0 -209 70 -209 214v317h53v-315c0 -113 62 -170 157 -170c96 0 156 56 156 169v316h54v-319c0 -144 -99 -212 -211 -212zM327 752h65l-92 -147h-41z" />
    <glyph glyph-name="omegatonos" unicode="&#x3ce;" horiz-adv-x="745" 
d="M421 752h65l-92 -147h-41zM399 173c0 -88 52 -136 116 -136c88 0 131 77 131 198v7c0 112 -31 225 -162 244v45c160 -16 217 -143 217 -289v-8c0 -138 -65 -242 -180 -242c-81 0 -130 45 -149 110c-17 -63 -64 -110 -148 -110c-116 0 -181 103 -181 243v8
c0 146 62 272 217 288v-45c-128 -19 -162 -131 -162 -243v-8c0 -123 44 -198 132 -198c64 0 115 48 115 136v178h54v-178z" />
    <glyph glyph-name="uni0401" unicode="&#x401;" horiz-adv-x="566" 
d="M92 715h411v-46h-355v-279h288v-46h-288v-298h373v-46h-429v715zM209 788c-21 0 -37 17 -37 37c0 19 16 36 37 36c20 0 36 -17 36 -36c0 -20 -16 -37 -36 -37zM389 788c-20 0 -36 17 -36 37c0 19 16 36 36 36s36 -17 36 -36c0 -20 -16 -37 -36 -37z" />
    <glyph glyph-name="uni0402" unicode="&#x402;" horiz-adv-x="765" 
d="M307 354c19 17 69 80 189 80c144 0 217 -85 217 -225c0 -144 -73 -216 -174 -216c-47 0 -73 11 -90 20v47c23 -11 47 -21 84 -21c79 0 126 57 126 169c0 113 -50 181 -169 181c-116 0 -164 -76 -183 -95v-294h-55v669h-222v46h514v-46h-237v-315z" />
    <glyph glyph-name="uni0403" unicode="&#x403;" horiz-adv-x="527" 
d="M92 715h397v-48h-341v-667h-56v715zM332 893h66l-88 -122h-42z" />
    <glyph glyph-name="uni0404" unicode="&#x404;" horiz-adv-x="725" 
d="M682 230c-27 -155 -142 -238 -297 -238c-204 0 -332 145 -332 361v8c0 211 145 363 332 363c147 0 268 -77 289 -224h-56c-23 116 -99 179 -232 179c-152 0 -267 -117 -275 -292h383v-46h-383c3 -185 110 -302 275 -302c129 0 221 67 244 191h52z" />
    <glyph glyph-name="uni0405" unicode="&#x405;" horiz-adv-x="602" 
d="M308 -8c-178 0 -250 97 -266 213h55c11 -90 64 -167 211 -167c112 0 185 65 185 153c0 100 -49 136 -192 157c-157 23 -231 75 -231 188c0 111 92 187 225 187s214 -65 230 -180h-51c-17 89 -72 134 -179 134c-111 0 -173 -50 -173 -137c0 -78 39 -121 188 -142
c160 -24 237 -70 237 -203c0 -112 -95 -203 -239 -203z" />
    <glyph glyph-name="uni0406" unicode="&#x406;" horiz-adv-x="250" 
d="M97 715h56v-715h-56v715z" />
    <glyph glyph-name="uni0407" unicode="&#x407;" horiz-adv-x="250" 
d="M97 715h56v-715h-56v715zM35 788c-21 0 -37 17 -37 37c0 19 16 36 37 36c20 0 36 -17 36 -36c0 -20 -16 -37 -36 -37zM215 788c-20 0 -36 17 -36 37c0 19 16 36 36 36s36 -17 36 -36c0 -20 -16 -37 -36 -37z" />
    <glyph glyph-name="uni0408" unicode="&#x408;" horiz-adv-x="401" 
d="M137 -7c-51 0 -81 11 -100 20v47c25 -11 54 -21 97 -21c80 0 129 40 129 144v532h56v-534c0 -132 -78 -188 -182 -188z" />
    <glyph glyph-name="uni0409" unicode="&#x409;" horiz-adv-x="994" 
d="M524 668h-295c0 -78 -5 -258 -16 -418c-11 -157 -40 -257 -148 -257c-15 0 -24 1 -31 4c-4 1 -7 3 -10 5v54l11 -4c7 -2 16 -3 29 -3c64 0 86 65 97 208c7 101 11 216 14 305c1 52 2 103 2 153h402v-301h132c140 0 243 -60 243 -199v-4c0 -139 -98 -211 -230 -211h-200
v668zM727 46c108 0 171 58 171 165v4c0 100 -64 154 -184 154h-135v-323h148z" />
    <glyph glyph-name="uni040A" unicode="&#x40a;" horiz-adv-x="1024" 
d="M757 46c109 0 172 55 172 162v4c0 101 -65 157 -184 157h-136v-323h148zM554 335h-406v-335h-56v715h56v-333h406v333h55v-301h132c140 0 244 -63 244 -202v-4c0 -139 -99 -208 -231 -208h-200v335z" />
    <glyph glyph-name="uni040B" unicode="&#x40b;" horiz-adv-x="779" 
d="M307 355c11 14 25 27 42 39c29 20 74 40 141 40c151 0 214 -81 214 -253v-181h-56v186c0 136 -39 203 -163 203c-65 0 -109 -23 -137 -46c-17 -13 -30 -28 -41 -45v-298h-55v669h-222v46h514v-46h-237v-314z" />
    <glyph glyph-name="uni040C" unicode="&#x40c;" horiz-adv-x="599" 
d="M339 893h66l-88 -122h-42zM92 715h56v-352l347 353h64l-346 -349l363 -367h-68l-360 361v-361h-56v715z" />
    <glyph glyph-name="uni040D" unicode="&#x40d;" horiz-adv-x="727" 
d="M92 0v715h56v-637l432 637h55v-715h-56v637l-431 -637h-56zM266 893h66l64 -122h-42z" />
    <glyph glyph-name="uni040E" unicode="&#x40e;" horiz-adv-x="576" 
d="M302 771c-68 0 -121 52 -126 122h47c4 -47 32 -85 79 -85c48 0 79 38 83 85h46c-5 -70 -60 -122 -129 -122zM136 -7c-16 0 -27 1 -35 4c-5 1 -8 3 -11 5l1 51c3 -1 6 -3 11 -4c7 -2 18 -3 33 -3c60 0 96 36 131 109l-240 560h58l211 -495l211 495h53l-237 -549
c-43 -98 -86 -173 -186 -173z" />
    <glyph glyph-name="uni040F" unicode="&#x40f;" horiz-adv-x="707" 
d="M92 0v715h56v-668h411v668h56v-715h-236l-2 -130h-46l-2 130h-237z" />
    <glyph glyph-name="uni0410" unicode="&#x410;" horiz-adv-x="654" 
d="M290 715h74l257 -715h-56l-79 219h-322l-78 -219h-53zM180 264h290l-145 405z" />
    <glyph glyph-name="uni0411" unicode="&#x411;" 
d="M547 205c0 -132 -85 -205 -222 -205h-233v715h404v-46h-349v-261h165c144 0 235 -66 235 -199v-4zM324 45c113 0 169 60 169 160v4c0 99 -62 154 -186 154h-160v-318h177z" />
    <glyph glyph-name="uni0412" unicode="&#x412;" 
d="M92 715h203c126 0 217 -51 217 -181v-4c0 -81 -41 -132 -122 -155c108 -20 157 -77 157 -174v-4c0 -131 -86 -197 -222 -197h-233v715zM324 45c113 0 169 52 169 152v4c0 99 -63 148 -188 148h-158v-304h177zM296 393c109 0 161 47 161 138v4c0 93 -58 135 -163 135h-147
v-277h149z" />
    <glyph glyph-name="uni0413" unicode="&#x413;" horiz-adv-x="527" 
d="M92 715h397v-48h-341v-667h-56v715z" />
    <glyph glyph-name="uni0414" unicode="&#x414;" horiz-adv-x="694" 
d="M191 268c-9 -104 -24 -184 -61 -221h399v622h-315c-3 -49 -10 -242 -23 -401zM56 -130h-46v177h49c51 19 69 103 81 228c9 103 15 211 19 296c3 49 4 97 5 144h420v-668h89v-177h-46l-4 130h-563z" />
    <glyph glyph-name="uni0415" unicode="&#x415;" horiz-adv-x="566" 
d="M92 715h411v-46h-355v-279h288v-46h-288v-298h373v-46h-429v715z" />
    <glyph glyph-name="uni0416" unicode="&#x416;" horiz-adv-x="869" 
d="M407 715h54v-715h-54v715zM780 0l-318 362l306 353h62l-307 -348l323 -367h-66zM23 0l322 364l-309 351h63l306 -353l-318 -362h-64z" />
    <glyph glyph-name="uni0417" unicode="&#x417;" horiz-adv-x="587" 
d="M288 -8c-161 0 -231 97 -247 213h54c13 -90 62 -167 193 -167c123 0 187 64 187 165c0 100 -55 146 -188 146h-93v43h93c107 0 158 57 158 144c0 91 -56 141 -156 141s-151 -45 -168 -134h-51c16 115 91 180 223 180c123 0 207 -68 207 -187c0 -83 -49 -143 -129 -163
c105 -15 160 -74 160 -170c0 -127 -97 -211 -243 -211z" />
    <glyph glyph-name="uni0418" unicode="&#x418;" horiz-adv-x="727" 
d="M92 0v715h56v-637l432 637h55v-715h-56v637l-431 -637h-56z" />
    <glyph glyph-name="uni0419" unicode="&#x419;" horiz-adv-x="727" 
d="M369 771c-67 0 -123 52 -126 122h47c3 -47 31 -85 79 -85s78 38 83 85h46c-5 -70 -62 -122 -129 -122zM92 0v715h56v-637l432 637h55v-715h-56v637l-431 -637h-56z" />
    <glyph glyph-name="uni041A" unicode="&#x41a;" horiz-adv-x="599" 
d="M92 715h56v-352l347 353h64l-346 -349l363 -367h-68l-360 361v-361h-56v715z" />
    <glyph glyph-name="uni041B" unicode="&#x41b;" horiz-adv-x="682" 
d="M213 250c-11 -157 -40 -257 -148 -257c-15 0 -24 1 -31 4c-4 1 -7 3 -10 5v54l11 -4c7 -2 16 -3 29 -3c64 0 86 65 97 208c7 101 11 216 14 305c1 52 2 103 2 153h412v-715h-55v668h-305c0 -78 -5 -258 -16 -418z" />
    <glyph glyph-name="uni041C" unicode="&#x41c;" horiz-adv-x="851" 
d="M92 715h80l252 -614l253 614h78v-715h-55v645l-269 -645h-18l-269 645v-645h-52v715z" />
    <glyph glyph-name="uni041D" unicode="&#x41d;" horiz-adv-x="717" 
d="M92 715h56v-333h421v333h56v-715h-56v335h-421v-335h-56v715z" />
    <glyph glyph-name="uni041E" unicode="&#x41e;" horiz-adv-x="801" 
d="M403 39c171 0 288 134 288 317v8c0 173 -114 313 -290 313c-175 0 -291 -135 -291 -315v-8c0 -182 128 -315 293 -315zM403 -8c-204 0 -350 161 -350 361v8c0 203 147 362 348 362c202 0 348 -159 348 -360v-8c0 -202 -146 -363 -346 -363z" />
    <glyph glyph-name="uni041F" unicode="&#x41f;" horiz-adv-x="707" 
d="M559 668h-411v-668h-56v715h523v-715h-56v668z" />
    <glyph glyph-name="uni0420" unicode="&#x420;" horiz-adv-x="568" 
d="M92 715h189c139 0 244 -56 244 -201v-4c0 -148 -104 -204 -243 -204h-134v-306h-56v715zM286 351c116 0 183 48 183 159v4c0 116 -73 155 -185 155h-136v-318h138z" />
    <glyph glyph-name="uni0421" unicode="&#x421;" horiz-adv-x="725" 
d="M385 -8c-204 0 -332 145 -332 361v8c0 211 145 363 332 363c147 0 268 -77 289 -224h-56c-23 116 -99 179 -232 179c-160 0 -276 -128 -276 -317v-8c0 -193 105 -315 276 -315c129 0 221 67 244 191h52c-27 -155 -142 -238 -297 -238z" />
    <glyph glyph-name="uni0422" unicode="&#x422;" horiz-adv-x="559" 
d="M252 669h-222v46h499v-46h-222v-669h-55v669z" />
    <glyph glyph-name="uni0423" unicode="&#x423;" horiz-adv-x="576" 
d="M136 -7c-16 0 -27 1 -35 4c-5 1 -8 3 -11 5l1 51c3 -1 6 -3 11 -4c7 -2 18 -3 33 -3c60 0 96 36 131 109l-240 560h58l211 -495l211 495h53l-237 -549c-43 -98 -86 -173 -186 -173z" />
    <glyph glyph-name="uni0424" unicode="&#x424;" horiz-adv-x="790" 
d="M422 628c189 -3 321 -84 321 -264v-8c-3 -181 -137 -263 -321 -266v-100h-54v100c-189 3 -321 84 -321 263v7c0 181 135 265 321 268v97h54v-97zM422 133c156 3 261 63 264 224v8c0 153 -103 218 -264 221v-453zM368 585c-156 -3 -264 -63 -264 -226v-6
c0 -153 103 -218 264 -221v453z" />
    <glyph glyph-name="uni0425" unicode="&#x425;" horiz-adv-x="646" 
d="M293 370l-226 345h61l200 -303l198 303h58l-228 -346l244 -369h-63l-217 328l-217 -328h-57z" />
    <glyph glyph-name="uni0426" unicode="&#x426;" horiz-adv-x="725" 
d="M658 -130l-4 130h-562v715h56v-668h411v668h56v-668h89v-177h-46z" />
    <glyph glyph-name="uni0427" unicode="&#x427;" horiz-adv-x="649" 
d="M501 0v368c-10 -15 -81 -81 -212 -81c-144 0 -225 82 -225 251v177h56v-181c0 -135 57 -202 172 -202c153 0 203 89 209 95v288h56v-715h-56z" />
    <glyph glyph-name="uni0428" unicode="&#x428;" horiz-adv-x="974" 
d="M92 715h56v-668h311v668h56v-668h311v668h56v-715h-790v715z" />
    <glyph glyph-name="uni0429" unicode="&#x429;" horiz-adv-x="992" 
d="M925 -130l-4 130h-829v715h56v-668h311v668h56v-668h311v668h56v-668h89v-177h-46z" />
    <glyph glyph-name="uni042A" unicode="&#x42a;" horiz-adv-x="709" 
d="M229 668h-199v47h254v-301h142c140 0 243 -63 243 -202v-4c0 -139 -98 -208 -230 -208h-210v668zM442 46c108 0 172 55 172 162v4c0 101 -65 157 -185 157h-145v-323h158z" />
    <glyph glyph-name="uni042B" unicode="&#x42b;" horiz-adv-x="779" 
d="M686 0h-55v715h55v-715zM92 715h56v-301h134c140 0 244 -63 244 -202v-4c0 -139 -99 -208 -231 -208h-203v715zM298 46c109 0 172 55 172 162v4c0 101 -65 157 -184 157h-138v-323h150z" />
    <glyph glyph-name="uni042C" unicode="&#x42c;" horiz-adv-x="573" 
d="M92 715h56v-301h142c139 0 243 -63 243 -202v-4c0 -139 -98 -208 -231 -208h-210v715zM305 46c109 0 172 55 172 162v4c0 101 -64 157 -184 157h-145v-323h157z" />
    <glyph glyph-name="uni042D" unicode="&#x42d;" horiz-adv-x="723" 
d="M339 -8c-149 0 -274 78 -295 224h55c23 -116 106 -179 239 -179c157 0 269 123 274 304h-379v46h379c-8 178 -105 291 -268 291c-129 0 -218 -68 -243 -192h-52c29 156 141 238 297 238c203 0 324 -145 324 -361v-8c0 -211 -144 -363 -331 -363z" />
    <glyph glyph-name="uni042E" unicode="&#x42e;" horiz-adv-x="1015" 
d="M627 -8c-196 0 -332 151 -340 343h-139v-335h-56v715h56v-333h139c8 193 143 341 338 341c202 0 337 -159 337 -360v-8c0 -202 -135 -363 -335 -363zM627 39c171 0 278 134 278 317v8c0 173 -104 313 -280 313c-175 0 -281 -135 -281 -315v-8c0 -182 115 -315 283 -315z
" />
    <glyph glyph-name="uni042F" unicode="&#x42f;" horiz-adv-x="612" 
d="M307 669c-109 0 -172 -43 -172 -151v-4c0 -100 65 -155 184 -155h146v310h-158zM520 0h-55v314h-137c-7 0 -12 0 -15 1l-223 -315h-63l228 319c-105 19 -176 80 -176 195v4c0 140 99 197 231 197h210v-715z" />
    <glyph glyph-name="uni0430" unicode="&#x430;" horiz-adv-x="529" 
d="M221 -8c-104 0 -177 50 -177 149c0 121 116 158 245 158h109v47c0 99 -40 140 -132 140c-80 0 -135 -34 -147 -111h-52c11 109 103 156 201 156c108 0 183 -52 183 -185v-346h-53v80c-33 -51 -89 -88 -177 -88zM225 35c96 0 173 57 173 134v89h-107
c-109 0 -194 -23 -194 -117c0 -68 41 -106 128 -106z" />
    <glyph glyph-name="uni0431" unicode="&#x431;" horiz-adv-x="601" 
d="M304 -8c-142 0 -251 102 -251 294v62c0 235 60 412 288 420l35 1c80 3 119 9 144 18v-46c-23 -9 -59 -16 -142 -20l-34 -1c-180 -8 -241 -122 -249 -339h3c33 92 117 150 222 150c139 0 237 -107 237 -263v-6c0 -165 -112 -270 -253 -270zM305 37c112 0 198 83 198 224v5
c0 140 -76 220 -188 220c-115 0 -208 -81 -208 -221v-2c0 -140 85 -226 198 -226z" />
    <glyph glyph-name="uni0432" unicode="&#x432;" horiz-adv-x="514" 
d="M83 523h187c95 0 169 -37 169 -132v-3c0 -57 -32 -98 -92 -113c73 -12 118 -51 118 -123v-3c0 -100 -65 -149 -178 -149h-204v523zM136 480v-187h134c75 0 113 31 113 93v3c0 65 -42 91 -114 91h-133zM136 250v-207h146c85 0 127 34 127 103v3c0 69 -46 101 -131 101
h-142z" />
    <glyph glyph-name="uni0433" unicode="&#x433;" horiz-adv-x="442" 
d="M136 478v-478h-53v523h332v-45h-279z" />
    <glyph glyph-name="uni0434" unicode="&#x434;" horiz-adv-x="570" 
d="M168 233c-11 -95 -21 -157 -50 -188h301v434h-233c-3 -56 -10 -171 -18 -246zM58 -127h-43v172h35c48 13 58 89 69 193c7 52 10 123 14 182l6 103h332v-478h75v-172h-43l-4 127h-437z" />
    <glyph glyph-name="uni0435" unicode="&#x435;" horiz-adv-x="554" 
d="M291 -8c-151 0 -248 107 -248 264v8c0 157 100 267 240 267c126 0 229 -82 229 -255v-19h-414c3 -141 68 -220 193 -220c88 0 145 36 164 109h53c-23 -100 -104 -154 -217 -154zM457 300c-5 128 -71 186 -174 186c-102 0 -172 -71 -183 -186h357z" />
    <glyph glyph-name="uni0436" unicode="&#x436;" horiz-adv-x="678" 
d="M313 523h52v-523h-52v523zM599 0l-233 273l218 250h59l-222 -247l239 -276h-61zM18 0l239 276l-222 247h58l219 -250l-233 -273h-61z" />
    <glyph glyph-name="uni0437" unicode="&#x437;" horiz-adv-x="481" 
d="M406 392c0 -59 -34 -106 -93 -117c72 -9 118 -51 118 -123v-5c0 -88 -72 -156 -189 -156c-121 0 -191 62 -200 159h52c11 -68 53 -114 148 -114c88 0 134 45 134 108v5c0 67 -43 101 -130 101h-86v43h79c74 0 111 32 111 97v3c0 57 -37 93 -112 93
c-71 0 -115 -36 -127 -105h-51c11 103 89 150 181 150c94 0 165 -49 165 -136v-3z" />
    <glyph glyph-name="uni0438" unicode="&#x438;" horiz-adv-x="577" 
d="M83 0v523h53v-445l311 445h53v-523h-53v446l-311 -446h-53z" />
    <glyph glyph-name="uni0439" unicode="&#x439;" horiz-adv-x="577" 
d="M288 616c-68 0 -121 51 -126 123h48c3 -47 31 -85 78 -85c48 0 79 38 83 85h47c-5 -72 -62 -123 -130 -123zM83 0v523h53v-445l311 445h53v-523h-53v446l-311 -446h-53z" />
    <glyph glyph-name="uni043A" unicode="&#x43a;" horiz-adv-x="487" 
d="M135 273v-273h-53v523h53v-250l255 250h63l-255 -247l272 -276h-66z" />
    <glyph glyph-name="uni043B" unicode="&#x43b;" horiz-adv-x="552" 
d="M175 233c-13 -152 -41 -237 -124 -237c-13 0 -22 1 -28 3l-10 4v51l10 -4c6 -2 14 -3 24 -3c54 0 68 79 79 191c5 52 9 123 12 182c2 34 3 68 4 103h327v-523h-53v478h-226c-3 -56 -7 -170 -15 -245z" />
    <glyph glyph-name="uni043C" unicode="&#x43c;" horiz-adv-x="685" 
d="M129 468v-468h-46v523h76l182 -439l188 439h73v-523h-53v468l-199 -468h-25z" />
    <glyph glyph-name="uni043D" unicode="&#x43d;" horiz-adv-x="573" 
d="M437 248h-301v-248h-53v523h53v-230h301v230h53v-523h-53v248z" />
    <glyph glyph-name="uni043E" unicode="&#x43e;" horiz-adv-x="591" 
d="M296 37c112 0 197 85 197 220v8c0 139 -85 221 -197 221s-198 -85 -198 -221v-8c0 -134 84 -220 198 -220zM295 -8c-141 0 -252 110 -252 265v8c0 157 113 266 253 266c141 0 252 -106 252 -265v-8c0 -157 -112 -266 -253 -266z" />
    <glyph glyph-name="uni043F" unicode="&#x43f;" horiz-adv-x="563" 
d="M427 478h-291v-478h-53v523h397v-523h-53v478z" />
    <glyph glyph-name="uni0440" unicode="&#x440;" horiz-adv-x="612" 
d="M82 523h53v-122c29 67 107 130 199 130c132 0 235 -101 235 -264v-8c0 -164 -99 -267 -235 -267c-103 0 -172 63 -199 127v-301h-53v705zM330 37c111 0 184 79 184 220v8c0 144 -85 221 -185 221c-102 0 -195 -77 -195 -221v-8c0 -143 88 -220 196 -220z" />
    <glyph glyph-name="uni0441" unicode="&#x441;" horiz-adv-x="556" 
d="M293 -8c-141 0 -250 105 -250 264v8c0 160 111 267 250 267c106 0 205 -56 218 -174h-52c-13 88 -83 129 -166 129c-109 0 -195 -84 -195 -222v-8c0 -138 85 -219 195 -219c87 0 161 51 174 144h49c-13 -112 -104 -189 -223 -189z" />
    <glyph glyph-name="uni0442" unicode="&#x442;" horiz-adv-x="465" 
d="M440 478h-181v-478h-53v478h-181v45h415v-45z" />
    <glyph glyph-name="uni0443" unicode="&#x443;" horiz-adv-x="508" 
d="M232 45l-207 478h57l179 -417l167 417h54l-290 -705h-55z" />
    <glyph glyph-name="uni0444" unicode="&#x444;" horiz-adv-x="685" 
d="M369 530c156 -5 273 -103 273 -264v-8c0 -163 -117 -261 -273 -266v-174h-53v174c-156 5 -273 104 -273 265v8c0 164 117 260 273 265v243h53v-243zM316 489c-127 -3 -219 -84 -219 -223v-8c0 -140 92 -221 219 -224v455zM369 33c127 3 219 84 219 224v7
c0 141 -92 220 -219 225v-456z" />
    <glyph glyph-name="uni0445" unicode="&#x445;" horiz-adv-x="511" 
d="M223 270l-182 253h63l151 -213l149 213h59l-179 -249l198 -274h-63l-166 234l-166 -234h-58z" />
    <glyph glyph-name="uni0446" unicode="&#x446;" horiz-adv-x="579" 
d="M512 -127l-4 127h-425v523h53v-478h291v478h53v-478h75v-172h-43z" />
    <glyph glyph-name="uni0447" unicode="&#x447;" horiz-adv-x="558" 
d="M412 0v263c-30 -33 -79 -74 -167 -74c-100 0 -176 56 -176 201v133h53v-131c0 -112 50 -157 135 -157c94 0 139 63 155 81v207h53v-523h-53z" />
    <glyph glyph-name="uni0448" unicode="&#x448;" horiz-adv-x="798" 
d="M83 523h53v-478h236v478h53v-478h237v478h53v-523h-632v523z" />
    <glyph glyph-name="uni0449" unicode="&#x449;" horiz-adv-x="814" 
d="M747 -127l-4 127h-660v523h53v-478h236v478h53v-478h237v478h53v-478h75v-172h-43z" />
    <glyph glyph-name="uni044A" unicode="&#x44a;" horiz-adv-x="578" 
d="M182 478h-157v45h210v-192h114c112 0 194 -50 194 -161v-3c0 -111 -78 -167 -184 -167h-177v478zM361 43c87 0 129 44 129 124v3c0 76 -45 119 -138 119h-117v-246h126z" />
    <glyph glyph-name="uni044B" unicode="&#x44b;" horiz-adv-x="668" 
d="M533 523h53v-523h-53v523zM83 523h53v-192h113c112 0 194 -50 194 -161v-3c0 -111 -78 -167 -184 -167h-176v523zM262 43c85 0 128 44 128 124v3c0 76 -45 119 -138 119h-116v-246h126z" />
    <glyph glyph-name="uni044C" unicode="&#x44c;" horiz-adv-x="478" 
d="M83 523h53v-192h113c113 0 194 -54 194 -164v-3c0 -112 -78 -164 -184 -164h-176v523zM262 42c88 0 128 46 128 122v3c0 80 -46 122 -138 122h-116v-247h126z" />
    <glyph glyph-name="uni044D" unicode="&#x44d;" horiz-adv-x="556" 
d="M269 -8c-112 0 -212 58 -228 182h52c16 -95 86 -137 176 -137c108 0 183 80 188 212h-283v43h283c-9 125 -88 194 -193 194c-84 0 -152 -45 -172 -137h-50c19 109 107 182 223 182c144 0 248 -102 248 -262v-8c0 -160 -105 -269 -244 -269z" />
    <glyph glyph-name="uni044E" unicode="&#x44e;" horiz-adv-x="772" 
d="M485 -8c-134 0 -232 99 -240 247c0 3 -1 6 -1 9h-108v-248h-53v523h53v-230h109c11 142 111 238 242 238c140 0 241 -106 241 -265v-8c0 -157 -102 -266 -243 -266zM486 37c112 0 188 85 188 220v8c0 139 -76 221 -187 221c-112 0 -189 -85 -189 -221v-8
c0 -134 75 -220 188 -220z" />
    <glyph glyph-name="uni044F" unicode="&#x44f;" horiz-adv-x="509" 
d="M247 480c-85 0 -128 -38 -128 -113v-3c0 -72 45 -110 138 -110h116v226h-126zM96 0h-62l161 222c-75 13 -129 55 -129 142v3c0 109 78 156 184 156h177v-523h-54v213h-125z" />
    <glyph glyph-name="uni0451" unicode="&#x451;" horiz-adv-x="554" 
d="M291 -8c-151 0 -248 107 -248 264v8c0 157 100 267 240 267c126 0 229 -82 229 -255v-19h-414c3 -141 68 -220 193 -220c88 0 145 36 164 109h53c-23 -100 -104 -154 -217 -154zM457 300c-5 128 -71 186 -174 186c-102 0 -172 -71 -183 -186h357zM199 636
c-21 0 -37 17 -37 37s16 36 37 36c20 0 36 -16 36 -36s-16 -37 -36 -37zM365 636c-20 0 -36 17 -36 37s16 36 36 36c21 0 37 -16 37 -36s-16 -37 -37 -37z" />
    <glyph glyph-name="uni0452" unicode="&#x452;" horiz-adv-x="583" 
d="M453 325c0 112 -52 160 -145 160c-87 0 -173 -59 -173 -168v-317h-53v623h-78v41h78v109h53v-109h189v-41h-189v-202c24 57 91 110 185 110c111 0 186 -60 186 -209v-370c0 -92 -35 -136 -130 -140v45c60 5 77 35 77 91v377z" />
    <glyph glyph-name="uni0453" unicode="&#x453;" horiz-adv-x="442" 
d="M136 478v-478h-53v523h332v-45h-279zM284 752h65l-92 -147h-41z" />
    <glyph glyph-name="uni0454" unicode="&#x454;" horiz-adv-x="556" 
d="M516 181c-13 -112 -104 -189 -223 -189c-141 0 -250 105 -250 264v8c0 160 111 267 250 267c106 0 205 -56 218 -174h-52c-13 88 -83 129 -166 129c-101 0 -183 -74 -194 -194h282v-42h-283c3 -137 88 -213 195 -213c87 0 161 51 174 144h49z" />
    <glyph glyph-name="uni0455" unicode="&#x455;" horiz-adv-x="465" 
d="M239 -9c-124 0 -194 65 -201 165h51c9 -72 53 -120 150 -120c88 0 133 39 133 103c0 67 -38 87 -137 106c-128 24 -180 56 -180 146c0 88 84 140 172 140c93 0 169 -38 182 -142h-51c-13 68 -56 97 -132 97c-73 0 -122 -37 -122 -93c0 -59 36 -82 143 -101
c111 -21 176 -46 176 -149c0 -88 -64 -152 -184 -152z" />
    <glyph glyph-name="uni0456" unicode="&#x456;" horiz-adv-x="221" 
d="M84 523h53v-523h-53v523zM110 635c-21 0 -38 17 -38 38c0 20 17 37 38 37s37 -17 37 -37c0 -21 -16 -38 -37 -38z" />
    <glyph glyph-name="uni0457" unicode="&#x457;" horiz-adv-x="221" 
d="M36 636c-20 0 -36 17 -36 37s16 36 36 36s37 -16 37 -36s-17 -37 -37 -37zM185 636c-20 0 -37 17 -37 37s17 36 37 36s36 -16 36 -36s-16 -37 -36 -37zM84 523h53v-523h-53v523z" />
    <glyph glyph-name="uni0458" unicode="&#x458;" horiz-adv-x="221" 
d="M7 -143c60 5 77 35 77 91v575h53v-571c0 -92 -34 -136 -130 -140v45zM110 635c-21 0 -38 17 -38 38c0 20 17 37 38 37s37 -17 37 -37c0 -21 -16 -38 -37 -38z" />
    <glyph glyph-name="uni0459" unicode="&#x459;" horiz-adv-x="791" 
d="M405 478h-215c-3 -56 -7 -170 -15 -245c-13 -152 -41 -237 -124 -237c-13 0 -22 1 -28 3l-10 4v51l10 -4c6 -2 14 -3 24 -3c54 0 68 79 79 191c5 52 9 123 12 182c2 34 3 68 4 103h316v-192h104c112 0 194 -50 194 -161v-3c0 -111 -78 -167 -184 -167h-167v478zM574 43
c87 0 129 44 129 124v3c0 76 -45 119 -138 119h-107v-246h116z" />
    <glyph glyph-name="uni045A" unicode="&#x45a;" horiz-adv-x="813" 
d="M596 43c85 0 129 44 129 124v3c0 76 -46 119 -139 119h-106v-246h116zM427 248h-291v-248h-53v523h53v-230h291v230h53v-192h104c112 0 194 -50 194 -161v-3c0 -111 -78 -167 -185 -167h-166v248z" />
    <glyph glyph-name="uni045B" unicode="&#x45b;" horiz-adv-x="583" 
d="M4 664h78v109h53v-109h189v-41h-189v-202c24 57 91 110 185 110c111 0 186 -60 186 -209v-322h-53v325c0 112 -52 160 -145 160c-87 0 -173 -59 -173 -168v-317h-53v623h-78v41z" />
    <glyph glyph-name="uni045C" unicode="&#x45c;" horiz-adv-x="487" 
d="M300 752h65l-92 -147h-41zM135 273v-273h-53v523h53v-250l255 250h63l-255 -247l272 -276h-66z" />
    <glyph glyph-name="uni045D" unicode="&#x45d;" horiz-adv-x="583" 
d="M83 0v523h53v-445l311 445h53v-523h-53v446l-311 -446h-53zM192 752h65l68 -147h-41z" />
    <glyph glyph-name="uni045E" unicode="&#x45e;" horiz-adv-x="508" 
d="M261 616c-68 0 -121 51 -126 123h47c4 -47 32 -85 79 -85c48 0 79 38 83 85h46c-5 -72 -60 -123 -129 -123zM232 45l-207 478h57l179 -417l167 417h54l-290 -705h-55z" />
    <glyph glyph-name="uni045F" unicode="&#x45f;" horiz-adv-x="563" 
d="M83 0v523h53v-478h291v478h53v-523h-176l-2 -127h-41l-3 127h-175z" />
    <glyph glyph-name="uni0490" unicode="&#x490;" horiz-adv-x="530" 
d="M148 668v-668h-56v715h346l5 134h46v-181h-341z" />
    <glyph glyph-name="uni0491" unicode="&#x491;" horiz-adv-x="431" 
d="M136 478v-478h-53v523h269l5 134h42v-179h-263z" />
    <glyph glyph-name="Wgrave" unicode="&#x1e80;" horiz-adv-x="924" 
d="M33 715h56l164 -630l189 630h39l182 -632l173 632h51l-196 -715h-54l-176 616l-186 -616h-53zM358 893h66l64 -122h-42z" />
    <glyph glyph-name="wgrave" unicode="&#x1e81;" horiz-adv-x="780" 
d="M29 523h57l140 -458l143 458h45l138 -458l141 458h54l-165 -523h-61l-130 438l-139 -438h-60zM286 752h65l68 -147h-41z" />
    <glyph glyph-name="Wacute" unicode="&#x1e82;" horiz-adv-x="924" 
d="M33 715h56l164 -630l189 630h39l182 -632l173 632h51l-196 -715h-54l-176 616l-186 -616h-53zM503 893h66l-88 -122h-42z" />
    <glyph glyph-name="wacute" unicode="&#x1e83;" horiz-adv-x="780" 
d="M29 523h57l140 -458l143 458h45l138 -458l141 458h54l-165 -523h-61l-130 438l-139 -438h-60zM434 752h65l-92 -147h-41z" />
    <glyph glyph-name="Wdieresis" unicode="&#x1e84;" horiz-adv-x="924" 
d="M33 715h56l164 -630l189 630h39l182 -632l173 632h51l-196 -715h-54l-176 616l-186 -616h-53zM371 788c-21 0 -37 17 -37 37c0 19 16 36 37 36c20 0 36 -17 36 -36c0 -20 -16 -37 -36 -37zM551 788c-20 0 -36 17 -36 37c0 19 16 36 36 36s36 -17 36 -36
c0 -20 -16 -37 -36 -37z" />
    <glyph glyph-name="wdieresis" unicode="&#x1e85;" horiz-adv-x="780" 
d="M29 523h57l140 -458l143 458h45l138 -458l141 458h54l-165 -523h-61l-130 438l-139 -438h-60zM308 636c-21 0 -37 17 -37 37s16 36 37 36c20 0 36 -16 36 -36s-16 -37 -36 -37zM474 636c-20 0 -36 17 -36 37s16 36 36 36c21 0 37 -16 37 -36s-16 -37 -37 -37z" />
    <glyph glyph-name="Ygrave" unicode="&#x1ef2;" horiz-adv-x="582" 
d="M268 318l-245 397h62l212 -350l202 350h56l-231 -398v-317h-56v318zM194 893h66l64 -122h-42z" />
    <glyph glyph-name="ygrave" unicode="&#x1ef3;" horiz-adv-x="512" 
d="M232 45l-207 478h57l179 -417l167 417h54l-290 -705h-55zM150 752h65l68 -147h-41z" />
    <glyph glyph-name="uni2009" unicode="&#x2009;" horiz-adv-x="114" 
 />
    <glyph glyph-name="endash" unicode="&#x2013;" horiz-adv-x="507" 
d="M46 300h411v-45h-411v45z" />
    <glyph glyph-name="emdash" unicode="&#x2014;" horiz-adv-x="873" 
d="M46 300h777v-45h-777v45z" />
    <glyph glyph-name="quoteleft" unicode="&#x2018;" horiz-adv-x="218" 
d="M42 551l92 171l34 -16l-75 -178z" />
    <glyph glyph-name="quoteright" unicode="&#x2019;" horiz-adv-x="218" 
d="M46 545l75 177l51 -22l-92 -172z" />
    <glyph glyph-name="quotesinglbase" unicode="&#x201a;" horiz-adv-x="218" 
d="M46 -70l75 177l51 -22l-92 -172z" />
    <glyph glyph-name="quotedblleft" unicode="&#x201c;" horiz-adv-x="358" 
d="M42 551l92 171l34 -16l-75 -178zM182 551l92 171l34 -16l-75 -178z" />
    <glyph glyph-name="quotedblright" unicode="&#x201d;" horiz-adv-x="358" 
d="M46 545l75 177l51 -22l-92 -172zM185 545l76 177l51 -22l-92 -172z" />
    <glyph glyph-name="quotedblbase" unicode="&#x201e;" horiz-adv-x="358" 
d="M46 -70l75 177l51 -22l-92 -172zM185 -70l76 177l51 -22l-92 -172z" />
    <glyph glyph-name="dagger" unicode="&#x2020;" horiz-adv-x="353" 
d="M150 536h-118v44h118v135h49v-135h118v-44h-118v-315h-49v315z" />
    <glyph glyph-name="daggerdbl" unicode="&#x2021;" horiz-adv-x="353" 
d="M150 536h-118v44h118v135h49v-135h118v-44h-118v-136h118v-44h-118v-135h-49v135h-118v44h118v136z" />
    <glyph glyph-name="bullet" unicode="&#x2022;" horiz-adv-x="320" 
d="M158 199c-60 0 -106 48 -106 106c0 59 46 106 106 106c61 0 106 -47 106 -106c0 -58 -45 -106 -106 -106z" />
    <glyph glyph-name="ellipsis" unicode="&#x2026;" horiz-adv-x="701" 
d="M114 -5c-23 0 -42 19 -42 42c0 24 19 43 42 43c24 0 43 -19 43 -43c0 -23 -19 -42 -43 -42zM348 -5c-23 0 -42 19 -42 42c0 24 19 43 42 43c24 0 43 -19 43 -43c0 -23 -19 -42 -43 -42zM582 -5c-23 0 -42 19 -42 42c0 24 19 43 42 43c24 0 43 -19 43 -43
c0 -23 -19 -42 -43 -42z" />
    <glyph glyph-name="perthousand" unicode="&#x2030;" horiz-adv-x="1113" 
d="M194 446c60 0 105 43 105 116c0 72 -45 116 -105 116c-59 0 -105 -42 -105 -117c0 -73 46 -115 105 -115zM194 404c-79 0 -154 64 -154 156c0 96 73 160 154 160c83 0 154 -65 154 -158c0 -95 -73 -158 -154 -158zM580 715h50l-455 -715h-50zM557 35c60 0 105 43 105 116
c0 72 -45 116 -105 116s-105 -42 -105 -117c0 -73 46 -115 105 -115zM557 -7c-80 0 -154 64 -154 156c0 96 71 160 154 160s154 -65 154 -158c0 -95 -74 -158 -154 -158zM915 35c60 0 105 43 105 116c0 72 -45 116 -105 116c-59 0 -105 -42 -105 -117
c0 -73 46 -115 105 -115zM915 -7c-79 0 -153 64 -153 156c0 96 72 160 153 160c83 0 154 -65 154 -158c0 -95 -73 -158 -154 -158z" />
    <glyph glyph-name="uni2032" unicode="&#x2032;" horiz-adv-x="178" 
d="M73 715h58l-48 -209h-40z" />
    <glyph glyph-name="uni2033" unicode="&#x2033;" horiz-adv-x="309" 
d="M73 715h58l-48 -209h-40zM204 715h57l-47 -209h-40z" />
    <glyph glyph-name="guilsinglleft" unicode="&#x2039;" horiz-adv-x="294" 
d="M54 261l135 178h54l-132 -178l132 -178h-54z" />
    <glyph glyph-name="guilsinglright" unicode="&#x203a;" horiz-adv-x="294" 
d="M179 261l-132 178h54l135 -178l-135 -178h-54z" />
    <glyph glyph-name="fraction" unicode="&#x2044;" horiz-adv-x="117" 
d="M292 715h45l-516 -715h-45z" />
    <glyph glyph-name="Euro" unicode="&#x20ac;" horiz-adv-x="661" 
d="M32 444h69c11 161 103 279 262 279c137 0 220 -78 236 -207h-53c-15 103 -76 162 -183 162c-125 0 -199 -92 -207 -234h252l-7 -38h-246v-98h227l-7 -38h-219c9 -144 79 -231 208 -231c112 0 176 64 192 176h52c-17 -140 -104 -223 -244 -223c-157 0 -252 114 -263 278
h-69v38h68v98h-68v38z" />
    <glyph glyph-name="uni20B4" unicode="&#x20b4;" horiz-adv-x="579" 
d="M281 -8c-131 0 -222 58 -222 173c0 51 15 85 42 116h-71v39h118c37 24 84 46 140 71c21 9 40 18 56 26h-314v39h375c31 28 43 59 43 110c0 76 -54 111 -145 111c-104 0 -157 -44 -173 -128h-51c15 111 92 174 224 174c117 0 199 -53 199 -157c0 -47 -13 -82 -37 -110h84
v-39h-130c-32 -21 -72 -39 -121 -62c-27 -13 -51 -24 -72 -35h323v-39h-384c-35 -28 -50 -61 -50 -114c0 -87 69 -129 166 -129c132 0 182 74 195 162h54c-13 -114 -89 -208 -249 -208z" />
    <glyph glyph-name="uni20B8" unicode="&#x20b8;" horiz-adv-x="559" 
d="M30 676v39h499v-39h-499zM252 539h-222v46h499v-46h-222v-539h-55v539z" />
    <glyph glyph-name="uni20BD" unicode="&#x20bd;" horiz-adv-x="608" 
d="M326 351c116 0 183 48 183 159v4c0 116 -73 155 -185 155h-136v-318h138zM188 176v-176h-56v176h-100v38h100v98h-100v38h100v365h189c139 0 244 -56 244 -201v-4c0 -148 -104 -204 -243 -204h-134v-92h256v-38h-256z" />
    <glyph glyph-name="uni2116" unicode="&#x2116;" horiz-adv-x="1056" 
d="M845 344c-101 0 -178 76 -178 186v6c0 113 79 186 179 186c101 0 178 -72 178 -185v-6c0 -115 -79 -187 -179 -187zM846 386c73 0 127 56 127 145v5c0 91 -54 145 -127 145c-72 0 -127 -56 -127 -145v-5c0 -89 52 -145 127 -145zM92 715h76l359 -635v635h53v-715h-66
l-368 650v-650h-54v715zM683 262h325v-43h-325v43z" />
    <glyph glyph-name="trademark" unicode="&#x2122;" horiz-adv-x="679" 
d="M324 715h54l101 -248l100 248h54v-315h-38v267l-111 -267h-14l-111 267v-267h-35v315zM128 684h-98v31h234v-31h-97v-284h-39v284z" />
    <glyph glyph-name="Omega" unicode="&#x2126;" horiz-adv-x="805" 
d="M110 359c0 -160 83 -266 215 -333v-26h-270v44h174c-88 48 -176 156 -176 315v8c0 179 129 356 350 356c220 0 349 -175 349 -355v-8c0 -168 -90 -268 -175 -316h173v-44h-270v26c127 61 214 164 214 335v8c0 151 -99 308 -291 308s-293 -154 -293 -310v-8z" />
    <glyph glyph-name="onethird" unicode="&#x2153;" horiz-adv-x="707" 
d="M115 668l-88 -61v41l96 67h37v-343h-45v296zM550 715h45l-516 -715h-45zM544 -4c-80 0 -126 44 -129 105h41c5 -39 31 -71 87 -71c51 0 78 24 78 67c0 39 -26 65 -73 65h-27v33h25c45 0 66 24 66 59s-24 59 -67 59c-47 0 -72 -27 -77 -66h-40c4 56 46 100 118 100
c68 0 109 -39 109 -91c0 -39 -24 -64 -59 -75c40 -9 70 -38 70 -85c0 -64 -47 -100 -122 -100z" />
    <glyph glyph-name="twothirds" unicode="&#x2154;" horiz-adv-x="747" 
d="M18 381l130 131c41 43 62 72 62 108c0 40 -26 64 -66 64c-44 0 -68 -27 -75 -78h-41c4 72 49 113 117 113s109 -39 109 -98c0 -47 -24 -80 -72 -127l-90 -87h166v-35h-240v9zM609 715h45l-516 -715h-45zM584 -4c-80 0 -126 44 -129 105h41c5 -39 31 -71 87 -71
c51 0 78 24 78 67c0 39 -26 65 -73 65h-27v33h25c45 0 66 24 66 59s-24 59 -67 59c-47 0 -72 -27 -77 -66h-40c4 56 46 100 118 100c68 0 109 -39 109 -91c0 -39 -24 -64 -59 -75c40 -9 70 -38 70 -85c0 -64 -47 -100 -122 -100z" />
    <glyph glyph-name="oneeighth" unicode="&#x215b;" horiz-adv-x="700" 
d="M112 668l-88 -61v41l96 67h37v-343h-45v296zM553 715h45l-516 -715h-45zM535 -4c-69 0 -126 32 -126 99c0 47 31 77 74 88c-35 11 -60 38 -60 75c0 56 52 89 112 89s112 -34 112 -88c0 -39 -24 -64 -59 -75c43 -13 73 -41 73 -88c0 -66 -54 -100 -126 -100zM535 30
c47 0 81 22 81 69c0 43 -35 68 -80 68s-82 -25 -82 -69c0 -47 36 -68 81 -68zM536 198c39 0 68 20 68 59c0 35 -29 56 -69 56c-39 0 -69 -22 -69 -57c0 -39 35 -58 70 -58z" />
    <glyph glyph-name="threeeighths" unicode="&#x215c;" horiz-adv-x="735" 
d="M156 368c-80 0 -126 44 -129 105h41c5 -39 31 -71 87 -71c51 0 78 24 78 67c0 39 -26 65 -73 65h-27v33h25c45 0 66 24 66 59s-24 59 -67 59c-47 0 -72 -27 -77 -66h-40c4 56 46 100 118 100c68 0 109 -39 109 -91c0 -39 -24 -64 -59 -75c40 -9 70 -38 70 -85
c0 -64 -47 -100 -122 -100zM599 715h45l-516 -715h-45zM570 -4c-69 0 -126 32 -126 99c0 47 31 77 74 88c-35 11 -60 38 -60 75c0 56 52 89 112 89s112 -34 112 -88c0 -39 -24 -64 -59 -75c43 -13 73 -41 73 -88c0 -66 -54 -100 -126 -100zM570 30c47 0 81 22 81 69
c0 43 -35 68 -80 68s-82 -25 -82 -69c0 -47 36 -68 81 -68zM571 198c39 0 68 20 68 59c0 35 -29 56 -69 56c-39 0 -69 -22 -69 -57c0 -39 35 -58 70 -58z" />
    <glyph glyph-name="fiveeighths" unicode="&#x215d;" horiz-adv-x="724" 
d="M145 368c-76 0 -114 42 -119 97h43c5 -35 25 -62 76 -62c47 0 75 32 75 81s-30 80 -73 80c-39 0 -64 -14 -80 -34h-23l2 185h200v-35h-164l-1 -112c15 15 42 30 79 30c61 0 106 -43 106 -114c0 -72 -49 -116 -121 -116zM588 715h45l-516 -715h-45zM559 -4
c-69 0 -126 32 -126 99c0 47 31 77 74 88c-35 11 -60 38 -60 75c0 56 52 89 112 89s112 -34 112 -88c0 -39 -24 -64 -59 -75c43 -13 73 -41 73 -88c0 -66 -54 -100 -126 -100zM559 30c47 0 81 22 81 69c0 43 -35 68 -80 68s-82 -25 -82 -69c0 -47 36 -68 81 -68zM560 198
c39 0 68 20 68 59c0 35 -29 56 -69 56c-39 0 -69 -22 -69 -57c0 -39 35 -58 70 -58z" />
    <glyph glyph-name="seveneighths" unicode="&#x215e;" horiz-adv-x="697" 
d="M202 678h-180v37h237v-6l-135 -337h-46zM544 715h45l-516 -715h-45zM532 -4c-69 0 -126 32 -126 99c0 47 31 77 74 88c-35 11 -60 38 -60 75c0 56 52 89 112 89s112 -34 112 -88c0 -39 -24 -64 -59 -75c43 -13 73 -41 73 -88c0 -66 -54 -100 -126 -100zM532 30
c47 0 81 22 81 69c0 43 -35 68 -80 68s-82 -25 -82 -69c0 -47 36 -68 81 -68zM533 198c39 0 68 20 68 59c0 35 -29 56 -69 56c-39 0 -69 -22 -69 -57c0 -39 35 -58 70 -58z" />
    <glyph glyph-name="Delta" unicode="&#x2206;" horiz-adv-x="658" 
d="M37 11l253 704h79l252 -704v-11h-584v11zM102 48h451l-226 628z" />
    <glyph glyph-name="minus" unicode="&#x2212;" horiz-adv-x="514" 
d="M36 365h438v-46h-438v46z" />
    <glyph glyph-name="approxequal" unicode="&#x2248;" horiz-adv-x="499" 
d="M40 180c7 64 46 102 103 102c78 0 146 -53 210 -53c35 0 56 23 60 55h42c-7 -64 -46 -102 -102 -102c-78 0 -147 53 -211 53c-35 0 -55 -23 -60 -55h-42zM40 347c7 64 46 102 103 102c78 0 146 -54 210 -54c35 0 56 24 60 56h42c-7 -64 -46 -102 -102 -102
c-78 0 -147 53 -211 53c-35 0 -55 -23 -60 -55h-42z" />
    <glyph glyph-name="notequal" unicode="&#x2260;" horiz-adv-x="488" 
d="M40 426h225l50 117h49l-51 -117h131v-46h-150l-52 -121h202v-46h-222l-50 -117h-49l50 117h-133v46h153l52 121h-205v46z" />
    <glyph glyph-name="lessequal" unicode="&#x2264;" horiz-adv-x="500" 
d="M51 322v13l384 205v-52l-304 -160l304 -159v-52zM51 45h384v-45h-384v45z" />
    <glyph glyph-name="greaterequal" unicode="&#x2265;" horiz-adv-x="500" 
d="M61 169l305 159l-305 160v52l384 -205v-13l-384 -205v52zM61 45h384v-45h-384v45z" />
    <glyph glyph-name="uni24C5" unicode="&#x24c5;" horiz-adv-x="848" 
d="M310 562h119c89 0 146 -35 146 -119v-3c0 -84 -59 -119 -144 -119h-69v-165h-52v406zM429 360c60 0 95 24 95 80v3c0 57 -35 78 -95 78h-67v-161h67zM421 23c180 0 331 141 331 336c0 192 -145 333 -329 333c-183 0 -331 -142 -331 -335c0 -195 152 -334 329 -334z
M421 -9c-204 0 -366 159 -366 366c0 204 162 367 368 367c208 0 366 -162 366 -365c0 -209 -162 -368 -368 -368z" />
    <glyph glyph-name="zero.tab" unicode="&#xe44f;" 
d="M303 39c127 0 187 77 187 248v146c0 157 -67 244 -190 244s-189 -84 -189 -249v-143c0 -171 71 -246 192 -246zM303 -8c-151 0 -248 103 -248 292v143c0 192 93 296 245 296s246 -103 246 -291v-145c0 -192 -88 -295 -243 -295z" />
    <glyph glyph-name="one.tab" unicode="&#xe450;" 
d="M326 655l-224 -178v53l226 185h53v-715h-55v655z" />
    <glyph glyph-name="two.tab" unicode="&#xe451;" 
d="M51 13l287 297c76 79 112 143 112 220c0 96 -60 147 -152 147s-156 -53 -171 -170h-52c11 135 99 216 223 216s208 -71 208 -195c0 -88 -47 -166 -135 -253l-232 -229h377v-46h-465v13z" />
    <glyph glyph-name="three.tab" unicode="&#xe452;" 
d="M293 -8c-147 0 -232 96 -237 210h52c8 -90 62 -164 186 -164c115 0 178 59 178 160c0 92 -52 153 -164 153h-52v47h48c103 0 146 60 146 136c0 81 -49 142 -145 142c-100 0 -162 -62 -171 -149h-49c5 108 95 196 220 196c127 0 200 -86 200 -188
c0 -79 -47 -134 -119 -157c85 -19 143 -80 143 -180c0 -130 -97 -206 -236 -206z" />
    <glyph glyph-name="four.tab" unicode="&#xe453;" 
d="M402 161h-358v17l336 537h77v-508h91v-46h-91v-161h-55v161zM402 207v465l-287 -465h287z" />
    <glyph glyph-name="five.tab" unicode="&#xe454;" 
d="M287 -8c-145 0 -219 87 -230 192h53c13 -80 61 -146 177 -146c115 0 182 73 182 194c0 112 -73 187 -172 187c-88 0 -139 -33 -178 -78h-20v374h390v-48h-343v-262c31 31 85 60 160 60c124 0 220 -90 220 -233c0 -149 -101 -240 -239 -240z" />
    <glyph glyph-name="six.tab" unicode="&#xe455;" 
d="M310 -8c-181 0 -249 133 -249 301v52c0 262 112 378 269 378c105 0 184 -51 201 -163h-53c-16 77 -66 116 -151 116c-124 0 -208 -90 -211 -314v-29c32 79 116 122 200 122c147 0 234 -100 234 -229c0 -139 -95 -234 -240 -234zM310 37c111 0 183 76 183 187
s-65 186 -185 186c-100 0 -186 -67 -186 -177c0 -108 64 -196 188 -196z" />
    <glyph glyph-name="seven.tab" unicode="&#xe456;" 
d="M461 669h-385v46h457v-9l-288 -706h-57z" />
    <glyph glyph-name="eight.tab" unicode="&#xe457;" 
d="M301 -8c-124 0 -240 70 -240 207c0 101 68 164 157 188c-73 21 -127 75 -127 156c0 111 102 180 210 180s209 -71 209 -178c0 -84 -52 -135 -125 -158c92 -24 155 -86 155 -186c0 -139 -112 -209 -239 -209zM301 39c105 0 182 56 182 164c0 103 -80 159 -180 159
c-99 0 -185 -57 -185 -161c0 -108 83 -162 183 -162zM304 407c85 0 150 48 150 138c0 77 -65 133 -153 133s-154 -52 -154 -135c0 -89 78 -136 157 -136z" />
    <glyph glyph-name="nine.tab" unicode="&#xe458;" 
d="M282 -7c-117 0 -200 59 -220 171h55c17 -80 71 -125 166 -125c125 0 203 77 203 300v38c-32 -77 -118 -117 -202 -117c-146 0 -233 97 -233 230c0 139 95 233 240 233c170 0 249 -119 249 -295v-82c0 -252 -95 -353 -258 -353zM291 305c103 0 189 66 189 172
c0 111 -64 202 -189 202c-111 0 -183 -76 -183 -187s65 -187 183 -187z" />
    <glyph glyph-name="cent.tab" unicode="&#xe459;" 
d="M295 -7c-132 8 -228 109 -228 263v8c0 156 100 258 228 266v99h39v-99c100 -5 188 -63 201 -173h-52c-12 81 -73 121 -149 128v-447c81 5 144 56 157 143h49c-13 -106 -97 -180 -206 -188v-128h-39v128zM122 256c0 -132 73 -210 173 -218v447c-99 -11 -173 -89 -173 -221
v-8z" />
    <glyph glyph-name="dollar.tab" unicode="&#xe45a;" 
d="M280 -7c-161 8 -227 99 -240 212h54c11 -85 56 -160 186 -168v315c-143 24 -213 76 -213 185c0 104 87 180 213 185v91h40v-91c120 -8 191 -74 206 -179h-51c-16 80 -64 127 -155 134v-283c152 -24 226 -71 226 -200c0 -109 -87 -197 -226 -202v-127h-40v128zM492 191
c0 94 -45 133 -172 154v-309c107 5 172 72 172 155zM119 540c0 -73 36 -115 161 -139v276c-103 -5 -161 -54 -161 -137z" />
    <glyph glyph-name="Euro.tab" unicode="&#xe45b;" 
d="M27 444h61c5 171 89 279 240 279c125 0 196 -74 212 -203h-53c-15 103 -63 158 -159 158c-121 0 -181 -85 -185 -234h229l-8 -38h-221v-98h203l-8 -38h-195c5 -152 63 -231 186 -231c103 0 154 59 171 172h51c-16 -141 -95 -219 -222 -219c-149 0 -236 101 -241 278h-61
v38h61v98h-61v38z" />
    <glyph glyph-name="a.alt" unicode="&#xe4c0;" horiz-adv-x="606" 
d="M274 -8c-124 0 -231 96 -231 262v8c0 161 108 269 239 269c97 0 155 -58 184 -122v114h54v-523h-54v120c-27 -62 -99 -128 -192 -128zM279 37c100 0 189 77 189 221v8c0 144 -78 220 -182 220c-105 0 -188 -82 -188 -222v-8c0 -143 82 -219 181 -219z" />
    <glyph glyph-name="t.alt" unicode="&#xe4d3;" horiz-adv-x="323" 
d="M112 478h-87v45h87v119h53v-119h127v-45h-127v-478h-53v478z" />
    <glyph glyph-name="f_i" unicode="&#xfb01;" horiz-adv-x="552" 
d="M105 478h-79v45h79v94c0 111 59 159 144 159c23 0 42 -3 55 -8v-45c-15 5 -33 8 -54 8c-56 0 -92 -32 -92 -109v-99h146v-45h-146v-478h-53v478zM410 523h53v-523h-53v523zM436 635c-21 0 -38 17 -38 38c0 20 17 37 38 37s37 -17 37 -37c0 -21 -16 -38 -37 -38z" />
    <glyph glyph-name="f_l" unicode="&#xfb02;" horiz-adv-x="552" 
d="M105 478h-79v45h79v94c0 111 59 159 144 159c23 0 42 -3 55 -8v-45c-15 5 -33 8 -54 8c-56 0 -92 -32 -92 -109v-99h146v-45h-146v-478h-53v478zM410 773h54v-773h-54v773z" />
    <glyph glyph-name="three.sub" horiz-adv-x="313" 
d="M153 -90c-80 0 -126 44 -129 105h41c5 -39 31 -71 87 -71c51 0 78 24 78 67c0 39 -26 65 -73 65h-27v33h25c45 0 66 24 66 59s-24 59 -67 59c-47 0 -72 -27 -77 -66h-40c4 56 46 100 118 100c68 0 109 -39 109 -91c0 -39 -24 -64 -59 -75c40 -9 70 -38 70 -85
c0 -64 -47 -100 -122 -100z" />
    <glyph glyph-name="two.den" horiz-adv-x="290" 
d="M15 9l130 131c41 43 62 72 62 108c0 40 -26 64 -66 64c-44 0 -68 -27 -75 -78h-41c4 72 49 113 117 113s109 -39 109 -98c0 -47 -24 -80 -72 -127l-90 -87h166v-35h-240v9z" />
    <glyph glyph-name="dotaccent.uc" horiz-adv-x="404" 
d="M200 787c-21 0 -38 17 -38 38c0 20 17 37 38 37s38 -17 38 -37c0 -21 -17 -38 -38 -38z" />
    <glyph glyph-name="two.oldtab" horiz-adv-x="600" 
d="M61 13l252 229c80 69 134 126 134 208c0 84 -55 133 -146 133s-152 -55 -167 -163h-49c11 124 96 207 216 207s201 -69 201 -177c0 -96 -69 -159 -160 -242l-182 -163h353v-45h-452v13z" />
    <glyph glyph-name="uni044C.bgr" horiz-adv-x="480" 
d="M261 -7c-113 0 -181 64 -181 179v351h53v-200c16 3 57 11 112 11c121 0 200 -54 200 -165v-3c0 -112 -85 -173 -184 -173zM261 34c84 0 131 54 131 130v3c0 80 -47 125 -146 125c-52 0 -97 -8 -113 -12v-108c0 -84 43 -138 128 -138z" />
    <glyph glyph-name="breve.uc" horiz-adv-x="404" 
d="M199 771c-67 0 -123 52 -126 122h44c5 -47 35 -78 82 -78s79 31 86 78h43c-5 -70 -60 -122 -129 -122z" />
    <glyph glyph-name="uni0439.bgr" horiz-adv-x="579" 
d="M286 616c-67 0 -123 51 -126 123h47c3 -47 31 -85 79 -85s78 38 83 85h46c-5 -72 -62 -123 -129 -123zM261 -8c-108 0 -184 56 -184 200v331h53v-328c0 -112 51 -157 143 -157c84 0 171 57 171 167v318h53v-523h-53v100c-24 -56 -91 -108 -183 -108z" />
    <glyph glyph-name="caron.uc" horiz-adv-x="404" 
d="M65 893h42l93 -77l94 77h41l-111 -122h-50z" />
    <glyph glyph-name="circumflex.uc" horiz-adv-x="404" 
d="M176 893h50l108 -122h-42l-92 78l-93 -78h-41z" />
    <glyph glyph-name="uni0414.bgr" horiz-adv-x="684" 
d="M117 47h447l-224 622zM46 -130h-46v177h65l240 668h74l240 -668h65v-177h-46l-4 130h-584z" />
    <glyph glyph-name="uni0416.bgr" horiz-adv-x="869" 
d="M407 715h54v-715h-54v715zM780 0l-318 362l306 353h62l-307 -348l323 -367h-66zM23 0l322 364l-309 351h63l306 -353l-318 -362h-64z" />
    <glyph glyph-name="four.oldtab" horiz-adv-x="600" 
d="M402 66h-363v17l338 535h78v-508h96v-44h-96v-163h-53v163zM402 110v467l-293 -467h293z" />
    <glyph glyph-name="one.oldtab" horiz-adv-x="600" 
d="M327 560l-219 -164v52l226 171h47v-619h-54v560z" />
    <glyph glyph-name="acute.uc" horiz-adv-x="404" 
d="M238 893h66l-88 -122h-42z" />
    <glyph glyph-name="uni041A.bgr" horiz-adv-x="599" 
d="M148 361v-361h-56v715h56v-352l347 352h64l-346 -348l363 -367h-68z" />
    <glyph glyph-name="uni0436.bgr" horiz-adv-x="678" 
d="M313 773h52v-773h-52v773zM599 0l-233 273l219 250h58l-221 -247l239 -276h-62zM18 0l239 276l-222 247h58l219 -250l-233 -273h-61z" />
    <glyph glyph-name="macron.uc" horiz-adv-x="404" 
d="M76 833h248v-42h-248v42z" />
    <glyph glyph-name="dieresis.uc" horiz-adv-x="404" 
d="M110 788c-21 0 -37 17 -37 37c0 19 16 36 37 36c20 0 36 -17 36 -36c0 -20 -16 -37 -36 -37zM290 788c-20 0 -36 17 -36 37c0 19 16 36 36 36s36 -17 36 -36c0 -20 -16 -37 -36 -37z" />
    <glyph glyph-name="six.oldtab" horiz-adv-x="600" 
d="M309 -8c-170 0 -239 125 -239 290v77c0 251 107 364 258 364c105 0 177 -55 196 -159h-53c-15 72 -62 114 -146 114c-118 0 -198 -90 -201 -314v-38c31 76 108 118 191 118c145 0 226 -98 226 -225c0 -134 -92 -227 -232 -227zM309 35c105 0 176 73 176 182
c0 111 -64 183 -177 183c-96 0 -179 -69 -179 -173c0 -105 62 -192 180 -192z" />
    <glyph glyph-name="uni0432.bgr" horiz-adv-x="504" 
d="M61 530c0 164 69 250 190 250c120 0 185 -79 185 -189v-3c0 -84 -49 -157 -120 -170c79 -13 145 -76 145 -191v-5c0 -141 -88 -230 -200 -230c-144 0 -200 100 -200 248v290zM114 438h133c94 0 133 71 133 150v3c0 79 -38 144 -130 144s-136 -71 -136 -202v-95zM259 37
c88 0 148 65 148 185v5c0 101 -52 168 -160 168h-133v-159c0 -122 38 -199 145 -199z" />
    <glyph glyph-name="grave.uc" horiz-adv-x="404" 
d="M96 893h66l64 -122h-42z" />
    <glyph glyph-name="at.uc" horiz-adv-x="902" 
d="M454 -58c-261 0 -402 187 -402 394c0 237 193 415 412 415c231 0 383 -155 383 -355c0 -177 -91 -244 -171 -244c-72 0 -106 35 -110 98c-24 -52 -78 -105 -150 -105c-92 0 -154 64 -154 168c0 130 86 225 188 225c72 0 114 -41 127 -90l8 82h54l-27 -233
c-9 -65 8 -106 64 -106c67 0 123 61 123 203c0 184 -123 313 -335 313c-200 0 -361 -155 -361 -370c0 -187 119 -351 351 -351c128 0 206 41 261 98h52c-47 -79 -162 -142 -313 -142zM426 186c75 0 141 76 141 179c0 84 -45 131 -113 131c-72 0 -138 -71 -138 -182
c0 -81 45 -128 110 -128z" />
    <glyph glyph-name="bar.uc" horiz-adv-x="245" 
d="M98 778h45v-862h-45v862z" />
    <glyph glyph-name="backslash.uc" horiz-adv-x="395" 
d="M37 778h50l271 -862h-50z" />
    <glyph glyph-name="uni0424.bgr" horiz-adv-x="800" 
d="M427 657c189 -3 321 -94 321 -293v-8c0 -198 -136 -288 -321 -291v-75h-54v75c-189 3 -321 92 -321 288v7c0 203 134 294 321 297v68h54v-68zM427 108c156 3 264 69 264 249v8c0 174 -103 247 -264 250v-507zM373 614c-157 -3 -264 -70 -264 -255v-6
c0 -171 103 -243 264 -246v507z" />
    <glyph glyph-name="yen.oldtab" horiz-adv-x="600" 
d="M101 334h167l-205 360h59l183 -330l173 330h52l-191 -360h165v-38h-174v-94h174v-38h-174v-164h-53v164h-176v38h176v94h-176v38z" />
    <glyph glyph-name="slash.uc" horiz-adv-x="395" 
d="M304 778h50l-272 -862h-50z" />
    <glyph glyph-name="braceright.uc" horiz-adv-x="368" 
d="M42 -46c102 0 149 32 130 148l-16 103c-15 83 27 125 94 141c-67 16 -109 58 -94 141l16 103c19 116 -28 148 -130 148v41c135 0 205 -47 181 -189l-17 -97c-13 -69 16 -127 116 -127v-40c-101 0 -129 -56 -116 -127l17 -97c24 -142 -46 -189 -181 -189v41z" />
    <glyph glyph-name="braceleft.uc" horiz-adv-x="368" 
d="M322 -87c-136 0 -205 47 -181 189l16 97c11 71 -13 127 -115 127v40c102 0 126 58 115 127l-16 97c-24 142 45 189 181 189v-41c-104 0 -150 -32 -131 -148l17 -103c13 -83 -27 -125 -94 -141c67 -16 107 -58 94 -141l-17 -103c-19 -116 27 -148 131 -148v-41z" />
    <glyph glyph-name="Euro.oldtab" horiz-adv-x="600" 
d="M34 431h60c5 165 91 270 236 270c123 0 192 -72 208 -197h-51c-15 100 -62 153 -157 153c-116 0 -178 -81 -182 -226h227l-8 -38h-219v-94h201l-7 -38h-194c5 -147 64 -224 183 -224c100 0 151 60 168 168h50c-16 -136 -95 -213 -218 -213c-145 0 -232 98 -237 269h-60
v38h60v94h-60v38z" />
    <glyph glyph-name="uni0442.bgr" horiz-adv-x="904" 
d="M82 523h53v-99c24 57 85 107 171 107c79 0 137 -33 160 -117c33 75 106 117 186 117c101 0 175 -55 175 -204v-327h-53v330c0 112 -47 155 -131 155c-80 0 -162 -57 -162 -166v-319h-53v330c0 112 -47 155 -131 155c-80 0 -162 -57 -162 -166v-319h-53v523z" />
    <glyph glyph-name="bracketright.uc" horiz-adv-x="344" 
d="M42 -41h152v776h-152v43h205v-862h-205v43z" />
    <glyph glyph-name="bracketleft.uc" horiz-adv-x="344" 
d="M93 778h206v-43h-153v-776h153v-43h-206v862z" />
    <glyph glyph-name="parenright.uc" horiz-adv-x="301" 
d="M26 -98c85 109 158 257 158 441c0 182 -73 331 -158 440h53c88 -104 160 -257 160 -440c0 -184 -72 -338 -160 -441h-53z" />
    <glyph glyph-name="parenleft.uc" horiz-adv-x="301" 
d="M218 -98c-88 103 -161 257 -161 440c0 182 74 338 161 441h53c-86 -110 -158 -257 -158 -441c0 -185 72 -330 158 -440h-53z" />
    <glyph glyph-name="guillemotright.uc" horiz-adv-x="452" 
d="M179 301l-132 183h54l135 -183l-135 -183h-54zM337 301l-132 183h54l135 -183l-135 -183h-54z" />
    <glyph glyph-name="guillemotleft.uc" horiz-adv-x="452" 
d="M54 301l135 183h54l-132 -183l132 -183h-54zM212 301l135 183h54l-132 -183l132 -183h-54z" />
    <glyph glyph-name="guilsinglright.uc" horiz-adv-x="294" 
d="M179 301l-132 183h54l135 -183l-135 -183h-54z" />
    <glyph glyph-name="guilsinglleft.uc" horiz-adv-x="294" 
d="M54 301l135 183h54l-132 -183l132 -183h-54z" />
    <glyph glyph-name="emdash.uc" horiz-adv-x="873" 
d="M46 355h777v-46h-777v46z" />
    <glyph glyph-name="endash.uc" horiz-adv-x="507" 
d="M46 355h411v-46h-411v46z" />
    <glyph glyph-name="hyphen.uc" horiz-adv-x="362" 
d="M62 358h235v-50h-235v50z" />
    <glyph glyph-name="exclamdown.uc" horiz-adv-x="276" 
d="M136 719c24 0 43 -18 43 -41c0 -24 -19 -43 -43 -43c-23 0 -42 19 -42 43c0 23 19 41 42 41zM165 0h-59l8 536h42z" />
    <glyph glyph-name="questiondown.uc" horiz-adv-x="481" 
d="M288 479c0 -80 -45 -124 -100 -179c-45 -45 -85 -83 -85 -146c0 -68 41 -117 130 -117c88 0 147 57 155 150h51c-8 -117 -89 -195 -207 -195c-125 0 -184 75 -184 160c0 80 49 122 103 176c51 51 89 87 89 155v53h48v-57zM265 719c24 0 43 -18 43 -41
c0 -24 -19 -43 -43 -43c-23 0 -42 19 -42 43c0 23 19 41 42 41z" />
    <glyph glyph-name="caron.alt" horiz-adv-x="338" 
d="M156 773h60l-33 -162h-39z" />
    <glyph glyph-name="registered.alt" horiz-adv-x="848" 
d="M296 566h123c87 0 145 -33 145 -114v-2c0 -67 -41 -100 -98 -109l122 -183h-57l-119 176h-64v-176h-52v408zM418 373c60 0 95 22 95 75v3c0 56 -36 74 -95 74h-70v-152h70zM421 23c180 0 331 141 331 336c0 192 -145 333 -329 333c-183 0 -331 -142 -331 -335
c0 -195 152 -334 329 -334zM421 -9c-204 0 -366 159 -366 366c0 204 162 367 368 367c208 0 366 -162 366 -365c0 -209 -162 -368 -368 -368z" />
    <glyph glyph-name="space_uni0326.alt" horiz-adv-x="404" 
d="M163 622l75 148l35 -17l-58 -146z" />
    <glyph glyph-name="tcommaaccent.alt" horiz-adv-x="323" 
d="M64 -188l58 147l51 -15l-75 -148zM112 478h-87v45h87v119h53v-119h127v-45h-127v-478h-53v478z" />
    <glyph glyph-name="tcaron.alt" horiz-adv-x="323" 
d="M112 478h-87v45h87v119h53v-119h127v-45h-127v-478h-53v478zM255 773h60l-33 -162h-39z" />
    <glyph glyph-name="germandbls.alt" horiz-adv-x="599" 
d="M391 -7c-102 0 -166 63 -169 144h51c5 -51 42 -99 118 -99c68 0 114 37 114 109c0 62 -51 89 -116 124c-69 37 -124 68 -124 131c0 96 164 131 164 229c0 64 -48 101 -128 101c-104 0 -166 -68 -166 -184v-548h-53v546c0 139 89 230 219 230c105 0 179 -55 179 -144
c0 -119 -165 -151 -165 -229c0 -36 37 -51 112 -94c71 -40 133 -80 133 -161c0 -98 -70 -155 -169 -155z" />
    <glyph glyph-name="atilde.alt" horiz-adv-x="606" 
d="M274 -8c-124 0 -231 96 -231 262v8c0 161 108 269 239 269c97 0 155 -58 184 -122v114h54v-523h-54v120c-27 -62 -99 -128 -192 -128zM279 37c100 0 189 77 189 221v8c0 144 -78 220 -182 220c-105 0 -188 -82 -188 -222v-8c0 -143 82 -219 181 -219zM354 616
c-47 0 -89 53 -124 53c-21 0 -40 -20 -45 -53h-41c8 64 43 99 87 99c48 0 87 -53 123 -53c21 0 41 18 46 53h40c-8 -64 -43 -99 -86 -99z" />
    <glyph glyph-name="aringacute.alt" horiz-adv-x="606" 
d="M274 -8c-124 0 -231 96 -231 262v8c0 161 108 269 239 269c97 0 155 -58 184 -122v114h54v-523h-54v120c-27 -62 -99 -128 -192 -128zM279 37c100 0 189 77 189 221v8c0 144 -78 220 -182 220c-105 0 -188 -82 -188 -222v-8c0 -143 82 -219 181 -219zM290 623
c35 0 61 27 61 63c0 37 -26 64 -61 64s-61 -27 -61 -64c0 -36 26 -63 61 -63zM290 591c-52 0 -98 43 -98 95s46 96 98 96c54 0 98 -44 98 -96s-44 -95 -98 -95zM332 951h66l-88 -122h-42z" />
    <glyph glyph-name="uni20B4.old" horiz-adv-x="563" 
d="M274 -8c-129 0 -216 56 -216 168c0 49 13 83 40 112h-68v38h114c36 24 81 44 136 69c20 9 38 17 54 25h-304v38h363c31 27 42 58 42 107c0 73 -53 108 -141 108c-100 0 -152 -42 -167 -125h-49c15 108 89 169 216 169c116 0 194 -51 194 -152c0 -47 -13 -79 -37 -107h82
v-38h-126c-31 -20 -70 -39 -117 -60c-27 -12 -50 -23 -70 -34h313v-38h-373c-32 -27 -48 -60 -48 -111c0 -84 66 -125 162 -125c128 0 176 72 189 157h52c-13 -111 -86 -201 -241 -201z" />
    <glyph glyph-name="aring.alt" horiz-adv-x="606" 
d="M274 -8c-124 0 -231 96 -231 262v8c0 161 108 269 239 269c97 0 155 -58 184 -122v114h54v-523h-54v120c-27 -62 -99 -128 -192 -128zM279 37c100 0 189 77 189 221v8c0 144 -78 220 -182 220c-105 0 -188 -82 -188 -222v-8c0 -143 82 -219 181 -219zM290 633
c35 0 61 27 61 63c0 37 -26 64 -61 64s-61 -27 -61 -64c0 -36 26 -63 61 -63zM290 601c-52 0 -98 43 -98 95s46 96 98 96c54 0 98 -44 98 -96s-44 -95 -98 -95z" />
    <glyph glyph-name="aogonek.alt" horiz-adv-x="606" 
d="M482 -182c-59 0 -93 30 -93 75s36 84 77 107v120c-27 -62 -99 -128 -192 -128c-124 0 -231 96 -231 262v8c0 161 108 269 239 269c97 0 155 -58 184 -122v114h54v-520c-55 -35 -80 -65 -80 -101c0 -27 16 -44 49 -44c17 0 35 3 50 10v-39c-15 -7 -33 -11 -57 -11zM279 37
c100 0 189 77 189 221v8c0 144 -78 220 -182 220c-105 0 -188 -82 -188 -222v-8c0 -143 82 -219 181 -219z" />
    <glyph glyph-name="amacron.alt" horiz-adv-x="606" 
d="M274 -8c-124 0 -231 96 -231 262v8c0 161 108 269 239 269c97 0 155 -58 184 -122v114h54v-523h-54v120c-27 -62 -99 -128 -192 -128zM279 37c100 0 189 77 189 221v8c0 144 -78 220 -182 220c-105 0 -188 -82 -188 -222v-8c0 -143 82 -219 181 -219zM172 689h242v-42
h-242v42z" />
    <glyph glyph-name="agrave.alt" horiz-adv-x="606" 
d="M274 -8c-124 0 -231 96 -231 262v8c0 161 108 269 239 269c97 0 155 -58 184 -122v114h54v-523h-54v120c-27 -62 -99 -128 -192 -128zM279 37c100 0 189 77 189 221v8c0 144 -78 220 -182 220c-105 0 -188 -82 -188 -222v-8c0 -143 82 -219 181 -219zM186 752h65l68 -147
h-41z" />
    <glyph glyph-name="adieresis.alt" horiz-adv-x="606" 
d="M274 -8c-124 0 -231 96 -231 262v8c0 161 108 269 239 269c97 0 155 -58 184 -122v114h54v-523h-54v120c-27 -62 -99 -128 -192 -128zM279 37c100 0 189 77 189 221v8c0 144 -78 220 -182 220c-105 0 -188 -82 -188 -222v-8c0 -143 82 -219 181 -219zM211 636
c-21 0 -37 17 -37 37s16 36 37 36c20 0 36 -16 36 -36s-16 -37 -36 -37zM377 636c-20 0 -36 17 -36 37s16 36 36 36c21 0 37 -16 37 -36s-16 -37 -37 -37z" />
    <glyph glyph-name="acircumflex.alt" horiz-adv-x="606" 
d="M274 -8c-124 0 -231 96 -231 262v8c0 161 108 269 239 269c97 0 155 -58 184 -122v114h54v-523h-54v120c-27 -62 -99 -128 -192 -128zM279 37c100 0 189 77 189 221v8c0 144 -78 220 -182 220c-105 0 -188 -82 -188 -222v-8c0 -143 82 -219 181 -219zM269 740h50
l108 -135h-42l-92 90l-93 -90h-41z" />
    <glyph glyph-name="abreve.alt" horiz-adv-x="606" 
d="M274 -8c-124 0 -231 96 -231 262v8c0 161 108 269 239 269c97 0 155 -58 184 -122v114h54v-523h-54v120c-27 -62 -99 -128 -192 -128zM279 37c100 0 189 77 189 221v8c0 144 -78 220 -182 220c-105 0 -188 -82 -188 -222v-8c0 -143 82 -219 181 -219zM292 616
c-68 0 -118 49 -122 121h44c5 -47 31 -77 78 -77s76 30 83 77h42c-4 -72 -57 -121 -125 -121z" />
    <glyph glyph-name="aacute.alt" horiz-adv-x="606" 
d="M274 -8c-124 0 -231 96 -231 262v8c0 161 108 269 239 269c97 0 155 -58 184 -122v114h54v-523h-54v120c-27 -62 -99 -128 -192 -128zM279 37c100 0 189 77 189 221v8c0 144 -78 220 -182 220c-105 0 -188 -82 -188 -222v-8c0 -143 82 -219 181 -219zM332 752h65
l-92 -147h-41z" />
    <glyph glyph-name="ring.uc" horiz-adv-x="404" 
d="M200 786c35 0 61 28 61 64s-26 64 -61 64s-61 -28 -61 -64s26 -64 61 -64zM200 754c-52 0 -98 44 -98 96s46 95 98 95c54 0 98 -43 98 -95s-44 -96 -98 -96z" />
    <glyph glyph-name="uni043F.locl" horiz-adv-x="563" 
d="M427 478h-291v-478h-53v523h397v-523h-53v478z" />
    <glyph glyph-name="minus.sup" horiz-adv-x="327" 
d="M38 618h248v-36h-248v36z" />
    <glyph glyph-name="uni041B.bgr" horiz-adv-x="654" 
d="M325 669l-239 -669h-53l257 715h74l257 -715h-56z" />
    <glyph glyph-name="plus.sup" horiz-adv-x="327" 
d="M142 582h-104v36h104v109h38v-109h106v-36h-106v-109h-38v109z" />
    <glyph glyph-name="nine.sup" horiz-adv-x="321" 
d="M149 426c-61 0 -105 32 -113 88h42c8 -35 32 -53 72 -53c56 0 89 36 89 128v15c-17 -33 -52 -52 -92 -52c-71 0 -115 43 -115 110c0 69 48 115 123 115c89 0 129 -60 129 -152v-29c0 -120 -51 -170 -135 -170zM154 585c45 0 81 28 81 75s-29 83 -80 83
c-47 0 -79 -32 -79 -80c0 -47 30 -78 78 -78z" />
    <glyph glyph-name="eight.sup" horiz-adv-x="318" 
d="M157 426c-69 0 -126 32 -126 99c0 47 31 77 74 88c-35 11 -60 38 -60 75c0 56 52 89 112 89s112 -34 112 -88c0 -39 -24 -64 -59 -75c43 -13 73 -41 73 -88c0 -66 -54 -100 -126 -100zM157 460c47 0 81 22 81 69c0 43 -35 68 -80 68s-82 -25 -82 -69c0 -47 36 -68 81 -68
zM158 628c39 0 68 20 68 59c0 35 -29 56 -69 56c-39 0 -69 -22 -69 -57c0 -39 35 -58 70 -58z" />
    <glyph glyph-name="seven.sup" horiz-adv-x="274" 
d="M197 736h-180v37h237v-6l-135 -337h-46z" />
    <glyph glyph-name="six.sup" horiz-adv-x="322" 
d="M163 426c-93 0 -128 65 -128 152v18c0 123 57 181 138 181c56 0 96 -28 104 -85h-41c-6 33 -28 50 -65 50c-55 0 -91 -43 -92 -136v-8c16 32 52 52 93 52c69 0 115 -45 115 -110c0 -69 -48 -114 -124 -114zM163 459c47 0 79 32 79 80c0 47 -30 79 -78 79
c-45 0 -82 -29 -82 -76s29 -83 81 -83z" />
    <glyph glyph-name="five.sup" horiz-adv-x="300" 
d="M142 426c-76 0 -114 42 -119 97h43c5 -35 25 -62 76 -62c47 0 75 32 75 81s-30 80 -73 80c-39 0 -64 -14 -80 -34h-23l2 185h200v-35h-164l-1 -112c15 15 42 30 79 30c61 0 106 -43 106 -114c0 -72 -49 -116 -121 -116z" />
    <glyph glyph-name="four.sup" horiz-adv-x="314" 
d="M196 504h-178v15l164 254h57v-235h47v-34h-47v-74h-43v74zM197 538v201l-128 -201h128z" />
    <glyph glyph-name="three.sup" horiz-adv-x="313" 
d="M153 426c-80 0 -126 44 -129 105h41c5 -39 31 -71 87 -71c51 0 78 24 78 67c0 39 -26 65 -73 65h-27v33h25c45 0 66 24 66 59s-24 59 -67 59c-47 0 -72 -27 -77 -66h-40c4 56 46 100 118 100c68 0 109 -39 109 -91c0 -39 -24 -64 -59 -75c40 -9 70 -38 70 -85
c0 -64 -47 -100 -122 -100z" />
    <glyph glyph-name="two.sup" horiz-adv-x="290" 
d="M15 439l130 131c41 43 62 72 62 108c0 40 -26 64 -66 64c-44 0 -68 -27 -75 -78h-41c4 72 49 113 117 113s109 -39 109 -98c0 -47 -24 -80 -72 -127l-90 -87h166v-35h-240v9z" />
    <glyph glyph-name="one.sup" horiz-adv-x="224" 
d="M109 726l-88 -61v41l96 67h37v-343h-45v296z" />
    <glyph glyph-name="zero.sup" horiz-adv-x="354" 
d="M176 462c60 0 95 41 95 129v23c0 83 -37 127 -97 127s-95 -44 -95 -128v-24c0 -87 37 -127 97 -127zM175 426c-87 0 -141 59 -141 163v23c0 104 55 165 140 165s142 -59 142 -163v-24c0 -103 -53 -164 -141 -164z" />
    <glyph glyph-name="minus.sub" horiz-adv-x="327" 
d="M38 100h248v-36h-248v36z" />
    <glyph glyph-name="plus.sub" horiz-adv-x="327" 
d="M142 64h-104v36h104v109h38v-109h106v-36h-106v-109h-38v109z" />
    <glyph glyph-name="nine.sub" horiz-adv-x="321" 
d="M149 -90c-61 0 -105 32 -113 88h42c8 -35 32 -53 72 -53c56 0 89 36 89 128v15c-17 -33 -52 -52 -92 -52c-71 0 -115 43 -115 110c0 69 48 115 123 115c89 0 129 -60 129 -152v-29c0 -120 -51 -170 -135 -170zM154 69c45 0 81 28 81 75s-29 83 -80 83
c-47 0 -79 -32 -79 -80c0 -47 30 -78 78 -78z" />
    <glyph glyph-name="eight.sub" horiz-adv-x="318" 
d="M157 -90c-69 0 -126 32 -126 99c0 47 31 77 74 88c-35 11 -60 38 -60 75c0 56 52 89 112 89s112 -34 112 -88c0 -39 -24 -64 -59 -75c43 -13 73 -41 73 -88c0 -66 -54 -100 -126 -100zM157 -56c47 0 81 22 81 69c0 43 -35 68 -80 68s-82 -25 -82 -69c0 -47 36 -68 81 -68
zM158 112c39 0 68 20 68 59c0 35 -29 56 -69 56c-39 0 -69 -22 -69 -57c0 -39 35 -58 70 -58z" />
    <glyph glyph-name="seven.sub" horiz-adv-x="274" 
d="M197 220h-180v37h237v-6l-135 -337h-46z" />
    <glyph glyph-name="six.sub" horiz-adv-x="322" 
d="M163 -90c-93 0 -128 65 -128 152v18c0 123 57 181 138 181c56 0 96 -28 104 -85h-41c-6 33 -28 50 -65 50c-55 0 -91 -43 -92 -136v-8c16 32 52 52 93 52c69 0 115 -45 115 -110c0 -69 -48 -114 -124 -114zM163 -57c47 0 79 32 79 80c0 47 -30 79 -78 79
c-45 0 -82 -29 -82 -76s29 -83 81 -83z" />
    <glyph glyph-name="five.sub" horiz-adv-x="300" 
d="M142 -90c-76 0 -114 42 -119 97h43c5 -35 25 -62 76 -62c47 0 75 32 75 81s-30 80 -73 80c-39 0 -64 -14 -80 -34h-23l2 185h200v-35h-164l-1 -112c15 15 42 30 79 30c61 0 106 -43 106 -114c0 -72 -49 -116 -121 -116z" />
    <glyph glyph-name="four.sub" horiz-adv-x="314" 
d="M196 -12h-178v15l164 254h57v-235h47v-34h-47v-74h-43v74zM197 22v201l-128 -201h128z" />
    <glyph glyph-name="uni043F.bgr" horiz-adv-x="583" 
d="M82 523h53v-102c24 57 91 110 185 110c111 0 186 -60 186 -209v-322h-53v325c0 112 -52 160 -145 160c-87 0 -173 -59 -173 -168v-317h-53v523z" />
    <glyph glyph-name="two.sub" horiz-adv-x="290" 
d="M15 -77l130 131c41 43 62 72 62 108c0 40 -26 64 -66 64c-44 0 -68 -27 -75 -78h-41c4 72 49 113 117 113s109 -39 109 -98c0 -47 -24 -80 -72 -127l-90 -87h166v-35h-240v9z" />
    <glyph glyph-name="one.sub" horiz-adv-x="224" 
d="M109 210l-88 -61v41l96 67h37v-343h-45v296z" />
    <glyph glyph-name="zero.sub" horiz-adv-x="354" 
d="M176 -54c60 0 95 41 95 129v23c0 83 -37 127 -97 127s-95 -44 -95 -128v-24c0 -87 37 -127 97 -127zM175 -90c-87 0 -141 59 -141 163v23c0 104 55 165 140 165s142 -59 142 -163v-24c0 -103 -53 -164 -141 -164z" />
    <glyph glyph-name="nine.den" horiz-adv-x="321" 
d="M149 -4c-61 0 -105 32 -113 88h42c8 -35 32 -53 72 -53c56 0 89 36 89 128v15c-17 -33 -52 -52 -92 -52c-71 0 -115 43 -115 110c0 69 48 115 123 115c89 0 129 -60 129 -152v-29c0 -120 -51 -170 -135 -170zM154 155c45 0 81 28 81 75s-29 83 -80 83
c-47 0 -79 -32 -79 -80c0 -47 30 -78 78 -78z" />
    <glyph glyph-name="eight.den" horiz-adv-x="318" 
d="M157 -4c-69 0 -126 32 -126 99c0 47 31 77 74 88c-35 11 -60 38 -60 75c0 56 52 89 112 89s112 -34 112 -88c0 -39 -24 -64 -59 -75c43 -13 73 -41 73 -88c0 -66 -54 -100 -126 -100zM157 30c47 0 81 22 81 69c0 43 -35 68 -80 68s-82 -25 -82 -69c0 -47 36 -68 81 -68z
M158 198c39 0 68 20 68 59c0 35 -29 56 -69 56c-39 0 -69 -22 -69 -57c0 -39 35 -58 70 -58z" />
    <glyph glyph-name="seven.den" horiz-adv-x="274" 
d="M197 306h-180v37h237v-6l-135 -337h-46z" />
    <glyph glyph-name="six.den" horiz-adv-x="322" 
d="M163 -4c-93 0 -128 65 -128 152v18c0 123 57 181 138 181c56 0 96 -28 104 -85h-41c-6 33 -28 50 -65 50c-55 0 -91 -43 -92 -136v-8c16 32 52 52 93 52c69 0 115 -45 115 -110c0 -69 -48 -114 -124 -114zM163 29c47 0 79 32 79 80c0 47 -30 79 -78 79
c-45 0 -82 -29 -82 -76s29 -83 81 -83z" />
    <glyph glyph-name="five.den" horiz-adv-x="300" 
d="M142 -4c-76 0 -114 42 -119 97h43c5 -35 25 -62 76 -62c47 0 75 32 75 81s-30 80 -73 80c-39 0 -64 -14 -80 -34h-23l2 185h200v-35h-164l-1 -112c15 15 42 30 79 30c61 0 106 -43 106 -114c0 -72 -49 -116 -121 -116z" />
    <glyph glyph-name="four.den" horiz-adv-x="314" 
d="M196 74h-178v15l164 254h57v-235h47v-34h-47v-74h-43v74zM197 108v201l-128 -201h128z" />
    <glyph glyph-name="three.den" horiz-adv-x="313" 
d="M153 -4c-80 0 -126 44 -129 105h41c5 -39 31 -71 87 -71c51 0 78 24 78 67c0 39 -26 65 -73 65h-27v33h25c45 0 66 24 66 59s-24 59 -67 59c-47 0 -72 -27 -77 -66h-40c4 56 46 100 118 100c68 0 109 -39 109 -91c0 -39 -24 -64 -59 -75c40 -9 70 -38 70 -85
c0 -64 -47 -100 -122 -100z" />
    <glyph glyph-name="uni0442.locl" horiz-adv-x="465" 
d="M440 478h-181v-478h-53v478h-181v45h415v-45z" />
    <glyph glyph-name="uni20BD.old" horiz-adv-x="590" 
d="M322 346c113 0 180 48 180 157v4c0 113 -72 153 -181 153h-135v-314h136zM186 170v-170h-55v170h-99v38h99v94h-99v38h99v365h186c138 0 241 -55 241 -198v-4c0 -145 -103 -202 -239 -202h-133v-93h245v-38h-245z" />
    <glyph glyph-name="one.den" horiz-adv-x="224" 
d="M109 296l-88 -61v41l96 67h37v-343h-45v296z" />
    <glyph glyph-name="zero.den" horiz-adv-x="354" 
d="M176 32c60 0 95 41 95 129v23c0 83 -37 127 -97 127s-95 -44 -95 -128v-24c0 -87 37 -127 97 -127zM175 -4c-87 0 -141 59 -141 163v23c0 104 55 165 140 165s142 -59 142 -163v-24c0 -103 -53 -164 -141 -164z" />
    <glyph glyph-name="nine.num" horiz-adv-x="321" 
d="M149 368c-61 0 -105 32 -113 88h42c8 -35 32 -53 72 -53c56 0 89 36 89 128v15c-17 -33 -52 -52 -92 -52c-71 0 -115 43 -115 110c0 69 48 115 123 115c89 0 129 -60 129 -152v-29c0 -120 -51 -170 -135 -170zM154 527c45 0 81 28 81 75s-29 83 -80 83
c-47 0 -79 -32 -79 -80c0 -47 30 -78 78 -78z" />
    <glyph glyph-name="eight.num" horiz-adv-x="318" 
d="M157 368c-69 0 -126 32 -126 99c0 47 31 77 74 88c-35 11 -60 38 -60 75c0 56 52 89 112 89s112 -34 112 -88c0 -39 -24 -64 -59 -75c43 -13 73 -41 73 -88c0 -66 -54 -100 -126 -100zM157 402c47 0 81 22 81 69c0 43 -35 68 -80 68s-82 -25 -82 -69c0 -47 36 -68 81 -68
zM158 570c39 0 68 20 68 59c0 35 -29 56 -69 56c-39 0 -69 -22 -69 -57c0 -39 35 -58 70 -58z" />
    <glyph glyph-name="seven.num" horiz-adv-x="273" 
d="M197 678h-180v37h237v-6l-135 -337h-46z" />
    <glyph glyph-name="six.num" horiz-adv-x="321" 
d="M163 368c-93 0 -128 65 -128 152v18c0 123 57 181 138 181c56 0 96 -28 104 -85h-41c-6 33 -28 50 -65 50c-55 0 -91 -43 -92 -136v-8c16 32 52 52 93 52c69 0 115 -45 115 -110c0 -69 -48 -114 -124 -114zM163 401c47 0 79 32 79 80c0 47 -30 79 -78 79
c-45 0 -82 -29 -82 -76s29 -83 81 -83z" />
    <glyph glyph-name="five.num" horiz-adv-x="299" 
d="M142 368c-76 0 -114 42 -119 97h43c5 -35 25 -62 76 -62c47 0 75 32 75 81s-30 80 -73 80c-39 0 -64 -14 -80 -34h-23l2 185h200v-35h-164l-1 -112c15 15 42 30 79 30c61 0 106 -43 106 -114c0 -72 -49 -116 -121 -116z" />
    <glyph glyph-name="four.num" horiz-adv-x="314" 
d="M196 446h-178v15l164 254h57v-235h47v-34h-47v-74h-43v74zM197 480v201l-128 -201h128z" />
    <glyph glyph-name="three.num" horiz-adv-x="312" 
d="M153 368c-80 0 -126 44 -129 105h41c5 -39 31 -71 87 -71c51 0 78 24 78 67c0 39 -26 65 -73 65h-27v33h25c45 0 66 24 66 59s-24 59 -67 59c-47 0 -72 -27 -77 -66h-40c4 56 46 100 118 100c68 0 109 -39 109 -91c0 -39 -24 -64 -59 -75c40 -9 70 -38 70 -85
c0 -64 -47 -100 -122 -100z" />
    <glyph glyph-name="two.num" horiz-adv-x="289" 
d="M15 381l130 131c41 43 62 72 62 108c0 40 -26 64 -66 64c-44 0 -68 -27 -75 -78h-41c4 72 49 113 117 113s109 -39 109 -98c0 -47 -24 -80 -72 -127l-90 -87h166v-35h-240v9z" />
    <glyph glyph-name="one.num" horiz-adv-x="223" 
d="M109 668l-88 -61v41l96 67h37v-343h-45v296z" />
    <glyph glyph-name="zero.num" horiz-adv-x="354" 
d="M176 404c60 0 95 41 95 129v23c0 83 -37 127 -97 127s-95 -44 -95 -128v-24c0 -87 37 -127 97 -127zM175 368c-87 0 -141 59 -141 163v23c0 104 55 165 140 165s142 -59 142 -163v-24c0 -103 -53 -164 -141 -164z" />
    <glyph glyph-name="uni045D.bgr" horiz-adv-x="579" 
d="M261 -8c-108 0 -184 56 -184 200v331h53v-328c0 -112 51 -157 143 -157c84 0 171 57 171 167v318h53v-523h-53v100c-24 -56 -91 -108 -183 -108zM182 752h65l68 -147h-41z" />
    <glyph glyph-name="braceright.tab" horiz-adv-x="304" 
d="M39 -106c86 0 133 34 109 156l-24 120c-16 83 28 122 90 144c-63 22 -106 60 -90 144l24 120c24 122 -22 156 -109 156v42c122 0 188 -52 159 -199l-23 -114c-15 -71 13 -117 98 -129v-40c-85 -12 -113 -58 -98 -129l23 -114c29 -147 -37 -199 -159 -199v42z" />
    <glyph glyph-name="braceleft.tab" horiz-adv-x="304" 
d="M261 -148c-122 0 -188 52 -159 199l23 114c15 71 -13 117 -98 129v40c85 12 113 58 98 129l-23 114c-29 147 37 199 159 199v-42c-87 0 -133 -34 -109 -156l24 -120c16 -84 -27 -122 -90 -144c62 -22 106 -61 90 -144l-24 -120c-24 -122 23 -156 109 -156v-42z" />
    <glyph glyph-name="bracketright.tab" horiz-adv-x="304" 
d="M39 -105h132v838h-132v43h185v-924h-185v43z" />
    <glyph glyph-name="bracketleft.tab" horiz-adv-x="304" 
d="M76 776h185v-43h-132v-838h132v-43h-185v924z" />
    <glyph glyph-name="parenright.tab" horiz-adv-x="304" 
d="M35 -148c79 111 147 258 147 460c0 201 -67 350 -147 461h53c81 -110 149 -260 149 -461c0 -200 -68 -352 -149 -460h-53z" />
    <glyph glyph-name="parenleft.tab" horiz-adv-x="304" 
d="M212 -148c-80 107 -148 261 -148 460c0 200 68 352 148 461h54c-80 -111 -147 -260 -147 -461c0 -202 68 -349 147 -460h-54z" />
    <glyph glyph-name="semicolon.tab" horiz-adv-x="304" 
d="M54 -99l77 183l53 -24l-94 -177zM154 320c-23 0 -42 18 -42 42s19 42 42 42c24 0 43 -18 43 -42s-19 -42 -43 -42z" />
    <glyph glyph-name="uni20B8.tab" horiz-adv-x="600" 
d="M56 674v41h488v-41h-488zM272 539h-216v46h488v-46h-216v-539h-56v539z" />
    <glyph glyph-name="colon.tab" horiz-adv-x="304" 
d="M149 -5c-23 0 -42 19 -42 42c0 24 19 43 42 43c24 0 43 -19 43 -43c0 -23 -19 -42 -43 -42zM149 320c-23 0 -42 18 -42 42s19 42 42 42c24 0 43 -18 43 -42s-19 -42 -43 -42z" />
    <glyph glyph-name="comma.tab" horiz-adv-x="304" 
d="M69 -99l77 183l52 -24l-93 -177z" />
    <glyph glyph-name="period.tab" horiz-adv-x="304" 
d="M150 -5c-23 0 -42 19 -42 42c0 24 19 43 42 43c24 0 42 -19 42 -43c0 -23 -18 -42 -42 -42z" />
    <glyph glyph-name="greaterequal.tab" 
d="M114 169l305 159l-305 160v52l384 -205v-13l-384 -205v52zM114 45h384v-45h-384v45z" />
    <glyph glyph-name="eight.oldtab" horiz-adv-x="600" 
d="M301 -8c-119 0 -234 70 -234 205c0 100 67 161 154 185c-72 23 -124 75 -124 159c0 113 98 182 204 182s203 -72 203 -180c0 -87 -51 -137 -123 -160c91 -25 153 -85 153 -184c0 -136 -111 -207 -233 -207zM304 402c83 0 145 49 145 141c0 80 -64 136 -148 136
c-85 0 -150 -55 -150 -138c0 -91 76 -139 153 -139zM301 38c101 0 178 55 178 162c0 101 -80 158 -176 158s-181 -57 -181 -160c0 -107 83 -160 179 -160z" />
    <glyph glyph-name="lessequal.tab" 
d="M103 322v13l384 205v-52l-304 -160l304 -159v-52zM103 45h384v-45h-384v45z" />
    <glyph glyph-name="greater.tab" 
d="M114 156l306 166l-306 166v52l384 -211v-14l-384 -211v52z" />
    <glyph glyph-name="less.tab" 
d="M103 315v14l384 211v-52l-306 -166l306 -166v-52z" />
    <glyph glyph-name="approxequal.tab" 
d="M93 180c7 64 46 102 103 102c78 0 146 -53 210 -53c35 0 56 23 60 55h42c-7 -64 -46 -102 -102 -102c-78 0 -147 53 -211 53c-35 0 -55 -23 -60 -55h-42zM93 347c7 64 46 102 103 102c78 0 146 -54 210 -54c35 0 56 24 60 56h42c-7 -64 -46 -102 -102 -102
c-78 0 -147 53 -211 53c-35 0 -55 -23 -60 -55h-42z" />
    <glyph glyph-name="uni043A.bgr" horiz-adv-x="487" 
d="M135 275v-275h-53v773h53v-498l255 248h63l-255 -246l272 -277h-66z" />
    <glyph glyph-name="notequal.tab" 
d="M97 426h225l50 117h49l-51 -117h131v-46h-150l-52 -121h202v-46h-222l-50 -117h-49l50 117h-133v46h153l52 121h-205v46z" />
    <glyph glyph-name="five.oldtab" horiz-adv-x="600" 
d="M291 -104c-141 0 -216 83 -227 187h51c11 -80 63 -143 176 -143c112 0 180 72 180 192c0 112 -71 184 -168 184c-87 0 -140 -33 -176 -76h-20v379h383v-47h-338v-270c29 31 85 58 160 58c121 0 214 -88 214 -228c0 -146 -102 -236 -235 -236z" />
    <glyph glyph-name="uni043D.bgr" horiz-adv-x="573" 
d="M437 248h-301v-248h-53v523h53v-230h301v230h53v-523h-53v248z" />
    <glyph glyph-name="equal.tab" 
d="M98 259h404v-46h-404v46zM98 426h404v-46h-404v46z" />
    <glyph glyph-name="divide.tab" 
d="M301 122c-24 0 -43 19 -43 43c0 23 19 42 43 42c23 0 42 -19 42 -42c0 -24 -19 -43 -42 -43zM82 365h438v-46h-438v46zM301 477c-24 0 -43 19 -43 43c0 23 19 42 43 42c23 0 42 -19 42 -42c0 -24 -19 -43 -42 -43z" />
    <glyph glyph-name="multiply.tab" 
d="M104 174l161 160l-161 161l31 32l161 -161l161 161l31 -32l-161 -161l161 -160l-31 -31l-161 160l-161 -160z" />
    <glyph glyph-name="plusminus.tab" 
d="M276 330h-195v45h195v199h48v-199h195v-45h-195v-199h-48v199zM81 45h438v-45h-438v45z" />
    <glyph glyph-name="minus.tab" 
d="M82 365h438v-46h-438v46z" />
    <glyph glyph-name="plus.tab" 
d="M276 319h-195v46h195v209h48v-209h195v-46h-195v-209h-48v209z" />
    <glyph glyph-name="uni0433.locl" horiz-adv-x="445" 
d="M136 478v-478h-53v523h332v-45h-279z" />
    <glyph glyph-name="perthousand.tab" horiz-adv-x="1004" 
d="M185 455c52 0 91 44 91 112s-38 113 -91 113s-91 -45 -91 -114c0 -68 38 -111 91 -111zM185 413c-74 0 -140 58 -140 152c0 96 65 156 140 156c76 0 139 -61 139 -154c0 -96 -66 -154 -139 -154zM540 715h51l-456 -715h-50zM492 35c53 0 91 44 91 113
c0 68 -38 112 -91 112s-91 -44 -91 -113s38 -112 91 -112zM492 -7c-73 0 -139 59 -139 153c0 96 65 156 139 156c76 0 139 -61 139 -154c0 -96 -65 -155 -139 -155zM815 35c53 0 91 44 91 113c0 68 -36 112 -91 112c-52 0 -90 -44 -90 -113s38 -112 90 -112zM815 -7
c-72 0 -138 59 -138 153c0 96 66 156 138 156c76 0 140 -61 140 -154c0 -96 -65 -155 -140 -155z" />
    <glyph glyph-name="uni0446.bgr" horiz-adv-x="599" 
d="M529 -127l-5 127h-80v100c-24 -56 -91 -108 -183 -108c-108 0 -184 56 -184 200v331h53v-328c0 -112 51 -157 143 -157c84 0 171 57 171 167v318h53v-478h75v-172h-43z" />
    <glyph glyph-name="percent.tab" horiz-adv-x="804" 
d="M205 440c61 0 107 43 107 119c0 73 -46 119 -107 119c-60 0 -107 -44 -107 -121c0 -76 47 -117 107 -117zM205 398c-81 0 -157 63 -157 159s74 163 157 163c85 0 156 -68 156 -161c0 -98 -74 -161 -156 -161zM603 715h50l-456 -715h-50zM595 36c61 0 107 43 107 119
c0 73 -44 118 -107 118c-60 0 -107 -44 -107 -120s47 -117 107 -117zM595 -7c-81 0 -156 64 -156 160s72 163 156 163c85 0 157 -68 157 -161c0 -99 -75 -162 -157 -162z" />
    <glyph glyph-name="tilde.uc" horiz-adv-x="404" 
d="M264 774c-48 0 -89 53 -123 53c-23 0 -41 -19 -46 -54h-41c8 64 43 99 87 99c47 0 86 -53 123 -53c23 0 41 19 46 54h40c-8 -64 -43 -99 -86 -99z" />
    <glyph glyph-name="uni0447.bgr" horiz-adv-x="558" 
d="M412 0v263c-30 -33 -79 -74 -167 -74c-100 0 -176 56 -176 201v133h53v-131c0 -112 50 -157 135 -157c94 0 139 63 155 81v207h53v-523h-53z" />
    <glyph glyph-name="hungarumlaut.uc" horiz-adv-x="404" 
d="M157 893h60l-65 -122h-40zM289 893h60l-65 -122h-40z" />
    <glyph glyph-name="uni0438.bgr" horiz-adv-x="579" 
d="M261 -8c-108 0 -184 56 -184 200v331h53v-328c0 -112 51 -157 143 -157c84 0 171 57 171 167v318h53v-523h-53v100c-24 -56 -91 -108 -183 -108z" />
    <glyph glyph-name="f.short" horiz-adv-x="324" 
d="M105 478h-79v45h79v94c0 111 59 159 144 159c23 0 42 -3 55 -8v-45c-15 5 -33 8 -54 8c-56 0 -92 -32 -92 -109v-99h146v-45h-146v-478h-53v478z" />
    <glyph glyph-name="f_f.short" horiz-adv-x="602" 
d="M105 478h-79v45h79v86c0 109 60 159 148 159c25 0 39 -2 58 -9v-45c-15 5 -33 9 -56 9c-59 0 -97 -33 -97 -109v-91h226v94c0 111 58 159 143 159c23 0 42 -3 55 -8v-45c-15 5 -32 8 -53 8c-56 0 -92 -32 -92 -109v-99h145v-45h-145v-478h-53v478h-226v-478h-53v478z" />
    <glyph glyph-name="uni021B.alt" horiz-adv-x="323" 
d="M64 -188l58 147l51 -15l-75 -148zM112 478h-87v45h87v119h53v-119h127v-45h-127v-478h-53v478z" />
    <glyph glyph-name="tbar.alt" horiz-adv-x="319" 
d="M25 341h87v137h-87v45h87v119h53v-119h127v-45h-127v-137h127v-40h-127v-301h-53v301h-87v40z" />
    <glyph glyph-name="uni043B.bgr" horiz-adv-x="518" 
d="M492 0h-57l-178 470l-177 -470h-55l198 523h69z" />
    <glyph glyph-name="uni0437.bgr" horiz-adv-x="468" 
d="M424 25c0 -141 -86 -213 -195 -213c-127 0 -185 77 -196 167h54c11 -73 56 -122 141 -122c82 0 143 49 143 168v5c0 100 -51 158 -155 158h-62v43h61c89 0 129 51 129 131v3c0 71 -37 121 -117 121c-68 0 -109 -38 -122 -105h-51c13 101 84 150 175 150
c105 0 171 -67 171 -166v-3c0 -84 -49 -140 -113 -151c75 -13 137 -69 137 -181v-5z" />
    <glyph glyph-name="uni20B4.oldtab" horiz-adv-x="600" 
d="M293 -8c-128 0 -215 56 -215 168c0 49 13 83 40 112h-68v38h114c36 24 81 44 136 69c20 9 38 17 54 25h-304v38h363c31 27 42 58 42 107c0 73 -53 108 -141 108c-100 0 -152 -42 -168 -125h-49c15 108 90 169 217 169c115 0 193 -51 193 -152c0 -47 -13 -79 -37 -107h83
v-38h-127c-31 -20 -69 -39 -116 -60c-27 -12 -50 -23 -71 -34h314v-38h-373c-32 -27 -48 -60 -48 -111c0 -84 65 -125 161 -125c129 0 176 72 189 157h53c-13 -111 -86 -201 -242 -201z" />
    <glyph glyph-name="nine.oldtab" horiz-adv-x="600" 
d="M294 219c96 0 178 66 178 173s-62 191 -179 191c-105 0 -177 -75 -177 -182c0 -109 65 -182 178 -182zM282 -104c-115 0 -195 62 -211 169h52c15 -76 68 -124 163 -124c121 0 188 89 191 309v43c-29 -77 -110 -118 -190 -118c-141 0 -226 99 -226 224
c0 136 94 228 232 228c170 0 238 -122 238 -290v-84c0 -247 -89 -357 -249 -357z" />
    <glyph glyph-name="uni0434.bgr" horiz-adv-x="612" 
d="M284 62c106 0 194 77 194 208v8c0 132 -78 208 -187 208c-112 0 -193 -79 -193 -210v-8c0 -130 82 -206 186 -206zM288 -188c-151 0 -221 74 -234 158h54c15 -68 70 -113 179 -113c112 0 190 51 190 180v107c-29 -63 -101 -127 -198 -127c-133 0 -236 98 -236 250v7
c0 149 104 257 243 257c103 0 162 -57 191 -121v113h53v-488c0 -155 -103 -223 -242 -223z" />
    <glyph glyph-name="uni20BD.tab" horiz-adv-x="600" 
d="M319 351c116 0 183 48 183 159v4c0 116 -74 155 -185 155h-126v-318h128zM191 176v-176h-55v176h-100v38h100v98h-100v38h100v365h178c139 0 243 -56 243 -201v-4c0 -148 -103 -204 -242 -204h-124v-92h246v-38h-246z" />
    <glyph glyph-name="florin.tab" 
d="M111 403h121l24 155c17 116 78 166 171 166c31 0 51 -4 70 -11v-46c-15 7 -38 12 -69 12c-67 0 -107 -41 -120 -124l-23 -152h168v-44h-175l-82 -541h-53l82 541h-114v44z" />
    <glyph glyph-name="yen.tab" 
d="M98 344h173l-212 371h61l189 -340l177 340h55l-198 -371h171v-39h-180v-97h180v-39h-180v-169h-54v169h-182v39h182v97h-182v39z" />
    <glyph glyph-name="sterling.tab" 
d="M52 368h71c-13 45 -24 92 -24 151c0 123 90 204 214 204c127 0 197 -74 208 -183h-54c-15 88 -57 136 -154 136c-93 0 -157 -64 -157 -157c0 -59 11 -104 23 -151h229v-41h-218c11 -41 19 -84 19 -137c0 -30 -6 -57 -19 -81c72 -13 148 -69 212 -69c60 0 96 32 101 104
h48c-7 -92 -59 -152 -144 -152c-90 0 -172 73 -238 73c-47 0 -71 -30 -76 -65h-48c6 44 34 96 95 109c13 23 19 50 19 81c0 49 -11 92 -24 137h-83v41z" />
    <glyph glyph-name="uni0449.bgr" horiz-adv-x="926" 
d="M856 -127l-4 127h-81v101c-24 -57 -85 -109 -171 -109c-79 0 -137 33 -160 117c-32 -75 -106 -117 -186 -117c-101 0 -175 55 -175 204v327h54v-330c0 -112 46 -155 131 -155c80 0 161 57 161 166v319h53v-330c0 -112 47 -155 132 -155c80 0 161 59 161 168v317h53v-478
h75v-172h-43z" />
    <glyph glyph-name="uni044A.bgr" horiz-adv-x="575" 
d="M23 478v45h205v-200c16 3 57 11 112 11c120 0 200 -56 200 -165v-3c0 -112 -85 -173 -185 -173c-112 0 -180 64 -180 179v306h-152zM355 34c84 0 132 54 132 130v3c0 80 -47 125 -147 125c-51 0 -96 -8 -112 -12v-108c0 -84 43 -138 127 -138z" />
    <glyph glyph-name="uni0431.locl" horiz-adv-x="591" 
d="M295 -8c-141 0 -252 109 -252 255v8c0 148 113 251 246 251c4 0 11 0 15 -1c-125 59 -210 97 -210 180c0 56 48 88 117 88h152c63 0 106 1 137 8v-46c-27 -7 -69 -10 -138 -10h-141c-49 0 -74 -21 -74 -52c0 -57 96 -97 210 -150c107 -53 191 -116 191 -267v-8
c0 -149 -112 -256 -253 -256zM296 37c112 0 197 85 197 210v7c0 129 -81 212 -197 212c-112 0 -198 -86 -198 -211v-8c0 -124 84 -210 198 -210z" />
    <glyph glyph-name="space.tab" horiz-adv-x="304" 
 />
    <glyph glyph-name="nine.old" horiz-adv-x="586" 
d="M273 -104c-116 0 -198 62 -214 169h52c15 -76 70 -124 165 -124c129 0 194 89 197 309v43c-32 -77 -112 -118 -195 -118c-145 0 -229 99 -229 224c0 136 93 228 234 228c179 0 244 -129 244 -297v-69c0 -256 -95 -365 -254 -365zM285 219c100 0 183 66 183 173
s-64 191 -185 191c-108 0 -179 -75 -179 -182c0 -109 64 -182 181 -182z" />
    <glyph glyph-name="eight.old" horiz-adv-x="576" 
d="M287 -8c-120 0 -239 70 -239 205c0 100 70 161 157 185c-72 23 -127 75 -127 159c0 113 102 182 209 182s207 -72 207 -180c0 -87 -53 -137 -125 -160c91 -24 155 -87 155 -184c0 -136 -113 -207 -237 -207zM287 38c103 0 182 55 182 162c0 101 -83 158 -180 158
c-99 0 -185 -57 -185 -160c0 -107 85 -160 183 -160zM290 402c84 0 150 49 150 141c0 80 -68 136 -153 136c-87 0 -154 -55 -154 -138c0 -91 77 -139 157 -139z" />
    <glyph glyph-name="uni20B8.old" horiz-adv-x="544" 
d="M30 656v38h484v-38h-484zM245 523h-215v44h484v-44h-215v-523h-54v523z" />
    <glyph glyph-name="seven.old" horiz-adv-x="503" 
d="M409 574h-382v44h450v-9l-290 -706h-55z" />
    <glyph glyph-name="six.old" horiz-adv-x="586" 
d="M298 -8c-179 0 -244 131 -244 295v66c0 256 112 370 265 370c105 0 176 -55 195 -159h-52c-15 72 -62 114 -146 114c-120 0 -204 -90 -207 -314v-38c29 75 113 118 195 118c145 0 229 -98 229 -225c0 -134 -94 -227 -235 -227zM298 35c108 0 180 73 180 182
c0 111 -64 183 -181 183c-100 0 -183 -69 -183 -173c0 -105 63 -192 184 -192z" />
    <glyph glyph-name="five.old" horiz-adv-x="554" 
d="M264 -104c-141 0 -219 83 -227 187h50c11 -80 64 -143 176 -143s180 73 180 193c0 112 -71 183 -167 183c-87 0 -141 -33 -177 -76h-20v379h383v-47h-338v-270c29 31 85 58 160 58c121 0 214 -86 214 -227c0 -147 -99 -237 -234 -237z" />
    <glyph glyph-name="uni20B4.tab" horiz-adv-x="600" 
d="M291 -8c-125 0 -211 58 -211 173c0 51 14 85 39 116h-68v39h112c35 25 80 46 135 71c21 9 39 18 55 26h-302v39h357c28 28 39 61 39 110c0 76 -50 111 -134 111c-97 0 -146 -44 -162 -128h-51c15 111 88 174 213 174c111 0 188 -53 188 -157c0 -47 -12 -81 -35 -110h82
v-39h-124c-31 -23 -69 -41 -116 -62c-27 -12 -50 -24 -70 -35h310v-39h-367c-31 -28 -45 -62 -45 -114c0 -87 64 -129 155 -129c126 0 171 74 184 162h54c-13 -114 -83 -208 -238 -208z" />
    <glyph glyph-name="four.old" horiz-adv-x="599" 
d="M402 66h-373v17l350 535h77v-508h100v-44h-100v-163h-54v163zM402 110v467l-302 -467h302z" />
    <glyph glyph-name="three.old" horiz-adv-x="569" 
d="M279 -104c-150 0 -237 96 -242 210h51c8 -92 68 -166 192 -166c117 0 180 58 180 161c0 95 -58 155 -170 155h-52v46h48c104 0 148 60 148 137c0 84 -52 143 -148 143c-100 0 -161 -63 -172 -151h-48c5 108 95 196 220 196c127 0 201 -84 201 -186
c0 -83 -47 -136 -118 -159c84 -19 146 -81 146 -181c0 -128 -96 -205 -236 -205z" />
    <glyph glyph-name="two.old" horiz-adv-x="531" 
d="M24 13l252 229c80 69 134 126 134 208c0 84 -55 133 -146 133s-153 -55 -166 -163h-50c11 124 96 207 216 207s201 -69 201 -177c0 -96 -69 -159 -160 -242l-182 -163h353v-45h-452v13z" />
    <glyph glyph-name="three.oldtab" horiz-adv-x="600" 
d="M296 -104c-150 0 -237 96 -242 210h51c8 -92 68 -166 192 -166c116 0 180 58 180 161c0 95 -58 155 -170 155h-52v46h48c104 0 148 60 148 137c0 84 -52 143 -148 143c-100 0 -161 -63 -172 -151h-48c5 108 95 196 220 196c127 0 201 -84 201 -186
c0 -83 -47 -136 -118 -159c84 -19 146 -81 146 -181c0 -128 -96 -205 -236 -205z" />
    <glyph glyph-name="one.old" horiz-adv-x="365" 
d="M191 561l-162 -112v51l170 119h46v-619h-54v561z" />
    <glyph glyph-name="zero.old" horiz-adv-x="630" 
d="M314 38c127 0 206 89 206 253v40c0 157 -83 251 -207 251s-207 -92 -207 -252v-41c0 -162 84 -251 208 -251zM313 -8c-155 0 -263 116 -263 297v41c0 184 108 297 263 297c156 0 262 -114 262 -295v-41c0 -183 -104 -299 -262 -299z" />
    <glyph glyph-name="uni0430.alt" horiz-adv-x="602" 
d="M274 -8c-124 0 -231 96 -231 262v8c0 161 108 269 239 269c97 0 155 -58 184 -122v114h54v-523h-54v120c-27 -62 -99 -128 -192 -128zM279 37c100 0 189 77 189 221v8c0 144 -78 220 -182 220c-105 0 -188 -82 -188 -222v-8c0 -143 82 -219 181 -219z" />
    <glyph glyph-name="yen.old" horiz-adv-x="540" 
d="M68 334h166l-209 360h59l188 -330l178 330h53l-196 -360h165v-38h-174v-94h174v-38h-174v-164h-54v164h-176v38h176v94h-176v38z" />
    <glyph glyph-name="uni20B8.oldtab" horiz-adv-x="600" 
d="M57 656v38h484v-38h-484zM272 523h-215v44h484v-44h-215v-523h-54v523z" />
    <glyph glyph-name="sterling.old" horiz-adv-x="583" 
d="M48 358h68c-12 43 -23 89 -23 145c0 120 90 198 210 198c125 0 193 -70 204 -177h-52c-15 84 -56 132 -152 132c-91 0 -154 -61 -154 -153c0 -56 10 -101 22 -145h222v-40h-212c9 -40 18 -82 18 -133c0 -31 -7 -57 -18 -80c72 -11 145 -66 208 -66c60 0 95 32 100 100h46
c-5 -88 -57 -147 -141 -147c-89 0 -166 71 -231 71c-47 0 -70 -28 -75 -63h-47c5 43 33 91 91 104c11 23 19 49 19 81c0 47 -11 90 -24 133h-79v40z" />
    <glyph glyph-name="Euro.old" horiz-adv-x="650" 
d="M31 431h67c11 155 99 270 254 270c133 0 213 -75 229 -200h-51c-15 99 -74 156 -178 156c-123 0 -192 -89 -201 -226h245l-7 -38h-239v-94h221l-7 -38h-213c9 -140 77 -224 202 -224c108 0 170 63 187 172h49c-15 -136 -100 -217 -236 -217c-152 0 -244 112 -255 269h-67
v38h66v94h-66v38z" />
    <glyph glyph-name="dollar.old" horiz-adv-x="592" 
d="M274 -7c-156 8 -219 99 -232 206h53c11 -82 51 -155 179 -163v305c-139 23 -206 74 -206 179c0 104 83 173 206 181v88h40v-89c115 -8 186 -70 199 -173h-49c-16 80 -62 122 -150 129v-274c147 -24 218 -67 218 -193c0 -106 -86 -192 -218 -197v-125h-40v126zM480 185
c0 92 -42 127 -166 149v-298c103 7 166 66 166 149zM118 524c0 -72 34 -112 156 -136v268c-97 -4 -156 -52 -156 -132z" />
    <glyph glyph-name="uni0434.locl" horiz-adv-x="570" 
d="M168 233c-11 -95 -21 -157 -50 -188h301v434h-233c-3 -56 -10 -171 -18 -246zM58 -127h-43v172h35c48 13 58 89 69 193c7 52 10 123 14 182l6 103h332v-478h75v-172h-43l-4 127h-437z" />
    <glyph glyph-name="space_uni0326" horiz-adv-x="404" 
d="M140 -188l58 147l51 -15l-75 -148z" />
    <glyph glyph-name="seven.oldtab" horiz-adv-x="600" 
d="M458 574h-380v44h450v-9l-296 -706h-56z" />
    <glyph glyph-name="dollar.oldtab" horiz-adv-x="600" 
d="M126 524c0 -72 34 -112 156 -136v268c-97 -4 -156 -52 -156 -132zM487 185c0 92 -42 127 -166 149v-298c103 5 166 66 166 149zM282 -7c-156 8 -221 99 -232 206h52c11 -82 53 -155 180 -163v305c-139 23 -206 72 -206 179c0 103 83 176 206 181v88h39v-89
c116 -8 185 -69 200 -173h-49c-16 80 -63 122 -151 129v-274c147 -24 219 -67 219 -193c0 -107 -86 -192 -219 -197v-125h-39v126z" />
    <glyph glyph-name="uni20BD.oldtab" horiz-adv-x="600" 
d="M314 340c115 0 180 46 180 154v4c0 114 -72 150 -181 150h-119v-308h120zM194 164v-164h-55v164h-99v37h99v95h-99v37h99v361h171c137 0 240 -53 240 -196v-4c0 -144 -102 -199 -239 -199h-117v-94h230v-37h-230z" />
    <glyph glyph-name="idotaccent" horiz-adv-x="225" 
d="M110 635c-21 0 -38 17 -38 38c0 20 17 37 38 37s37 -17 37 -37c0 -21 -16 -38 -37 -38zM84 523h53v-523h-53v523z" />
    <glyph glyph-name="uni0433.bgr" horiz-adv-x="460" 
d="M224 -9c-121 0 -184 60 -184 139c0 98 72 130 171 154c90 21 141 44 141 113c0 56 -44 89 -113 89c-73 0 -117 -34 -131 -101h-51c16 104 91 146 182 146c96 0 167 -46 167 -132c0 -100 -72 -126 -175 -152c-87 -21 -135 -47 -135 -116c0 -60 45 -95 129 -95
c97 0 135 46 143 115h52c-7 -97 -72 -160 -196 -160z" />
    <glyph glyph-name="sterling.oldtab" horiz-adv-x="600" 
d="M58 358h68c-12 43 -22 89 -22 145c0 120 90 198 210 198c125 0 193 -70 204 -177h-52c-15 84 -56 132 -152 132c-92 0 -155 -60 -155 -153c0 -56 11 -101 22 -145h223v-40h-212c11 -40 18 -82 18 -133c0 -31 -7 -57 -18 -80c73 -11 146 -66 207 -66c60 0 96 32 100 100
h47c-5 -88 -57 -147 -141 -147c-90 0 -167 71 -231 71c-47 0 -70 -28 -75 -63h-48c5 43 33 92 92 105c11 23 18 48 18 80c0 47 -11 90 -23 133h-80v40z" />
    <glyph glyph-name="zero.oldtab" horiz-adv-x="600" 
d="M302 -8c-151 0 -245 108 -245 273v88c0 165 94 274 243 274s244 -109 244 -272v-87c0 -168 -90 -276 -242 -276zM302 38c124 0 186 83 186 230v87c0 136 -68 227 -188 227c-121 0 -188 -86 -188 -229v-87c0 -145 69 -228 190 -228z" />
    <glyph glyph-name="uni044E.bgr" horiz-adv-x="772" 
d="M485 -8c-137 0 -236 105 -241 256h-108v-248h-53v773h53v-480h109c11 142 111 238 242 238c140 0 241 -106 241 -265v-8c0 -157 -102 -266 -243 -266zM486 37c112 0 188 85 188 220v8c0 139 -76 221 -187 221c-112 0 -189 -85 -189 -221v-8c0 -134 75 -220 188 -220z" />
    <glyph glyph-name="uni0448.bgr" horiz-adv-x="904" 
d="M824 0h-53v101c-24 -57 -85 -109 -171 -109c-79 0 -137 33 -160 117c-32 -75 -106 -117 -186 -117c-101 0 -175 55 -175 204v327h54v-330c0 -112 46 -155 131 -155c80 0 161 57 161 166v319h53v-330c0 -112 47 -155 132 -155c80 0 161 59 161 168v317h53v-523z" />
    <glyph glyph-name="uni02BC" unicode="&#x2bc;" horiz-adv-x="218" 
d="M46 545l75 177l51 -22l-92 -172z" />
    <glyph glyph-name="uni00AD" unicode="&#xad;" horiz-adv-x="337" 
d="M62 302h209v-50h-209v50z" />
    </font>
</defs>
</svg>
