<?xml version="1.0" standalone="no"?>
<!DOCTYPE svg PUBLIC "-//W3C//DTD SVG 1.1//EN" "http://www.w3.org/Graphics/SVG/1.1/DTD/svg11.dtd" >
<svg xmlns="http://www.w3.org/2000/svg" xmlns:xlink="http://www.w3.org/1999/xlink" version="1.1">
<metadata>
Created by FontForge 20190801 at Mon Jul  4 10:32:29 2016
 By Jimmy Wärting
LCG stand for Latin, Cyrillic and Greek.
</metadata>
<defs>
<font id="GraphikLCG-ExtralightItalic" horiz-adv-x="600" >
  <font-face 
    font-family="Graphik LCG"
    font-weight="250"
    font-style="italic"
    font-stretch="normal"
    units-per-em="1000"
    panose-1="2 11 3 3 3 2 2 13 2 3"
    ascent="818"
    descent="-182"
    x-height="523"
    cap-height="715"
    bbox="-241 -211 1043 1079"
    underline-thickness="50"
    underline-position="-100"
    slope="-8"
    stemh="30"
    stemv="35"
    unicode-range="U+000D-FB02"
  />
<missing-glyph horiz-adv-x="500" 
 />
    <glyph glyph-name="f_f" unicode="ff" horiz-adv-x="593" 
d="M413 494h-237l-78 -494h-34l77 494h-82l5 29h82l15 94c19 115 85 150 159 150c25 0 43 -4 59 -9l-4 -29c-17 7 -33 9 -54 9c-60 0 -110 -25 -126 -122l-15 -93h237l16 99c19 117 86 154 161 154c27 0 44 -2 60 -9l-4 -29c-17 7 -32 9 -55 9c-61 0 -111 -27 -127 -126
l-16 -98h156l-5 -29h-155l-79 -494h-34z" />
    <glyph glyph-name=".notdef" horiz-adv-x="500" 
 />
    <glyph glyph-name="NULL" horiz-adv-x="0" 
 />
    <glyph glyph-name="NULL" horiz-adv-x="0" 
 />
    <glyph glyph-name="CR" unicode="&#xd;" horiz-adv-x="235" 
 />
    <glyph glyph-name="space" unicode=" " horiz-adv-x="235" 
 />
    <glyph glyph-name="exclam" unicode="!" horiz-adv-x="262" 
d="M184 715h38l-92 -550h-28zM93 -5c-16 0 -29 13 -29 29s12 29 29 29c16 0 29 -13 29 -29s-13 -29 -29 -29z" />
    <glyph glyph-name="quotedbl" unicode="&#x22;" horiz-adv-x="261" 
d="M127 715h38l-35 -186h-27zM238 715h37l-34 -186h-27z" />
    <glyph glyph-name="numbersign" unicode="#" horiz-adv-x="484" 
d="M302 303h-135l-48 -204h-30l48 204h-95l4 30h98l40 172h-96l4 30h99l43 180h30l-43 -180h135l43 180h30l-43 -180h98l-5 -30h-100l-40 -172h99l-5 -30h-101l-48 -204h-30zM174 333h135l40 172h-135z" />
    <glyph glyph-name="dollar" unicode="$" horiz-adv-x="591" 
d="M265 -7l-20 -128h-30l20 131c-119 13 -198 80 -205 201h34c9 -100 71 -160 176 -172l53 335c-128 37 -185 84 -185 173c0 119 98 189 229 189h13l15 91h30l-15 -94c101 -12 169 -67 177 -166h-33c-12 83 -65 125 -149 136l-48 -306c133 -37 197 -75 197 -179
c0 -132 -102 -211 -243 -211h-16zM489 202c0 83 -50 115 -167 150l-52 -329h11c124 0 208 63 208 179zM143 534c0 -68 40 -108 155 -143l48 301h-11c-113 0 -192 -54 -192 -158z" />
    <glyph glyph-name="percent" unicode="%" horiz-adv-x="755" 
d="M122 548c1 -64 41 -113 109 -113c77 0 130 57 129 141c0 61 -41 116 -110 116c-77 0 -128 -65 -128 -144zM231 407c-83 0 -141 59 -141 142c0 92 68 171 161 171c80 0 142 -62 142 -144c0 -99 -71 -169 -162 -169zM663 715h36l-579 -715h-36zM422 135
c1 -64 41 -113 109 -113c76 0 129 59 129 142c0 61 -41 115 -110 115c-78 0 -128 -65 -128 -144zM531 -6c-83 0 -142 59 -142 142c0 92 68 171 162 171c81 0 141 -62 141 -144c0 -99 -71 -169 -161 -169z" />
    <glyph glyph-name="ampersand" unicode="&#x26;" horiz-adv-x="644" 
d="M529 0l-77 114c-48 -59 -123 -121 -222 -121c-104 0 -196 58 -196 179c0 126 102 187 215 233c-35 52 -59 99 -59 152c0 92 68 162 161 162c81 0 134 -56 134 -133c0 -107 -106 -156 -189 -191l161 -231l129 193h35l-148 -217l97 -140h-41zM71 173
c0 -93 65 -150 160 -150c85 0 160 59 205 115l-172 245c-98 -40 -193 -91 -193 -210zM350 690c-74 0 -126 -54 -126 -131c0 -48 23 -91 58 -142c74 32 169 71 169 169c0 60 -34 104 -101 104z" />
    <glyph glyph-name="quotesingle" unicode="'" horiz-adv-x="151" 
d="M127 715h38l-35 -186h-27z" />
    <glyph glyph-name="parenleft" unicode="(" horiz-adv-x="285" 
d="M163 -148c-61 92 -106 211 -106 358c0 228 100 424 245 563h38c-156 -155 -248 -342 -248 -563c0 -144 45 -262 105 -358h-34z" />
    <glyph glyph-name="parenright" unicode=")" horiz-adv-x="285" 
d="M137 774c60 -92 106 -211 106 -358c0 -229 -101 -423 -246 -563h-38c156 155 249 342 249 563c0 144 -45 262 -105 358h34z" />
    <glyph glyph-name="asterisk" unicode="*" horiz-adv-x="415" 
d="M120 461l115 112l-131 56l15 29l127 -62l21 147h32l-26 -149l143 42l5 -29l-144 -36l75 -127l-28 -16l-72 128l-109 -116z" />
    <glyph glyph-name="plus" unicode="+" horiz-adv-x="505" 
d="M246 327h-200l5 30h200l34 215h32l-35 -215h200l-5 -30h-200l-33 -214h-32z" />
    <glyph glyph-name="comma" unicode="," horiz-adv-x="195" 
d="M-20 -100l81 160l32 -16l-90 -157z" />
    <glyph glyph-name="hyphen" unicode="-" horiz-adv-x="333" 
d="M66 295h206l-5 -33h-207z" />
    <glyph glyph-name="period" unicode="." horiz-adv-x="195" 
d="M59 -5c-17 0 -29 13 -29 29s12 29 28 29c17 0 29 -13 29 -29s-12 -29 -28 -29z" />
    <glyph glyph-name="slash" unicode="/" horiz-adv-x="383" 
d="M387 776h35l-436 -924h-34z" />
    <glyph glyph-name="zero" unicode="0" horiz-adv-x="646" 
d="M305 -7c-173 0 -246 111 -246 259c0 31 2 58 7 89l11 71c32 197 141 310 298 310c168 0 239 -113 239 -258c0 -29 -2 -60 -7 -89l-12 -71c-32 -200 -129 -311 -290 -311zM306 24c141 0 223 96 254 283l12 71c4 28 6 57 6 86c0 125 -56 228 -204 228
c-140 0 -233 -100 -262 -283l-11 -70c-5 -27 -7 -56 -7 -87c0 -128 57 -228 212 -228z" />
    <glyph glyph-name="one" unicode="1" horiz-adv-x="348" 
d="M254 673l-183 -113l5 35l193 120h27l-113 -715h-36z" />
    <glyph glyph-name="two" unicode="2" horiz-adv-x="527" 
d="M-29 9l342 288c88 75 154 146 154 249c0 88 -56 146 -153 146c-95 0 -173 -50 -202 -177h-34c27 141 125 207 237 207s187 -69 187 -175c0 -117 -73 -191 -167 -269l-294 -247h399l-5 -31h-466z" />
    <glyph glyph-name="three" unicode="3" horiz-adv-x="544" 
d="M246 -7c-131 0 -223 74 -223 203h34c3 -108 73 -172 190 -172c112 0 202 60 202 191c0 77 -47 144 -156 144h-44l5 31h52c93 0 170 51 170 163c0 84 -57 138 -150 138c-96 0 -169 -58 -192 -158h-33c19 116 116 189 226 189c101 0 184 -59 184 -168
c0 -93 -53 -160 -145 -180c73 -19 119 -77 119 -160c0 -143 -107 -221 -239 -221z" />
    <glyph glyph-name="four" unicode="4" horiz-adv-x="581" 
d="M389 167h-374l2 11l440 537h55l-82 -517h99l-5 -31h-99l-26 -167h-36zM395 198l77 490l-402 -490h325z" />
    <glyph glyph-name="five" unicode="5" horiz-adv-x="545" 
d="M239 -7c-123 0 -209 69 -217 185h34c8 -92 74 -154 183 -154c136 0 215 98 215 234c0 99 -64 172 -168 172c-85 0 -141 -36 -184 -83h-14l59 368h382l-5 -31h-351l-45 -287c32 32 90 64 165 64c116 0 197 -83 197 -202c0 -151 -94 -266 -251 -266z" />
    <glyph glyph-name="six" unicode="6" horiz-adv-x="588" 
d="M283 -7c-141 0 -223 79 -223 228c0 32 5 64 9 93l11 64c37 239 140 344 296 344c112 0 182 -53 189 -156h-34c-8 83 -60 125 -156 125c-135 0 -223 -90 -260 -311l-9 -56c44 84 126 125 214 125c120 0 214 -68 214 -195c0 -148 -99 -261 -251 -261zM96 206
c0 -111 67 -183 187 -183c133 0 216 99 216 230c0 105 -76 166 -185 166c-119 0 -218 -85 -218 -213z" />
    <glyph glyph-name="seven" unicode="7" horiz-adv-x="491" 
d="M491 685h-400l5 30h448l-1 -7l-400 -708h-38z" />
    <glyph glyph-name="eight" unicode="8" horiz-adv-x="568" 
d="M268 -7c-115 0 -228 61 -228 189c0 121 84 192 199 208c-65 19 -117 71 -117 151c0 113 103 181 214 181c102 0 192 -66 192 -169s-62 -155 -158 -171c83 -23 141 -83 141 -174c0 -147 -115 -215 -243 -215zM75 185c0 -108 93 -161 195 -161c112 0 206 59 206 184
c0 96 -77 162 -188 162c-112 0 -213 -59 -213 -185zM157 542c0 -80 64 -142 165 -142c91 0 171 44 171 152c0 84 -67 140 -159 140c-88 0 -177 -50 -177 -150z" />
    <glyph glyph-name="nine" unicode="9" horiz-adv-x="586" 
d="M248 -7c-109 0 -190 54 -201 163h34c12 -91 73 -132 169 -132c132 0 215 75 252 311l9 56c-43 -83 -126 -125 -213 -125c-117 0 -215 67 -215 198c0 150 102 258 254 258c135 0 220 -79 220 -226c0 -32 -5 -65 -9 -94l-11 -68c-43 -261 -139 -341 -289 -341zM119 465
c0 -108 75 -170 182 -170c120 0 221 86 221 214c0 109 -66 183 -186 183c-134 0 -217 -96 -217 -227z" />
    <glyph glyph-name="colon" unicode=":" horiz-adv-x="202" 
d="M62 -5c-16 0 -29 13 -29 29s12 29 29 29c16 0 29 -13 29 -29s-13 -29 -29 -29zM117 337c-17 0 -29 13 -29 29s12 29 28 29c17 0 29 -13 29 -29s-12 -29 -28 -29z" />
    <glyph glyph-name="semicolon" unicode=";" horiz-adv-x="202" 
d="M-27 -100l81 160l33 -16l-91 -157zM119 337c-17 0 -29 13 -29 29s12 29 28 29c17 0 29 -13 29 -29s-12 -29 -28 -29z" />
    <glyph glyph-name="less" unicode="&#x3c;" horiz-adv-x="491" 
d="M57 324l2 9l416 197l-5 -34l-362 -170l306 -183l-5 -33z" />
    <glyph glyph-name="equal" unicode="=" horiz-adv-x="484" 
d="M38 254h404l-5 -30h-404zM63 413h404l-5 -30h-404z" />
    <glyph glyph-name="greater" unicode="&#x3e;" horiz-adv-x="491" 
d="M451 317l-1 -10l-417 -197l6 35l361 170l-305 183l5 32z" />
    <glyph glyph-name="question" unicode="?" horiz-adv-x="469" 
d="M187 231c13 85 60 123 128 176c63 47 118 86 118 171c0 80 -66 114 -138 114c-93 0 -161 -54 -181 -162h-34c19 124 105 192 217 192c93 0 171 -48 171 -144c0 -102 -67 -141 -135 -195c-63 -50 -103 -81 -114 -155l-10 -63h-32zM172 -5c-17 0 -29 13 -29 29s12 29 28 29
c17 0 29 -13 29 -29s-12 -29 -28 -29z" />
    <glyph glyph-name="at" unicode="@" horiz-adv-x="905" 
d="M613 229c-13 -77 7 -130 76 -130c75 0 146 71 146 223c0 195 -131 338 -357 338c-213 0 -394 -172 -394 -399c0 -201 128 -380 379 -380c145 0 242 55 295 119h33c-48 -77 -166 -147 -328 -147c-269 0 -412 193 -412 407c0 244 203 428 427 428c239 0 388 -159 388 -364
c0 -181 -98 -252 -178 -252c-71 0 -107 36 -108 107c-22 -54 -77 -114 -160 -114c-89 0 -153 61 -153 165c0 123 84 241 200 241c75 0 123 -44 134 -107l15 98h34zM424 93c88 0 165 95 165 207c1 88 -45 142 -120 142c-98 0 -167 -101 -167 -213c0 -85 49 -136 122 -136z
" />
    <glyph glyph-name="A" unicode="A" horiz-adv-x="635" 
d="M480 228h-339l-119 -228h-36l375 715h48l156 -715h-35zM156 258h317l-93 429z" />
    <glyph glyph-name="B" unicode="B" horiz-adv-x="592" 
d="M165 715h185c120 0 191 -57 190 -161c0 -104 -61 -158 -158 -181c93 -15 143 -73 143 -158c0 -136 -98 -215 -237 -215h-236zM288 30c119 0 202 64 202 186c0 88 -58 142 -183 142h-164l-52 -328h197zM309 387c101 0 196 44 196 166c0 84 -56 132 -156 132h-154l-47 -298
h161z" />
    <glyph glyph-name="C" unicode="C" horiz-adv-x="724" 
d="M371 -7c-191 0 -312 122 -312 319c0 221 147 410 376 410c133 0 246 -76 265 -216h-33c-23 120 -112 186 -233 186c-211 0 -337 -173 -337 -380c0 -181 101 -288 274 -288c132 0 232 72 275 201h35c-45 -148 -165 -232 -310 -232z" />
    <glyph glyph-name="D" unicode="D" horiz-adv-x="682" 
d="M165 715h172c216 0 317 -131 317 -304c0 -253 -157 -411 -407 -411h-195zM246 31c229 0 372 141 372 380c0 152 -86 274 -282 274h-140l-104 -654h154z" />
    <glyph glyph-name="E" unicode="E" horiz-adv-x="568" 
d="M165 715h401l-5 -30h-365l-48 -301h302l-5 -31h-301l-52 -322h390l-6 -31h-424z" />
    <glyph glyph-name="F" unicode="F" horiz-adv-x="540" 
d="M165 715h399l-5 -30h-363l-49 -304h288l-5 -30h-287l-55 -351h-36z" />
    <glyph glyph-name="G" unicode="G" horiz-adv-x="751" 
d="M386 -7c-208 0 -325 139 -325 323c0 223 152 406 372 406c136 0 254 -65 273 -203h-36c-16 115 -116 173 -237 173c-202 0 -335 -168 -335 -376c0 -168 100 -292 288 -292c163 0 268 94 288 286h-231l5 31h266c-19 -245 -148 -348 -328 -348z" />
    <glyph glyph-name="H" unicode="H" horiz-adv-x="709" 
d="M165 715h36l-54 -339h449l54 339h36l-113 -715h-36l55 345h-450l-54 -345h-36z" />
    <glyph glyph-name="I" unicode="I" horiz-adv-x="234" 
d="M170 715h36l-113 -715h-36z" />
    <glyph glyph-name="J" unicode="J" horiz-adv-x="389" 
d="M114 -5c-60 0 -94 15 -117 28l5 31c29 -16 63 -29 111 -29c77 0 127 40 143 137l87 553h36l-88 -556c-19 -119 -86 -164 -177 -164z" />
    <glyph glyph-name="K" unicode="K" horiz-adv-x="588" 
d="M474 0l-322 368l415 347h45l-417 -347l322 -368h-43zM165 715h36l-113 -715h-36z" />
    <glyph glyph-name="L" unicode="L" horiz-adv-x="528" 
d="M165 715h36l-109 -684h361l-5 -31h-396z" />
    <glyph glyph-name="M" unicode="M" horiz-adv-x="849" 
d="M165 715h52l169 -649l380 649h54l-113 -715h-36l106 672l-394 -672h-14l-177 672l-106 -672h-34z" />
    <glyph glyph-name="N" unicode="N" horiz-adv-x="707" 
d="M165 715h49l329 -667l106 667h35l-113 -715h-43l-334 678l-107 -678h-35z" />
    <glyph glyph-name="O" unicode="O" horiz-adv-x="788" 
d="M757 392c0 -212 -152 -399 -373 -399c-201 0 -325 144 -325 333c0 210 155 396 377 396c196 0 321 -145 321 -330zM721 392c0 163 -105 300 -286 300c-204 0 -336 -169 -339 -366c-3 -169 108 -302 288 -302c202 0 337 170 337 368z" />
    <glyph glyph-name="P" unicode="P" horiz-adv-x="559" 
d="M165 715h167c132 0 220 -52 220 -176c0 -160 -106 -224 -255 -224h-160l-50 -315h-35zM299 345c135 0 218 56 218 194c0 105 -75 146 -188 146h-134l-54 -340h158z" />
    <glyph glyph-name="Q" unicode="Q" horiz-adv-x="788" 
d="M384 -7c-201 0 -325 144 -325 333c0 210 155 396 377 396c196 0 321 -145 321 -330c0 -131 -56 -249 -152 -324l80 -89l-24 -21l-82 91c-56 -35 -120 -56 -195 -56zM384 24c67 0 125 18 174 49l-108 122l24 21l110 -124c85 68 136 177 137 300c0 163 -105 300 -286 300
c-204 0 -336 -169 -339 -366c-3 -169 108 -302 288 -302z" />
    <glyph glyph-name="R" unicode="R" horiz-adv-x="593" 
d="M165 715h170c132 0 218 -56 218 -172c0 -138 -91 -197 -217 -205l182 -338h-39l-180 335h-159l-53 -335h-35zM295 365c124 0 223 38 223 178c0 100 -72 142 -184 142h-139l-50 -320h150z" />
    <glyph glyph-name="S" unicode="S" horiz-adv-x="583" 
d="M275 -7c-145 0 -243 70 -251 204h35c11 -112 85 -173 216 -173c123 0 209 63 209 180c0 88 -51 121 -182 158c-136 37 -198 79 -198 171c0 119 93 189 224 189c125 0 207 -56 216 -169h-34c-12 96 -78 139 -183 139c-115 0 -188 -54 -188 -158c0 -71 48 -107 176 -142
c140 -38 205 -80 205 -186c0 -133 -104 -213 -245 -213z" />
    <glyph glyph-name="T" unicode="T" horiz-adv-x="558" 
d="M325 685h-230l5 30h497l-5 -30h-231l-108 -685h-36z" />
    <glyph glyph-name="U" unicode="U" horiz-adv-x="674" 
d="M318 -5c-183 0 -265 99 -238 272l71 448h36l-71 -448c-24 -157 40 -241 203 -241c140 0 211 69 234 216l75 473h36l-75 -476c-25 -159 -106 -244 -271 -244z" />
    <glyph glyph-name="V" unicode="V" horiz-adv-x="621" 
d="M92 715h35l150 -677l349 677h35l-369 -715h-43z" />
    <glyph glyph-name="W" unicode="W" horiz-adv-x="905" 
d="M97 715h35l74 -661l302 661h24l89 -663l288 663h35l-311 -715h-38l-86 647l-294 -647h-38z" />
    <glyph glyph-name="X" unicode="X" horiz-adv-x="618" 
d="M307 374l-175 341h37l164 -317l261 317h40l-286 -346l191 -369h-38l-179 345l-287 -345h-40z" />
    <glyph glyph-name="Y" unicode="Y" horiz-adv-x="564" 
d="M276 322l-189 393h37l175 -363l269 363h39l-295 -396l-51 -319h-36z" />
    <glyph glyph-name="Z" unicode="Z" horiz-adv-x="582" 
d="M-14 9l571 676h-428l5 30h481l-1 -8l-569 -676h456l-5 -31h-512z" />
    <glyph glyph-name="bracketleft" unicode="[" horiz-adv-x="331" 
d="M176 776h195l-5 -28h-159l-137 -868h159l-5 -28h-194z" />
    <glyph glyph-name="backslash" unicode="\" horiz-adv-x="383" 
d="M121 776h33l146 -924h-33z" />
    <glyph glyph-name="bracketright" unicode="]" horiz-adv-x="331" 
d="M-21 -120h160l137 868h-160l5 28h193l-146 -924h-194z" />
    <glyph glyph-name="asciicircum" unicode="^" horiz-adv-x="461" 
d="M284 715h33l122 -284h-35l-108 251l-186 -251h-37z" />
    <glyph glyph-name="underscore" unicode="_" horiz-adv-x="387" 
d="M-61 -117h388l-5 -29h-388z" />
    <glyph glyph-name="grave" unicode="`" horiz-adv-x="400" 
d="M178 747h40l51 -147h-28z" />
    <glyph glyph-name="a" unicode="a" horiz-adv-x="521" 
d="M204 -7c-117 0 -172 61 -172 142c0 127 106 161 227 161h156l7 45c15 103 -22 160 -135 160c-80 0 -142 -33 -167 -121h-35c27 108 115 151 202 151c132 0 188 -72 169 -193l-30 -192c-11 -72 -13 -113 -13 -146h-33c0 24 2 57 5 86c-31 -51 -94 -93 -181 -93zM207 21
c93 0 174 57 187 141l17 106h-152c-105 0 -193 -24 -193 -133c0 -64 42 -114 141 -114z" />
    <glyph glyph-name="b" unicode="b" horiz-adv-x="596" 
d="M303 -8c-129 0 -189 90 -205 163l-25 -155h-34l122 773h34l-60 -379c38 76 114 137 214 137c117 0 209 -93 209 -236c0 -165 -88 -303 -255 -303zM301 22c147 0 222 120 222 272c0 131 -79 208 -178 208c-144 0 -231 -133 -234 -269c0 -132 80 -211 190 -211z" />
    <glyph glyph-name="c" unicode="c" horiz-adv-x="543" 
d="M272 -7c-144 0 -231 98 -231 238c0 172 113 299 270 299c110 0 190 -65 198 -171h-34c-5 88 -70 142 -166 142c-141 0 -233 -118 -233 -270c0 -129 77 -209 196 -209c96 0 171 52 196 152h33c-26 -119 -118 -181 -229 -181z" />
    <glyph glyph-name="d" unicode="d" horiz-adv-x="597" 
d="M253 -8c-123 0 -215 88 -215 232c0 166 101 307 263 307c127 0 184 -91 197 -162l65 404h34l-96 -604c-15 -88 -16 -136 -17 -169h-33c0 35 5 90 12 129c-37 -77 -110 -137 -210 -137zM255 22c143 0 230 130 230 268c3 132 -76 211 -183 211c-144 0 -229 -125 -229 -276
c0 -129 80 -203 182 -203z" />
    <glyph glyph-name="e" unicode="e" horiz-adv-x="535" 
d="M74 217c0 -125 62 -195 183 -195c89 0 154 41 186 122h34c-35 -101 -116 -152 -221 -152c-144 0 -218 87 -218 226c0 167 102 312 264 312c149 0 219 -104 195 -252l-2 -14h-419c-1 -15 -2 -31 -2 -47zM301 501c-120 0 -197 -87 -221 -208h385c16 122 -35 208 -164 208z
" />
    <glyph glyph-name="f" unicode="f" horiz-adv-x="322" 
d="M64 523h82l16 99c19 117 86 154 161 154c27 0 43 -2 60 -9l-4 -29c-19 7 -32 9 -55 9c-60 0 -112 -27 -128 -126l-16 -98h157l-5 -29h-156l-78 -494h-34l78 494h-83z" />
    <glyph glyph-name="g" unicode="g" horiz-adv-x="601" 
d="M259 46c137 0 232 125 232 269c0 107 -66 186 -183 186c-140 0 -229 -115 -229 -261c0 -109 63 -194 180 -194zM482 18c-23 -140 -113 -204 -246 -204c-125 0 -209 56 -224 156h35c13 -80 81 -127 188 -127c120 0 194 58 213 177l21 131c-35 -67 -106 -133 -213 -133
c-129 0 -212 89 -212 221c0 160 106 292 264 292c109 0 177 -61 197 -149l22 141h35z" />
    <glyph glyph-name="h" unicode="h" horiz-adv-x="567" 
d="M161 773h34l-57 -363c35 64 103 121 200 121c114 0 184 -72 160 -220l-49 -311h-35l50 316c20 125 -35 185 -131 185c-95 0 -191 -66 -210 -187l-50 -314h-34z" />
    <glyph glyph-name="i" unicode="i" horiz-adv-x="200" 
d="M161 637c-15 0 -26 12 -26 27s12 26 27 26s26 -11 26 -26s-12 -27 -27 -27zM123 523h35l-83 -523h-34z" />
    <glyph glyph-name="j" unicode="j" horiz-adv-x="200" 
d="M-60 -156c59 3 79 29 90 89l93 590h35l-94 -592c-13 -83 -50 -114 -129 -117zM161 637c-15 0 -26 12 -26 27s12 26 27 26s26 -11 26 -26s-12 -27 -27 -27z" />
    <glyph glyph-name="k" unicode="k" horiz-adv-x="467" 
d="M121 282l306 241h45l-309 -242l244 -281h-41zM161 773h34l-122 -773h-34z" />
    <glyph glyph-name="l" unicode="l" horiz-adv-x="201" 
d="M163 773h35l-122 -773h-35z" />
    <glyph glyph-name="m" unicode="m" horiz-adv-x="887" 
d="M99 384c11 69 12 106 15 139h33c-1 -27 -4 -67 -11 -112c34 66 98 120 185 120s144 -45 151 -136c35 83 111 136 195 136c109 0 175 -69 151 -221l-49 -310h-34l49 314c20 129 -26 187 -121 187c-88 0 -173 -67 -192 -186l-50 -315h-34l50 315c20 125 -28 186 -121 186
c-89 0 -174 -69 -193 -186l-50 -315h-34z" />
    <glyph glyph-name="n" unicode="n" horiz-adv-x="567" 
d="M99 384c11 69 12 106 15 139h33c-1 -27 -4 -70 -11 -115c35 67 107 123 202 123c114 0 184 -72 160 -220l-49 -311h-35l50 316c20 125 -35 185 -131 185c-95 0 -191 -66 -210 -187l-50 -314h-34z" />
    <glyph glyph-name="o" unicode="o" horiz-adv-x="573" 
d="M265 -7c-136 0 -228 105 -228 236c0 161 105 301 273 301c140 0 225 -108 225 -236c0 -168 -105 -301 -270 -301zM266 22c145 0 234 119 234 272c0 112 -68 207 -191 207c-149 0 -237 -125 -237 -272c0 -113 74 -207 194 -207z" />
    <glyph glyph-name="p" unicode="p" horiz-adv-x="596" 
d="M349 531c117 0 209 -93 209 -236c0 -165 -88 -303 -255 -303c-128 0 -189 90 -205 162l-54 -336h-34l85 536c13 85 16 136 19 169h33c0 -26 -6 -90 -14 -134c37 83 116 142 216 142zM301 22c147 0 222 120 222 272c0 131 -79 208 -178 208c-144 0 -231 -133 -234 -269
c0 -132 80 -211 190 -211z" />
    <glyph glyph-name="q" unicode="q" horiz-adv-x="598" 
d="M460 126c-37 -77 -107 -134 -207 -134c-123 0 -215 88 -215 232c0 166 101 307 263 307c127 0 184 -91 197 -162l25 154h34l-111 -705h-34zM255 22c143 0 230 130 230 268c3 132 -76 211 -183 211c-144 0 -229 -125 -229 -276c0 -129 80 -203 182 -203z" />
    <glyph glyph-name="r" unicode="r" horiz-adv-x="331" 
d="M99 384c11 69 12 106 15 139h33c-1 -27 -4 -71 -12 -120c35 70 94 122 201 125l-5 -31c-104 -5 -188 -61 -212 -209l-46 -288h-34z" />
    <glyph glyph-name="s" unicode="s" horiz-adv-x="453" 
d="M207 -9c-117 0 -187 58 -192 163h33c7 -84 53 -134 160 -134c84 0 148 39 148 120c0 62 -36 87 -130 114c-106 29 -155 63 -155 138c0 92 80 138 172 138s165 -37 173 -136h-33c-7 69 -53 107 -141 107c-79 0 -138 -35 -138 -108c0 -56 36 -82 133 -109
c100 -30 153 -56 153 -143c0 -99 -82 -150 -183 -150z" />
    <glyph glyph-name="t" unicode="t" horiz-adv-x="325" 
d="M182 -7c-80 0 -116 50 -103 138l58 363h-79l5 29h78l19 119h34l-19 -119h146l-5 -29h-145l-58 -364c-12 -77 17 -107 73 -107c25 0 46 4 65 11l-5 -29c-16 -7 -37 -12 -64 -12z" />
    <glyph glyph-name="u" unicode="u" horiz-adv-x="563" 
d="M461 140c-11 -63 -12 -109 -13 -140h-33c0 31 3 74 10 115c-36 -68 -105 -123 -201 -123c-115 0 -182 74 -158 220l49 311h34l-50 -315c-20 -125 33 -186 129 -186s190 67 209 187l50 314h34z" />
    <glyph glyph-name="v" unicode="v" horiz-adv-x="498" 
d="M65 523h35l116 -489l262 489h36l-280 -523h-46z" />
    <glyph glyph-name="w" unicode="w" horiz-adv-x="754" 
d="M69 523h35l74 -483l225 483h28l77 -483l222 483h36l-243 -523h-41l-73 466l-218 -466h-41z" />
    <glyph glyph-name="x" unicode="x" horiz-adv-x="487" 
d="M222 274l-143 249h39l128 -225l195 225h40l-218 -253l155 -270h-39l-141 247l-214 -247h-40z" />
    <glyph glyph-name="y" unicode="y" horiz-adv-x="486" 
d="M196 42l-131 481h34l121 -443l245 443h37l-395 -705h-37z" />
    <glyph glyph-name="z" unicode="z" horiz-adv-x="462" 
d="M-16 7l428 487h-321l5 29h377l-1 -7l-426 -486h342l-6 -30h-399z" />
    <glyph glyph-name="braceleft" unicode="{" horiz-adv-x="351" 
d="M245 -145c-132 8 -181 77 -136 201l42 117c27 78 5 135 -101 140l5 27c105 0 144 43 141 126l-5 126c-5 141 66 180 200 185l-5 -28c-109 -5 -168 -32 -163 -158l5 -124c3 -94 -45 -130 -114 -143c68 -17 98 -71 67 -158l-41 -115c-39 -111 -2 -161 110 -168z" />
    <glyph glyph-name="bar" unicode="|" horiz-adv-x="233" 
d="M113 776h30v-924h-30v924z" />
    <glyph glyph-name="braceright" unicode="}" horiz-adv-x="351" 
d="M121 777c132 -8 181 -77 136 -201l-42 -117c-27 -78 -5 -134 101 -142l-4 -27c-105 3 -145 -40 -142 -124l6 -126c5 -139 -67 -182 -201 -185l5 28c109 3 168 34 163 159l-5 125c-3 94 46 130 114 140c-68 19 -98 74 -67 158l41 116c39 111 3 161 -109 168z" />
    <glyph glyph-name="asciitilde" unicode="~" horiz-adv-x="433" 
d="M46 237c12 60 46 99 95 99c64 0 105 -66 155 -66c36 0 59 31 66 68h30c-12 -60 -46 -99 -95 -99c-64 0 -107 66 -155 66c-35 0 -58 -31 -66 -68h-30z" />
    <glyph glyph-name="uni00A0" unicode="&#xa0;" horiz-adv-x="655" 
 />
    <glyph glyph-name="exclamdown" unicode="&#xa1;" horiz-adv-x="263" 
d="M89 -117h-38l92 551h28zM180 603c16 0 29 -13 29 -29c0 -15 -13 -28 -29 -28s-29 13 -29 28c0 16 13 29 29 29z" />
    <glyph glyph-name="cent" unicode="&#xa2;" horiz-adv-x="545" 
d="M273 -7c-7 0 -10 0 -17 1l-20 -129h-29l21 132c-117 17 -187 108 -187 233c0 172 115 300 271 300l16 99h29l-16 -101c95 -11 163 -73 170 -169h-34c-4 79 -58 131 -141 140l-75 -477h12c95 0 171 49 196 152h33c-27 -123 -118 -181 -229 -181zM76 230
c0 -115 60 -189 156 -205l76 476c-140 0 -232 -119 -232 -271z" />
    <glyph glyph-name="sterling" unicode="&#xa3;" horiz-adv-x="585" 
d="M65 363h77c-5 37 -9 75 -9 114c0 140 80 245 235 245c128 0 191 -72 194 -179h-35c-4 88 -52 148 -160 148c-131 0 -198 -88 -198 -214c0 -39 4 -75 8 -114h238l-5 -29h-230c3 -23 4 -46 4 -71c0 -72 -12 -118 -43 -162c80 -8 158 -77 240 -77c59 0 105 39 116 116h33
c-12 -95 -73 -147 -150 -147c-97 0 -180 79 -254 79c-47 0 -78 -29 -89 -72h-33c11 47 45 91 100 100c32 44 46 93 46 161c0 24 -2 49 -5 73h-85z" />
    <glyph glyph-name="yen" unicode="&#xa5;" horiz-adv-x="531" 
d="M78 347h181l-160 368h38l151 -350l249 350h37l-263 -368h179l-5 -29h-187l-17 -107h187l-5 -29h-186l-29 -182h-35l28 182h-190l5 29h190l16 107h-189z" />
    <glyph glyph-name="brokenbar" unicode="&#xa6;" horiz-adv-x="233" 
d="M113 297h30v-445h-30v445zM113 776h30v-409h-30v409z" />
    <glyph glyph-name="section" unicode="&#xa7;" horiz-adv-x="532" 
d="M216 -137c-93 0 -170 48 -175 147h35c8 -76 61 -117 141 -117c77 0 143 47 143 127c0 61 -39 98 -140 135c-103 37 -163 80 -163 160c0 87 78 124 161 140c-37 27 -60 63 -60 116c0 88 75 153 174 153c85 0 154 -43 154 -139h-35c0 71 -45 109 -121 109
s-137 -44 -137 -121c0 -55 28 -96 132 -136c100 -39 160 -81 160 -162c0 -80 -69 -121 -153 -137c36 -24 63 -63 63 -116c0 -95 -77 -159 -179 -159zM305 157c76 11 145 45 145 116c0 63 -49 97 -134 133l-73 31c-79 -13 -151 -43 -151 -120c0 -63 51 -98 136 -130z" />
    <glyph glyph-name="dieresis" unicode="&#xa8;" horiz-adv-x="400" 
d="M186 638c-15 0 -26 11 -26 26s11 26 26 26s26 -11 26 -26s-11 -26 -26 -26zM339 638c-15 0 -26 11 -26 26s11 26 26 26s26 -11 26 -26s-11 -26 -26 -26z" />
    <glyph glyph-name="copyright" unicode="&#xa9;" horiz-adv-x="844" 
d="M437 148c-120 0 -197 86 -197 210v7c0 123 88 210 196 210c88 0 156 -45 171 -130h-33c-15 67 -62 102 -138 102c-93 0 -162 -73 -162 -182v-6c0 -113 63 -182 163 -182c76 0 128 39 143 111h32c-16 -88 -83 -140 -175 -140zM433 -9c-204 0 -366 159 -366 366
c0 204 162 367 368 367c208 0 366 -162 366 -365c0 -209 -162 -368 -368 -368zM433 17c188 0 339 146 339 342c0 192 -146 339 -337 339c-189 0 -339 -148 -339 -341c0 -196 152 -340 337 -340z" />
    <glyph glyph-name="ordfeminine" unicode="&#xaa;" horiz-adv-x="418" 
d="M195 310c-87 0 -128 47 -128 108c0 100 86 125 182 125h107l6 33c11 76 -16 118 -100 118c-59 0 -102 -25 -121 -89h-33c19 84 89 117 155 117c103 0 147 -54 132 -149l-23 -145c-8 -53 -9 -86 -9 -113h-32c-1 19 -1 38 2 61c-25 -39 -73 -66 -138 -66zM201 337
c69 0 129 41 140 104l12 75h-106c-78 0 -147 -14 -147 -96c0 -48 30 -83 101 -83z" />
    <glyph glyph-name="guillemotleft" unicode="&#xab;" horiz-adv-x="415" 
d="M51 261l165 178h38l-166 -179l106 -177h-34zM196 261l165 178h38l-166 -179l106 -177h-34z" />
    <glyph glyph-name="registered" unicode="&#xae;" horiz-adv-x="514" 
d="M220 626h73c51 0 84 -22 84 -66v-1c0 -39 -25 -58 -60 -63l73 -107h-31l-72 104h-40v-104h-27v237zM294 515c37 0 55 14 55 43v1c0 32 -18 44 -55 44h-47v-88h47zM293 282c-123 0 -222 96 -222 220c0 123 97 222 222 222s222 -97 222 -221c0 -125 -99 -221 -222 -221z
M293 304c112 0 197 84 197 199c0 113 -84 199 -197 199c-112 0 -197 -88 -197 -200c0 -114 88 -198 197 -198z" />
    <glyph glyph-name="macron" unicode="&#xaf;" horiz-adv-x="400" 
d="M150 675h229l-4 -28h-230z" />
    <glyph glyph-name="degree" unicode="&#xb0;" horiz-adv-x="395" 
d="M243 467c68 1 116 50 116 121c0 61 -46 110 -110 110s-118 -51 -118 -120c0 -60 48 -111 112 -111zM242 441c-80 0 -142 60 -142 136c0 80 66 147 150 147c79 0 141 -60 141 -136c0 -81 -65 -147 -149 -147z" />
    <glyph glyph-name="plusminus" unicode="&#xb1;" horiz-adv-x="505" 
d="M246 332h-199l5 30h199l34 210h32l-34 -210h200l-5 -30h-200l-33 -209h-31zM-1 30h431l-5 -30h-431z" />
    <glyph glyph-name="twosuperior" unicode="&#xb2;" horiz-adv-x="285" 
d="M34 379l151 124c48 40 87 73 87 125c0 39 -27 66 -70 66c-47 0 -83 -29 -96 -85h-28c13 72 64 109 125 109c59 0 99 -34 99 -90c0 -62 -43 -94 -99 -142l-111 -90h181l-4 -25h-236z" />
    <glyph glyph-name="threesuperior" unicode="&#xb3;" horiz-adv-x="307" 
d="M184 367c-66 0 -121 34 -124 102h29c4 -47 39 -77 95 -77c48 0 90 24 90 80c0 37 -25 67 -73 67h-24l4 24h28c41 0 75 21 75 68c0 41 -29 64 -72 64c-51 0 -82 -30 -93 -73h-28c11 57 57 96 121 96c53 0 102 -26 102 -86c0 -41 -25 -71 -68 -82c35 -9 59 -36 59 -79
c0 -66 -57 -104 -121 -104z" />
    <glyph glyph-name="acute" unicode="&#xb4;" horiz-adv-x="400" 
d="M328 747h43l-106 -147h-30z" />
    <glyph glyph-name="mu" unicode="&#xb5;" horiz-adv-x="570" 
d="M467 140c-11 -63 -12 -109 -12 -140h-33c0 31 2 76 9 117c-35 -67 -104 -124 -199 -124c-73 0 -125 36 -144 101l-44 -276h-34l111 705h35l-51 -322c-19 -117 39 -179 131 -179c94 0 189 69 208 186l49 315h35z" />
    <glyph glyph-name="paragraph" unicode="&#xb6;" horiz-adv-x="542" 
d="M283 357h-5c-115 0 -193 59 -193 163c0 134 102 195 230 195h203l-129 -815h-31l125 789h-117l-125 -789h-30z" />
    <glyph glyph-name="periodcentered" unicode="&#xb7;" horiz-adv-x="195" 
d="M106 293c-16 0 -29 13 -29 29s12 29 29 29c16 0 29 -13 29 -29s-13 -29 -29 -29z" />
    <glyph glyph-name="cedilla" unicode="&#xb8;" horiz-adv-x="400" 
d="M144 -211c-51 0 -86 26 -90 75h32c2 -31 21 -47 58 -47c27 0 58 13 58 53c0 31 -21 42 -44 42c-21 0 -32 -4 -41 -11l-17 18l56 81h32l-45 -65c45 16 92 -12 92 -64s-36 -82 -91 -82z" />
    <glyph glyph-name="onesuperior" unicode="&#xb9;" horiz-adv-x="212" 
d="M176 679l-101 -65l4 30l111 71h23l-55 -344h-31z" />
    <glyph glyph-name="ordmasculine" unicode="&#xba;" horiz-adv-x="464" 
d="M254 310c-107 0 -176 79 -176 180c0 125 83 231 211 231c110 0 174 -82 174 -180c0 -132 -82 -231 -209 -231zM255 338c108 0 173 88 173 203c0 83 -49 152 -141 152c-110 0 -174 -94 -174 -203c0 -84 51 -152 142 -152z" />
    <glyph glyph-name="guillemotright" unicode="&#xbb;" horiz-adv-x="415" 
d="M363 260l-166 -177h-37l165 180l-106 176h34zM218 260l-166 -177h-37l165 180l-106 176h34z" />
    <glyph glyph-name="onequarter" unicode="&#xbc;" horiz-adv-x="665" 
d="M179 679l-101 -65l4 30l111 71h23l-55 -344h-31zM620 715h33l-590 -715h-33zM528 77h-184l2 11l211 256h43l-39 -243h48l-4 -24h-48l-12 -77h-30zM531 101l35 219l-179 -219h144z" />
    <glyph glyph-name="onehalf" unicode="&#xbd;" horiz-adv-x="669" 
d="M179 679l-101 -65l4 30l111 71h23l-55 -344h-31zM593 715h33l-590 -715h-33zM357 8l151 124c48 40 87 73 87 125c0 39 -27 66 -70 66c-47 0 -83 -29 -96 -85h-28c13 72 64 109 125 109c59 0 99 -34 99 -90c0 -62 -43 -94 -99 -142l-111 -90h181l-4 -25h-236z" />
    <glyph glyph-name="threequarters" unicode="&#xbe;" horiz-adv-x="693" 
d="M187 367c-66 0 -121 34 -124 102h29c4 -47 39 -77 95 -77c48 0 90 24 90 80c0 37 -25 67 -73 67h-24l4 24h28c41 0 75 21 75 68c0 41 -29 64 -72 64c-51 0 -82 -30 -93 -73h-28c11 57 57 96 121 96c53 0 102 -26 102 -86c0 -41 -25 -71 -68 -82c35 -9 59 -36 59 -79
c0 -66 -57 -104 -121 -104zM670 715h33l-590 -715h-33zM555 77h-184l2 11l211 256h43l-39 -243h48l-4 -24h-48l-12 -77h-30zM558 101l35 219l-179 -219h144z" />
    <glyph glyph-name="questiondown" unicode="&#xbf;" horiz-adv-x="469" 
d="M291 367c-13 -86 -60 -121 -128 -175c-63 -50 -118 -86 -118 -172c0 -80 66 -114 138 -114c95 0 162 54 182 162h33c-19 -124 -105 -192 -217 -192c-93 0 -171 48 -171 144c0 101 66 142 135 195c64 51 103 81 114 155l10 64h32zM307 603c16 0 28 -13 28 -29
c0 -15 -12 -28 -28 -28s-29 13 -29 28c0 16 12 29 29 29z" />
    <glyph glyph-name="Agrave" unicode="&#xc0;" horiz-adv-x="635" 
d="M480 228h-339l-119 -228h-36l375 715h48l156 -715h-35zM156 258h317l-93 429zM314 891h41l55 -120h-28z" />
    <glyph glyph-name="Aacute" unicode="&#xc1;" horiz-adv-x="635" 
d="M480 228h-339l-119 -228h-36l375 715h48l156 -715h-35zM156 258h317l-93 429zM449 891h43l-90 -120h-31z" />
    <glyph glyph-name="Acircumflex" unicode="&#xc2;" horiz-adv-x="635" 
d="M480 228h-339l-119 -228h-36l375 715h48l156 -715h-35zM156 258h317l-93 429zM384 891h33l96 -120h-29l-86 91l-109 -91h-32z" />
    <glyph glyph-name="Atilde" unicode="&#xc3;" horiz-adv-x="635" 
d="M480 228h-339l-119 -228h-36l375 715h48l156 -715h-35zM156 258h317l-93 429zM457 774c-50 0 -90 59 -130 59c-23 0 -47 -19 -55 -59h-28c12 60 44 89 84 89c48 0 90 -59 130 -59c23 0 46 19 55 58h27c-11 -59 -44 -88 -83 -88z" />
    <glyph glyph-name="Adieresis" unicode="&#xc4;" horiz-adv-x="635" 
d="M480 228h-339l-119 -228h-36l375 715h48l156 -715h-35zM156 258h317l-93 429zM308 788c-15 0 -26 10 -26 25s12 27 27 27s25 -11 25 -26s-11 -26 -26 -26zM475 788c-15 0 -26 10 -26 25s11 27 26 27s26 -11 26 -26s-11 -26 -26 -26z" />
    <glyph glyph-name="Aring" unicode="&#xc5;" horiz-adv-x="635" 
d="M480 228h-339l-119 -228h-36l375 715h48l156 -715h-35zM156 258h317l-93 429zM391 774c39 0 68 29 68 70c0 39 -26 65 -65 65s-68 -29 -68 -70c0 -36 26 -65 65 -65zM391 752c-52 0 -91 40 -91 87c0 51 43 93 94 93c53 0 91 -40 91 -88c0 -52 -41 -92 -94 -92z" />
    <glyph glyph-name="AE" unicode="&#xc6;" horiz-adv-x="943" 
d="M454 715h489l-5 -30h-365l-48 -301h302l-5 -31h-301l-52 -322h390l-5 -31h-425l36 228h-291l-148 -228h-40zM194 258h275l68 427h-65z" />
    <glyph glyph-name="Ccedilla" unicode="&#xc7;" horiz-adv-x="724" 
d="M297 -211c-51 0 -86 26 -90 75h32c2 -31 21 -47 58 -47c27 0 58 13 58 53c0 31 -21 42 -44 42c-21 0 -32 -4 -41 -11l-17 18l54 79c-155 24 -248 139 -248 314c0 221 147 410 376 410c133 0 246 -76 265 -216h-33c-23 120 -112 186 -233 186c-211 0 -337 -173 -337 -380
c0 -181 101 -288 274 -288c132 0 232 72 275 201h35c-45 -148 -165 -232 -310 -232c-12 0 -20 0 -35 1l-40 -59c45 16 92 -12 92 -64s-36 -82 -91 -82z" />
    <glyph glyph-name="Egrave" unicode="&#xc8;" horiz-adv-x="568" 
d="M165 715h401l-5 -30h-365l-48 -301h302l-5 -31h-301l-52 -322h390l-6 -31h-424zM299 891h41l55 -120h-28z" />
    <glyph glyph-name="Eacute" unicode="&#xc9;" horiz-adv-x="568" 
d="M165 715h401l-5 -30h-365l-48 -301h302l-5 -31h-301l-52 -322h390l-6 -31h-424zM421 891h43l-90 -120h-31z" />
    <glyph glyph-name="Ecircumflex" unicode="&#xca;" horiz-adv-x="568" 
d="M165 715h401l-5 -30h-365l-48 -301h302l-5 -31h-301l-52 -322h390l-6 -31h-424zM363 891h33l96 -120h-29l-86 91l-109 -91h-32z" />
    <glyph glyph-name="Edieresis" unicode="&#xcb;" horiz-adv-x="568" 
d="M165 715h401l-5 -30h-365l-48 -301h302l-5 -31h-301l-52 -322h390l-6 -31h-424zM287 788c-15 0 -26 10 -26 25s12 27 27 27s25 -11 25 -26s-11 -26 -26 -26zM454 788c-15 0 -26 10 -26 25s11 27 26 27s26 -11 26 -26s-11 -26 -26 -26z" />
    <glyph glyph-name="Igrave" unicode="&#xcc;" horiz-adv-x="234" 
d="M170 715h36l-113 -715h-36zM119 891h41l55 -120h-28z" />
    <glyph glyph-name="Iacute" unicode="&#xcd;" horiz-adv-x="234" 
d="M170 715h36l-113 -715h-36zM255 891h43l-90 -120h-31z" />
    <glyph glyph-name="Icircumflex" unicode="&#xce;" horiz-adv-x="234" 
d="M170 715h36l-113 -715h-36zM194 891h33l96 -120h-29l-86 91l-109 -91h-32z" />
    <glyph glyph-name="Idieresis" unicode="&#xcf;" horiz-adv-x="234" 
d="M170 715h36l-113 -715h-36zM119 788c-15 0 -26 10 -26 25s12 27 27 27s25 -11 25 -26s-11 -26 -26 -26zM286 788c-15 0 -26 10 -26 25s11 27 26 27s26 -11 26 -26s-11 -26 -26 -26z" />
    <glyph glyph-name="Eth" unicode="&#xd0;" horiz-adv-x="687" 
d="M41 375h75l54 340h172c216 0 317 -131 317 -304c0 -253 -157 -411 -407 -411h-195l54 345h-75zM251 31c229 0 372 141 372 380c0 155 -86 274 -282 274h-140l-50 -310h210l-5 -30h-210l-49 -314h154z" />
    <glyph glyph-name="Ntilde" unicode="&#xd1;" horiz-adv-x="707" 
d="M165 715h49l329 -667l106 667h35l-113 -715h-43l-334 678l-107 -678h-35zM508 774c-50 0 -90 59 -130 59c-23 0 -47 -19 -55 -59h-28c12 60 44 89 84 89c48 0 90 -59 130 -59c23 0 46 19 55 58h27c-11 -59 -44 -88 -83 -88z" />
    <glyph glyph-name="Ograve" unicode="&#xd2;" horiz-adv-x="788" 
d="M757 392c0 -212 -152 -399 -373 -399c-201 0 -325 144 -325 333c0 210 155 396 377 396c196 0 321 -145 321 -330zM721 392c0 163 -105 300 -286 300c-204 0 -336 -169 -339 -366c-3 -169 108 -302 288 -302c202 0 337 170 337 368zM373 891h41l55 -120h-28z" />
    <glyph glyph-name="Oacute" unicode="&#xd3;" horiz-adv-x="788" 
d="M757 392c0 -212 -152 -399 -373 -399c-201 0 -325 144 -325 333c0 210 155 396 377 396c196 0 321 -145 321 -330zM721 392c0 163 -105 300 -286 300c-204 0 -336 -169 -339 -366c-3 -169 108 -302 288 -302c202 0 337 170 337 368zM510 891h43l-90 -120h-31z" />
    <glyph glyph-name="Ocircumflex" unicode="&#xd4;" horiz-adv-x="788" 
d="M757 392c0 -212 -152 -399 -373 -399c-201 0 -325 144 -325 333c0 210 155 396 377 396c196 0 321 -145 321 -330zM721 392c0 163 -105 300 -286 300c-204 0 -336 -169 -339 -366c-3 -169 108 -302 288 -302c202 0 337 170 337 368zM448 891h33l96 -120h-29l-86 91
l-109 -91h-32z" />
    <glyph glyph-name="Otilde" unicode="&#xd5;" horiz-adv-x="788" 
d="M757 392c0 -212 -152 -399 -373 -399c-201 0 -325 144 -325 333c0 210 155 396 377 396c196 0 321 -145 321 -330zM721 392c0 163 -105 300 -286 300c-204 0 -336 -169 -339 -366c-3 -169 108 -302 288 -302c202 0 337 170 337 368zM517 774c-50 0 -90 59 -130 59
c-23 0 -47 -19 -55 -59h-28c12 60 44 89 84 89c48 0 90 -59 130 -59c23 0 46 19 55 58h27c-11 -59 -44 -88 -83 -88z" />
    <glyph glyph-name="Odieresis" unicode="&#xd6;" horiz-adv-x="788" 
d="M757 392c0 -212 -152 -399 -373 -399c-201 0 -325 144 -325 333c0 210 155 396 377 396c196 0 321 -145 321 -330zM721 392c0 163 -105 300 -286 300c-204 0 -336 -169 -339 -366c-3 -169 108 -302 288 -302c202 0 337 170 337 368zM368 788c-15 0 -26 10 -26 25
s12 27 27 27s25 -11 25 -26s-11 -26 -26 -26zM535 788c-15 0 -26 10 -26 25s11 27 26 27s26 -11 26 -26s-11 -26 -26 -26z" />
    <glyph glyph-name="multiply" unicode="&#xd7;" horiz-adv-x="492" 
d="M43 172l185 165l-143 164l22 21l143 -165l186 165l19 -23l-185 -164l144 -165l-23 -20l-144 165l-185 -165z" />
    <glyph glyph-name="Oslash" unicode="&#xd8;" horiz-adv-x="788" 
d="M33 3l98 102c-48 59 -72 133 -72 221c0 210 155 396 377 396c88 0 161 -30 216 -79l91 94l21 -22l-90 -93c53 -60 83 -139 83 -230c0 -212 -152 -399 -373 -399c-97 0 -176 33 -232 89l-98 -101zM721 392c0 81 -23 153 -70 206l-476 -492c51 -51 121 -82 209 -82
c202 0 337 170 337 368zM96 326c-1 -77 20 -145 59 -197l475 491c-48 45 -114 72 -195 72c-204 0 -336 -169 -339 -366z" />
    <glyph glyph-name="Ugrave" unicode="&#xd9;" horiz-adv-x="674" 
d="M318 -5c-183 0 -265 99 -238 272l71 448h36l-71 -448c-24 -157 40 -241 203 -241c140 0 211 69 234 216l75 473h36l-75 -476c-25 -159 -106 -244 -271 -244zM334 891h41l55 -120h-28z" />
    <glyph glyph-name="Uacute" unicode="&#xda;" horiz-adv-x="674" 
d="M318 -5c-183 0 -265 99 -238 272l71 448h36l-71 -448c-24 -157 40 -241 203 -241c140 0 211 69 234 216l75 473h36l-75 -476c-25 -159 -106 -244 -271 -244zM465 891h43l-90 -120h-31z" />
    <glyph glyph-name="Ucircumflex" unicode="&#xdb;" horiz-adv-x="674" 
d="M318 -5c-183 0 -265 99 -238 272l71 448h36l-71 -448c-24 -157 40 -241 203 -241c140 0 211 69 234 216l75 473h36l-75 -476c-25 -159 -106 -244 -271 -244zM410 891h33l96 -120h-29l-86 91l-109 -91h-32z" />
    <glyph glyph-name="Udieresis" unicode="&#xdc;" horiz-adv-x="674" 
d="M318 -5c-183 0 -265 99 -238 272l71 448h36l-71 -448c-24 -157 40 -241 203 -241c140 0 211 69 234 216l75 473h36l-75 -476c-25 -159 -106 -244 -271 -244zM333 788c-15 0 -26 10 -26 25s12 27 27 27s25 -11 25 -26s-11 -26 -26 -26zM500 788c-15 0 -26 10 -26 25
s11 27 26 27s26 -11 26 -26s-11 -26 -26 -26z" />
    <glyph glyph-name="Yacute" unicode="&#xdd;" horiz-adv-x="564" 
d="M276 322l-189 393h37l175 -363l269 363h39l-295 -396l-51 -319h-36zM408 891h43l-90 -120h-31z" />
    <glyph glyph-name="Thorn" unicode="&#xde;" horiz-adv-x="559" 
d="M176 565h136c132 0 221 -58 221 -175c0 -156 -107 -213 -255 -213h-163l-28 -177h-35l113 715h35zM171 534l-52 -327h160c134 0 218 49 218 183c0 103 -73 144 -188 144h-138z" />
    <glyph glyph-name="germandbls" unicode="&#xdf;" horiz-adv-x="553" 
d="M282 -5c-47 0 -82 8 -109 23l5 29c29 -15 60 -23 103 -23c116 0 190 77 190 205c0 112 -82 199 -197 202l6 29c105 3 191 58 191 162c0 83 -59 125 -133 125c-96 1 -158 -64 -173 -164l-92 -583h-34l92 585c18 119 99 191 208 191c89 0 166 -54 166 -154
c0 -96 -74 -161 -164 -177c87 -21 165 -102 165 -217c0 -145 -89 -233 -224 -233z" />
    <glyph glyph-name="agrave" unicode="&#xe0;" horiz-adv-x="521" 
d="M204 -7c-117 0 -172 61 -172 142c0 127 106 161 227 161h156l7 45c15 103 -22 160 -135 160c-80 0 -142 -33 -167 -121h-35c27 108 115 151 202 151c132 0 188 -72 169 -193l-30 -192c-11 -72 -13 -113 -13 -146h-33c0 24 2 57 5 86c-31 -51 -94 -93 -181 -93zM207 21
c93 0 174 57 187 141l17 106h-152c-105 0 -193 -24 -193 -133c0 -64 42 -114 141 -114zM224 747h40l51 -147h-28z" />
    <glyph glyph-name="aacute" unicode="&#xe1;" horiz-adv-x="521" 
d="M204 -7c-117 0 -172 61 -172 142c0 127 106 161 227 161h156l7 45c15 103 -22 160 -135 160c-80 0 -142 -33 -167 -121h-35c27 108 115 151 202 151c132 0 188 -72 169 -193l-30 -192c-11 -72 -13 -113 -13 -146h-33c0 24 2 57 5 86c-31 -51 -94 -93 -181 -93zM207 21
c93 0 174 57 187 141l17 106h-152c-105 0 -193 -24 -193 -133c0 -64 42 -114 141 -114zM372 747h43l-106 -147h-30z" />
    <glyph glyph-name="acircumflex" unicode="&#xe2;" horiz-adv-x="521" 
d="M204 -7c-117 0 -172 61 -172 142c0 127 106 161 227 161h156l7 45c15 103 -22 160 -135 160c-80 0 -142 -33 -167 -121h-35c27 108 115 151 202 151c132 0 188 -72 169 -193l-30 -192c-11 -72 -13 -113 -13 -146h-33c0 24 2 57 5 86c-31 -51 -94 -93 -181 -93zM207 21
c93 0 174 57 187 141l17 106h-152c-105 0 -193 -24 -193 -133c0 -64 42 -114 141 -114zM299 729h33l94 -129h-29l-84 101l-110 -101h-31z" />
    <glyph glyph-name="atilde" unicode="&#xe3;" horiz-adv-x="521" 
d="M204 -7c-117 0 -172 61 -172 142c0 127 106 161 227 161h156l7 45c15 103 -22 160 -135 160c-80 0 -142 -33 -167 -121h-35c27 108 115 151 202 151c132 0 188 -72 169 -193l-30 -192c-11 -72 -13 -113 -13 -146h-33c0 24 2 57 5 86c-31 -51 -94 -93 -181 -93zM207 21
c93 0 174 57 187 141l17 106h-152c-105 0 -193 -24 -193 -133c0 -64 42 -114 141 -114zM372 615c-50 0 -90 58 -130 58c-24 0 -47 -19 -56 -58h-28c12 60 45 88 85 88c48 0 90 -59 129 -59c23 0 47 20 55 59h28c-12 -59 -44 -88 -83 -88z" />
    <glyph glyph-name="adieresis" unicode="&#xe4;" horiz-adv-x="521" 
d="M204 -7c-117 0 -172 61 -172 142c0 127 106 161 227 161h156l7 45c15 103 -22 160 -135 160c-80 0 -142 -33 -167 -121h-35c27 108 115 151 202 151c132 0 188 -72 169 -193l-30 -192c-11 -72 -13 -113 -13 -146h-33c0 24 2 57 5 86c-31 -51 -94 -93 -181 -93zM207 21
c93 0 174 57 187 141l17 106h-152c-105 0 -193 -24 -193 -133c0 -64 42 -114 141 -114zM231 638c-15 0 -26 11 -26 26s11 26 26 26s26 -11 26 -26s-11 -26 -26 -26zM384 638c-15 0 -26 11 -26 26s11 26 26 26s26 -11 26 -26s-11 -26 -26 -26z" />
    <glyph glyph-name="aring" unicode="&#xe5;" horiz-adv-x="521" 
d="M204 -7c-117 0 -172 61 -172 142c0 127 106 161 227 161h156l7 45c15 103 -22 160 -135 160c-80 0 -142 -33 -167 -121h-35c27 108 115 151 202 151c132 0 188 -72 169 -193l-30 -192c-11 -72 -13 -113 -13 -146h-33c0 24 2 57 5 86c-31 -51 -94 -93 -181 -93zM207 21
c93 0 174 57 187 141l17 106h-152c-105 0 -193 -24 -193 -133c0 -64 42 -114 141 -114zM314 625c40 0 68 29 68 70c0 39 -25 65 -64 65s-68 -29 -68 -70c0 -36 27 -65 64 -65zM314 603c-51 0 -90 40 -90 87c0 51 42 93 94 93c53 0 90 -40 90 -88c0 -52 -41 -92 -94 -92z" />
    <glyph glyph-name="ae" unicode="&#xe6;" horiz-adv-x="897" 
d="M444 217c0 -125 57 -195 178 -195c91 0 152 41 183 122h34c-35 -101 -113 -152 -218 -152c-119 0 -185 59 -204 158c-29 -111 -122 -157 -213 -157c-117 0 -172 59 -172 140c0 123 107 159 228 159h156l7 49c15 103 -23 160 -136 160c-80 0 -142 -33 -167 -121h-35
c27 108 115 151 202 151c105 0 161 -48 168 -129c43 77 116 128 212 128c149 0 213 -104 192 -252l-3 -14h-410c-1 -15 -2 -31 -2 -47zM206 21c96 0 177 55 193 166l12 77h-152c-104 0 -193 -23 -193 -131c0 -64 41 -112 140 -112zM666 501c-117 0 -195 -87 -216 -209h377
c16 122 -33 209 -161 209z" />
    <glyph glyph-name="ccedilla" unicode="&#xe7;" horiz-adv-x="543" 
d="M209 -211c-51 0 -86 26 -90 75h32c2 -31 21 -47 58 -47c27 0 58 13 58 53c0 31 -21 42 -44 42c-21 0 -32 -4 -41 -11l-17 18l54 79c-113 20 -178 110 -178 233c0 172 113 299 270 299c110 0 190 -65 198 -171h-34c-5 88 -70 142 -166 142c-141 0 -233 -118 -233 -270
c0 -129 77 -209 196 -209c96 0 171 52 196 152h33c-26 -119 -118 -181 -229 -181c-7 0 -9 0 -24 1l-40 -59c45 16 92 -12 92 -64s-36 -82 -91 -82z" />
    <glyph glyph-name="egrave" unicode="&#xe8;" horiz-adv-x="535" 
d="M74 217c0 -125 62 -195 183 -195c89 0 154 41 186 122h34c-35 -101 -116 -152 -221 -152c-144 0 -218 87 -218 226c0 167 102 312 264 312c149 0 219 -104 195 -252l-2 -14h-419c-1 -15 -2 -31 -2 -47zM301 501c-120 0 -197 -87 -221 -208h385c16 122 -35 208 -164 208z
M233 747h40l51 -147h-28z" />
    <glyph glyph-name="eacute" unicode="&#xe9;" horiz-adv-x="535" 
d="M74 217c0 -125 62 -195 183 -195c89 0 154 41 186 122h34c-35 -101 -116 -152 -221 -152c-144 0 -218 87 -218 226c0 167 102 312 264 312c149 0 219 -104 195 -252l-2 -14h-419c-1 -15 -2 -31 -2 -47zM301 501c-120 0 -197 -87 -221 -208h385c16 122 -35 208 -164 208z
M381 747h43l-106 -147h-30z" />
    <glyph glyph-name="ecircumflex" unicode="&#xea;" horiz-adv-x="535" 
d="M74 217c0 -125 62 -195 183 -195c89 0 154 41 186 122h34c-35 -101 -116 -152 -221 -152c-144 0 -218 87 -218 226c0 167 102 312 264 312c149 0 219 -104 195 -252l-2 -14h-419c-1 -15 -2 -31 -2 -47zM301 501c-120 0 -197 -87 -221 -208h385c16 122 -35 208 -164 208z
M308 729h33l94 -129h-29l-84 101l-110 -101h-31z" />
    <glyph glyph-name="edieresis" unicode="&#xeb;" horiz-adv-x="535" 
d="M74 217c0 -125 62 -195 183 -195c89 0 154 41 186 122h34c-35 -101 -116 -152 -221 -152c-144 0 -218 87 -218 226c0 167 102 312 264 312c149 0 219 -104 195 -252l-2 -14h-419c-1 -15 -2 -31 -2 -47zM301 501c-120 0 -197 -87 -221 -208h385c16 122 -35 208 -164 208z
M241 638c-15 0 -26 11 -26 26s11 26 26 26s26 -11 26 -26s-11 -26 -26 -26zM394 638c-15 0 -26 11 -26 26s11 26 26 26s26 -11 26 -26s-11 -26 -26 -26z" />
    <glyph glyph-name="igrave" unicode="&#xec;" horiz-adv-x="200" 
d="M123 523h35l-83 -523h-34zM74 747h40l51 -147h-28z" />
    <glyph glyph-name="iacute" unicode="&#xed;" horiz-adv-x="200" 
d="M123 523h35l-83 -523h-34zM227 747h43l-106 -147h-30z" />
    <glyph glyph-name="icircumflex" unicode="&#xee;" horiz-adv-x="200" 
d="M123 523h35l-83 -523h-34zM149 729h33l94 -129h-29l-84 101l-110 -101h-31z" />
    <glyph glyph-name="idieresis" unicode="&#xef;" horiz-adv-x="200" 
d="M98 638c-15 0 -26 11 -26 26s12 26 27 26s25 -11 25 -26s-11 -26 -26 -26zM227 638c-15 0 -26 11 -26 26s11 26 26 26s26 -11 26 -26s-11 -26 -26 -26zM123 523h35l-83 -523h-34z" />
    <glyph glyph-name="eth" unicode="&#xf0;" horiz-adv-x="576" 
d="M166 612l147 79c-35 29 -73 55 -114 82h47c31 -19 64 -40 95 -67l120 64l12 -23l-111 -60c96 -88 173 -211 173 -382c0 -176 -103 -313 -272 -313c-135 0 -226 105 -226 238c0 155 103 300 269 300c99 0 153 -47 184 -106c-29 104 -84 181 -156 248l-156 -83zM72 229
c0 -109 68 -207 191 -207c147 0 237 121 237 272c0 123 -74 207 -191 207c-149 0 -237 -129 -237 -272z" />
    <glyph glyph-name="ntilde" unicode="&#xf1;" horiz-adv-x="567" 
d="M99 384c11 69 12 106 15 139h33c-1 -27 -4 -70 -11 -115c35 67 107 123 202 123c114 0 184 -72 160 -220l-49 -311h-35l50 316c20 125 -35 185 -131 185c-95 0 -191 -66 -210 -187l-50 -314h-34zM394 615c-50 0 -90 58 -130 58c-24 0 -47 -19 -56 -58h-28
c12 60 45 88 85 88c48 0 90 -59 129 -59c23 0 47 20 55 59h28c-12 -59 -44 -88 -83 -88z" />
    <glyph glyph-name="ograve" unicode="&#xf2;" horiz-adv-x="573" 
d="M265 -7c-136 0 -228 105 -228 236c0 161 105 301 273 301c140 0 225 -108 225 -236c0 -168 -105 -301 -270 -301zM266 22c145 0 234 119 234 272c0 112 -68 207 -191 207c-149 0 -237 -125 -237 -272c0 -113 74 -207 194 -207zM249 747h40l51 -147h-28z" />
    <glyph glyph-name="oacute" unicode="&#xf3;" horiz-adv-x="573" 
d="M265 -7c-136 0 -228 105 -228 236c0 161 105 301 273 301c140 0 225 -108 225 -236c0 -168 -105 -301 -270 -301zM266 22c145 0 234 119 234 272c0 112 -68 207 -191 207c-149 0 -237 -125 -237 -272c0 -113 74 -207 194 -207zM398 747h43l-106 -147h-30z" />
    <glyph glyph-name="ocircumflex" unicode="&#xf4;" horiz-adv-x="573" 
d="M265 -7c-136 0 -228 105 -228 236c0 161 105 301 273 301c140 0 225 -108 225 -236c0 -168 -105 -301 -270 -301zM266 22c145 0 234 119 234 272c0 112 -68 207 -191 207c-149 0 -237 -125 -237 -272c0 -113 74 -207 194 -207zM322 729h33l94 -129h-29l-84 101l-110 -101
h-31z" />
    <glyph glyph-name="otilde" unicode="&#xf5;" horiz-adv-x="573" 
d="M265 -7c-136 0 -228 105 -228 236c0 161 105 301 273 301c140 0 225 -108 225 -236c0 -168 -105 -301 -270 -301zM266 22c145 0 234 119 234 272c0 112 -68 207 -191 207c-149 0 -237 -125 -237 -272c0 -113 74 -207 194 -207zM393 615c-50 0 -90 58 -130 58
c-24 0 -47 -19 -56 -58h-28c12 60 45 88 85 88c48 0 90 -59 129 -59c23 0 47 20 55 59h28c-12 -59 -44 -88 -83 -88z" />
    <glyph glyph-name="odieresis" unicode="&#xf6;" horiz-adv-x="573" 
d="M265 -7c-136 0 -228 105 -228 236c0 161 105 301 273 301c140 0 225 -108 225 -236c0 -168 -105 -301 -270 -301zM266 22c145 0 234 119 234 272c0 112 -68 207 -191 207c-149 0 -237 -125 -237 -272c0 -113 74 -207 194 -207zM252 638c-15 0 -26 11 -26 26s11 26 26 26
s26 -11 26 -26s-11 -26 -26 -26zM405 638c-15 0 -26 11 -26 26s11 26 26 26s26 -11 26 -26s-11 -26 -26 -26z" />
    <glyph glyph-name="divide" unicode="&#xf7;" horiz-adv-x="505" 
d="M51 357h431l-5 -30h-431zM241 143c-16 0 -29 13 -29 29s13 29 29 29s29 -13 29 -29s-13 -29 -29 -29zM288 484c-17 0 -29 13 -29 28c0 16 12 29 29 29c16 0 28 -13 28 -29c0 -15 -12 -28 -28 -28z" />
    <glyph glyph-name="oslash" unicode="&#xf8;" horiz-adv-x="573" 
d="M18 3l69 72c-32 41 -50 94 -50 154c0 161 105 301 273 301c65 0 117 -23 156 -60l66 69l21 -20l-68 -71c32 -43 50 -95 50 -154c0 -168 -105 -301 -270 -301c-64 0 -118 21 -158 60l-68 -71zM266 22c145 0 234 119 234 272c0 49 -12 93 -37 130l-334 -348
c33 -33 78 -54 137 -54zM72 229c0 -50 13 -93 38 -130l334 348c-32 33 -76 54 -135 54c-149 0 -237 -125 -237 -272z" />
    <glyph glyph-name="ugrave" unicode="&#xf9;" horiz-adv-x="563" 
d="M461 140c-11 -63 -12 -109 -13 -140h-33c0 31 3 74 10 115c-36 -68 -105 -123 -201 -123c-115 0 -182 74 -158 220l49 311h34l-50 -315c-20 -125 33 -186 129 -186s190 67 209 187l50 314h34zM249 747h40l51 -147h-28z" />
    <glyph glyph-name="uacute" unicode="&#xfa;" horiz-adv-x="563" 
d="M461 140c-11 -63 -12 -109 -13 -140h-33c0 31 3 74 10 115c-36 -68 -105 -123 -201 -123c-115 0 -182 74 -158 220l49 311h34l-50 -315c-20 -125 33 -186 129 -186s190 67 209 187l50 314h34zM393 747h43l-106 -147h-30z" />
    <glyph glyph-name="ucircumflex" unicode="&#xfb;" horiz-adv-x="563" 
d="M461 140c-11 -63 -12 -109 -13 -140h-33c0 31 3 74 10 115c-36 -68 -105 -123 -201 -123c-115 0 -182 74 -158 220l49 311h34l-50 -315c-20 -125 33 -186 129 -186s190 67 209 187l50 314h34zM320 729h33l94 -129h-29l-84 101l-110 -101h-31z" />
    <glyph glyph-name="udieresis" unicode="&#xfc;" horiz-adv-x="563" 
d="M461 140c-11 -63 -12 -109 -13 -140h-33c0 31 3 74 10 115c-36 -68 -105 -123 -201 -123c-115 0 -182 74 -158 220l49 311h34l-50 -315c-20 -125 33 -186 129 -186s190 67 209 187l50 314h34zM255 638c-15 0 -26 11 -26 26s11 26 26 26s26 -11 26 -26s-11 -26 -26 -26z
M408 638c-15 0 -26 11 -26 26s11 26 26 26s26 -11 26 -26s-11 -26 -26 -26z" />
    <glyph glyph-name="yacute" unicode="&#xfd;" horiz-adv-x="486" 
d="M196 42l-131 481h34l121 -443l245 443h37l-395 -705h-37zM365 747h43l-106 -147h-30z" />
    <glyph glyph-name="thorn" unicode="&#xfe;" horiz-adv-x="597" 
d="M161 773h34l-60 -380c37 77 115 138 214 138c117 0 209 -93 209 -236c0 -165 -88 -303 -255 -303c-129 0 -189 90 -205 163l-54 -337h-34zM301 22c147 0 222 120 222 272c0 131 -79 208 -178 208c-144 0 -231 -133 -234 -269c0 -132 80 -211 190 -211z" />
    <glyph glyph-name="ydieresis" unicode="&#xff;" horiz-adv-x="486" 
d="M196 42l-131 481h34l121 -443l245 443h37l-395 -705h-37zM228 638c-15 0 -26 11 -26 26s11 26 26 26s26 -11 26 -26s-11 -26 -26 -26zM381 638c-15 0 -26 11 -26 26s11 26 26 26s26 -11 26 -26s-11 -26 -26 -26z" />
    <glyph glyph-name="Amacron" unicode="&#x100;" horiz-adv-x="635" 
d="M480 228h-339l-119 -228h-36l375 715h48l156 -715h-35zM156 258h317l-93 429zM280 823h236l-4 -29h-236z" />
    <glyph glyph-name="amacron" unicode="&#x101;" horiz-adv-x="521" 
d="M204 -7c-117 0 -172 61 -172 142c0 127 106 161 227 161h156l7 45c15 103 -22 160 -135 160c-80 0 -142 -33 -167 -121h-35c27 108 115 151 202 151c132 0 188 -72 169 -193l-30 -192c-11 -72 -13 -113 -13 -146h-33c0 24 2 57 5 86c-31 -51 -94 -93 -181 -93zM207 21
c93 0 174 57 187 141l17 106h-152c-105 0 -193 -24 -193 -133c0 -64 42 -114 141 -114zM201 675h229l-4 -28h-230z" />
    <glyph glyph-name="Abreve" unicode="&#x102;" horiz-adv-x="635" 
d="M480 228h-339l-119 -228h-36l375 715h48l156 -715h-35zM156 258h317l-93 429zM390 773c-68 0 -114 49 -115 117h30c3 -52 34 -88 86 -88c51 0 91 35 102 88h29c-8 -69 -68 -117 -132 -117z" />
    <glyph glyph-name="abreve" unicode="&#x103;" horiz-adv-x="521" 
d="M204 -7c-117 0 -172 61 -172 142c0 127 106 161 227 161h156l7 45c15 103 -22 160 -135 160c-80 0 -142 -33 -167 -121h-35c27 108 115 151 202 151c132 0 188 -72 169 -193l-30 -192c-11 -72 -13 -113 -13 -146h-33c0 24 2 57 5 86c-31 -51 -94 -93 -181 -93zM207 21
c93 0 174 57 187 141l17 106h-152c-105 0 -193 -24 -193 -133c0 -64 42 -114 141 -114zM305 614c-68 0 -108 46 -109 114h30c3 -52 29 -85 80 -85c49 0 85 32 96 85h29c-11 -71 -63 -114 -126 -114z" />
    <glyph glyph-name="Aogonek" unicode="&#x104;" horiz-adv-x="635" 
d="M432 -112c0 57 60 93 97 114l-49 226h-339l-119 -228h-36l375 715h48l156 -715c-37 -21 -100 -58 -100 -109c0 -27 15 -46 54 -46c15 0 31 3 46 8l-5 -27c-12 -4 -28 -8 -47 -8c-53 0 -82 27 -81 70zM156 258h317l-93 429z" />
    <glyph glyph-name="aogonek" unicode="&#x105;" horiz-adv-x="521" 
d="M363 -182c-53 0 -82 27 -81 70c0 57 63 95 98 116c0 23 2 54 5 82c-31 -51 -94 -93 -181 -93c-117 0 -172 61 -172 142c0 127 106 161 227 161h156l7 45c15 103 -22 160 -135 160c-80 0 -142 -33 -167 -121h-35c27 108 115 151 202 151c132 0 188 -72 169 -193l-30 -192
c-11 -72 -13 -113 -13 -146c-35 -21 -98 -58 -98 -109c0 -27 15 -46 54 -46c15 0 31 3 46 8l-5 -27c-12 -4 -28 -8 -47 -8zM207 21c93 0 174 57 187 141l17 106h-152c-105 0 -193 -24 -193 -133c0 -64 42 -114 141 -114z" />
    <glyph glyph-name="Cacute" unicode="&#x106;" horiz-adv-x="724" 
d="M371 -7c-191 0 -312 122 -312 319c0 221 147 410 376 410c133 0 246 -76 265 -216h-33c-23 120 -112 186 -233 186c-211 0 -337 -173 -337 -380c0 -181 101 -288 274 -288c132 0 232 72 275 201h35c-45 -148 -165 -232 -310 -232zM499 891h43l-90 -120h-31z" />
    <glyph glyph-name="cacute" unicode="&#x107;" horiz-adv-x="543" 
d="M272 -7c-144 0 -231 98 -231 238c0 172 113 299 270 299c110 0 190 -65 198 -171h-34c-5 88 -70 142 -166 142c-141 0 -233 -118 -233 -270c0 -129 77 -209 196 -209c96 0 171 52 196 152h33c-26 -119 -118 -181 -229 -181zM389 747h43l-106 -147h-30z" />
    <glyph glyph-name="Ccircumflex" unicode="&#x108;" horiz-adv-x="724" 
d="M371 -7c-191 0 -312 122 -312 319c0 221 147 410 376 410c133 0 246 -76 265 -216h-33c-23 120 -112 186 -233 186c-211 0 -337 -173 -337 -380c0 -181 101 -288 274 -288c132 0 232 72 275 201h35c-45 -148 -165 -232 -310 -232zM439 891h33l96 -120h-29l-86 91
l-109 -91h-32z" />
    <glyph glyph-name="ccircumflex" unicode="&#x109;" horiz-adv-x="543" 
d="M272 -7c-144 0 -231 98 -231 238c0 172 113 299 270 299c110 0 190 -65 198 -171h-34c-5 88 -70 142 -166 142c-141 0 -233 -118 -233 -270c0 -129 77 -209 196 -209c96 0 171 52 196 152h33c-26 -119 -118 -181 -229 -181zM311 729h33l94 -129h-29l-84 101l-110 -101
h-31z" />
    <glyph glyph-name="Cdotaccent" unicode="&#x10a;" horiz-adv-x="724" 
d="M371 -7c-191 0 -312 122 -312 319c0 221 147 410 376 410c133 0 246 -76 265 -216h-33c-23 120 -112 186 -233 186c-211 0 -337 -173 -337 -380c0 -181 101 -288 274 -288c132 0 232 72 275 201h35c-45 -148 -165 -232 -310 -232zM435 787c-15 0 -26 11 -26 26
s12 27 27 27s26 -11 26 -26s-12 -27 -27 -27z" />
    <glyph glyph-name="cdotaccent" unicode="&#x10b;" horiz-adv-x="543" 
d="M272 -7c-144 0 -231 98 -231 238c0 172 113 299 270 299c110 0 190 -65 198 -171h-34c-5 88 -70 142 -166 142c-141 0 -233 -118 -233 -270c0 -129 77 -209 196 -209c96 0 171 52 196 152h33c-26 -119 -118 -181 -229 -181zM322 637c-15 0 -26 12 -26 27s12 26 27 26
s26 -11 26 -26s-12 -27 -27 -27z" />
    <glyph glyph-name="Ccaron" unicode="&#x10c;" horiz-adv-x="724" 
d="M371 -7c-191 0 -312 122 -312 319c0 221 147 410 376 410c133 0 246 -76 265 -216h-33c-23 120 -112 186 -233 186c-211 0 -337 -173 -337 -380c0 -181 101 -288 274 -288c132 0 232 72 275 201h35c-45 -148 -165 -232 -310 -232zM457 771h-34l-95 120h29l86 -91l109 91
h31z" />
    <glyph glyph-name="ccaron" unicode="&#x10d;" horiz-adv-x="543" 
d="M272 -7c-144 0 -231 98 -231 238c0 172 113 299 270 299c110 0 190 -65 198 -171h-34c-5 88 -70 142 -166 142c-141 0 -233 -118 -233 -270c0 -129 77 -209 196 -209c96 0 171 52 196 152h33c-26 -119 -118 -181 -229 -181zM332 613h-33l-93 129h29l84 -100l110 100h31z
" />
    <glyph glyph-name="Dcaron" unicode="&#x10e;" horiz-adv-x="682" 
d="M165 715h172c216 0 317 -131 317 -304c0 -253 -157 -411 -407 -411h-195zM246 31c229 0 372 141 372 380c0 152 -86 274 -282 274h-140l-104 -654h154zM395 771h-34l-95 120h29l86 -91l109 91h31z" />
    <glyph glyph-name="dcaron" unicode="&#x10f;" horiz-adv-x="597" 
d="M253 -8c-123 0 -215 88 -215 232c0 166 101 307 263 307c127 0 184 -91 197 -162l65 404h34l-96 -604c-15 -88 -16 -136 -17 -169h-33c0 35 5 90 12 129c-37 -77 -110 -137 -210 -137zM255 22c143 0 230 130 230 268c3 132 -76 211 -183 211c-144 0 -229 -125 -229 -276
c0 -129 80 -203 182 -203zM670 773h37l-49 -154h-27z" />
    <glyph glyph-name="Dcroat" unicode="&#x110;" horiz-adv-x="687" 
d="M41 375h75l54 340h172c216 0 317 -131 317 -304c0 -253 -157 -411 -407 -411h-195l54 345h-75zM251 31c229 0 372 141 372 380c0 155 -86 274 -282 274h-140l-50 -310h210l-5 -30h-210l-49 -314h154z" />
    <glyph glyph-name="dcroat" unicode="&#x111;" horiz-adv-x="597" 
d="M352 656h192l19 117h34l-19 -117h80l-4 -27h-80l-73 -460c-15 -88 -16 -136 -17 -169h-33c0 35 5 90 12 129c-37 -77 -110 -137 -210 -137c-123 0 -215 88 -215 232c0 166 101 307 263 307c127 0 184 -91 197 -162l42 260h-192zM302 501c-144 0 -229 -125 -229 -276
c0 -130 79 -203 182 -203c143 0 230 130 230 269c3 133 -75 210 -183 210z" />
    <glyph glyph-name="Emacron" unicode="&#x112;" horiz-adv-x="568" 
d="M165 715h401l-5 -30h-365l-48 -301h302l-5 -31h-301l-52 -322h390l-6 -31h-424zM257 823h236l-4 -29h-236z" />
    <glyph glyph-name="emacron" unicode="&#x113;" horiz-adv-x="535" 
d="M74 217c0 -125 62 -195 183 -195c89 0 154 41 186 122h34c-35 -101 -116 -152 -221 -152c-144 0 -218 87 -218 226c0 167 102 312 264 312c149 0 219 -104 195 -252l-2 -14h-419c-1 -15 -2 -31 -2 -47zM301 501c-120 0 -197 -87 -221 -208h385c16 122 -35 208 -164 208z
M207 675h229l-4 -28h-230z" />
    <glyph glyph-name="Ebreve" unicode="&#x114;" horiz-adv-x="568" 
d="M165 715h401l-5 -30h-365l-48 -301h302l-5 -31h-301l-52 -322h390l-6 -31h-424zM370 773c-68 0 -114 49 -115 117h30c3 -52 34 -88 86 -88c51 0 91 35 102 88h29c-8 -69 -68 -117 -132 -117z" />
    <glyph glyph-name="ebreve" unicode="&#x115;" horiz-adv-x="535" 
d="M74 217c0 -125 62 -195 183 -195c89 0 154 41 186 122h34c-35 -101 -116 -152 -221 -152c-144 0 -218 87 -218 226c0 167 102 312 264 312c149 0 219 -104 195 -252l-2 -14h-419c-1 -15 -2 -31 -2 -47zM301 501c-120 0 -197 -87 -221 -208h385c16 122 -35 208 -164 208z
M313 614c-68 0 -108 46 -109 114h30c3 -52 29 -85 80 -85c49 0 85 32 96 85h29c-11 -71 -63 -114 -126 -114z" />
    <glyph glyph-name="Edotaccent" unicode="&#x116;" horiz-adv-x="568" 
d="M165 715h401l-5 -30h-365l-48 -301h302l-5 -31h-301l-52 -322h390l-6 -31h-424zM369 787c-15 0 -26 11 -26 26s12 27 27 27s26 -11 26 -26s-12 -27 -27 -27z" />
    <glyph glyph-name="edotaccent" unicode="&#x117;" horiz-adv-x="535" 
d="M74 217c0 -125 62 -195 183 -195c89 0 154 41 186 122h34c-35 -101 -116 -152 -221 -152c-144 0 -218 87 -218 226c0 167 102 312 264 312c149 0 219 -104 195 -252l-2 -14h-419c-1 -15 -2 -31 -2 -47zM301 501c-120 0 -197 -87 -221 -208h385c16 122 -35 208 -164 208z
M318 637c-15 0 -26 12 -26 27s12 26 27 26s26 -11 26 -26s-12 -27 -27 -27z" />
    <glyph glyph-name="Eogonek" unicode="&#x118;" horiz-adv-x="568" 
d="M165 715h401l-5 -30h-365l-48 -301h302l-5 -31h-301l-52 -322h389l-5 -31h-53c-39 -21 -101 -59 -101 -110c0 -25 14 -45 53 -45c16 0 30 1 46 8l-5 -27c-12 -4 -27 -8 -46 -8c-55 0 -82 28 -82 69c0 56 59 94 92 113h-328z" />
    <glyph glyph-name="eogonek" unicode="&#x119;" horiz-adv-x="535" 
d="M299 -182c-55 0 -82 27 -82 70c0 53 54 89 87 108c-19 -3 -29 -4 -48 -4c-144 0 -218 87 -218 226c0 167 102 312 264 312c149 0 219 -104 195 -252l-2 -14h-419c-3 -16 -2 -31 -2 -47c0 -125 62 -195 183 -195c89 0 154 41 186 122h34c-15 -44 -40 -79 -73 -105
c-69 -53 -153 -87 -153 -148c0 -27 14 -46 53 -46c16 0 30 1 46 8l-4 -27c-13 -4 -28 -8 -47 -8zM301 501c-120 0 -199 -88 -220 -208h384c16 122 -35 208 -164 208z" />
    <glyph glyph-name="Ecaron" unicode="&#x11a;" horiz-adv-x="568" 
d="M165 715h401l-5 -30h-365l-48 -301h302l-5 -31h-301l-52 -322h390l-6 -31h-424zM382 771h-34l-95 120h29l86 -91l109 91h31z" />
    <glyph glyph-name="ecaron" unicode="&#x11b;" horiz-adv-x="535" 
d="M74 217c0 -125 62 -195 183 -195c89 0 154 41 186 122h34c-35 -101 -116 -152 -221 -152c-144 0 -218 87 -218 226c0 167 102 312 264 312c149 0 219 -104 195 -252l-2 -14h-419c-1 -15 -2 -31 -2 -47zM301 501c-120 0 -197 -87 -221 -208h385c16 122 -35 208 -164 208z
M327 613h-33l-93 129h29l84 -100l110 100h31z" />
    <glyph glyph-name="Gcircumflex" unicode="&#x11c;" horiz-adv-x="751" 
d="M386 -7c-208 0 -325 139 -325 323c0 223 152 406 372 406c136 0 254 -65 273 -203h-36c-16 115 -116 173 -237 173c-202 0 -335 -168 -335 -376c0 -168 100 -292 288 -292c163 0 268 94 288 286h-231l5 31h266c-19 -245 -148 -348 -328 -348zM440 891h33l96 -120h-29
l-86 91l-109 -91h-32z" />
    <glyph glyph-name="gcircumflex" unicode="&#x11d;" horiz-adv-x="601" 
d="M259 46c137 0 232 125 232 269c0 107 -66 186 -183 186c-140 0 -229 -115 -229 -261c0 -109 63 -194 180 -194zM482 18c-23 -140 -113 -204 -246 -204c-125 0 -209 56 -224 156h35c13 -80 81 -127 188 -127c120 0 194 58 213 177l21 131c-35 -67 -106 -133 -213 -133
c-129 0 -212 89 -212 221c0 160 106 292 264 292c109 0 177 -61 197 -149l22 141h35zM326 729h33l94 -129h-29l-84 101l-110 -101h-31z" />
    <glyph glyph-name="Gbreve" unicode="&#x11e;" horiz-adv-x="751" 
d="M386 -7c-208 0 -325 139 -325 323c0 223 152 406 372 406c136 0 254 -65 273 -203h-36c-16 115 -116 173 -237 173c-202 0 -335 -168 -335 -376c0 -168 100 -292 288 -292c163 0 268 94 288 286h-231l5 31h266c-19 -245 -148 -348 -328 -348zM439 773
c-68 0 -114 49 -115 117h30c3 -52 34 -88 86 -88c51 0 91 35 102 88h29c-8 -69 -68 -117 -132 -117z" />
    <glyph glyph-name="gbreve" unicode="&#x11f;" horiz-adv-x="601" 
d="M259 46c137 0 232 125 232 269c0 107 -66 186 -183 186c-140 0 -229 -115 -229 -261c0 -109 63 -194 180 -194zM482 18c-23 -140 -113 -204 -246 -204c-125 0 -209 56 -224 156h35c13 -80 81 -127 188 -127c120 0 194 58 213 177l21 131c-35 -67 -106 -133 -213 -133
c-129 0 -212 89 -212 221c0 160 106 292 264 292c109 0 177 -61 197 -149l22 141h35zM332 614c-68 0 -108 46 -109 114h30c3 -52 29 -85 80 -85c49 0 85 32 96 85h29c-11 -71 -63 -114 -126 -114z" />
    <glyph glyph-name="Gdotaccent" unicode="&#x120;" horiz-adv-x="751" 
d="M386 -7c-208 0 -325 139 -325 323c0 223 152 406 372 406c136 0 254 -65 273 -203h-36c-16 115 -116 173 -237 173c-202 0 -335 -168 -335 -376c0 -168 100 -292 288 -292c163 0 268 94 288 286h-231l5 31h266c-19 -245 -148 -348 -328 -348zM445 787
c-15 0 -26 11 -26 26s12 27 27 27s26 -11 26 -26s-12 -27 -27 -27z" />
    <glyph glyph-name="gdotaccent" unicode="&#x121;" horiz-adv-x="601" 
d="M259 46c137 0 232 125 232 269c0 107 -66 186 -183 186c-140 0 -229 -115 -229 -261c0 -109 63 -194 180 -194zM482 18c-23 -140 -113 -204 -246 -204c-125 0 -209 56 -224 156h35c13 -80 81 -127 188 -127c120 0 194 58 213 177l21 131c-35 -67 -106 -133 -213 -133
c-129 0 -212 89 -212 221c0 160 106 292 264 292c109 0 177 -61 197 -149l22 141h35zM338 637c-15 0 -26 12 -26 27s12 26 27 26s26 -11 26 -26s-12 -27 -27 -27z" />
    <glyph glyph-name="uni0122" unicode="&#x122;" horiz-adv-x="751" 
d="M386 -7c-208 0 -325 139 -325 323c0 223 152 406 372 406c136 0 254 -65 273 -203h-36c-16 115 -116 173 -237 173c-202 0 -335 -168 -335 -376c0 -168 100 -292 288 -292c163 0 268 94 288 286h-231l5 31h266c-19 -245 -148 -348 -328 -348zM249 -183l68 139l34 -10
l-79 -141z" />
    <glyph glyph-name="uni0123" unicode="&#x123;" horiz-adv-x="601" 
d="M259 46c137 0 232 125 232 269c0 107 -66 186 -183 186c-140 0 -229 -115 -229 -261c0 -109 63 -194 180 -194zM482 18c-23 -140 -113 -204 -246 -204c-125 0 -209 56 -224 156h35c13 -80 81 -127 188 -127c120 0 194 58 213 177l21 131c-35 -67 -106 -133 -213 -133
c-129 0 -212 89 -212 221c0 160 106 292 264 292c109 0 177 -61 197 -149l22 141h35zM402 749l-68 -139l-34 10l79 141z" />
    <glyph glyph-name="Hcircumflex" unicode="&#x124;" horiz-adv-x="709" 
d="M165 715h36l-54 -339h449l54 339h36l-113 -715h-36l55 345h-450l-54 -345h-36zM425 891h33l96 -120h-29l-86 91l-109 -91h-32z" />
    <glyph glyph-name="hcircumflex" unicode="&#x125;" horiz-adv-x="567" 
d="M161 773h34l-57 -363c35 64 103 121 200 121c114 0 184 -72 160 -220l-49 -311h-35l50 316c20 125 -35 185 -131 185c-95 0 -191 -66 -210 -187l-50 -314h-34zM356 933h33l96 -120h-29l-86 91l-109 -91h-32z" />
    <glyph glyph-name="Hbar" unicode="&#x126;" horiz-adv-x="709" 
d="M53 550h86l26 165h36l-26 -165h449l26 165h36l-26 -165h86l-4 -28h-87l-82 -522h-36l55 345h-450l-54 -345h-36l82 522h-85zM596 376l23 146h-449l-23 -146h449z" />
    <glyph glyph-name="hbar" unicode="&#x127;" horiz-adv-x="567" 
d="M63 656h79l19 117h34l-19 -117h192l-5 -27h-191l-34 -219c35 64 103 121 200 121c114 0 184 -72 160 -220l-49 -311h-35l50 316c21 125 -34 185 -131 185c-95 0 -191 -66 -210 -187l-50 -314h-34l99 629h-80z" />
    <glyph glyph-name="Itilde" unicode="&#x128;" horiz-adv-x="234" 
d="M170 715h36l-113 -715h-36zM264 774c-50 0 -90 59 -130 59c-23 0 -47 -19 -55 -59h-28c12 60 44 89 84 89c48 0 90 -59 130 -59c23 0 46 19 55 58h27c-11 -59 -44 -88 -83 -88z" />
    <glyph glyph-name="itilde" unicode="&#x129;" horiz-adv-x="200" 
d="M123 523h35l-83 -523h-34zM222 615c-50 0 -90 58 -130 58c-24 0 -47 -19 -56 -58h-28c12 60 45 88 85 88c48 0 90 -59 129 -59c23 0 47 20 55 59h28c-12 -59 -44 -88 -83 -88z" />
    <glyph glyph-name="Imacron" unicode="&#x12a;" horiz-adv-x="234" 
d="M170 715h36l-113 -715h-36zM88 823h236l-4 -29h-236z" />
    <glyph glyph-name="imacron" unicode="&#x12b;" horiz-adv-x="200" 
d="M85 675h161l-5 -28h-161zM123 523h35l-83 -523h-34z" />
    <glyph glyph-name="Ibreve" unicode="&#x12c;" horiz-adv-x="234" 
d="M170 715h36l-113 -715h-36zM196 773c-68 0 -114 49 -115 117h30c3 -52 34 -88 86 -88c51 0 91 35 102 88h29c-8 -69 -68 -117 -132 -117z" />
    <glyph glyph-name="ibreve" unicode="&#x12d;" horiz-adv-x="200" 
d="M123 523h35l-83 -523h-34zM155 614c-68 0 -108 46 -109 114h30c3 -52 29 -85 80 -85c49 0 85 32 96 85h29c-11 -71 -63 -114 -126 -114z" />
    <glyph glyph-name="Iogonek" unicode="&#x12e;" horiz-adv-x="234" 
d="M55 -182c-53 0 -82 27 -82 70c0 53 54 94 85 115l112 712h36l-113 -713c-34 -26 -86 -62 -86 -111c0 -27 15 -46 54 -46c15 0 31 3 46 8l-5 -27c-12 -4 -28 -8 -47 -8z" />
    <glyph glyph-name="iogonek" unicode="&#x12f;" horiz-adv-x="200" 
d="M123 523h35l-82 -521c-34 -26 -83 -62 -83 -111c0 -27 16 -46 53 -46c16 0 30 1 46 8l-4 -27c-13 -4 -28 -8 -47 -8c-53 0 -82 27 -82 70c0 53 52 94 83 115zM161 637c-15 0 -26 12 -26 27s12 26 27 26s26 -11 26 -26s-12 -27 -27 -27z" />
    <glyph glyph-name="Idotaccent" unicode="&#x130;" horiz-adv-x="234" 
d="M170 715h36l-113 -715h-36zM200 787c-15 0 -26 11 -26 26s12 27 27 27s26 -11 26 -26s-12 -27 -27 -27z" />
    <glyph glyph-name="dotlessi" unicode="&#x131;" horiz-adv-x="200" 
d="M123 523h35l-83 -523h-34z" />
    <glyph glyph-name="IJ" unicode="&#x132;" horiz-adv-x="590" 
d="M160 715h36l-113 -715h-36zM304 -5c-60 0 -94 15 -117 28l5 31c29 -16 63 -29 111 -29c77 0 127 40 143 137l87 553h36l-88 -556c-19 -119 -86 -164 -177 -164z" />
    <glyph glyph-name="ij" unicode="&#x133;" horiz-adv-x="200" 
d="M161 637c-15 0 -26 12 -26 27s12 26 27 26s26 -11 26 -26s-12 -27 -27 -27zM123 523h35l-83 -523h-34zM140 -156c59 3 79 29 90 89l93 590h35l-94 -592c-13 -83 -50 -114 -129 -117zM361 637c-15 0 -26 12 -26 27s12 26 27 26s26 -11 26 -26s-12 -27 -27 -27z" />
    <glyph glyph-name="Jcircumflex" unicode="&#x134;" horiz-adv-x="389" 
d="M114 -5c-60 0 -94 15 -117 28l5 31c29 -16 63 -29 111 -29c77 0 127 40 143 137l87 553h36l-88 -556c-19 -119 -86 -164 -177 -164zM361 891h33l96 -120h-29l-86 91l-109 -91h-32z" />
    <glyph glyph-name="jcircumflex" unicode="&#x135;" horiz-adv-x="200" 
d="M-60 -156c59 3 79 29 90 89l93 590h35l-94 -592c-13 -83 -50 -114 -129 -117zM147 729h33l94 -129h-29l-84 101l-110 -101h-31z" />
    <glyph glyph-name="uni0136" unicode="&#x136;" horiz-adv-x="588" 
d="M474 0l-322 368l415 347h45l-417 -347l322 -368h-43zM165 715h36l-113 -715h-36zM187 -183l68 139l34 -10l-79 -141z" />
    <glyph glyph-name="uni0137" unicode="&#x137;" horiz-adv-x="467" 
d="M121 282l306 241h45l-309 -242l244 -281h-41zM161 773h34l-122 -773h-34zM119 -183l68 139l34 -10l-79 -141z" />
    <glyph glyph-name="Lacute" unicode="&#x139;" horiz-adv-x="528" 
d="M165 715h36l-109 -684h361l-5 -31h-396zM251 891h43l-90 -120h-31z" />
    <glyph glyph-name="lacute" unicode="&#x13a;" horiz-adv-x="201" 
d="M163 773h35l-122 -773h-35zM250 933h43l-90 -120h-31z" />
    <glyph glyph-name="uni013B" unicode="&#x13b;" horiz-adv-x="528" 
d="M165 715h36l-109 -684h361l-5 -31h-396zM157 -183l68 139l34 -10l-79 -141z" />
    <glyph glyph-name="uni013C" unicode="&#x13c;" horiz-adv-x="201" 
d="M163 773h35l-122 -773h-35zM-30 -183l68 139l34 -10l-79 -141z" />
    <glyph glyph-name="Lcaron" unicode="&#x13d;" horiz-adv-x="528" 
d="M417 715h38l-56 -157h-28zM165 715h36l-109 -684h361l-5 -31h-396z" />
    <glyph glyph-name="lcaron" unicode="&#x13e;" horiz-adv-x="201" 
d="M163 773h35l-122 -773h-35zM270 773h37l-49 -154h-27z" />
    <glyph glyph-name="Ldot" unicode="&#x13f;" horiz-adv-x="528" 
d="M165 715h36l-109 -684h361l-5 -31h-396zM440 342c-16 0 -29 13 -29 29s12 29 29 29c16 0 29 -13 29 -29s-13 -29 -29 -29z" />
    <glyph glyph-name="ldot" unicode="&#x140;" horiz-adv-x="249" 
d="M163 773h35l-122 -773h-35zM241 348c-16 0 -29 13 -29 29s12 29 29 29c16 0 29 -13 29 -29s-13 -29 -29 -29z" />
    <glyph glyph-name="Lslash" unicode="&#x141;" horiz-adv-x="539" 
d="M34 294l81 28l62 393h36l-61 -379l251 88l-4 -31l-252 -89l-43 -273h360l-4 -31h-396l46 291l-81 -28z" />
    <glyph glyph-name="lslash" unicode="&#x142;" horiz-adv-x="224" 
d="M35 377l85 52l55 344h34l-51 -321l90 55l-5 -33l-90 -55l-66 -419h-34l62 396l-86 -52z" />
    <glyph glyph-name="Nacute" unicode="&#x143;" horiz-adv-x="707" 
d="M165 715h49l329 -667l106 667h35l-113 -715h-43l-334 678l-107 -678h-35zM501 891h43l-90 -120h-31z" />
    <glyph glyph-name="nacute" unicode="&#x144;" horiz-adv-x="567" 
d="M99 384c11 69 12 106 15 139h33c-1 -27 -4 -70 -11 -115c35 67 107 123 202 123c114 0 184 -72 160 -220l-49 -311h-35l50 316c20 125 -35 185 -131 185c-95 0 -191 -66 -210 -187l-50 -314h-34zM402 747h43l-106 -147h-30z" />
    <glyph glyph-name="uni0145" unicode="&#x145;" horiz-adv-x="707" 
d="M165 715h49l329 -667l106 667h35l-113 -715h-43l-334 678l-107 -678h-35zM227 -183l68 139l34 -10l-79 -141z" />
    <glyph glyph-name="uni0146" unicode="&#x146;" horiz-adv-x="567" 
d="M99 384c11 69 12 106 15 139h33c-1 -27 -4 -70 -11 -115c35 67 107 123 202 123c114 0 184 -72 160 -220l-49 -311h-35l50 316c20 125 -35 185 -131 185c-95 0 -191 -66 -210 -187l-50 -314h-34zM160 -183l68 139l34 -10l-79 -141z" />
    <glyph glyph-name="Ncaron" unicode="&#x147;" horiz-adv-x="707" 
d="M165 715h49l329 -667l106 667h35l-113 -715h-43l-334 678l-107 -678h-35zM459 771h-34l-95 120h29l86 -91l109 91h31z" />
    <glyph glyph-name="ncaron" unicode="&#x148;" horiz-adv-x="567" 
d="M99 384c11 69 12 106 15 139h33c-1 -27 -4 -70 -11 -115c35 67 107 123 202 123c114 0 184 -72 160 -220l-49 -311h-35l50 316c20 125 -35 185 -131 185c-95 0 -191 -66 -210 -187l-50 -314h-34zM345 613h-33l-93 129h29l84 -100l110 100h31z" />
    <glyph glyph-name="napostrophe" unicode="&#x149;" horiz-adv-x="580" 
d="M111 384c11 69 12 106 15 139h33c-1 -27 -4 -70 -11 -115c35 67 107 123 202 123c114 0 184 -72 160 -220l-49 -311h-35l50 316c20 125 -35 185 -131 185c-95 0 -191 -66 -210 -187l-50 -314h-34zM23 564l77 156l32 -15l-86 -152z" />
    <glyph glyph-name="Eng" unicode="&#x14a;" horiz-adv-x="707" 
d="M374 -158c84 0 140 38 159 149l-339 687l-107 -678h-35l113 715h50l329 -663l105 663h35l-113 -718c-21 -136 -96 -186 -195 -186c-52 0 -84 13 -103 22l5 31c23 -11 53 -22 96 -22z" />
    <glyph glyph-name="eng" unicode="&#x14b;" horiz-adv-x="567" 
d="M99 384c11 69 12 106 15 139h33c-1 -27 -4 -71 -11 -116c35 67 107 124 202 124c114 0 184 -72 160 -220l-56 -356c-16 -101 -51 -136 -145 -141l5 30c67 5 93 28 106 113l56 359c20 125 -35 185 -131 185c-95 0 -191 -66 -210 -187l-50 -314h-34z" />
    <glyph glyph-name="Omacron" unicode="&#x14c;" horiz-adv-x="788" 
d="M757 392c0 -212 -152 -399 -373 -399c-201 0 -325 144 -325 333c0 210 155 396 377 396c196 0 321 -145 321 -330zM721 392c0 163 -105 300 -286 300c-204 0 -336 -169 -339 -366c-3 -169 108 -302 288 -302c202 0 337 170 337 368zM346 823h236l-4 -29h-236z" />
    <glyph glyph-name="omacron" unicode="&#x14d;" horiz-adv-x="573" 
d="M265 -7c-136 0 -228 105 -228 236c0 161 105 301 273 301c140 0 225 -108 225 -236c0 -168 -105 -301 -270 -301zM266 22c145 0 234 119 234 272c0 112 -68 207 -191 207c-149 0 -237 -125 -237 -272c0 -113 74 -207 194 -207zM223 675h229l-4 -28h-230z" />
    <glyph glyph-name="Obreve" unicode="&#x14e;" horiz-adv-x="788" 
d="M757 392c0 -212 -152 -399 -373 -399c-201 0 -325 144 -325 333c0 210 155 396 377 396c196 0 321 -145 321 -330zM721 392c0 163 -105 300 -286 300c-204 0 -336 -169 -339 -366c-3 -169 108 -302 288 -302c202 0 337 170 337 368zM452 773c-68 0 -114 49 -115 117h30
c3 -52 34 -88 86 -88c51 0 91 35 102 88h29c-8 -69 -68 -117 -132 -117z" />
    <glyph glyph-name="obreve" unicode="&#x14f;" horiz-adv-x="573" 
d="M265 -7c-136 0 -228 105 -228 236c0 161 105 301 273 301c140 0 225 -108 225 -236c0 -168 -105 -301 -270 -301zM266 22c145 0 234 119 234 272c0 112 -68 207 -191 207c-149 0 -237 -125 -237 -272c0 -113 74 -207 194 -207zM329 614c-68 0 -108 46 -109 114h30
c3 -52 29 -85 80 -85c49 0 85 32 96 85h29c-11 -71 -63 -114 -126 -114z" />
    <glyph glyph-name="Ohungarumlaut" unicode="&#x150;" horiz-adv-x="788" 
d="M757 392c0 -212 -152 -399 -373 -399c-201 0 -325 144 -325 333c0 210 155 396 377 396c196 0 321 -145 321 -330zM721 392c0 163 -105 300 -286 300c-204 0 -336 -169 -339 -366c-3 -169 108 -302 288 -302c202 0 337 170 337 368zM433 891h39l-70 -120h-28zM551 891h39
l-70 -120h-28z" />
    <glyph glyph-name="ohungarumlaut" unicode="&#x151;" horiz-adv-x="573" 
d="M265 -7c-136 0 -228 105 -228 236c0 161 105 301 273 301c140 0 225 -108 225 -236c0 -168 -105 -301 -270 -301zM266 22c145 0 234 119 234 272c0 112 -68 207 -191 207c-149 0 -237 -125 -237 -272c0 -113 74 -207 194 -207zM330 747h40l-86 -147h-29zM448 747h40
l-86 -147h-29z" />
    <glyph glyph-name="OE" unicode="&#x152;" horiz-adv-x="957" 
d="M378 0c-216 0 -319 133 -319 305c0 252 157 410 408 410h490l-5 -30h-351l-48 -301h288l-5 -31h-287l-51 -322h374l-5 -31h-489zM468 685c-229 0 -372 -141 -372 -380c0 -156 86 -275 283 -275h83l103 655h-97z" />
    <glyph glyph-name="oe" unicode="&#x153;" horiz-adv-x="993" 
d="M531 217c0 -125 62 -195 183 -195c91 0 155 41 186 122h35c-35 -101 -116 -152 -221 -152c-121 0 -189 62 -208 166c-40 -100 -124 -165 -241 -165c-136 0 -228 105 -228 236c0 161 105 301 273 301c118 0 192 -76 214 -176c37 103 121 176 236 176
c149 0 216 -104 195 -252l-3 -14h-419c-1 -15 -2 -31 -2 -47zM266 22c145 0 234 119 234 272c0 112 -68 207 -191 207c-149 0 -237 -125 -237 -272c0 -113 74 -207 194 -207zM759 501c-120 0 -198 -87 -222 -208h386c16 122 -37 208 -164 208z" />
    <glyph glyph-name="Racute" unicode="&#x154;" horiz-adv-x="593" 
d="M165 715h170c132 0 218 -56 218 -172c0 -138 -91 -197 -217 -205l182 -338h-39l-180 335h-159l-53 -335h-35zM295 365c124 0 223 38 223 178c0 100 -72 142 -184 142h-139l-50 -320h150zM403 891h43l-90 -120h-31z" />
    <glyph glyph-name="racute" unicode="&#x155;" horiz-adv-x="331" 
d="M99 384c11 69 12 106 15 139h33c-1 -27 -4 -71 -12 -120c35 70 94 122 201 125l-5 -31c-104 -5 -188 -61 -212 -209l-46 -288h-34zM303 747h43l-106 -147h-30z" />
    <glyph glyph-name="uni0156" unicode="&#x156;" horiz-adv-x="593" 
d="M165 715h170c132 0 218 -56 218 -172c0 -138 -91 -197 -217 -205l182 -338h-39l-180 335h-159l-53 -335h-35zM295 365c124 0 223 38 223 178c0 100 -72 142 -184 142h-139l-50 -320h150zM185 -183l68 139l34 -10l-79 -141z" />
    <glyph glyph-name="uni0157" unicode="&#x157;" horiz-adv-x="331" 
d="M99 384c11 69 12 106 15 139h33c-1 -27 -4 -71 -12 -120c35 70 94 122 201 125l-5 -31c-104 -5 -188 -61 -212 -209l-46 -288h-34zM-35 -183l68 139l34 -10l-79 -141z" />
    <glyph glyph-name="Rcaron" unicode="&#x158;" horiz-adv-x="593" 
d="M165 715h170c132 0 218 -56 218 -172c0 -138 -91 -197 -217 -205l182 -338h-39l-180 335h-159l-53 -335h-35zM295 365c124 0 223 38 223 178c0 100 -72 142 -184 142h-139l-50 -320h150zM360 771h-34l-95 120h29l86 -91l109 91h31z" />
    <glyph glyph-name="rcaron" unicode="&#x159;" horiz-adv-x="331" 
d="M99 384c11 69 12 106 15 139h33c-1 -27 -4 -71 -12 -120c35 70 94 122 201 125l-5 -31c-104 -5 -188 -61 -212 -209l-46 -288h-34zM246 613h-33l-93 129h29l84 -100l110 100h31z" />
    <glyph glyph-name="Sacute" unicode="&#x15a;" horiz-adv-x="583" 
d="M275 -7c-145 0 -243 70 -251 204h35c11 -112 85 -173 216 -173c123 0 209 63 209 180c0 88 -51 121 -182 158c-136 37 -198 79 -198 171c0 119 93 189 224 189c125 0 207 -56 216 -169h-34c-12 96 -78 139 -183 139c-115 0 -188 -54 -188 -158c0 -71 48 -107 176 -142
c140 -38 205 -80 205 -186c0 -133 -104 -213 -245 -213zM403 891h43l-90 -120h-31z" />
    <glyph glyph-name="sacute" unicode="&#x15b;" horiz-adv-x="453" 
d="M207 -9c-117 0 -187 58 -192 163h33c7 -84 53 -134 160 -134c84 0 148 39 148 120c0 62 -36 87 -130 114c-106 29 -155 63 -155 138c0 92 80 138 172 138s165 -37 173 -136h-33c-7 69 -53 107 -141 107c-79 0 -138 -35 -138 -108c0 -56 36 -82 133 -109
c100 -30 153 -56 153 -143c0 -99 -82 -150 -183 -150zM334 747h43l-106 -147h-30z" />
    <glyph glyph-name="Scircumflex" unicode="&#x15c;" horiz-adv-x="583" 
d="M275 -7c-145 0 -243 70 -251 204h35c11 -112 85 -173 216 -173c123 0 209 63 209 180c0 88 -51 121 -182 158c-136 37 -198 79 -198 171c0 119 93 189 224 189c125 0 207 -56 216 -169h-34c-12 96 -78 139 -183 139c-115 0 -188 -54 -188 -158c0 -71 48 -107 176 -142
c140 -38 205 -80 205 -186c0 -133 -104 -213 -245 -213zM343 891h33l96 -120h-29l-86 91l-109 -91h-32z" />
    <glyph glyph-name="scircumflex" unicode="&#x15d;" horiz-adv-x="453" 
d="M207 -9c-117 0 -187 58 -192 163h33c7 -84 53 -134 160 -134c84 0 148 39 148 120c0 62 -36 87 -130 114c-106 29 -155 63 -155 138c0 92 80 138 172 138s165 -37 173 -136h-33c-7 69 -53 107 -141 107c-79 0 -138 -35 -138 -108c0 -56 36 -82 133 -109
c100 -30 153 -56 153 -143c0 -99 -82 -150 -183 -150zM256 729h33l94 -129h-29l-84 101l-110 -101h-31z" />
    <glyph glyph-name="uni015E" unicode="&#x15e;" horiz-adv-x="583" 
d="M215 -211c-51 0 -86 26 -90 75h32c2 -31 21 -47 58 -47c27 0 58 13 58 53c0 31 -21 42 -44 42c-21 0 -32 -4 -41 -11l-17 18l53 77c-117 15 -193 82 -200 201h35c11 -112 85 -173 216 -173c123 0 209 63 209 180c0 88 -51 121 -182 158c-136 37 -198 79 -198 171
c0 119 93 189 224 189c125 0 207 -56 216 -169h-34c-12 96 -78 139 -183 139c-115 0 -188 -54 -188 -158c0 -71 48 -107 176 -142c140 -38 205 -80 205 -186c0 -133 -104 -213 -245 -213h-22l-39 -58c45 16 92 -12 92 -64s-36 -82 -91 -82z" />
    <glyph glyph-name="uni015F" unicode="&#x15f;" horiz-adv-x="453" 
d="M149 -211c-51 0 -86 26 -90 75h32c2 -31 21 -47 58 -47c27 0 58 13 58 53c0 31 -21 42 -44 42c-21 0 -32 -4 -41 -11l-17 18l52 76c-88 15 -138 68 -142 159h33c7 -84 53 -134 160 -134c84 0 148 39 148 120c0 62 -36 87 -130 114c-106 29 -155 63 -155 138
c0 92 80 138 172 138s165 -37 173 -136h-33c-7 69 -53 107 -141 107c-79 0 -138 -35 -138 -108c0 -56 36 -82 133 -109c100 -30 153 -56 153 -143c0 -99 -82 -150 -183 -150h-21l-38 -56c45 16 92 -12 92 -64s-36 -82 -91 -82z" />
    <glyph glyph-name="Scaron" unicode="&#x160;" horiz-adv-x="583" 
d="M275 -7c-145 0 -243 70 -251 204h35c11 -112 85 -173 216 -173c123 0 209 63 209 180c0 88 -51 121 -182 158c-136 37 -198 79 -198 171c0 119 93 189 224 189c125 0 207 -56 216 -169h-34c-12 96 -78 139 -183 139c-115 0 -188 -54 -188 -158c0 -71 48 -107 176 -142
c140 -38 205 -80 205 -186c0 -133 -104 -213 -245 -213zM359 771h-34l-95 120h29l86 -91l109 91h31z" />
    <glyph glyph-name="scaron" unicode="&#x161;" horiz-adv-x="453" 
d="M207 -9c-117 0 -187 58 -192 163h33c7 -84 53 -134 160 -134c84 0 148 39 148 120c0 62 -36 87 -130 114c-106 29 -155 63 -155 138c0 92 80 138 172 138s165 -37 173 -136h-33c-7 69 -53 107 -141 107c-79 0 -138 -35 -138 -108c0 -56 36 -82 133 -109
c100 -30 153 -56 153 -143c0 -99 -82 -150 -183 -150zM278 613h-33l-93 129h29l84 -100l110 100h31z" />
    <glyph glyph-name="Tcommaaccent" unicode="&#x162;" horiz-adv-x="558" 
d="M325 685h-230l5 30h497l-5 -30h-231l-108 -685h-36zM148 -183l68 139l34 -10l-79 -141z" />
    <glyph glyph-name="tcommaaccent" unicode="&#x163;" horiz-adv-x="325" 
d="M182 -7c-80 0 -116 50 -103 138l58 363h-79l5 29h78l19 119h34l-19 -119h146l-5 -29h-145l-58 -364c-12 -77 17 -107 73 -107c25 0 46 4 65 11l-5 -29c-16 -7 -37 -12 -64 -12zM56 -183l68 139l34 -10l-79 -141z" />
    <glyph glyph-name="Tcaron" unicode="&#x164;" horiz-adv-x="558" 
d="M325 685h-230l5 30h497l-5 -30h-231l-108 -685h-36zM371 771h-34l-95 120h29l86 -91l109 91h31z" />
    <glyph glyph-name="tcaron" unicode="&#x165;" horiz-adv-x="325" 
d="M182 -7c-80 0 -116 50 -103 138l58 363h-79l5 29h78l19 119h34l-19 -119h146l-5 -29h-145l-58 -364c-12 -77 17 -107 73 -107c25 0 46 4 65 11l-5 -29c-16 -7 -37 -12 -64 -12zM329 773h37l-49 -154h-27z" />
    <glyph glyph-name="Tbar" unicode="&#x166;" horiz-adv-x="558" 
d="M128 410h153l44 275h-230l5 30h497l-5 -30h-231l-44 -275h159l-4 -28h-159l-60 -382h-36l60 382h-154z" />
    <glyph glyph-name="tbar" unicode="&#x167;" horiz-adv-x="325" 
d="M35 342h78l24 152h-79l5 29h78l19 119h34l-19 -119h146l-5 -29h-145l-24 -152h146l-5 -27h-146l-29 -185c-12 -77 17 -107 73 -107c25 0 46 4 65 11l-5 -29c-16 -7 -37 -12 -64 -12c-80 0 -116 50 -103 138l29 184h-78z" />
    <glyph glyph-name="Utilde" unicode="&#x168;" horiz-adv-x="674" 
d="M318 -5c-183 0 -265 99 -238 272l71 448h36l-71 -448c-24 -157 40 -241 203 -241c140 0 211 69 234 216l75 473h36l-75 -476c-25 -159 -106 -244 -271 -244zM480 774c-50 0 -90 59 -130 59c-23 0 -47 -19 -55 -59h-28c12 60 44 89 84 89c48 0 90 -59 130 -59
c23 0 46 19 55 58h27c-11 -59 -44 -88 -83 -88z" />
    <glyph glyph-name="utilde" unicode="&#x169;" horiz-adv-x="563" 
d="M461 140c-11 -63 -12 -109 -13 -140h-33c0 31 3 74 10 115c-36 -68 -105 -123 -201 -123c-115 0 -182 74 -158 220l49 311h34l-50 -315c-20 -125 33 -186 129 -186s190 67 209 187l50 314h34zM392 615c-50 0 -90 58 -130 58c-24 0 -47 -19 -56 -58h-28c12 60 45 88 85 88
c48 0 90 -59 129 -59c23 0 47 20 55 59h28c-12 -59 -44 -88 -83 -88z" />
    <glyph glyph-name="Umacron" unicode="&#x16a;" horiz-adv-x="674" 
d="M318 -5c-183 0 -265 99 -238 272l71 448h36l-71 -448c-24 -157 40 -241 203 -241c140 0 211 69 234 216l75 473h36l-75 -476c-25 -159 -106 -244 -271 -244zM303 823h236l-4 -29h-236z" />
    <glyph glyph-name="umacron" unicode="&#x16b;" horiz-adv-x="563" 
d="M461 140c-11 -63 -12 -109 -13 -140h-33c0 31 3 74 10 115c-36 -68 -105 -123 -201 -123c-115 0 -182 74 -158 220l49 311h34l-50 -315c-20 -125 33 -186 129 -186s190 67 209 187l50 314h34zM220 675h229l-4 -28h-230z" />
    <glyph glyph-name="Ubreve" unicode="&#x16c;" horiz-adv-x="674" 
d="M318 -5c-183 0 -265 99 -238 272l71 448h36l-71 -448c-24 -157 40 -241 203 -241c140 0 211 69 234 216l75 473h36l-75 -476c-25 -159 -106 -244 -271 -244zM411 773c-68 0 -114 49 -115 117h30c3 -52 34 -88 86 -88c51 0 91 35 102 88h29c-8 -69 -68 -117 -132 -117z
" />
    <glyph glyph-name="ubreve" unicode="&#x16d;" horiz-adv-x="563" 
d="M461 140c-11 -63 -12 -109 -13 -140h-33c0 31 3 74 10 115c-36 -68 -105 -123 -201 -123c-115 0 -182 74 -158 220l49 311h34l-50 -315c-20 -125 33 -186 129 -186s190 67 209 187l50 314h34zM325 614c-68 0 -108 46 -109 114h30c3 -52 29 -85 80 -85c49 0 85 32 96 85
h29c-11 -71 -63 -114 -126 -114z" />
    <glyph glyph-name="Uring" unicode="&#x16e;" horiz-adv-x="674" 
d="M318 -5c-183 0 -265 99 -238 272l71 448h36l-71 -448c-24 -157 40 -241 203 -241c140 0 211 69 234 216l75 473h36l-75 -476c-25 -159 -106 -244 -271 -244zM416 747c39 0 68 29 68 70c0 39 -26 65 -65 65s-68 -29 -68 -70c0 -36 26 -65 65 -65zM416 725
c-52 0 -91 40 -91 87c0 51 43 93 94 93c53 0 91 -40 91 -88c0 -52 -41 -92 -94 -92z" />
    <glyph glyph-name="uring" unicode="&#x16f;" horiz-adv-x="563" 
d="M461 140c-11 -63 -12 -109 -13 -140h-33c0 31 3 74 10 115c-36 -68 -105 -123 -201 -123c-115 0 -182 74 -158 220l49 311h34l-50 -315c-20 -125 33 -186 129 -186s190 67 209 187l50 314h34zM336 625c40 0 68 29 68 70c0 39 -25 65 -64 65s-68 -29 -68 -70
c0 -36 27 -65 64 -65zM336 603c-51 0 -90 40 -90 87c0 51 42 93 94 93c53 0 90 -40 90 -88c0 -52 -41 -92 -94 -92z" />
    <glyph glyph-name="Uhungarumlaut" unicode="&#x170;" horiz-adv-x="674" 
d="M318 -5c-183 0 -265 99 -238 272l71 448h36l-71 -448c-24 -157 40 -241 203 -241c140 0 211 69 234 216l75 473h36l-75 -476c-25 -159 -106 -244 -271 -244zM390 891h39l-70 -120h-28zM508 891h39l-70 -120h-28z" />
    <glyph glyph-name="uhungarumlaut" unicode="&#x171;" horiz-adv-x="563" 
d="M461 140c-11 -63 -12 -109 -13 -140h-33c0 31 3 74 10 115c-36 -68 -105 -123 -201 -123c-115 0 -182 74 -158 220l49 311h34l-50 -315c-20 -125 33 -186 129 -186s190 67 209 187l50 314h34zM326 747h40l-86 -147h-29zM444 747h40l-86 -147h-29z" />
    <glyph glyph-name="Uogonek" unicode="&#x172;" horiz-adv-x="674" 
d="M322 -182c-53 0 -81 27 -81 70c0 55 51 88 91 107h-17c-180 0 -262 100 -235 272l71 448h36l-71 -448c-24 -157 40 -241 203 -241c140 0 211 67 234 219l75 470h36l-75 -476c-19 -117 -65 -189 -154 -224c-59 -21 -161 -57 -161 -124c0 -27 15 -46 54 -46c15 0 31 3 46 8
l-5 -27c-12 -4 -28 -8 -47 -8z" />
    <glyph glyph-name="uogonek" unicode="&#x173;" horiz-adv-x="563" 
d="M461 140c-11 -63 -12 -109 -13 -140c-35 -21 -98 -58 -98 -109c0 -27 15 -46 54 -46c15 0 31 3 46 8l-5 -27c-12 -4 -28 -8 -47 -8c-53 0 -82 27 -81 70c0 57 63 95 98 116c0 31 3 71 10 111c-36 -68 -105 -123 -201 -123c-115 0 -182 74 -158 220l49 311h34l-50 -315
c-20 -125 33 -186 129 -186s190 67 209 187l50 314h34z" />
    <glyph glyph-name="Wcircumflex" unicode="&#x174;" horiz-adv-x="905" 
d="M97 715h35l74 -661l302 661h24l89 -663l288 663h35l-311 -715h-38l-86 647l-294 -647h-38zM524 891h33l96 -120h-29l-86 91l-109 -91h-32z" />
    <glyph glyph-name="wcircumflex" unicode="&#x175;" horiz-adv-x="754" 
d="M69 523h35l74 -483l225 483h28l77 -483l222 483h36l-243 -523h-41l-73 466l-218 -466h-41zM422 729h33l94 -129h-29l-84 101l-110 -101h-31z" />
    <glyph glyph-name="Ycircumflex" unicode="&#x176;" horiz-adv-x="564" 
d="M276 322l-189 393h37l175 -363l269 363h39l-295 -396l-51 -319h-36zM357 891h33l96 -120h-29l-86 91l-109 -91h-32z" />
    <glyph glyph-name="ycircumflex" unicode="&#x177;" horiz-adv-x="486" 
d="M196 42l-131 481h34l121 -443l245 443h37l-395 -705h-37zM287 729h33l94 -129h-29l-84 101l-110 -101h-31z" />
    <glyph glyph-name="Ydieresis" unicode="&#x178;" horiz-adv-x="564" 
d="M276 322l-189 393h37l175 -363l269 363h39l-295 -396l-51 -319h-36zM281 788c-15 0 -26 10 -26 25s12 27 27 27s25 -11 25 -26s-11 -26 -26 -26zM448 788c-15 0 -26 10 -26 25s11 27 26 27s26 -11 26 -26s-11 -26 -26 -26z" />
    <glyph glyph-name="Zacute" unicode="&#x179;" horiz-adv-x="582" 
d="M-14 9l571 676h-428l5 30h481l-1 -8l-569 -676h456l-5 -31h-512zM433 891h43l-90 -120h-31z" />
    <glyph glyph-name="zacute" unicode="&#x17a;" horiz-adv-x="462" 
d="M-16 7l428 487h-321l5 29h377l-1 -7l-426 -486h342l-6 -30h-399zM360 747h43l-106 -147h-30z" />
    <glyph glyph-name="Zdotaccent" unicode="&#x17b;" horiz-adv-x="582" 
d="M-14 9l571 676h-428l5 30h481l-1 -8l-569 -676h456l-5 -31h-512zM379 787c-15 0 -26 11 -26 26s12 27 27 27s26 -11 26 -26s-12 -27 -27 -27z" />
    <glyph glyph-name="zdotaccent" unicode="&#x17c;" horiz-adv-x="462" 
d="M-16 7l428 487h-321l5 29h377l-1 -7l-426 -486h342l-6 -30h-399zM294 637c-15 0 -26 12 -26 27s12 26 27 26s26 -11 26 -26s-12 -27 -27 -27z" />
    <glyph glyph-name="Zcaron" unicode="&#x17d;" horiz-adv-x="582" 
d="M-14 9l571 676h-428l5 30h481l-1 -8l-569 -676h456l-5 -31h-512zM388 771h-34l-95 120h29l86 -91l109 91h31z" />
    <glyph glyph-name="zcaron" unicode="&#x17e;" horiz-adv-x="462" 
d="M-16 7l428 487h-321l5 29h377l-1 -7l-426 -486h342l-6 -30h-399zM306 613h-33l-93 129h29l84 -100l110 100h31z" />
    <glyph glyph-name="uni0192" unicode="&#x192;" horiz-adv-x="376" 
d="M57 397h100l32 170c21 112 80 157 157 157c35 0 55 -6 71 -14l-4 -27c-17 7 -35 12 -66 12c-61 0 -104 -36 -123 -129l-32 -169h145l-5 -29h-146l-104 -550h-35l104 550h-99z" />
    <glyph glyph-name="Aringacute" unicode="&#x1fa;" horiz-adv-x="635" 
d="M480 228h-339l-119 -228h-36l375 715h48l156 -715h-35zM156 258h317l-93 429zM394 772c39 0 68 29 68 70c0 39 -26 65 -65 65s-68 -29 -68 -70c0 -36 26 -65 65 -65zM394 750c-52 0 -91 40 -91 87c0 51 43 93 94 93c53 0 91 -40 91 -88c0 -52 -41 -92 -94 -92zM471 1079
h43l-90 -120h-31z" />
    <glyph glyph-name="aringacute" unicode="&#x1fb;" horiz-adv-x="521" 
d="M204 -7c-117 0 -172 61 -172 142c0 127 106 161 227 161h156l7 45c15 103 -22 160 -135 160c-80 0 -142 -33 -167 -121h-35c27 108 115 151 202 151c132 0 188 -72 169 -193l-30 -192c-11 -72 -13 -113 -13 -146h-33c0 24 2 57 5 86c-31 -51 -94 -93 -181 -93zM207 21
c93 0 174 57 187 141l17 106h-152c-105 0 -193 -24 -193 -133c0 -64 42 -114 141 -114zM314 620c40 0 68 29 68 70c0 39 -25 65 -64 65s-68 -29 -68 -70c0 -36 27 -65 64 -65zM314 598c-51 0 -90 40 -90 87c0 51 42 93 94 93c53 0 90 -40 90 -88c0 -52 -41 -92 -94 -92z
M403 950h43l-90 -120h-31z" />
    <glyph glyph-name="AEacute" unicode="&#x1fc;" horiz-adv-x="943" 
d="M454 715h489l-5 -30h-365l-48 -301h302l-5 -31h-301l-52 -322h390l-5 -31h-425l36 228h-291l-148 -228h-40zM194 258h275l68 427h-65zM753 891h43l-90 -120h-31z" />
    <glyph glyph-name="aeacute" unicode="&#x1fd;" horiz-adv-x="897" 
d="M444 217c0 -125 57 -195 178 -195c91 0 152 41 183 122h34c-35 -101 -113 -152 -218 -152c-119 0 -185 59 -204 158c-29 -111 -122 -157 -213 -157c-117 0 -172 59 -172 140c0 123 107 159 228 159h156l7 49c15 103 -23 160 -136 160c-80 0 -142 -33 -167 -121h-35
c27 108 115 151 202 151c105 0 161 -48 168 -129c43 77 116 128 212 128c149 0 213 -104 192 -252l-3 -14h-410c-1 -15 -2 -31 -2 -47zM206 21c96 0 177 55 193 166l12 77h-152c-104 0 -193 -23 -193 -131c0 -64 41 -112 140 -112zM666 501c-117 0 -195 -87 -216 -209h377
c16 122 -33 209 -161 209zM576 747h43l-106 -147h-30z" />
    <glyph glyph-name="Oslashacute" unicode="&#x1fe;" horiz-adv-x="788" 
d="M33 3l98 102c-48 59 -72 133 -72 221c0 210 155 396 377 396c88 0 161 -30 216 -79l91 94l21 -22l-90 -93c53 -60 83 -139 83 -230c0 -212 -152 -399 -373 -399c-97 0 -176 33 -232 89l-98 -101zM721 392c0 81 -23 153 -70 206l-476 -492c51 -51 121 -82 209 -82
c202 0 337 170 337 368zM96 326c-1 -77 20 -145 59 -197l475 491c-48 45 -114 72 -195 72c-204 0 -336 -169 -339 -366zM511 891h43l-90 -120h-31z" />
    <glyph glyph-name="oslashacute" unicode="&#x1ff;" horiz-adv-x="573" 
d="M18 3l69 72c-32 41 -50 94 -50 154c0 161 105 301 273 301c65 0 117 -23 156 -60l66 69l21 -20l-68 -71c32 -43 50 -95 50 -154c0 -168 -105 -301 -270 -301c-64 0 -118 21 -158 60l-68 -71zM266 22c145 0 234 119 234 272c0 49 -12 93 -37 130l-334 -348
c33 -33 78 -54 137 -54zM72 229c0 -50 13 -93 38 -130l334 348c-32 33 -76 54 -135 54c-149 0 -237 -125 -237 -272zM398 747h43l-106 -147h-30z" />
    <glyph glyph-name="uni0218" unicode="&#x218;" horiz-adv-x="583" 
d="M275 -7c-145 0 -243 70 -251 204h35c11 -112 85 -173 216 -173c123 0 209 63 209 180c0 88 -51 121 -182 158c-136 37 -198 79 -198 171c0 119 93 189 224 189c125 0 207 -56 216 -169h-34c-12 96 -78 139 -183 139c-115 0 -188 -54 -188 -158c0 -71 48 -107 176 -142
c140 -38 205 -80 205 -186c0 -133 -104 -213 -245 -213zM156 -183l68 139l34 -10l-79 -141z" />
    <glyph glyph-name="uni0219" unicode="&#x219;" horiz-adv-x="453" 
d="M207 -9c-117 0 -187 58 -192 163h33c7 -84 53 -134 160 -134c84 0 148 39 148 120c0 62 -36 87 -130 114c-106 29 -155 63 -155 138c0 92 80 138 172 138s165 -37 173 -136h-33c-7 69 -53 107 -141 107c-79 0 -138 -35 -138 -108c0 -56 36 -82 133 -109
c100 -30 153 -56 153 -143c0 -99 -82 -150 -183 -150zM84 -183l68 139l34 -10l-79 -141z" />
    <glyph glyph-name="uni021A" unicode="&#x21a;" horiz-adv-x="558" 
d="M325 685h-230l5 30h497l-5 -30h-231l-108 -685h-36zM148 -183l68 139l34 -10l-79 -141z" />
    <glyph glyph-name="uni021B" unicode="&#x21b;" horiz-adv-x="325" 
d="M182 -7c-80 0 -116 50 -103 138l58 363h-79l5 29h78l19 119h34l-19 -119h146l-5 -29h-145l-58 -364c-12 -77 17 -107 73 -107c25 0 46 4 65 11l-5 -29c-16 -7 -37 -12 -64 -12zM56 -183l68 139l34 -10l-79 -141z" />
    <glyph glyph-name="uni0237" unicode="&#x237;" horiz-adv-x="200" 
d="M-60 -156c59 3 79 29 90 89l93 590h35l-94 -592c-13 -83 -50 -114 -129 -117z" />
    <glyph glyph-name="circumflex" unicode="&#x2c6;" horiz-adv-x="400" 
d="M253 729h33l94 -129h-29l-84 101l-110 -101h-31z" />
    <glyph glyph-name="caron" unicode="&#x2c7;" horiz-adv-x="400" 
d="M271 613h-33l-93 129h29l84 -100l110 100h31z" />
    <glyph glyph-name="breve" unicode="&#x2d8;" horiz-adv-x="400" 
d="M264 614c-68 0 -108 46 -109 114h30c3 -52 29 -85 80 -85c49 0 85 32 96 85h29c-11 -71 -63 -114 -126 -114z" />
    <glyph glyph-name="dotaccent" unicode="&#x2d9;" horiz-adv-x="400" 
d="M262 637c-15 0 -26 12 -26 27s12 26 27 26s26 -11 26 -26s-12 -27 -27 -27z" />
    <glyph glyph-name="ring" unicode="&#x2da;" horiz-adv-x="400" 
d="M266 625c40 0 68 29 68 70c0 39 -25 65 -64 65s-68 -29 -68 -70c0 -36 27 -65 64 -65zM266 603c-51 0 -90 40 -90 87c0 51 42 93 94 93c53 0 90 -40 90 -88c0 -52 -41 -92 -94 -92z" />
    <glyph glyph-name="ogonek" unicode="&#x2db;" horiz-adv-x="400" 
d="M149 -182c-55 0 -82 27 -82 70c0 56 64 93 97 112h38c-37 -21 -101 -58 -101 -109c0 -27 15 -46 54 -46c16 0 29 1 45 8l-4 -27c-12 -4 -28 -8 -47 -8z" />
    <glyph glyph-name="tilde" unicode="&#x2dc;" horiz-adv-x="400" 
d="M330 615c-50 0 -90 58 -130 58c-24 0 -47 -19 -56 -58h-28c12 60 45 88 85 88c48 0 90 -59 129 -59c23 0 47 20 55 59h28c-12 -59 -44 -88 -83 -88z" />
    <glyph glyph-name="hungarumlaut" unicode="&#x2dd;" horiz-adv-x="400" 
d="M248 747h40l-86 -147h-29zM366 747h40l-86 -147h-29z" />
    <glyph glyph-name="uni037E" unicode="&#x37e;" horiz-adv-x="202" 
d="M-27 -100l81 160l33 -16l-91 -157zM119 337c-17 0 -29 13 -29 29s12 29 28 29c17 0 29 -13 29 -29s-12 -29 -28 -29z" />
    <glyph glyph-name="tonos" unicode="&#x384;" horiz-adv-x="400" 
d="M328 747h43l-106 -147h-30z" />
    <glyph glyph-name="dieresistonos" unicode="&#x385;" horiz-adv-x="400" 
d="M292 785h40l-80 -147h-26zM350 638c-15 0 -26 11 -26 26s11 26 26 26s26 -11 26 -26s-11 -26 -26 -26zM158 638c-15 0 -26 11 -26 26s11 26 26 26s26 -11 26 -26s-11 -26 -26 -26z" />
    <glyph glyph-name="Alphatonos" unicode="&#x386;" horiz-adv-x="635" 
d="M480 228h-339l-119 -228h-36l375 715h48l156 -715h-35zM156 258h317l-93 429zM171 715h43l-106 -147h-30z" />
    <glyph glyph-name="anoteleia" unicode="&#x387;" horiz-adv-x="195" 
d="M106 293c-16 0 -29 13 -29 29s12 29 29 29c16 0 29 -13 29 -29s-13 -29 -29 -29z" />
    <glyph glyph-name="Epsilontonos" unicode="&#x388;" horiz-adv-x="568" 
d="M165 715h401l-5 -30h-365l-48 -301h302l-5 -31h-301l-52 -322h390l-6 -31h-424zM43 715h43l-106 -147h-30z" />
    <glyph glyph-name="Etatonos" unicode="&#x389;" horiz-adv-x="709" 
d="M165 715h36l-54 -339h449l54 339h36l-113 -715h-36l55 345h-450l-54 -345h-36zM43 715h43l-106 -147h-30z" />
    <glyph glyph-name="Iotatonos" unicode="&#x38a;" horiz-adv-x="234" 
d="M170 715h36l-113 -715h-36zM43 715h43l-106 -147h-30z" />
    <glyph glyph-name="Omicrontonos" unicode="&#x38c;" horiz-adv-x="788" 
d="M757 392c0 -212 -152 -399 -373 -399c-201 0 -325 144 -325 333c0 210 155 396 377 396c196 0 321 -145 321 -330zM721 392c0 163 -105 300 -286 300c-204 0 -336 -169 -339 -366c-3 -169 108 -302 288 -302c202 0 337 170 337 368zM78 715h43l-106 -147h-30z" />
    <glyph glyph-name="Upsilontonos" unicode="&#x38e;" horiz-adv-x="564" 
d="M276 322l-189 393h37l175 -363l269 363h39l-295 -396l-51 -319h-36zM11 715h43l-106 -147h-30z" />
    <glyph glyph-name="Omegatonos" unicode="&#x38f;" horiz-adv-x="795" 
d="M437 692c-201 0 -341 -164 -341 -366c0 -147 80 -249 196 -306l-3 -20h-261l5 30h191c-84 45 -165 148 -165 296c0 213 154 396 378 396c200 0 322 -151 322 -331c0 -159 -81 -286 -221 -361h187l-5 -30h-256l3 20c150 67 255 199 255 371c0 157 -100 301 -285 301z
M78 715h43l-106 -147h-30z" />
    <glyph glyph-name="iotadieresistonos" unicode="&#x390;" horiz-adv-x="200" 
d="M123 523h35l-83 -523h-34zM209 785h40l-80 -147h-26zM267 638c-15 0 -26 11 -26 26s11 26 26 26s26 -11 26 -26s-11 -26 -26 -26zM75 638c-15 0 -26 11 -26 26s11 26 26 26s26 -11 26 -26s-11 -26 -26 -26z" />
    <glyph glyph-name="Alpha" unicode="&#x391;" horiz-adv-x="635" 
d="M480 228h-339l-119 -228h-36l375 715h48l156 -715h-35zM156 258h317l-93 429z" />
    <glyph glyph-name="Beta" unicode="&#x392;" horiz-adv-x="592" 
d="M165 715h185c120 0 191 -57 190 -161c0 -104 -61 -158 -158 -181c93 -15 143 -73 143 -158c0 -136 -98 -215 -237 -215h-236zM288 30c119 0 202 64 202 186c0 88 -58 142 -183 142h-164l-52 -328h197zM309 387c101 0 196 44 196 166c0 84 -56 132 -156 132h-154l-47 -298
h161z" />
    <glyph glyph-name="Gamma" unicode="&#x393;" horiz-adv-x="522" 
d="M165 715h398l-5 -30h-362l-108 -685h-36z" />
    <glyph glyph-name="uni0394" unicode="&#x394;" horiz-adv-x="637" 
d="M-9 9l370 706h51l153 -706l-1 -9h-574zM38 31h488l-144 659z" />
    <glyph glyph-name="Epsilon" unicode="&#x395;" horiz-adv-x="568" 
d="M165 715h401l-5 -30h-365l-48 -301h302l-5 -31h-301l-52 -322h390l-6 -31h-424z" />
    <glyph glyph-name="Zeta" unicode="&#x396;" horiz-adv-x="582" 
d="M-14 9l571 676h-428l5 30h481l-1 -8l-569 -676h456l-5 -31h-512z" />
    <glyph glyph-name="Eta" unicode="&#x397;" horiz-adv-x="709" 
d="M165 715h36l-54 -339h449l54 339h36l-113 -715h-36l55 345h-450l-54 -345h-36z" />
    <glyph glyph-name="Theta" unicode="&#x398;" horiz-adv-x="788" 
d="M757 392c0 -212 -152 -399 -373 -399c-201 0 -325 144 -325 333c0 210 155 396 377 396c196 0 321 -145 321 -330zM721 392c0 163 -105 300 -286 300c-204 0 -336 -169 -339 -366c-3 -169 108 -302 288 -302c202 0 337 170 337 368zM258 379h304l-5 -31h-304z" />
    <glyph glyph-name="Iota" unicode="&#x399;" horiz-adv-x="234" 
d="M170 715h36l-113 -715h-36z" />
    <glyph glyph-name="Kappa" unicode="&#x39a;" horiz-adv-x="588" 
d="M474 0l-322 368l415 347h45l-417 -347l322 -368h-43zM165 715h36l-113 -715h-36z" />
    <glyph glyph-name="Lambda" unicode="&#x39b;" horiz-adv-x="625" 
d="M555 0h-35l-143 679l-355 -679h-36l375 715h43z" />
    <glyph glyph-name="Mu" unicode="&#x39c;" horiz-adv-x="849" 
d="M165 715h52l169 -649l380 649h54l-113 -715h-36l106 672l-394 -672h-14l-177 672l-106 -672h-34z" />
    <glyph glyph-name="Nu" unicode="&#x39d;" horiz-adv-x="707" 
d="M165 715h49l329 -667l106 667h35l-113 -715h-43l-334 678l-107 -678h-35z" />
    <glyph glyph-name="Xi" unicode="&#x39e;" horiz-adv-x="574" 
d="M572 715l-5 -31h-457l6 31h456zM473 379l-6 -31h-351l6 31h351zM13 32h472l-5 -32h-472z" />
    <glyph glyph-name="Omicron" unicode="&#x39f;" horiz-adv-x="788" 
d="M757 392c0 -212 -152 -399 -373 -399c-201 0 -325 144 -325 333c0 210 155 396 377 396c196 0 321 -145 321 -330zM721 392c0 163 -105 300 -286 300c-204 0 -336 -169 -339 -366c-3 -169 108 -302 288 -302c202 0 337 170 337 368z" />
    <glyph glyph-name="Pi" unicode="&#x3a0;" horiz-adv-x="700" 
d="M165 715h512l-113 -715h-36l108 684h-440l-108 -684h-36z" />
    <glyph glyph-name="Rho" unicode="&#x3a1;" horiz-adv-x="559" 
d="M165 715h167c132 0 220 -52 220 -176c0 -160 -106 -224 -255 -224h-160l-50 -315h-35zM299 345c135 0 218 56 218 194c0 105 -75 146 -188 146h-134l-54 -340h158z" />
    <glyph glyph-name="Sigma" unicode="&#x3a3;" horiz-adv-x="574" 
d="M69 32h419l-5 -32h-466l4 24l304 341l-199 319l6 31h441l-5 -30h-404l200 -321z" />
    <glyph glyph-name="Tau" unicode="&#x3a4;" horiz-adv-x="558" 
d="M325 685h-230l5 30h497l-5 -30h-231l-108 -685h-36z" />
    <glyph glyph-name="Upsilon" unicode="&#x3a5;" horiz-adv-x="564" 
d="M276 322l-189 393h37l175 -363l269 363h39l-295 -396l-51 -319h-36z" />
    <glyph glyph-name="Phi" unicode="&#x3a6;" horiz-adv-x="831" 
d="M399 52l-10 -66h-35l11 67c-188 13 -301 128 -301 285c0 204 177 328 398 328l10 63h35l-10 -65c184 -13 300 -129 300 -282c0 -204 -176 -330 -397 -330h-1zM101 339c0 -144 102 -244 268 -257l88 555c-185 -3 -356 -101 -356 -298zM760 382c0 139 -99 240 -268 253
l-88 -554c189 0 356 107 356 301z" />
    <glyph glyph-name="Chi" unicode="&#x3a7;" horiz-adv-x="618" 
d="M307 374l-175 341h37l164 -317l261 317h40l-286 -346l191 -369h-38l-179 345l-287 -345h-40z" />
    <glyph glyph-name="Psi" unicode="&#x3a8;" horiz-adv-x="749" 
d="M703 454c-27 -162 -112 -257 -328 -257l-30 -197h-35l31 198c-148 11 -246 86 -246 231c0 15 3 39 6 59l35 227h36l-36 -229c-3 -19 -5 -41 -5 -56c0 -125 81 -194 214 -203l78 488h35l-78 -489c181 1 264 81 288 232l41 257h35z" />
    <glyph glyph-name="uni03A9" unicode="&#x3a9;" horiz-adv-x="795" 
d="M437 692c-201 0 -341 -164 -341 -366c0 -147 80 -249 196 -306l-3 -20h-261l5 30h191c-84 45 -165 148 -165 296c0 213 154 396 378 396c200 0 322 -151 322 -331c0 -159 -81 -286 -221 -361h187l-5 -30h-256l3 20c150 67 255 199 255 371c0 157 -100 301 -285 301z" />
    <glyph glyph-name="Iotadieresis" unicode="&#x3aa;" horiz-adv-x="234" 
d="M170 715h36l-113 -715h-36zM120 788c-15 0 -26 10 -26 25s12 27 27 27s25 -11 25 -26s-11 -26 -26 -26zM287 788c-15 0 -26 10 -26 25s11 27 26 27s26 -11 26 -26s-11 -26 -26 -26z" />
    <glyph glyph-name="Upsilondieresis" unicode="&#x3ab;" horiz-adv-x="564" 
d="M276 322l-189 393h37l175 -363l269 363h39l-295 -396l-51 -319h-36zM289 788c-15 0 -26 10 -26 25s12 27 27 27s25 -11 25 -26s-11 -26 -26 -26zM456 788c-15 0 -26 10 -26 25s11 27 26 27s26 -11 26 -26s-11 -26 -26 -26z" />
    <glyph glyph-name="alphatonos" unicode="&#x3ac;" horiz-adv-x="586" 
d="M301 501c-140 0 -228 -123 -228 -275c0 -131 79 -204 179 -204c138 0 222 139 225 274c0 125 -71 205 -176 205zM248 -8c-120 0 -210 90 -210 233c0 165 102 306 262 306c122 0 177 -88 191 -156l24 148h34l-57 -354c-15 -88 -16 -136 -17 -169h-33c0 35 5 90 12 131
c-38 -78 -105 -139 -206 -139zM424 747h43l-106 -147h-30z" />
    <glyph glyph-name="epsilontonos" unicode="&#x3ad;" horiz-adv-x="533" 
d="M466 394c-8 55 -45 107 -172 107c-111 0 -183 -41 -183 -125c0 -59 52 -92 111 -92h122l-5 -28h-126c-78 0 -141 -46 -141 -126c0 -73 69 -108 177 -108c100 0 176 34 204 122h33c-35 -112 -124 -152 -239 -152c-132 0 -210 48 -210 136c0 76 55 132 129 143
c-53 12 -90 54 -90 105c0 96 86 154 218 154c143 0 197 -63 205 -136h-33zM404 747h43l-106 -147h-30z" />
    <glyph glyph-name="etatonos" unicode="&#x3ae;" horiz-adv-x="567" 
d="M99 384c11 69 12 106 15 139h33c-1 -27 -4 -70 -11 -115c35 67 107 123 202 123c114 0 184 -72 160 -220l-78 -493h-35l79 498c20 125 -35 185 -131 185c-95 0 -191 -66 -210 -187l-50 -314h-34zM401 747h43l-106 -147h-30z" />
    <glyph glyph-name="iotatonos" unicode="&#x3af;" horiz-adv-x="200" 
d="M123 523h35l-83 -523h-34zM232 747h43l-106 -147h-30z" />
    <glyph glyph-name="upsilondieresistonos" unicode="&#x3b0;" horiz-adv-x="555" 
d="M101 219c-3 -20 -4 -40 -4 -47c0 -99 68 -150 153 -150c96 0 165 51 185 176l51 325h34l-51 -328c-24 -147 -111 -202 -219 -202c-104 0 -187 63 -187 175c0 15 1 36 4 53l47 302h34zM379 785h40l-80 -147h-26zM437 638c-15 0 -26 11 -26 26s11 26 26 26s26 -11 26 -26
s-11 -26 -26 -26zM245 638c-15 0 -26 11 -26 26s11 26 26 26s26 -11 26 -26s-11 -26 -26 -26z" />
    <glyph glyph-name="alpha" unicode="&#x3b1;" horiz-adv-x="586" 
d="M301 501c-140 0 -228 -123 -228 -275c0 -131 79 -204 179 -204c138 0 222 139 225 274c0 125 -71 205 -176 205zM248 -8c-120 0 -210 90 -210 233c0 165 102 306 262 306c122 0 177 -88 191 -156l24 148h34l-57 -354c-15 -88 -16 -136 -17 -169h-33c0 35 5 90 12 131
c-38 -78 -105 -139 -206 -139z" />
    <glyph glyph-name="beta" unicode="&#x3b2;" horiz-adv-x="577" 
d="M109 228c-16 -108 69 -207 177 -207c117 0 204 90 204 210c0 99 -72 169 -207 166l5 29c107 0 220 57 220 179c0 79 -48 142 -143 142c-123 0 -185 -77 -204 -194zM44 -182h-34l117 739c21 131 101 219 237 219c109 0 178 -74 178 -171c0 -103 -80 -176 -177 -192
c85 -13 160 -82 160 -181c0 -128 -90 -240 -238 -240c-91 0 -168 60 -192 140z" />
    <glyph glyph-name="gamma" unicode="&#x3b3;" horiz-adv-x="514" 
d="M498 523h36l-299 -515l-30 -190h-34l30 190l-145 515h35l132 -474z" />
    <glyph glyph-name="delta" unicode="&#x3b4;" horiz-adv-x="573" 
d="M554 744h-332l243 -294c31 -39 72 -97 72 -177c0 -157 -109 -280 -270 -280c-131 0 -230 102 -230 237c0 152 109 272 263 272c31 0 75 -9 99 -22l-228 275l3 18h385zM72 229c0 -117 82 -207 197 -207c136 0 233 108 233 249c0 106 -72 203 -196 203
c-136 0 -234 -104 -234 -245z" />
    <glyph glyph-name="epsilon" unicode="&#x3b5;" horiz-adv-x="533" 
d="M466 394c-8 55 -45 107 -172 107c-111 0 -183 -41 -183 -125c0 -59 52 -92 111 -92h122l-5 -28h-126c-78 0 -141 -46 -141 -126c0 -73 69 -108 177 -108c100 0 176 34 204 122h33c-35 -112 -124 -152 -239 -152c-132 0 -210 48 -210 136c0 76 55 132 129 143
c-53 12 -90 54 -90 105c0 96 86 154 218 154c143 0 197 -63 205 -136h-33z" />
    <glyph glyph-name="zeta" unicode="&#x3b6;" horiz-adv-x="464" 
d="M409 -35c0 -36 -16 -80 -35 -119h-32c15 31 33 82 33 113c0 29 -15 41 -66 41h-80c-120 0 -195 71 -195 179c0 222 254 428 430 564h-317l5 30h383l-1 -10c-243 -187 -464 -374 -464 -582c0 -95 63 -151 162 -151h80c72 0 97 -22 97 -65z" />
    <glyph glyph-name="eta" unicode="&#x3b7;" horiz-adv-x="567" 
d="M99 384c11 69 12 106 15 139h33c-1 -27 -4 -70 -11 -115c35 67 107 123 202 123c114 0 184 -72 160 -220l-78 -493h-35l79 498c20 125 -35 185 -131 185c-95 0 -191 -66 -210 -187l-50 -314h-34z" />
    <glyph glyph-name="theta" unicode="&#x3b8;" horiz-adv-x="594" 
d="M560 536c0 -118 -36 -298 -81 -386c-48 -97 -119 -157 -227 -157c-123 0 -190 79 -190 240c0 140 42 332 103 425c56 84 124 118 204 118c121 0 191 -76 191 -240zM367 747c-72 0 -130 -33 -175 -105c-37 -57 -63 -135 -79 -233h402c8 48 10 93 10 126
c0 145 -54 212 -158 212zM253 22c80 0 140 38 185 119c32 59 57 137 73 238h-402c-11 -64 -13 -109 -13 -145c0 -141 52 -212 157 -212z" />
    <glyph glyph-name="iota" unicode="&#x3b9;" horiz-adv-x="200" 
d="M123 523h35l-83 -523h-34z" />
    <glyph glyph-name="kappa" unicode="&#x3ba;" horiz-adv-x="473" 
d="M438 523h45l-322 -255l251 -268h-41l-253 269zM73 0h-34l83 523h34z" />
    <glyph glyph-name="lambda" unicode="&#x3bb;" horiz-adv-x="513" 
d="M20 0h-37l284 521l-37 175c-7 35 -19 51 -54 51c-16 0 -40 -4 -56 -11l4 29c17 7 39 11 59 11c47 0 68 -25 79 -73l131 -624c7 -35 20 -53 51 -53c11 0 27 3 35 6l-4 -30c-8 -3 -23 -6 -38 -6c-41 0 -66 24 -76 73l-83 407z" />
    <glyph glyph-name="uni03BC" unicode="&#x3bc;" horiz-adv-x="570" 
d="M467 140c-11 -63 -12 -109 -12 -140h-33c0 31 2 76 9 117c-35 -67 -104 -124 -199 -124c-73 0 -125 36 -144 101l-44 -276h-34l111 705h35l-51 -322c-19 -117 39 -179 131 -179c94 0 189 69 208 186l49 315h35z" />
    <glyph glyph-name="nu" unicode="&#x3bd;" horiz-adv-x="498" 
d="M65 523h35l116 -489l262 489h36l-280 -523h-46z" />
    <glyph glyph-name="xi" unicode="&#x3be;" horiz-adv-x="488" 
d="M127 744l5 29h400l-5 -29h-123c-106 0 -236 -55 -236 -180c0 -67 60 -128 152 -128h122l-5 -30h-130c-124 0 -239 -80 -239 -213c0 -108 81 -163 188 -163h65c72 0 97 -22 97 -65c0 -36 -16 -80 -35 -119h-32c15 31 33 82 33 113c0 29 -15 41 -66 41h-65
c-117 0 -220 61 -220 193c0 122 100 216 216 232c-67 19 -116 71 -116 139c0 92 71 159 159 180h-165z" />
    <glyph glyph-name="omicron" unicode="&#x3bf;" horiz-adv-x="573" 
d="M265 -7c-136 0 -228 105 -228 236c0 161 105 301 273 301c140 0 225 -108 225 -236c0 -168 -105 -301 -270 -301zM266 22c145 0 234 119 234 272c0 112 -68 207 -191 207c-149 0 -237 -125 -237 -272c0 -113 74 -207 194 -207z" />
    <glyph glyph-name="pi" unicode="&#x3c0;" horiz-adv-x="572" 
d="M446 140c-11 -63 -12 -109 -13 -140h-34c1 35 5 91 13 138l56 356h-297l-78 -494h-34l78 494h-79l5 29h523l-5 -29h-79z" />
    <glyph glyph-name="rho" unicode="&#x3c1;" horiz-adv-x="577" 
d="M287 22c138 0 216 116 216 271c0 115 -57 209 -179 209c-152 0 -231 -129 -231 -272c0 -116 78 -208 194 -208zM25 -182h-35l75 470c21 135 110 243 258 243c141 0 216 -109 216 -237c0 -168 -92 -302 -252 -302c-110 0 -187 73 -208 169z" />
    <glyph glyph-name="uni03C2" unicode="&#x3c2;" horiz-adv-x="541" 
d="M324 30c72 0 97 -22 97 -65c0 -36 -16 -80 -35 -119h-32c15 31 33 82 33 113c0 29 -15 41 -66 41h-52c-136 0 -228 89 -228 231c0 172 112 299 268 299c108 0 192 -65 197 -171h-33c-5 88 -70 142 -166 142c-140 0 -231 -118 -231 -270c0 -117 64 -201 196 -201h52z" />
    <glyph glyph-name="sigma" unicode="&#x3c3;" horiz-adv-x="602" 
d="M264 -7c-134 0 -227 102 -227 234c0 156 101 296 273 296h284l-5 -29h-179c81 -31 125 -111 125 -202c0 -165 -101 -299 -271 -299zM266 22c147 0 234 120 234 270c0 113 -68 202 -192 202c-152 0 -236 -123 -236 -267c0 -115 74 -205 194 -205z" />
    <glyph glyph-name="tau" unicode="&#x3c4;" horiz-adv-x="436" 
d="M258 -7c-86 0 -101 73 -90 145l56 356h-176l4 29h394l-5 -29h-183l-56 -356c-8 -46 -6 -115 59 -115c39 0 63 5 90 12l-5 -29c-20 -7 -48 -13 -88 -13z" />
    <glyph glyph-name="upsilon" unicode="&#x3c5;" horiz-adv-x="555" 
d="M101 219c-3 -20 -4 -40 -4 -47c0 -99 68 -150 153 -150c96 0 165 51 185 176l51 325h34l-51 -328c-24 -147 -111 -202 -219 -202c-104 0 -187 63 -187 175c0 15 1 36 4 53l47 302h34z" />
    <glyph glyph-name="phi" unicode="&#x3c6;" horiz-adv-x="711" 
d="M401 530c182 -5 273 -104 273 -234c0 -193 -149 -296 -341 -299l-28 -179h-34l28 180c-156 11 -262 106 -262 244c0 148 87 258 220 285l-2 -29c-122 -29 -183 -140 -183 -256c0 -121 88 -205 232 -216l79 503c3 1 14 1 18 1zM337 26c175 0 301 98 301 270
c0 117 -74 195 -226 204z" />
    <glyph glyph-name="chi" unicode="&#x3c7;" horiz-adv-x="515" 
d="M248 148l-232 -330h-37l257 363l-109 288c-11 29 -21 32 -36 32c-9 0 -22 -3 -33 -6l4 28c9 3 23 7 35 7c27 0 44 -6 59 -45l104 -275l217 313h39l-244 -346l106 -281c13 -35 23 -52 50 -52c8 0 25 3 33 6l-4 -29c-9 -3 -23 -7 -36 -7c-39 0 -55 22 -72 69z" />
    <glyph glyph-name="psi" unicode="&#x3c8;" horiz-adv-x="711" 
d="M100 259c-21 -126 49 -220 201 -231l78 495h35l-79 -495c176 3 251 80 270 202l46 293h35l-47 -294c-21 -142 -112 -227 -308 -230l-28 -181h-35l29 182c-173 11 -252 121 -231 261l41 262h35z" />
    <glyph glyph-name="omega" unicode="&#x3c9;" horiz-adv-x="725" 
d="M366 161c-13 -91 37 -139 106 -139c133 0 177 165 177 278c0 101 -30 185 -144 201l5 29c127 -16 174 -110 174 -230c0 -131 -54 -307 -211 -307c-80 0 -125 48 -132 112c-24 -61 -71 -112 -148 -112c-100 0 -157 84 -157 201c0 160 79 317 253 336l-5 -29
c-151 -24 -213 -164 -213 -308c0 -101 43 -171 123 -171c68 0 125 55 138 142l29 187h34z" />
    <glyph glyph-name="iotadieresis" unicode="&#x3ca;" horiz-adv-x="200" 
d="M123 523h35l-83 -523h-34zM83 638c-15 0 -26 11 -26 26s11 26 26 26s26 -11 26 -26s-11 -26 -26 -26zM236 638c-15 0 -26 11 -26 26s11 26 26 26s26 -11 26 -26s-11 -26 -26 -26z" />
    <glyph glyph-name="upsilondieresis" unicode="&#x3cb;" horiz-adv-x="555" 
d="M101 219c-3 -20 -4 -40 -4 -47c0 -99 68 -150 153 -150c96 0 165 51 185 176l51 325h34l-51 -328c-24 -147 -111 -202 -219 -202c-104 0 -187 63 -187 175c0 15 1 36 4 53l47 302h34zM261 638c-15 0 -26 11 -26 26s11 26 26 26s26 -11 26 -26s-11 -26 -26 -26zM414 638
c-15 0 -26 11 -26 26s11 26 26 26s26 -11 26 -26s-11 -26 -26 -26z" />
    <glyph glyph-name="omicrontonos" unicode="&#x3cc;" horiz-adv-x="573" 
d="M265 -7c-136 0 -228 105 -228 236c0 161 105 301 273 301c140 0 225 -108 225 -236c0 -168 -105 -301 -270 -301zM266 22c145 0 234 119 234 272c0 112 -68 207 -191 207c-149 0 -237 -125 -237 -272c0 -113 74 -207 194 -207zM420 747h43l-106 -147h-30z" />
    <glyph glyph-name="upsilontonos" unicode="&#x3cd;" horiz-adv-x="555" 
d="M101 219c-3 -20 -4 -40 -4 -47c0 -99 68 -150 153 -150c96 0 165 51 185 176l51 325h34l-51 -328c-24 -147 -111 -202 -219 -202c-104 0 -187 63 -187 175c0 15 1 36 4 53l47 302h34zM403 747h43l-106 -147h-30z" />
    <glyph glyph-name="omegatonos" unicode="&#x3ce;" horiz-adv-x="725" 
d="M494 747h43l-106 -147h-30zM366 161c-13 -91 37 -139 106 -139c133 0 177 165 177 278c0 101 -30 185 -144 201l5 29c127 -16 174 -110 174 -230c0 -131 -54 -307 -211 -307c-80 0 -125 48 -132 112c-24 -61 -71 -112 -148 -112c-100 0 -157 84 -157 201
c0 160 79 317 253 336l-5 -29c-151 -24 -213 -164 -213 -308c0 -101 43 -171 123 -171c68 0 125 55 138 142l29 187h34z" />
    <glyph glyph-name="uni0401" unicode="&#x401;" horiz-adv-x="568" 
d="M165 715h401l-5 -30h-365l-48 -301h302l-5 -31h-301l-52 -322h390l-6 -31h-424zM287 788c-15 0 -26 10 -26 25s12 27 27 27s25 -11 25 -26s-11 -26 -26 -26zM454 788c-15 0 -26 10 -26 25s11 27 26 27s26 -11 26 -26s-11 -26 -26 -26z" />
    <glyph glyph-name="uni0402" unicode="&#x402;" horiz-adv-x="761" 
d="M491 -5c-47 0 -79 11 -94 19l5 31c19 -9 51 -20 91 -20c109 0 175 93 175 213c0 104 -50 162 -170 162c-122 0 -184 -79 -197 -95l-48 -305h-36l108 685h-230l5 30h507l-5 -30h-241l-53 -337c27 29 91 83 191 83c143 0 203 -73 203 -192c0 -136 -79 -244 -211 -244z" />
    <glyph glyph-name="uni0403" unicode="&#x403;" horiz-adv-x="520" 
d="M422 891h43l-90 -120h-31zM165 715h379l-5 -30h-343l-108 -685h-36z" />
    <glyph glyph-name="uni0404" unicode="&#x404;" horiz-adv-x="724" 
d="M681 225c-45 -148 -165 -232 -310 -232c-191 0 -312 122 -312 319c0 221 147 410 376 410c133 0 246 -76 265 -216h-33c-23 120 -112 186 -233 186c-189 0 -309 -139 -333 -316h405l-5 -31h-403c-1 -11 -1 -22 -1 -33c0 -181 101 -288 274 -288c132 0 232 72 275 201h35z
" />
    <glyph glyph-name="uni0405" unicode="&#x405;" horiz-adv-x="583" 
d="M275 -7c-145 0 -243 70 -251 204h35c11 -112 85 -173 216 -173c123 0 209 63 209 180c0 88 -51 121 -182 158c-136 37 -198 79 -198 171c0 119 93 189 224 189c125 0 207 -56 216 -169h-34c-12 96 -78 139 -183 139c-115 0 -188 -54 -188 -158c0 -71 48 -107 176 -142
c140 -38 205 -80 205 -186c0 -133 -104 -213 -245 -213z" />
    <glyph glyph-name="uni0406" unicode="&#x406;" horiz-adv-x="234" 
d="M170 715h36l-113 -715h-36z" />
    <glyph glyph-name="uni0407" unicode="&#x407;" horiz-adv-x="234" 
d="M170 715h36l-113 -715h-36zM119 788c-15 0 -26 10 -26 25s12 27 27 27s25 -11 25 -26s-11 -26 -26 -26zM286 788c-15 0 -26 10 -26 25s11 27 26 27s26 -11 26 -26s-11 -26 -26 -26z" />
    <glyph glyph-name="uni0408" unicode="&#x408;" horiz-adv-x="389" 
d="M114 -5c-60 0 -94 15 -117 28l5 31c29 -16 63 -29 111 -29c77 0 127 40 143 137l87 553h36l-88 -556c-19 -119 -86 -164 -177 -164z" />
    <glyph glyph-name="uni0409" unicode="&#x409;" horiz-adv-x="993" 
d="M293 684c-16 -66 -58 -249 -101 -417c-48 -179 -91 -273 -177 -273c-14 0 -25 2 -34 5c-5 1 -9 3 -12 5l5 33c4 -2 8 -4 12 -5c7 -3 17 -4 30 -4c64 0 102 88 146 252c25 96 52 204 72 289c12 50 23 99 33 146h379l-50 -315h121c132 0 220 -52 220 -176
c0 -160 -106 -224 -255 -224h-185l107 684h-311zM684 30c135 0 218 56 218 194c0 106 -74 146 -188 146h-123l-53 -340h146z" />
    <glyph glyph-name="uni040A" unicode="&#x40a;" horiz-adv-x="1000" 
d="M691 30c136 0 218 44 218 180c0 105 -74 136 -188 136h-125l-51 -316h146zM52 0l113 715h36l-54 -339h417l53 339h36l-53 -339h124c132 0 221 -45 221 -165c0 -158 -107 -211 -255 -211h-186l55 345h-417l-54 -345h-36z" />
    <glyph glyph-name="uni040B" unicode="&#x40b;" horiz-adv-x="780" 
d="M501 400c-143 0 -198 -97 -200 -99l-48 -301h-36l108 685h-230l5 30h507l-5 -30h-241l-53 -337c27 30 89 83 194 83c155 0 209 -87 184 -247l-29 -184h-36l29 183c24 148 -24 217 -149 217z" />
    <glyph glyph-name="uni040C" unicode="&#x40c;" horiz-adv-x="588" 
d="M474 0l-322 368l415 347h45l-417 -347l322 -368h-43zM165 715h36l-113 -715h-36zM427 891h43l-90 -120h-31z" />
    <glyph glyph-name="uni040D" unicode="&#x40d;" horiz-adv-x="714" 
d="M52 0l113 715h36l-104 -662l564 662h35l-113 -715h-35l104 662l-565 -662h-35zM355 891h41l55 -120h-28z" />
    <glyph glyph-name="uni040E" unicode="&#x40e;" horiz-adv-x="574" 
d="M362 773c-69 0 -115 49 -116 117h31c3 -55 34 -91 85 -91s92 36 103 91h30c-8 -69 -70 -117 -133 -117zM112 -6c-31 0 -48 7 -53 10l5 33c5 -3 24 -10 49 -10c58 0 97 41 143 117l-160 571h37l147 -532l300 532h36l-315 -556c-59 -104 -105 -165 -189 -165z" />
    <glyph glyph-name="uni040F" unicode="&#x40f;" horiz-adv-x="699" 
d="M52 0l113 715h36l-108 -684h440l107 684h36l-113 -715h-239l-22 -130h-30l18 130h-238z" />
    <glyph glyph-name="uni0410" unicode="&#x410;" horiz-adv-x="635" 
d="M480 228h-339l-119 -228h-36l375 715h48l156 -715h-35zM156 258h317l-93 429z" />
    <glyph glyph-name="uni0411" unicode="&#x411;" horiz-adv-x="571" 
d="M510 226c0 -160 -107 -226 -255 -226h-203l113 715h370l-5 -30h-334l-45 -282h138c133 0 221 -56 221 -177zM256 30c137 0 218 58 218 195c0 107 -74 148 -188 148h-140l-53 -343h163z" />
    <glyph glyph-name="uni0412" unicode="&#x412;" horiz-adv-x="592" 
d="M165 715h185c120 0 191 -57 190 -161c0 -104 -61 -158 -158 -181c93 -15 143 -73 143 -158c0 -136 -98 -215 -237 -215h-236zM288 30c119 0 202 64 202 186c0 88 -58 142 -183 142h-164l-52 -328h197zM309 387c101 0 196 44 196 166c0 84 -56 132 -156 132h-154l-47 -298
h161z" />
    <glyph glyph-name="uni0413" unicode="&#x413;" horiz-adv-x="520" 
d="M165 715h379l-5 -30h-343l-108 -685h-36z" />
    <glyph glyph-name="uni0414" unicode="&#x414;" horiz-adv-x="691" 
d="M182 273c-35 -137 -64 -217 -107 -242h433l103 653h-327c-16 -67 -59 -250 -102 -411zM-17 -130h-30l25 161h50c51 20 84 112 123 249c25 96 52 204 73 289l35 146h393l-108 -684h100l-25 -161h-31l17 130h-598z" />
    <glyph glyph-name="uni0415" unicode="&#x415;" horiz-adv-x="568" 
d="M165 715h401l-5 -30h-365l-48 -301h302l-5 -31h-301l-52 -322h390l-6 -31h-424z" />
    <glyph glyph-name="uni0416" unicode="&#x416;" horiz-adv-x="852" 
d="M402 0h-36l113 715h36zM836 715h44l-374 -347l279 -368h-41l-277 368zM24 0h-47l403 372l-261 343h39l260 -347z" />
    <glyph glyph-name="uni0417" unicode="&#x417;" horiz-adv-x="570" 
d="M266 -7c-147 0 -227 84 -238 207h35c11 -101 73 -177 203 -177c132 0 203 79 203 188c0 88 -61 147 -178 147h-100l5 29h97c128 0 194 69 194 165c0 84 -51 140 -156 140c-103 0 -166 -58 -194 -143h-35c33 111 114 173 229 173c121 0 192 -64 192 -169
c0 -95 -63 -161 -156 -180c85 -20 137 -71 137 -163c0 -128 -88 -217 -238 -217z" />
    <glyph glyph-name="uni0418" unicode="&#x418;" horiz-adv-x="714" 
d="M52 0l113 715h36l-104 -662l564 662h35l-113 -715h-35l104 662l-565 -662h-35z" />
    <glyph glyph-name="uni0419" unicode="&#x419;" horiz-adv-x="714" 
d="M429 773c-69 0 -115 49 -116 117h31c3 -55 34 -91 86 -91c51 0 91 36 102 91h31c-11 -69 -68 -117 -134 -117zM52 0l113 715h36l-104 -662l564 662h35l-113 -715h-35l104 662l-565 -662h-35z" />
    <glyph glyph-name="uni041A" unicode="&#x41a;" horiz-adv-x="588" 
d="M474 0l-322 368l415 347h45l-417 -347l322 -368h-43zM165 715h36l-113 -715h-36z" />
    <glyph glyph-name="uni041B" unicode="&#x41b;" horiz-adv-x="678" 
d="M193 267c-48 -179 -93 -273 -178 -273c-14 0 -25 2 -34 5c-5 1 -9 3 -12 5l5 33c4 -2 8 -4 12 -5c7 -3 17 -4 30 -4c64 0 102 88 146 252c25 96 52 204 72 289c12 50 23 99 33 146h389l-113 -715h-36l107 684h-320c-16 -66 -58 -249 -101 -417z" />
    <glyph glyph-name="uni041C" unicode="&#x41c;" horiz-adv-x="849" 
d="M165 715h52l169 -649l380 649h54l-113 -715h-36l106 672l-394 -672h-14l-177 672l-106 -672h-34z" />
    <glyph glyph-name="uni041D" unicode="&#x41d;" horiz-adv-x="709" 
d="M165 715h36l-54 -339h449l54 339h36l-113 -715h-36l55 345h-450l-54 -345h-36z" />
    <glyph glyph-name="uni041E" unicode="&#x41e;" horiz-adv-x="788" 
d="M757 392c0 -212 -152 -399 -373 -399c-201 0 -325 144 -325 333c0 210 155 396 377 396c196 0 321 -145 321 -330zM721 392c0 163 -105 300 -286 300c-204 0 -336 -169 -339 -366c-3 -169 108 -302 288 -302c202 0 337 170 337 368z" />
    <glyph glyph-name="uni041F" unicode="&#x41f;" horiz-adv-x="699" 
d="M635 684h-439l-108 -684h-36l113 715h511l-113 -715h-36z" />
    <glyph glyph-name="uni0420" unicode="&#x420;" horiz-adv-x="559" 
d="M165 715h167c132 0 220 -52 220 -176c0 -160 -106 -224 -255 -224h-160l-50 -315h-35zM299 345c135 0 218 56 218 194c0 105 -75 146 -188 146h-134l-54 -340h158z" />
    <glyph glyph-name="uni0421" unicode="&#x421;" horiz-adv-x="724" 
d="M371 -7c-191 0 -312 122 -312 319c0 221 147 410 376 410c133 0 246 -76 265 -216h-33c-23 120 -112 186 -233 186c-211 0 -337 -173 -337 -380c0 -181 101 -288 274 -288c132 0 232 72 275 201h35c-45 -148 -165 -232 -310 -232z" />
    <glyph glyph-name="uni0422" unicode="&#x422;" horiz-adv-x="558" 
d="M325 685h-230l5 30h497l-5 -30h-231l-108 -685h-36z" />
    <glyph glyph-name="uni0423" unicode="&#x423;" horiz-adv-x="574" 
d="M112 -6c-31 0 -48 7 -53 10l5 33c5 -3 24 -10 49 -10c58 0 97 41 143 117l-160 571h37l147 -532l300 532h36l-315 -556c-59 -104 -105 -165 -189 -165z" />
    <glyph glyph-name="uni0424" unicode="&#x424;" horiz-adv-x="779" 
d="M327 -10l15 95c-183 11 -287 98 -287 246v9c0 184 144 297 373 297l14 88h36l-14 -88c180 -11 289 -103 289 -255v-7c0 -184 -146 -290 -375 -290l-15 -95h-36zM716 381c0 140 -96 218 -257 227l-77 -494c208 0 334 92 334 260v7zM91 331c0 -133 95 -208 256 -217l77 494
c-208 0 -333 -101 -333 -268v-9z" />
    <glyph glyph-name="uni0425" unicode="&#x425;" horiz-adv-x="618" 
d="M307 374l-175 341h37l164 -317l261 317h40l-286 -346l191 -369h-38l-179 345l-287 -345h-40z" />
    <glyph glyph-name="uni0426" unicode="&#x426;" horiz-adv-x="716" 
d="M611 -130l19 130h-578l113 715h36l-108 -684h440l107 684h36l-107 -684h99l-27 -161h-30z" />
    <glyph glyph-name="uni0427" unicode="&#x427;" horiz-adv-x="624" 
d="M452 0l58 368c-29 -29 -96 -84 -217 -84c-151 0 -214 83 -187 248l29 183h36l-29 -182c-24 -149 21 -218 152 -218c139 0 205 77 224 96l47 304h36l-113 -715h-36z" />
    <glyph glyph-name="uni0428" unicode="&#x428;" horiz-adv-x="940" 
d="M165 715h36l-108 -684h322l108 684h36l-108 -684h322l108 684h36l-113 -715h-752z" />
    <glyph glyph-name="uni0429" unicode="&#x429;" horiz-adv-x="956" 
d="M852 -130l19 130h-819l113 715h36l-108 -684h322l108 684h36l-108 -684h322l108 684h36l-108 -684h100l-26 -161h-31z" />
    <glyph glyph-name="uni042A" unicode="&#x42a;" horiz-adv-x="664" 
d="M158 0l107 685h-177l5 30h214l-50 -315h131c132 0 221 -52 221 -176c0 -160 -107 -224 -255 -224h-196zM355 30c135 0 218 56 218 194c0 106 -74 146 -188 146h-133l-53 -340h156z" />
    <glyph glyph-name="uni042B" unicode="&#x42b;" horiz-adv-x="744" 
d="M52 0l113 715h36l-50 -315h131c132 0 221 -52 221 -176c0 -160 -107 -224 -255 -224h-196zM685 715h36l-113 -715h-36zM249 30c135 0 218 56 218 194c0 106 -74 146 -188 146h-133l-53 -340h156z" />
    <glyph glyph-name="uni042C" unicode="&#x42c;" horiz-adv-x="558" 
d="M52 0l113 715h36l-50 -315h131c132 0 221 -52 221 -176c0 -160 -107 -224 -255 -224h-196zM249 30c135 0 218 56 218 194c0 106 -74 146 -188 146h-133l-53 -340h156z" />
    <glyph glyph-name="uni042D" unicode="&#x42d;" horiz-adv-x="717" 
d="M315 -7c-143 0 -263 79 -282 234h33c24 -136 117 -204 250 -204c189 0 310 140 329 322h-404l5 31h402c1 9 1 17 1 26c0 176 -105 290 -270 290c-122 0 -209 -56 -261 -167h-35c55 132 160 197 296 197c183 0 308 -128 308 -320c0 -224 -146 -409 -372 -409z" />
    <glyph glyph-name="uni042E" unicode="&#x42e;" horiz-adv-x="983" 
d="M593 -7c-200 0 -311 144 -311 333v19h-140l-54 -345h-36l113 715h36l-54 -339h138c19 189 156 346 359 346c196 0 308 -145 308 -330c0 -212 -139 -399 -359 -399zM916 392c0 163 -91 300 -272 300c-203 0 -323 -169 -326 -366c-3 -169 95 -302 275 -302
c200 0 323 170 323 368z" />
    <glyph glyph-name="uni042F" unicode="&#x42f;" horiz-adv-x="592" 
d="M475 344l53 341h-165c-137 0 -218 -56 -218 -189c0 -108 73 -152 188 -152h142zM26 0h-43l271 324c-92 17 -145 73 -145 172c0 155 107 219 255 219h205l-113 -715h-36l50 315h-140c-15 0 -29 -1 -41 2z" />
    <glyph glyph-name="uni0430" unicode="&#x430;" horiz-adv-x="521" 
d="M204 -7c-117 0 -172 61 -172 142c0 127 106 161 227 161h156l7 45c15 103 -22 160 -135 160c-80 0 -142 -33 -167 -121h-35c27 108 115 151 202 151c132 0 188 -72 169 -193l-30 -192c-11 -72 -13 -113 -13 -146h-33c0 24 2 57 5 86c-31 -51 -94 -93 -181 -93zM207 21
c93 0 174 57 187 141l17 106h-152c-105 0 -193 -24 -193 -133c0 -64 42 -114 141 -114z" />
    <glyph glyph-name="uni0431" unicode="&#x431;" horiz-adv-x="578" 
d="M271 -7c-142 0 -225 101 -225 246c0 37 3 68 10 100c48 281 121 424 369 429c88 1 131 7 156 14l-5 -30c-24 -7 -62 -14 -153 -15c-208 -5 -280 -107 -331 -346h2c37 79 116 139 224 139c152 0 223 -109 223 -236c0 -171 -105 -301 -270 -301zM272 22
c145 0 233 119 233 271c0 113 -58 208 -191 208c-149 0 -234 -125 -234 -262c0 -120 61 -217 192 -217z" />
    <glyph glyph-name="uni0432" unicode="&#x432;" horiz-adv-x="513" 
d="M122 523h194c92 0 144 -38 144 -117c0 -72 -48 -117 -120 -132c56 -8 108 -36 108 -118c0 -85 -67 -156 -195 -156h-214zM152 496l-33 -209h161c99 0 144 55 144 117c0 65 -40 92 -113 92h-159zM114 260l-36 -233h175c107 0 159 58 159 128c0 75 -44 105 -135 105h-163z
" />
    <glyph glyph-name="uni0433" unicode="&#x433;" horiz-adv-x="431" 
d="M151 494l-78 -494h-35l83 523h313l-5 -29h-278z" />
    <glyph glyph-name="uni0434" unicode="&#x434;" horiz-adv-x="565" 
d="M461 494h-253c-8 -32 -33 -161 -54 -238c-31 -116 -54 -194 -95 -226h329zM-45 -127l26 157h31c51 16 77 102 112 236c12 45 26 109 38 162l20 95h318l-78 -493h82l-26 -157h-28l16 127h-458l-26 -127h-27z" />
    <glyph glyph-name="uni0435" unicode="&#x435;" horiz-adv-x="535" 
d="M74 217c0 -125 62 -195 183 -195c89 0 154 41 186 122h34c-35 -101 -116 -152 -221 -152c-144 0 -218 87 -218 226c0 167 102 312 264 312c149 0 219 -104 195 -252l-2 -14h-419c-1 -15 -2 -31 -2 -47zM301 501c-120 0 -197 -87 -221 -208h385c16 122 -35 208 -164 208z
" />
    <glyph glyph-name="uni0436" unicode="&#x436;" horiz-adv-x="674" 
d="M28 0h-46l304 279l-198 244h39l195 -248zM637 523h42l-278 -249l210 -274h-40l-208 275zM316 0h-33l83 523h33z" />
    <glyph glyph-name="uni0437" unicode="&#x437;" horiz-adv-x="465" 
d="M210 -9c-119 0 -180 61 -189 152h34c8 -71 54 -123 155 -123c105 0 159 67 159 132c0 61 -36 106 -128 106h-75l5 29h70c87 0 143 45 143 120c0 51 -37 95 -120 95c-77 0 -137 -42 -156 -119h-32c19 96 100 147 190 147c99 0 153 -51 153 -122c0 -69 -48 -121 -121 -134
c71 -12 106 -57 106 -121c0 -80 -70 -162 -194 -162z" />
    <glyph glyph-name="uni0438" unicode="&#x438;" horiz-adv-x="572" 
d="M38 0l83 523h35l-76 -475l417 475h33l-83 -523h-34l75 474l-416 -474h-34z" />
    <glyph glyph-name="uni0439" unicode="&#x439;" horiz-adv-x="572" 
d="M337 611c-68 0 -109 46 -110 114h31c3 -53 30 -87 79 -87c51 0 86 32 97 87h30c-11 -69 -63 -114 -127 -114zM38 0l83 523h35l-76 -475l417 475h33l-83 -523h-34l75 474l-416 -474h-34z" />
    <glyph glyph-name="uni043A" unicode="&#x43a;" horiz-adv-x="467" 
d="M427 523h45l-309 -244l244 -279h-41l-246 280zM73 0h-34l83 523h34z" />
    <glyph glyph-name="uni043B" unicode="&#x43b;" horiz-adv-x="548" 
d="M166 252c-46 -169 -74 -256 -154 -256c-11 0 -20 2 -27 5c-3 1 -6 3 -8 5l5 32c3 -2 6 -4 9 -5c7 -3 14 -4 22 -4c59 0 84 84 124 235c19 81 54 233 59 259h311l-83 -523h-34l78 494h-246c-13 -55 -38 -171 -56 -242z" />
    <glyph glyph-name="uni043C" unicode="&#x43c;" horiz-adv-x="679" 
d="M520 0l77 479l-296 -479h-14l-139 482l-77 -482h-32l83 523h48l134 -465l287 465h47l-83 -523h-35z" />
    <glyph glyph-name="uni043D" unicode="&#x43d;" horiz-adv-x="562" 
d="M444 258h-331l-40 -258h-35l83 523h35l-38 -236h331l37 236h34l-83 -523h-34z" />
    <glyph glyph-name="uni043E" unicode="&#x43e;" horiz-adv-x="573" 
d="M265 -7c-136 0 -228 105 -228 236c0 161 105 301 273 301c140 0 225 -108 225 -236c0 -168 -105 -301 -270 -301zM266 22c145 0 234 119 234 272c0 112 -68 207 -191 207c-149 0 -237 -125 -237 -272c0 -113 74 -207 194 -207z" />
    <glyph glyph-name="uni043F" unicode="&#x43f;" horiz-adv-x="552" 
d="M471 494h-320l-78 -494h-35l83 523h389l-83 -523h-34z" />
    <glyph glyph-name="uni0440" unicode="&#x440;" horiz-adv-x="596" 
d="M349 531c117 0 209 -93 209 -236c0 -165 -88 -303 -255 -303c-128 0 -189 90 -205 162l-54 -336h-34l85 536c13 85 16 136 19 169h33c0 -26 -6 -90 -14 -134c37 83 116 142 216 142zM301 22c147 0 222 120 222 272c0 131 -79 208 -178 208c-144 0 -231 -133 -234 -269
c0 -132 80 -211 190 -211z" />
    <glyph glyph-name="uni0441" unicode="&#x441;" horiz-adv-x="543" 
d="M272 -7c-144 0 -231 98 -231 238c0 172 113 299 270 299c110 0 190 -65 198 -171h-34c-5 88 -70 142 -166 142c-141 0 -233 -118 -233 -270c0 -129 77 -209 196 -209c96 0 171 52 196 152h33c-26 -119 -118 -181 -229 -181z" />
    <glyph glyph-name="uni0442" unicode="&#x442;" horiz-adv-x="459" 
d="M269 494l-78 -494h-34l78 494h-193l5 29h422l-5 -29h-195z" />
    <glyph glyph-name="uni0443" unicode="&#x443;" horiz-adv-x="486" 
d="M196 42l-131 481h34l121 -443l245 443h37l-395 -705h-37z" />
    <glyph glyph-name="uni0444" unicode="&#x444;" horiz-adv-x="663" 
d="M244 -182l28 175c-147 8 -235 94 -235 227v8c0 187 135 297 319 302l39 243h34l-39 -243c147 -8 235 -94 235 -228v-7c0 -186 -135 -299 -319 -302l-28 -175h-34zM72 220c0 -123 76 -193 204 -200l76 483c-162 -5 -280 -105 -280 -275v-8zM590 302
c0 123 -76 195 -204 200l-76 -482c163 3 280 105 280 275v7z" />
    <glyph glyph-name="uni0445" unicode="&#x445;" horiz-adv-x="487" 
d="M222 274l-143 249h39l128 -225l195 225h40l-218 -253l155 -270h-39l-141 247l-214 -247h-40z" />
    <glyph glyph-name="uni0446" unicode="&#x446;" horiz-adv-x="574" 
d="M460 -127l16 127h-438l83 523h35l-78 -493h320l78 493h34l-78 -493h81l-25 -157h-28z" />
    <glyph glyph-name="uni0447" unicode="&#x447;" horiz-adv-x="519" 
d="M360 0l43 267c-29 -29 -84 -74 -176 -74c-104 0 -171 57 -147 202l20 128h34l-21 -130c-19 -121 27 -171 120 -170c115 0 169 72 175 81l35 219h35l-83 -523h-35z" />
    <glyph glyph-name="uni0448" unicode="&#x448;" horiz-adv-x="826" 
d="M121 523h35l-78 -493h280l78 493h34l-78 -493h280l78 493h35l-83 -523h-664z" />
    <glyph glyph-name="uni0449" unicode="&#x449;" horiz-adv-x="849" 
d="M735 -127l16 127h-713l83 523h35l-78 -493h280l78 493h34l-78 -493h280l78 493h35l-78 -493h81l-25 -157h-28z" />
    <glyph glyph-name="uni044A" unicode="&#x44a;" horiz-adv-x="539" 
d="M189 494h-147l5 29h181l-32 -206h110c121 0 176 -57 176 -145c0 -101 -67 -172 -202 -172h-169zM191 287l-41 -258h135c112 0 161 61 161 141c0 76 -43 117 -146 117h-109z" />
    <glyph glyph-name="uni044B" unicode="&#x44b;" horiz-adv-x="630" 
d="M554 523h35l-83 -523h-35zM121 523h35l-33 -206h110c121 0 177 -57 177 -145c0 -101 -67 -172 -202 -172h-170zM118 287l-40 -258h134c112 0 161 61 161 141c0 76 -44 117 -145 117h-110z" />
    <glyph glyph-name="uni044C" unicode="&#x44c;" horiz-adv-x="466" 
d="M121 523h35l-33 -206h110c121 0 177 -57 177 -145c0 -101 -67 -172 -202 -172h-170zM118 287l-40 -258h134c112 0 161 61 161 141c0 76 -44 117 -145 117h-110z" />
    <glyph glyph-name="uni044D" unicode="&#x44d;" horiz-adv-x="546" 
d="M243 -8c-117 0 -201 74 -209 178h33c8 -84 74 -149 178 -149c136 0 214 100 227 232h-299l5 30h296v13c0 128 -80 205 -190 205c-89 0 -162 -48 -191 -140h-33c32 111 118 169 223 169c140 0 225 -98 225 -238c0 -172 -101 -300 -265 -300z" />
    <glyph glyph-name="uni044E" unicode="&#x44e;" horiz-adv-x="748" 
d="M451 -7c-130 0 -218 105 -218 236c0 9 1 20 1 29h-121l-40 -258h-35l83 523h35l-38 -236h120c19 135 117 243 258 243c133 0 215 -108 215 -236c0 -168 -103 -301 -260 -301zM452 22c137 0 223 119 223 272c0 112 -65 207 -181 207c-144 0 -226 -125 -226 -272
c0 -113 68 -207 184 -207z" />
    <glyph glyph-name="uni044F" unicode="&#x44f;" horiz-adv-x="494" 
d="M375 246l39 249h-145c-101 0 -159 -45 -159 -133c0 -76 50 -116 141 -116h124zM35 0h-42l194 225c-71 15 -112 60 -112 135c0 108 78 163 194 163h184l-83 -523h-35l35 219h-147z" />
    <glyph glyph-name="uni0451" unicode="&#x451;" horiz-adv-x="535" 
d="M74 217c0 -125 62 -195 183 -195c89 0 154 41 186 122h34c-35 -101 -116 -152 -221 -152c-144 0 -218 87 -218 226c0 167 102 312 264 312c149 0 219 -104 195 -252l-2 -14h-419c-1 -15 -2 -31 -2 -47zM301 501c-120 0 -197 -87 -221 -208h385c16 122 -35 208 -164 208z
M241 638c-15 0 -26 11 -26 26s11 26 26 26s26 -11 26 -26s-11 -26 -26 -26zM394 638c-15 0 -26 11 -26 26s11 26 26 26s26 -11 26 -26s-11 -26 -26 -26z" />
    <glyph glyph-name="uni0452" unicode="&#x452;" horiz-adv-x="567" 
d="M438 -69c-13 -83 -50 -114 -129 -117l5 30c59 3 79 29 90 89l60 383c21 125 -34 185 -131 185c-95 0 -191 -66 -210 -187l-50 -314h-34l99 629h-80l5 27h79l19 117h34l-19 -117h192l-5 -27h-190l-35 -221c34 64 103 123 200 123c114 0 184 -72 160 -220z" />
    <glyph glyph-name="uni0453" unicode="&#x453;" horiz-adv-x="431" 
d="M353 747h43l-106 -147h-30zM151 494l-78 -494h-35l83 523h313l-5 -29h-278z" />
    <glyph glyph-name="uni0454" unicode="&#x454;" horiz-adv-x="543" 
d="M501 173c-26 -119 -118 -181 -229 -181c-144 0 -231 98 -231 238c0 171 113 300 270 300c110 0 190 -66 198 -172h-34c-5 88 -70 142 -166 142c-123 0 -209 -90 -228 -213h293l-5 -29h-291c-1 -9 -2 -19 -2 -28c0 -129 77 -209 196 -209c96 0 171 52 196 152h33z" />
    <glyph glyph-name="uni0455" unicode="&#x455;" horiz-adv-x="453" 
d="M207 -9c-117 0 -187 58 -192 163h33c7 -84 53 -134 160 -134c84 0 148 39 148 120c0 62 -36 87 -130 114c-106 29 -155 63 -155 138c0 92 80 138 172 138s165 -37 173 -136h-33c-7 69 -53 107 -141 107c-79 0 -138 -35 -138 -108c0 -56 36 -82 133 -109
c100 -30 153 -56 153 -143c0 -99 -82 -150 -183 -150z" />
    <glyph glyph-name="uni0456" unicode="&#x456;" horiz-adv-x="200" 
d="M161 637c-15 0 -26 12 -26 27s12 26 27 26s26 -11 26 -26s-12 -27 -27 -27zM123 523h35l-83 -523h-34z" />
    <glyph glyph-name="uni0457" unicode="&#x457;" horiz-adv-x="200" 
d="M98 638c-15 0 -26 11 -26 26s12 26 27 26s25 -11 25 -26s-11 -26 -26 -26zM227 638c-15 0 -26 11 -26 26s11 26 26 26s26 -11 26 -26s-11 -26 -26 -26zM123 523h35l-83 -523h-34z" />
    <glyph glyph-name="uni0458" unicode="&#x458;" horiz-adv-x="200" 
d="M-60 -156c59 3 79 29 90 89l93 590h35l-94 -592c-13 -83 -50 -114 -129 -117zM161 637c-15 0 -26 12 -26 27s12 26 27 26s26 -11 26 -26s-12 -27 -27 -27z" />
    <glyph glyph-name="uni0459" unicode="&#x459;" horiz-adv-x="794" 
d="M166 252c-46 -169 -74 -256 -154 -256c-11 0 -20 2 -27 5c-3 1 -6 3 -8 5l5 32c3 -2 6 -4 9 -5c7 -3 14 -4 22 -4c59 0 84 84 124 235c19 81 54 233 59 259h290l-32 -206h107c121 0 177 -57 177 -145c0 -101 -67 -172 -202 -172h-167l78 494h-225
c-13 -55 -38 -171 -56 -242zM449 287l-41 -258h133c111 0 161 61 161 141c0 76 -43 117 -146 117h-107z" />
    <glyph glyph-name="uni045A" unicode="&#x45a;" horiz-adv-x="795" 
d="M453 260l-36 -231h132c103 0 154 41 154 122c0 76 -43 109 -139 109h-111zM418 258h-305l-40 -258h-35l83 523h35l-38 -236h305l38 236h34l-37 -234h112c113 0 169 -48 169 -136c0 -101 -67 -153 -195 -153h-166z" />
    <glyph glyph-name="uni045B" unicode="&#x45b;" horiz-adv-x="567" 
d="M63 656h79l19 117h34l-19 -117h192l-5 -27h-191l-34 -219c35 64 103 121 200 121c114 0 184 -72 160 -220l-49 -311h-35l50 316c21 125 -34 185 -131 185c-95 0 -191 -66 -210 -187l-50 -314h-34l99 629h-80z" />
    <glyph glyph-name="uni045C" unicode="&#x45c;" horiz-adv-x="467" 
d="M427 523h45l-309 -244l244 -279h-41l-246 280zM73 0h-34l83 523h34zM359 747h43l-106 -147h-30z" />
    <glyph glyph-name="uni045D" unicode="&#x45d;" horiz-adv-x="572" 
d="M38 0l83 523h35l-76 -475l417 475h33l-83 -523h-34l75 474l-416 -474h-34zM260 747h40l51 -147h-28z" />
    <glyph glyph-name="uni045E" unicode="&#x45e;" horiz-adv-x="486" 
d="M288 611c-68 0 -109 46 -110 114h31c1 -53 28 -87 79 -87s85 32 96 87h31c-11 -69 -64 -114 -127 -114zM196 42l-131 481h34l121 -443l245 443h37l-395 -705h-37z" />
    <glyph glyph-name="uni045F" unicode="&#x45f;" horiz-adv-x="552" 
d="M38 0l83 523h35l-78 -493h320l78 493h34l-83 -523h-179l-22 -127h-27l18 127h-179z" />
    <glyph glyph-name="uni0490" unicode="&#x490;" horiz-adv-x="517" 
d="M88 0h-36l113 715h346l22 130h30l-23 -161h-344z" />
    <glyph glyph-name="uni0491" unicode="&#x491;" horiz-adv-x="415" 
d="M152 494l-78 -494h-34l83 523h268l26 127h28l-26 -156h-267z" />
    <glyph glyph-name="Wgrave" unicode="&#x1e80;" horiz-adv-x="905" 
d="M97 715h35l74 -661l302 661h24l89 -663l288 663h35l-311 -715h-38l-86 647l-294 -647h-38zM447 891h41l55 -120h-28z" />
    <glyph glyph-name="wgrave" unicode="&#x1e81;" horiz-adv-x="754" 
d="M69 523h35l74 -483l225 483h28l77 -483l222 483h36l-243 -523h-41l-73 466l-218 -466h-41zM347 747h40l51 -147h-28z" />
    <glyph glyph-name="Wacute" unicode="&#x1e82;" horiz-adv-x="905" 
d="M97 715h35l74 -661l302 661h24l89 -663l288 663h35l-311 -715h-38l-86 647l-294 -647h-38zM585 891h43l-90 -120h-31z" />
    <glyph glyph-name="wacute" unicode="&#x1e83;" horiz-adv-x="754" 
d="M69 523h35l74 -483l225 483h28l77 -483l222 483h36l-243 -523h-41l-73 466l-218 -466h-41zM504 747h43l-106 -147h-30z" />
    <glyph glyph-name="Wdieresis" unicode="&#x1e84;" horiz-adv-x="905" 
d="M97 715h35l74 -661l302 661h24l89 -663l288 663h35l-311 -715h-38l-86 647l-294 -647h-38zM447 788c-15 0 -26 10 -26 25s12 27 27 27s25 -11 25 -26s-11 -26 -26 -26zM614 788c-15 0 -26 10 -26 25s11 27 26 27s26 -11 26 -26s-11 -26 -26 -26z" />
    <glyph glyph-name="wdieresis" unicode="&#x1e85;" horiz-adv-x="754" 
d="M69 523h35l74 -483l225 483h28l77 -483l222 483h36l-243 -523h-41l-73 466l-218 -466h-41zM360 638c-15 0 -26 11 -26 26s11 26 26 26s26 -11 26 -26s-11 -26 -26 -26zM513 638c-15 0 -26 11 -26 26s11 26 26 26s26 -11 26 -26s-11 -26 -26 -26z" />
    <glyph glyph-name="Ygrave" unicode="&#x1ef2;" horiz-adv-x="564" 
d="M276 322l-189 393h37l175 -363l269 363h39l-295 -396l-51 -319h-36zM281 891h41l55 -120h-28z" />
    <glyph glyph-name="ygrave" unicode="&#x1ef3;" horiz-adv-x="486" 
d="M196 42l-131 481h34l121 -443l245 443h37l-395 -705h-37zM215 747h40l51 -147h-28z" />
    <glyph glyph-name="uni2009" unicode="&#x2009;" horiz-adv-x="108" 
 />
    <glyph glyph-name="endash" unicode="&#x2013;" horiz-adv-x="489" 
d="M50 293h394l-5 -29h-394z" />
    <glyph glyph-name="emdash" unicode="&#x2014;" horiz-adv-x="859" 
d="M50 293h764l-5 -29h-764z" />
    <glyph glyph-name="quoteleft" unicode="&#x2018;" horiz-adv-x="185" 
d="M95 568l86 152l23 -12l-77 -155z" />
    <glyph glyph-name="quoteright" unicode="&#x2019;" horiz-adv-x="185" 
d="M96 564l77 156l32 -15l-86 -152z" />
    <glyph glyph-name="quotesinglbase" unicode="&#x201a;" horiz-adv-x="185" 
d="M-6 -59l76 156l32 -15l-86 -153z" />
    <glyph glyph-name="quotedblleft" unicode="&#x201c;" horiz-adv-x="301" 
d="M95 568l86 152l23 -12l-77 -155zM211 568l86 152l23 -12l-77 -155z" />
    <glyph glyph-name="quotedblright" unicode="&#x201d;" horiz-adv-x="301" 
d="M96 564l77 156l32 -15l-86 -152zM212 564l77 156l32 -15l-86 -152z" />
    <glyph glyph-name="quotedblbase" unicode="&#x201e;" horiz-adv-x="301" 
d="M-6 -59l76 156l32 -15l-86 -153zM110 -59l77 156l31 -15l-86 -153z" />
    <glyph glyph-name="dagger" unicode="&#x2020;" horiz-adv-x="334" 
d="M195 547h-120l5 29h119l23 139h32l-22 -139h121l-5 -29h-120l-52 -321h-32z" />
    <glyph glyph-name="daggerdbl" unicode="&#x2021;" horiz-adv-x="334" 
d="M195 547h-120l5 29h119l23 139h32l-22 -139h121l-5 -29h-120l-25 -153h120l-5 -29h-119l-23 -139h-32l23 139h-122l5 29h121z" />
    <glyph glyph-name="bullet" unicode="&#x2022;" horiz-adv-x="307" 
d="M155 205c-55 0 -96 43 -96 95c0 59 44 104 104 104c56 0 97 -43 97 -95c0 -57 -41 -104 -105 -104z" />
    <glyph glyph-name="ellipsis" unicode="&#x2026;" horiz-adv-x="628" 
d="M59 -5c-17 0 -29 13 -29 29s12 29 28 29c17 0 29 -13 29 -29s-12 -29 -28 -29zM275 -5c-16 0 -29 13 -29 29s12 29 29 29c16 0 29 -13 29 -29s-13 -29 -29 -29zM491 -5c-16 0 -29 13 -29 29s13 29 29 29s29 -13 29 -29s-13 -29 -29 -29z" />
    <glyph glyph-name="perthousand" unicode="&#x2030;" horiz-adv-x="1098" 
d="M122 549c1 -63 41 -111 109 -111c77 0 128 58 128 140c0 61 -41 114 -109 114c-77 0 -128 -63 -128 -143zM231 410c-81 0 -141 59 -141 140c0 91 68 170 161 170c80 0 140 -62 140 -143c0 -98 -71 -167 -160 -167zM660 715h35l-579 -715h-36zM413 134
c1 -64 41 -112 109 -112c77 0 128 58 128 140c0 62 -41 114 -109 114c-77 0 -128 -64 -128 -142zM522 -6c-81 0 -141 60 -141 141c0 91 68 169 161 169c80 0 140 -61 140 -143c0 -98 -71 -167 -160 -167zM765 134c1 -64 41 -112 109 -112c77 0 128 58 128 140
c0 62 -41 114 -109 114c-77 0 -128 -64 -128 -142zM874 -6c-81 0 -141 60 -141 141c0 91 68 169 161 169c80 0 140 -61 140 -143c0 -98 -71 -167 -160 -167z" />
    <glyph glyph-name="uni2032" unicode="&#x2032;" horiz-adv-x="151" 
d="M140 715h39l-69 -186h-28z" />
    <glyph glyph-name="uni2033" unicode="&#x2033;" horiz-adv-x="261" 
d="M140 715h39l-69 -186h-28zM251 715h38l-68 -186h-28z" />
    <glyph glyph-name="guilsinglleft" unicode="&#x2039;" horiz-adv-x="270" 
d="M51 261l165 178h38l-166 -179l106 -177h-34z" />
    <glyph glyph-name="guilsinglright" unicode="&#x203a;" horiz-adv-x="270" 
d="M218 260l-166 -177h-37l165 180l-106 176h34z" />
    <glyph glyph-name="fraction" unicode="&#x2044;" horiz-adv-x="113" 
d="M349 715h33l-590 -715h-33z" />
    <glyph glyph-name="Euro" unicode="&#x20ac;" horiz-adv-x="644" 
d="M59 441h67c33 176 129 281 285 281c129 0 207 -67 214 -199h-34c-7 108 -68 169 -181 169c-137 0 -218 -90 -249 -251h260l-9 -28h-256l-17 -110h236l-9 -28h-231c-16 -132 33 -251 198 -251c113 0 193 64 222 185h33c-29 -143 -128 -216 -255 -216
c-180 0 -250 125 -234 282h-66l5 28h65l18 110h-67z" />
    <glyph glyph-name="uni20B4" unicode="&#x20b4;" horiz-adv-x="604" 
d="M527 192c-24 -108 -96 -199 -244 -199c-133 0 -206 67 -206 160c0 60 25 102 74 139l-99 4l118 10c40 27 92 51 157 79c28 12 52 23 73 34l-325 13l140 12l214 -9c57 36 82 74 82 137c0 73 -48 119 -149 119c-103 0 -158 -54 -185 -137h-35c29 99 102 167 222 167
c119 0 183 -59 183 -147c0 -61 -21 -102 -72 -141l109 -4l-131 -11c-31 -20 -71 -39 -119 -59c-44 -19 -80 -36 -109 -52l337 -13l-140 -12l-224 8c-57 -39 -85 -79 -85 -136c0 -75 55 -131 171 -131c133 0 185 80 207 169h36z" />
    <glyph glyph-name="uni20B8" unicode="&#x20b8;" horiz-adv-x="553" 
d="M95 689l5 26h493l-5 -26h-493zM300 554h-228l5 31h492l-5 -31h-228l-85 -554h-36z" />
    <glyph glyph-name="uni20BD" unicode="&#x20bd;" horiz-adv-x="592" 
d="M334 345c135 0 218 56 218 194c0 105 -75 146 -188 146h-133l-54 -340h157zM151 183l-28 -183h-36l29 183h-101l5 26h100l17 110h-101l5 26h101l58 370h167c132 0 221 -52 221 -176c0 -160 -107 -224 -255 -224h-161l-16 -106h240l-5 -26h-240z" />
    <glyph glyph-name="uni2116" unicode="&#x2116;" horiz-adv-x="1026" 
d="M855 350c-96 0 -158 71 -158 163c0 113 74 208 190 208c99 0 156 -74 156 -162c0 -118 -72 -209 -188 -209zM857 378c95 0 153 80 153 181c0 72 -43 134 -125 134c-98 0 -154 -84 -154 -180c0 -75 46 -135 126 -135zM165 715h49l289 -665l105 665h35l-113 -715h-44
l-293 676l-106 -676h-35zM685 260h306l-5 -30h-305z" />
    <glyph glyph-name="trademark" unicode="&#x2122;" horiz-adv-x="649" 
d="M381 715h38l67 -261l148 261h41l-49 -311h-28l44 277l-159 -277h-10l-73 277l-43 -277h-26zM191 692h-98l4 23h223l-4 -23h-98l-45 -288h-28z" />
    <glyph glyph-name="Omega" unicode="&#x2126;" horiz-adv-x="795" 
d="M437 692c-201 0 -341 -164 -341 -366c0 -147 80 -249 196 -306l-3 -20h-261l5 30h191c-84 45 -165 148 -165 296c0 213 154 396 378 396c200 0 322 -151 322 -331c0 -159 -81 -286 -221 -361h187l-5 -30h-256l3 20c150 67 255 199 255 371c0 157 -100 301 -285 301z" />
    <glyph glyph-name="onethird" unicode="&#x2153;" horiz-adv-x="700" 
d="M179 679l-101 -65l4 30l111 71h23l-55 -344h-31zM595 715h33l-590 -715h-33zM516 -4c-66 0 -121 34 -124 102h29c4 -47 39 -77 95 -77c48 0 90 24 90 80c0 37 -25 67 -73 67h-24l4 24h28c41 0 75 21 75 68c0 41 -29 64 -72 64c-51 0 -82 -30 -93 -73h-28
c11 57 57 96 121 96c53 0 102 -26 102 -86c0 -41 -25 -71 -68 -82c35 -9 59 -36 59 -79c0 -66 -57 -104 -121 -104z" />
    <glyph glyph-name="twothirds" unicode="&#x2154;" horiz-adv-x="748" 
d="M36 379l151 124c48 40 87 73 87 125c0 39 -27 66 -70 66c-47 0 -83 -29 -96 -85h-28c13 72 64 109 125 109c59 0 99 -34 99 -90c0 -62 -43 -94 -99 -142l-111 -90h181l-4 -25h-236zM661 715h33l-590 -715h-33zM564 -4c-66 0 -121 34 -124 102h29c4 -47 39 -77 95 -77
c48 0 90 24 90 80c0 37 -25 67 -73 67h-24l4 24h28c41 0 75 21 75 68c0 41 -29 64 -72 64c-51 0 -82 -30 -93 -73h-28c11 57 57 96 121 96c53 0 102 -26 102 -86c0 -41 -25 -71 -68 -82c35 -9 59 -36 59 -79c0 -66 -57 -104 -121 -104z" />
    <glyph glyph-name="oneeighth" unicode="&#x215b;" horiz-adv-x="697" 
d="M179 679l-101 -65l4 30l111 71h23l-55 -344h-31zM598 715h33l-590 -715h-33zM508 -4c-63 0 -121 33 -121 94c0 55 37 85 93 96c-31 11 -56 35 -56 70c0 59 54 91 113 91c52 0 105 -29 105 -85c0 -43 -30 -71 -74 -80c39 -13 66 -39 66 -83c0 -69 -55 -103 -126 -103z
M417 92c1 -43 35 -71 92 -71c49 0 95 19 95 78c0 47 -39 73 -90 73c-48 0 -97 -23 -97 -80zM454 256c0 -39 36 -61 79 -61c40 0 80 21 80 66c0 40 -34 62 -77 62s-82 -20 -82 -67z" />
    <glyph glyph-name="threeeighths" unicode="&#x215c;" horiz-adv-x="745" 
d="M188 367c-66 0 -121 34 -124 102h29c4 -47 39 -77 95 -77c48 0 90 24 90 80c0 37 -25 67 -73 67h-24l4 24h28c41 0 75 21 75 68c0 41 -29 64 -72 64c-51 0 -82 -30 -93 -73h-28c11 57 57 96 121 96c53 0 102 -26 102 -86c0 -41 -25 -71 -68 -82c35 -9 59 -36 59 -79
c0 -66 -57 -104 -121 -104zM663 715h33l-590 -715h-33zM556 -4c-63 0 -121 33 -121 94c0 55 37 85 93 96c-31 11 -56 35 -56 70c0 59 54 91 113 91c52 0 105 -29 105 -85c0 -43 -30 -71 -74 -80c39 -13 66 -39 66 -83c0 -69 -55 -103 -126 -103zM465 92c1 -43 35 -71 92 -71
c49 0 95 19 95 78c0 47 -39 73 -90 73c-48 0 -97 -23 -97 -80zM502 256c0 -39 36 -61 79 -61c40 0 80 21 80 66c0 40 -34 62 -77 62s-82 -20 -82 -67z" />
    <glyph glyph-name="fiveeighths" unicode="&#x215d;" horiz-adv-x="736" 
d="M171 367c-56 0 -107 29 -111 93h29c4 -43 35 -68 82 -68c57 0 95 38 95 102c0 45 -31 78 -79 78c-39 0 -65 -17 -84 -38h-15l30 181h192l-4 -25h-167l-20 -122c17 15 44 28 76 28c57 0 102 -38 102 -101c-1 -76 -50 -127 -126 -128zM650 715h33l-590 -715h-33zM546 -4
c-63 0 -121 33 -121 94c0 55 37 85 93 96c-31 11 -56 35 -56 70c0 59 54 91 113 91c52 0 105 -29 105 -85c0 -43 -30 -71 -74 -80c39 -13 66 -39 66 -83c0 -69 -55 -103 -126 -103zM455 92c1 -43 35 -71 92 -71c49 0 95 19 95 78c0 47 -39 73 -90 73c-48 0 -97 -23 -97 -80z
M492 256c0 -39 36 -61 79 -61c40 0 80 21 80 66c0 40 -34 62 -77 62s-82 -20 -82 -67z" />
    <glyph glyph-name="seveneighths" unicode="&#x215e;" horiz-adv-x="692" 
d="M280 689h-196l5 26h236l-1 -5l-195 -339h-34zM591 715h33l-590 -715h-33zM503 -4c-63 0 -121 33 -121 94c0 55 37 85 93 96c-31 11 -56 35 -56 70c0 59 54 91 113 91c52 0 105 -29 105 -85c0 -43 -30 -71 -74 -80c39 -13 66 -39 66 -83c0 -69 -55 -103 -126 -103zM412 92
c1 -43 35 -71 92 -71c49 0 95 19 95 78c0 47 -39 73 -90 73c-48 0 -97 -23 -97 -80zM449 256c0 -39 36 -61 79 -61c40 0 80 21 80 66c0 40 -34 62 -77 62s-82 -20 -82 -67z" />
    <glyph glyph-name="Delta" unicode="&#x2206;" horiz-adv-x="637" 
d="M-9 9l370 706h51l153 -706l-1 -9h-574zM38 31h488l-144 659z" />
    <glyph glyph-name="minus" unicode="&#x2212;" horiz-adv-x="505" 
d="M51 357h431l-5 -30h-431z" />
    <glyph glyph-name="approxequal" unicode="&#x2248;" horiz-adv-x="493" 
d="M54 349c11 55 47 92 103 92c78 0 151 -60 220 -60c41 0 66 29 73 62h30c-11 -55 -47 -92 -103 -92c-78 0 -151 60 -221 60c-41 0 -65 -29 -72 -62h-30zM28 189c11 53 47 92 103 92c78 0 151 -60 220 -60c41 0 66 29 73 62h30c-11 -56 -47 -92 -103 -92
c-78 0 -151 59 -221 59c-41 0 -65 -29 -72 -61h-30z" />
    <glyph glyph-name="notequal" unicode="&#x2260;" horiz-adv-x="484" 
d="M63 413h224l72 125h34l-72 -125h146l-5 -30h-158l-73 -129h211l-5 -30h-223l-72 -126h-34l72 126h-147l5 30h159l73 129h-212z" />
    <glyph glyph-name="lessequal" unicode="&#x2264;" horiz-adv-x="491" 
d="M58 326l1 10l416 194l-5 -35l-360 -166l305 -180l-6 -33zM12 30h384l-5 -30h-384z" />
    <glyph glyph-name="greaterequal" unicode="&#x2265;" horiz-adv-x="491" 
d="M22 30h383l-5 -30h-383zM452 320l-2 -9l-416 -195l6 35l359 167l-304 180l5 32z" />
    <glyph glyph-name="uni24C5" unicode="&#x24c5;" horiz-adv-x="844" 
d="M327 568h113c87 0 143 -35 143 -119v-2c0 -85 -58 -119 -143 -119h-80v-178h-33v418zM440 354c68 0 110 26 110 93v2c0 67 -42 92 -110 92h-80v-187h80zM433 -9c-204 0 -366 159 -366 366c0 204 162 367 368 367c208 0 366 -162 366 -365c0 -209 -162 -368 -368 -368z
M433 17c188 0 339 146 339 342c0 192 -146 339 -337 339c-189 0 -339 -148 -339 -341c0 -196 152 -340 337 -340z" />
    <glyph glyph-name="zero.tab" unicode="&#xe44f;" 
d="M98 294c-4 -26 -6 -51 -6 -76c0 -112 56 -194 186 -194c128 0 204 81 229 243l25 154c4 23 5 44 5 67c0 113 -53 204 -185 204c-125 0 -205 -87 -229 -244zM278 -7c-151 0 -221 96 -221 225c0 25 2 52 6 79l25 153c28 179 124 272 265 272c153 0 219 -102 219 -233
c0 -24 -2 -47 -5 -71l-25 -153c-29 -181 -117 -272 -264 -272z" />
    <glyph glyph-name="one.tab" unicode="&#xe450;" 
d="M405 671l-265 -185l5 36l274 193h28l-113 -715h-35z" />
    <glyph glyph-name="two.tab" unicode="&#xe451;" 
d="M13 9l342 288c88 75 154 146 154 249c0 88 -56 146 -153 146c-93 0 -173 -50 -202 -177h-34c27 141 125 207 237 207c113 0 188 -69 188 -175c0 -117 -73 -191 -167 -269l-295 -247h399l-5 -31h-465z" />
    <glyph glyph-name="three.tab" unicode="&#xe452;" 
d="M275 -7c-130 0 -224 74 -224 203h35c3 -108 71 -172 190 -172c111 0 202 60 202 191c0 77 -47 144 -157 144h-44l6 31h51c93 0 170 51 170 163c0 84 -57 138 -150 138c-96 0 -169 -58 -192 -158h-33c21 116 116 189 227 189c101 0 183 -59 183 -168
c0 -93 -52 -160 -144 -180c72 -19 118 -77 118 -160c0 -143 -107 -221 -238 -221z" />
    <glyph glyph-name="four.tab" unicode="&#xe453;" 
d="M395 167h-365l2 11l431 537h54l-81 -517h95l-5 -31h-96l-26 -167h-35zM400 198l77 490l-391 -490h314z" />
    <glyph glyph-name="five.tab" unicode="&#xe454;" 
d="M265 -7c-123 0 -209 69 -217 185h35c8 -92 74 -154 182 -154c138 0 216 98 216 234c0 99 -64 172 -169 172c-85 0 -140 -36 -184 -83h-14l59 368h383l-6 -31h-351l-45 -287c32 32 91 64 166 64c116 0 197 -83 197 -202c0 -151 -94 -266 -252 -266z" />
    <glyph glyph-name="six.tab" unicode="&#xe455;" 
d="M289 -7c-141 0 -223 79 -223 228c0 32 5 64 9 93l11 64c37 239 140 344 296 344c112 0 182 -53 189 -156h-34c-8 83 -60 125 -156 125c-134 0 -225 -89 -260 -312l-9 -56c43 84 127 126 214 126c120 0 214 -68 214 -195c0 -148 -99 -261 -251 -261zM102 206
c0 -111 67 -183 187 -183c133 0 216 99 216 230c0 105 -76 166 -185 166c-119 0 -218 -83 -218 -213z" />
    <glyph glyph-name="seven.tab" unicode="&#xe456;" 
d="M531 685h-403l5 30h451l-2 -7l-399 -708h-38z" />
    <glyph glyph-name="eight.tab" unicode="&#xe457;" 
d="M285 -7c-115 0 -229 61 -229 189c0 121 85 192 200 208c-65 19 -117 71 -117 151c0 113 103 181 214 181c102 0 192 -66 192 -169s-62 -155 -158 -171c83 -23 141 -83 141 -174c0 -147 -115 -215 -243 -215zM92 185c0 -108 92 -161 195 -161c112 0 205 59 205 184
c0 96 -76 162 -187 162c-112 0 -213 -59 -213 -185zM174 542c0 -80 64 -142 165 -142c89 0 171 44 171 152c0 84 -68 140 -159 140c-88 0 -177 -50 -177 -150z" />
    <glyph glyph-name="nine.tab" unicode="&#xe458;" 
d="M255 -7c-111 0 -190 54 -202 163h35c12 -91 72 -132 168 -132c131 0 216 75 253 311l9 56c-43 -83 -127 -125 -213 -125c-117 0 -215 67 -215 198c0 150 101 258 254 258c135 0 219 -80 219 -226c0 -32 -4 -65 -9 -94l-10 -68c-43 -261 -140 -341 -289 -341zM126 465
c0 -108 75 -170 182 -170c120 0 220 86 220 214c0 109 -65 183 -185 183c-134 0 -217 -96 -217 -227z" />
    <glyph glyph-name="cent.tab" unicode="&#xe459;" 
d="M285 -7l-20 -128h-30l21 132c-117 17 -187 106 -187 233c0 172 115 300 271 300l16 99h30l-16 -101c96 -11 163 -73 168 -169h-33c-4 77 -59 131 -140 140l-75 -477h10c96 0 169 51 196 152h33c-29 -120 -118 -181 -230 -181h-14zM104 230c0 -115 60 -189 156 -205
l76 476c-140 0 -232 -119 -232 -271z" />
    <glyph glyph-name="dollar.tab" unicode="&#xe45a;" 
d="M288 -7c-7 0 -10 1 -17 1l-20 -129h-29l20 131c-120 13 -198 80 -205 201h34c9 -100 69 -160 176 -172l53 335c-128 37 -185 84 -185 173c0 119 98 189 229 189h13l15 91h29l-15 -93c101 -12 170 -68 178 -167h-33c-12 83 -66 125 -150 136l-48 -305
c133 -37 198 -77 198 -180c0 -132 -102 -211 -243 -211zM495 202c0 83 -48 116 -167 150l-52 -329h12c123 0 207 63 207 179zM149 534c0 -68 42 -109 156 -143l48 301h-11c-115 0 -193 -54 -193 -158z" />
    <glyph glyph-name="Euro.tab" unicode="&#xe45b;" 
d="M61 441h61c31 185 120 280 260 281c121 1 191 -65 194 -194h-34c-4 108 -53 165 -160 164c-121 -1 -195 -84 -224 -251h234l-10 -28h-228l-18 -110h208l-9 -28h-203c-16 -131 8 -251 176 -251c108 0 174 56 207 179h33c-35 -147 -120 -210 -240 -210
c-183 0 -233 126 -212 282h-61l5 28h60l17 110h-61z" />
    <glyph glyph-name="a.alt" unicode="&#xe4c0;" horiz-adv-x="586" 
d="M301 501c-140 0 -228 -123 -228 -275c0 -131 79 -204 179 -204c138 0 222 139 225 274c0 125 -71 205 -176 205zM248 -8c-120 0 -210 90 -210 233c0 165 102 306 262 306c122 0 177 -88 191 -156l24 148h34l-57 -354c-15 -88 -16 -136 -17 -169h-33c0 35 5 90 12 131
c-38 -78 -105 -139 -206 -139z" />
    <glyph glyph-name="t.alt" unicode="&#xe4d3;" horiz-adv-x="307" 
d="M150 494h-92l5 29h91l19 119h35l-19 -119h133l-5 -29h-133l-77 -494h-35z" />
    <glyph glyph-name="f_i" unicode="&#xfb01;" horiz-adv-x="515" 
d="M64 523h82l16 98c19 119 84 155 158 155c23 0 41 -4 56 -8l-4 -29c-16 5 -33 8 -51 8c-59 0 -109 -26 -125 -128l-15 -96h156l-5 -29h-156l-78 -494h-34l78 494h-83zM476 637c-15 0 -26 12 -26 27s12 26 27 26s26 -11 26 -26s-12 -27 -27 -27zM438 523h35l-83 -523h-34z
" />
    <glyph glyph-name="f_l" unicode="&#xfb02;" horiz-adv-x="516" 
d="M64 523h82l16 98c19 119 84 155 158 155c23 0 41 -4 56 -8l-4 -29c-16 5 -33 8 -51 8c-59 0 -109 -26 -125 -128l-15 -96h156l-5 -29h-156l-78 -494h-34l78 494h-83zM478 773h35l-122 -773h-35z" />
    <glyph glyph-name="six.den" horiz-adv-x="316" 
d="M130 -4c-72 0 -113 47 -113 111c0 15 1 35 4 54l4 26c19 115 75 160 148 160c49 0 92 -24 95 -79h-27c-4 36 -30 54 -69 55c-59 0 -101 -35 -118 -140l-2 -14c20 32 60 49 99 49c56 0 106 -32 106 -97c0 -72 -50 -125 -127 -125zM47 102c0 -47 31 -81 83 -81
c60 0 96 39 96 99c0 47 -30 76 -81 76c-53 0 -98 -33 -98 -94z" />
    <glyph glyph-name="four.num" horiz-adv-x="305" 
d="M230 448h-184l2 11l211 256h43l-39 -243h48l-4 -24h-48l-12 -77h-30zM233 472l35 219l-179 -219h144z" />
    <glyph glyph-name="uni20B4.oldtab" 
d="M532 186c-27 -105 -108 -192 -255 -192c-124 0 -196 55 -196 151c0 59 25 101 74 138l-97 4l116 10c39 27 85 49 145 74c28 12 52 24 73 35l-314 12l137 12l206 -8c64 40 83 77 83 133c0 81 -55 113 -143 113c-101 0 -157 -52 -182 -131h-34c28 96 99 160 218 160
c108 0 175 -46 175 -141c0 -56 -22 -97 -73 -136l108 -4l-130 -11c-31 -19 -66 -38 -113 -57c-39 -17 -73 -33 -104 -50l326 -13l-137 -12l-215 8c-57 -39 -84 -79 -84 -135c0 -73 51 -123 163 -123c132 0 194 78 218 163h35z" />
    <glyph glyph-name="bar.uc" horiz-adv-x="233" 
d="M112 778h31v-862h-30z" />
    <glyph glyph-name="backslash.uc" horiz-adv-x="383" 
d="M121 778h33l136 -862h-33z" />
    <glyph glyph-name="slash.uc" horiz-adv-x="383" 
d="M388 778h35l-407 -862h-35z" />
    <glyph glyph-name="braceright.uc" horiz-adv-x="353" 
d="M121 780c132 -8 179 -76 136 -200l-31 -89c-30 -78 -8 -136 97 -141l-5 -28c-105 1 -147 -40 -140 -125l7 -102c8 -138 -65 -180 -201 -183l5 28c110 3 171 34 163 157l-7 99c-5 94 44 130 113 143c-67 17 -94 70 -63 157l31 87c39 111 0 162 -109 169z" />
    <glyph glyph-name="braceleft.uc" horiz-adv-x="351" 
d="M255 -89c-132 8 -179 76 -136 201l32 89c27 78 8 136 -98 141l5 27c105 0 146 41 141 125l-7 102c-11 139 65 178 200 183l-5 -27c-110 -5 -171 -33 -163 -157l7 -100c5 -95 -45 -128 -113 -142c67 -17 95 -70 64 -157l-31 -88c-39 -111 -2 -161 109 -169z" />
    <glyph glyph-name="uni043D.bgr" horiz-adv-x="562" 
d="M444 258h-331l-40 -258h-35l83 523h35l-38 -236h331l37 236h34l-83 -523h-34z" />
    <glyph glyph-name="bracketright.uc" horiz-adv-x="331" 
d="M-11 -56h160l127 806h-160l5 28h194l-137 -862h-194z" />
    <glyph glyph-name="bracketleft.uc" horiz-adv-x="331" 
d="M177 778h194l-5 -28h-159l-127 -806h159l-5 -28h-194z" />
    <glyph glyph-name="uni043F.locl" horiz-adv-x="563" 
d="M178 675h320l-5 -28h-320zM461 140c-11 -63 -12 -109 -13 -140h-33c0 31 3 76 10 117c-37 -68 -106 -125 -201 -125c-115 0 -182 74 -158 220l49 311h34l-50 -315c-20 -125 33 -186 129 -186s190 67 209 187l50 314h34z" />
    <glyph glyph-name="parenright.uc" horiz-adv-x="281" 
d="M146 783c52 -81 98 -198 98 -341c0 -218 -95 -402 -236 -540h-38c151 153 239 330 239 539c0 139 -45 254 -98 342h35z" />
    <glyph glyph-name="uni20BD.old" horiz-adv-x="572" 
d="M315 327c126 0 204 54 204 184c0 100 -70 138 -177 138h-125l-50 -322h148zM143 173l-28 -173h-32l27 173h-95l4 25h95l16 104h-96l5 25h95l55 351h156c124 0 207 -50 207 -167c0 -151 -100 -212 -239 -212h-150l-16 -101h225l-4 -25h-225z" />
    <glyph glyph-name="parenleft.uc" horiz-adv-x="281" 
d="M160 -98c-53 81 -99 198 -99 341c0 218 95 401 237 540h37c-151 -153 -238 -330 -238 -539c0 -139 44 -254 97 -342h-34z" />
    <glyph glyph-name="uni0446.bgr" horiz-adv-x="577" 
d="M480 -127l15 127h-80c0 31 3 76 10 117c-37 -68 -106 -125 -201 -125c-115 0 -182 74 -158 220l49 311h34l-50 -315c-20 -125 33 -186 129 -186s190 67 209 187l50 314h34l-64 -405c-5 -36 -8 -68 -9 -88h84l-25 -157h-27z" />
    <glyph glyph-name="uni044C.bgr" horiz-adv-x="465" 
d="M212 -7c-123 0 -180 70 -160 195l56 335h34l-33 -201c19 3 66 11 123 11c117 0 180 -59 180 -152c0 -112 -84 -188 -200 -188zM212 22c101 0 164 67 164 157c0 79 -50 125 -147 125c-56 0 -105 -8 -124 -12l-18 -105c-17 -107 26 -165 125 -165z" />
    <glyph glyph-name="guillemotright.uc" horiz-adv-x="415" 
d="M372 300l-166 -179h-38l167 181l-107 180h34zM227 300l-166 -179h-38l167 181l-107 180h34z" />
    <glyph glyph-name="uni0439.bgr" horiz-adv-x="563" 
d="M334 614c-68 0 -108 46 -109 114h30c1 -52 28 -85 79 -85s85 32 96 85h30c-11 -71 -63 -114 -126 -114zM461 140c-11 -63 -12 -109 -13 -140h-33c0 31 3 76 10 117c-37 -68 -106 -125 -201 -125c-115 0 -182 74 -158 220l49 311h34l-50 -315c-20 -125 33 -186 129 -186
s190 67 209 187l50 314h34z" />
    <glyph glyph-name="guillemotleft.uc" horiz-adv-x="415" 
d="M55 301l166 181h38l-167 -182l107 -179h-34zM200 301l166 181h38l-167 -182l107 -179h-34z" />
    <glyph glyph-name="guilsinglright.uc" horiz-adv-x="270" 
d="M227 300l-166 -179h-38l167 181l-107 180h34z" />
    <glyph glyph-name="uni0414.bgr" horiz-adv-x="696" 
d="M414 687l-343 -656h487zM-16 -130h-30l26 161h56l359 684h48l149 -684h56l-26 -161h-31l18 130h-600z" />
    <glyph glyph-name="uni043B.bgr" horiz-adv-x="511" 
d="M439 0h-35l-116 490l-262 -490h-37l281 523h46z" />
    <glyph glyph-name="guilsinglleft.uc" horiz-adv-x="270" 
d="M55 301l166 181h38l-167 -182l107 -179h-34z" />
    <glyph glyph-name="uni041A.bgr" horiz-adv-x="588" 
d="M567 715h45l-417 -347l322 -368h-43l-322 368zM88 0h-36l113 715h36z" />
    <glyph glyph-name="uni0436.bgr" horiz-adv-x="674" 
d="M405 773h34l-123 -773h-33zM28 0h-46l304 279l-198 244h39l195 -248zM637 523h42l-278 -249l210 -274h-40l-208 275z" />
    <glyph glyph-name="emdash.uc" horiz-adv-x="859" 
d="M61 351h764l-5 -30h-764z" />
    <glyph glyph-name="endash.uc" horiz-adv-x="489" 
d="M61 351h394l-5 -30h-394z" />
    <glyph glyph-name="uni20B8.old" horiz-adv-x="536" 
d="M94 668l5 26h478l-5 -26h-478zM293 538h-221l5 29h477l-5 -29h-221l-82 -538h-36z" />
    <glyph glyph-name="uni0432.bgr" horiz-adv-x="490" 
d="M223 -7c-142 0 -190 95 -166 244l50 311c25 159 100 231 213 231c105 0 158 -63 157 -163c0 -95 -59 -186 -144 -202c72 -15 116 -74 116 -167c-3 -140 -93 -254 -226 -254zM318 751c-96 0 -154 -65 -177 -202l-20 -120h161c108 0 160 103 160 186c1 85 -40 136 -124 136
zM223 22c114 0 191 102 191 225c1 89 -42 153 -137 153h-161l-26 -162c-23 -136 18 -216 133 -216z" />
    <glyph glyph-name="hyphen.uc" horiz-adv-x="355" 
d="M77 353h229l-6 -33h-229z" />
    <glyph glyph-name="exclamdown.uc" horiz-adv-x="263" 
d="M108 0h-38l92 551h28zM199 720c16 0 29 -13 29 -29c0 -15 -13 -28 -29 -28s-29 13 -29 28c0 16 13 29 29 29z" />
    <glyph glyph-name="questiondown.uc" horiz-adv-x="469" 
d="M310 484c-13 -86 -58 -121 -128 -175c-63 -50 -117 -86 -117 -172c0 -80 66 -114 138 -114c93 0 161 54 181 162h33c-19 -124 -104 -192 -217 -192c-93 0 -171 48 -171 144c0 102 66 141 136 195c63 50 102 81 113 155l10 64h32zM326 720c16 0 29 -13 29 -29
c0 -15 -13 -28 -29 -28s-29 13 -29 28c0 16 13 29 29 29z" />
    <glyph glyph-name="caron.alt" horiz-adv-x="292" 
d="M213 773h37l-49 -154h-27z" />
    <glyph glyph-name="uni0424.bgr" horiz-adv-x="781" 
d="M328 -10l12 73c-175 13 -286 102 -286 263v10c0 199 152 320 380 323l11 66h35l-10 -66c173 -13 285 -105 285 -271v-8c0 -200 -150 -314 -380 -317l-11 -73h-36zM718 386c0 151 -99 233 -253 244l-85 -538c208 3 338 106 338 286v8zM91 326c0 -147 100 -223 253 -234
l85 538c-205 -3 -338 -113 -338 -294v-10z" />
    <glyph glyph-name="registered.alt" horiz-adv-x="844" 
d="M316 572h113c85 0 143 -32 143 -112v-2c0 -69 -43 -101 -107 -109l132 -195h-36l-130 191h-83v-191h-32v418zM429 371c69 0 110 22 110 86v3c0 65 -42 85 -110 85h-81v-174h81zM433 -9c-204 0 -366 159 -366 366c0 204 162 367 368 367c208 0 366 -162 366 -365
c0 -209 -162 -368 -368 -368zM433 17c188 0 339 146 339 342c0 192 -146 339 -337 339c-189 0 -339 -148 -339 -341c0 -196 152 -340 337 -340z" />
    <glyph glyph-name="space_uni0326.alt" horiz-adv-x="400" 
d="M335 749l-68 -139l-34 10l79 141z" />
    <glyph glyph-name="tcommaaccent.alt" horiz-adv-x="307" 
d="M-4 -183l68 139l34 -10l-79 -141zM150 494h-92l5 29h91l19 119h35l-19 -119h133l-5 -29h-133l-77 -494h-35z" />
    <glyph glyph-name="uni0442.bgr" horiz-adv-x="887" 
d="M99 384c11 69 12 106 15 139h33c-1 -27 -4 -70 -11 -115c34 66 98 123 185 123s144 -47 151 -139c35 83 112 139 195 139c109 0 175 -69 151 -221l-49 -310h-34l49 314c20 129 -26 187 -121 187c-88 0 -173 -67 -192 -186l-50 -315h-34l50 315c20 125 -28 186 -121 186
c-89 0 -174 -69 -193 -186l-50 -315h-34z" />
    <glyph glyph-name="tcaron.alt" horiz-adv-x="307" 
d="M150 494h-92l5 29h91l19 119h35l-19 -119h133l-5 -29h-133l-77 -494h-35zM329 773h37l-49 -154h-27z" />
    <glyph glyph-name="tbar.alt" horiz-adv-x="307" 
d="M34 342h92l24 152h-92l5 29h91l19 119h35l-19 -119h133l-5 -29h-133l-24 -152h133l-4 -27h-133l-49 -315h-35l49 315h-91z" />
    <glyph glyph-name="germandbls.alt" horiz-adv-x="583" 
d="M355 -5c-92 0 -159 47 -166 140h34c7 -72 57 -111 133 -111s136 44 136 117c0 64 -46 97 -107 137c-64 40 -106 68 -106 118c0 102 215 128 215 250c0 67 -58 101 -131 101c-108 0 -182 -65 -201 -184l-89 -563h-34l89 565c21 135 112 211 237 211c84 0 162 -41 162 -129
c0 -136 -215 -168 -215 -247c0 -36 36 -56 99 -97c66 -45 116 -83 116 -161c0 -88 -73 -147 -172 -147z" />
    <glyph glyph-name="atilde.alt" horiz-adv-x="586" 
d="M301 501c-140 0 -228 -123 -228 -275c0 -131 79 -204 179 -204c138 0 222 139 225 274c0 125 -71 205 -176 205zM248 -8c-120 0 -210 90 -210 233c0 165 102 306 262 306c122 0 177 -88 191 -156l24 148h34l-57 -354c-15 -88 -16 -136 -17 -169h-33c0 35 5 90 12 131
c-38 -78 -105 -139 -206 -139zM399 615c-50 0 -90 58 -130 58c-24 0 -47 -19 -56 -58h-28c12 60 45 88 85 88c48 0 90 -59 129 -59c23 0 47 20 55 59h28c-12 -59 -44 -88 -83 -88z" />
    <glyph glyph-name="aringacute.alt" horiz-adv-x="586" 
d="M301 501c-140 0 -228 -123 -228 -275c0 -131 79 -204 179 -204c138 0 222 139 225 274c0 125 -71 205 -176 205zM248 -8c-120 0 -210 90 -210 233c0 165 102 306 262 306c122 0 177 -88 191 -156l24 148h34l-57 -354c-15 -88 -16 -136 -17 -169h-33c0 35 5 90 12 131
c-38 -78 -105 -139 -206 -139zM336 620c40 0 68 29 68 70c0 39 -25 65 -64 65s-68 -29 -68 -70c0 -36 27 -65 64 -65zM336 598c-51 0 -90 40 -90 87c0 51 42 93 94 93c53 0 90 -40 90 -88c0 -52 -41 -92 -94 -92zM425 950h43l-90 -120h-31z" />
    <glyph glyph-name="aring.alt" horiz-adv-x="586" 
d="M301 501c-140 0 -228 -123 -228 -275c0 -131 79 -204 179 -204c138 0 222 139 225 274c0 125 -71 205 -176 205zM248 -8c-120 0 -210 90 -210 233c0 165 102 306 262 306c122 0 177 -88 191 -156l24 148h34l-57 -354c-15 -88 -16 -136 -17 -169h-33c0 35 5 90 12 131
c-38 -78 -105 -139 -206 -139zM345 625c40 0 68 29 68 70c0 39 -25 65 -64 65s-68 -29 -68 -70c0 -36 27 -65 64 -65zM345 603c-51 0 -90 40 -90 87c0 51 42 93 94 93c53 0 90 -40 90 -88c0 -52 -41 -92 -94 -92z" />
    <glyph glyph-name="aogonek.alt" horiz-adv-x="586" 
d="M475 0c-35 -21 -98 -58 -98 -109c0 -27 15 -46 54 -46c15 0 31 3 46 8l-5 -27c-12 -4 -28 -8 -47 -8c-53 0 -82 27 -81 70c0 57 63 95 98 116c0 32 7 86 12 127c-38 -78 -105 -139 -206 -139c-120 0 -210 89 -210 233c0 165 102 306 262 306c122 0 177 -88 191 -156
l24 148h34l-57 -354c-15 -88 -16 -136 -17 -169zM301 501c-140 0 -228 -123 -228 -275c0 -131 79 -204 179 -204c138 0 222 139 225 274c0 125 -71 205 -176 205z" />
    <glyph glyph-name="amacron.alt" horiz-adv-x="586" 
d="M301 501c-140 0 -228 -123 -228 -275c0 -131 79 -204 179 -204c138 0 222 139 225 274c0 125 -71 205 -176 205zM248 -8c-120 0 -210 90 -210 233c0 165 102 306 262 306c122 0 177 -88 191 -156l24 148h34l-57 -354c-15 -88 -16 -136 -17 -169h-33c0 35 5 90 12 131
c-38 -78 -105 -139 -206 -139zM227 675h229l-4 -28h-230z" />
    <glyph glyph-name="agrave.alt" horiz-adv-x="586" 
d="M301 501c-140 0 -228 -123 -228 -275c0 -131 79 -204 179 -204c138 0 222 139 225 274c0 125 -71 205 -176 205zM248 -8c-120 0 -210 90 -210 233c0 165 102 306 262 306c122 0 177 -88 191 -156l24 148h34l-57 -354c-15 -88 -16 -136 -17 -169h-33c0 35 5 90 12 131
c-38 -78 -105 -139 -206 -139zM251 747h40l51 -147h-28z" />
    <glyph glyph-name="adieresis.alt" horiz-adv-x="586" 
d="M301 501c-140 0 -228 -123 -228 -275c0 -131 79 -204 179 -204c138 0 222 139 225 274c0 125 -71 205 -176 205zM248 -8c-120 0 -210 90 -210 233c0 165 102 306 262 306c122 0 177 -88 191 -156l24 148h34l-57 -354c-15 -88 -16 -136 -17 -169h-33c0 35 5 90 12 131
c-38 -78 -105 -139 -206 -139zM262 638c-15 0 -26 11 -26 26s11 26 26 26s26 -11 26 -26s-11 -26 -26 -26zM415 638c-15 0 -26 11 -26 26s11 26 26 26s26 -11 26 -26s-11 -26 -26 -26z" />
    <glyph glyph-name="acircumflex.alt" horiz-adv-x="586" 
d="M301 501c-140 0 -228 -123 -228 -275c0 -131 79 -204 179 -204c138 0 222 139 225 274c0 125 -71 205 -176 205zM248 -8c-120 0 -210 90 -210 233c0 165 102 306 262 306c122 0 177 -88 191 -156l24 148h34l-57 -354c-15 -88 -16 -136 -17 -169h-33c0 35 5 90 12 131
c-38 -78 -105 -139 -206 -139zM326 729h33l94 -129h-29l-84 101l-110 -101h-31z" />
    <glyph glyph-name="abreve.alt" horiz-adv-x="586" 
d="M301 501c-140 0 -228 -123 -228 -275c0 -131 79 -204 179 -204c138 0 222 139 225 274c0 125 -71 205 -176 205zM248 -8c-120 0 -210 90 -210 233c0 165 102 306 262 306c122 0 177 -88 191 -156l24 148h34l-57 -354c-15 -88 -16 -136 -17 -169h-33c0 35 5 90 12 131
c-38 -78 -105 -139 -206 -139zM331 614c-68 0 -108 46 -109 114h30c3 -52 29 -85 80 -85c49 0 85 32 96 85h29c-11 -71 -63 -114 -126 -114z" />
    <glyph glyph-name="aacute.alt" horiz-adv-x="586" 
d="M301 501c-140 0 -228 -123 -228 -275c0 -131 79 -204 179 -204c138 0 222 139 225 274c0 125 -71 205 -176 205zM248 -8c-120 0 -210 90 -210 233c0 165 102 306 262 306c122 0 177 -88 191 -156l24 148h34l-57 -354c-15 -88 -16 -136 -17 -169h-33c0 35 5 90 12 131
c-38 -78 -105 -139 -206 -139zM399 747h43l-106 -147h-30z" />
    <glyph glyph-name="uni20BD.tab" 
d="M346 345c135 0 218 56 218 194c0 105 -75 146 -188 146h-131l-54 -340h155zM166 183l-29 -183h-35l29 183h-99l5 26h98l17 110h-99l5 26h99l58 370h164c132 0 221 -52 221 -176c0 -160 -107 -224 -255 -224h-158l-17 -106h238l-5 -26h-237z" />
    <glyph glyph-name="at.uc" horiz-adv-x="887" 
d="M461 -59c-260 0 -397 187 -397 389c0 241 201 420 417 420c232 0 375 -153 375 -349c0 -180 -98 -247 -175 -247c-68 0 -104 34 -104 101c-21 -52 -79 -108 -156 -108c-88 0 -147 60 -147 156c0 124 80 237 194 237c72 0 120 -43 129 -103l15 94h33l-35 -226
c-13 -75 5 -124 72 -124c74 0 140 64 140 219c0 184 -122 321 -341 321c-206 0 -384 -165 -384 -392c0 -188 122 -358 365 -358c141 0 233 48 285 112h34c-48 -77 -164 -142 -320 -142zM426 175c83 0 160 88 160 199c1 84 -44 137 -117 137c-93 0 -160 -95 -160 -207
c0 -80 45 -129 117 -129z" />
    <glyph glyph-name="minus.sup" horiz-adv-x="314" 
d="M91 613h242l-5 -25h-242z" />
    <glyph glyph-name="plus.sup" horiz-adv-x="314" 
d="M193 588h-107l5 25h107l17 112h28l-18 -112h108l-5 -25h-108l-17 -111h-27z" />
    <glyph glyph-name="nine.sup" horiz-adv-x="315" 
d="M225 777c71 0 112 -48 112 -109c0 -16 -1 -40 -4 -57l-4 -27c-19 -113 -68 -159 -144 -159c-63 0 -101 30 -104 85h27c5 -39 27 -60 78 -60c60 0 98 36 114 140l2 14c-20 -32 -60 -49 -99 -49c-56 0 -105 32 -105 97c0 72 51 125 127 125zM307 671c0 47 -30 81 -83 81
c-59 0 -96 -39 -96 -99c0 -47 30 -76 81 -76c53 0 98 33 98 94z" />
    <glyph glyph-name="eight.sup" horiz-adv-x="315" 
d="M196 425c-63 0 -121 33 -121 94c0 55 37 85 93 96c-31 11 -56 35 -56 70c0 59 54 91 113 91c52 0 105 -29 105 -85c0 -43 -30 -71 -74 -80c39 -13 66 -39 66 -83c0 -69 -55 -103 -126 -103zM105 521c1 -43 35 -71 92 -71c49 0 95 19 95 78c0 47 -39 73 -90 73
c-48 0 -97 -23 -97 -80zM142 685c0 -39 36 -61 79 -61c40 0 80 21 80 66c0 40 -34 62 -77 62s-82 -20 -82 -67z" />
    <glyph glyph-name="seven.sup" horiz-adv-x="270" 
d="M286 747h-196l5 26h236l-1 -5l-195 -339h-34z" />
    <glyph glyph-name="six.sup" horiz-adv-x="316" 
d="M198 425c-72 0 -113 47 -113 111c0 15 1 35 4 54l4 26c19 115 75 160 148 160c49 0 92 -24 95 -79h-27c-4 36 -30 54 -69 55c-59 0 -101 -35 -118 -140l-2 -14c20 32 60 49 99 49c56 0 106 -32 106 -97c0 -72 -50 -125 -127 -125zM115 531c0 -47 31 -81 83 -81
c60 0 96 39 96 99c0 47 -30 76 -81 76c-53 0 -98 -33 -98 -94z" />
    <glyph glyph-name="five.sup" horiz-adv-x="291" 
d="M177 425c-56 0 -107 29 -111 93h29c4 -43 35 -68 82 -68c57 0 95 38 95 102c0 45 -31 78 -79 78c-39 0 -65 -17 -84 -38h-15l30 181h192l-4 -25h-167l-20 -122c17 15 44 28 76 28c57 0 102 -38 102 -101c-1 -76 -50 -127 -126 -128z" />
    <glyph glyph-name="uni20B4.old" horiz-adv-x="587" 
d="M520 186c-24 -105 -103 -192 -249 -192c-125 0 -197 56 -197 152c0 57 26 100 74 137l-96 4l115 10c39 27 86 49 146 74c28 12 52 24 73 35l-313 12l137 12l204 -8c64 40 84 77 84 133c0 81 -56 113 -144 113c-100 0 -155 -52 -182 -131h-34c28 96 99 160 218 160
c108 0 176 -46 176 -141c0 -56 -22 -97 -73 -136l109 -4l-131 -12c-31 -19 -66 -37 -113 -56c-41 -17 -75 -34 -104 -50l327 -13l-137 -12l-216 8c-57 -39 -84 -78 -84 -134c0 -75 51 -124 162 -124c130 0 192 78 213 163h35z" />
    <glyph glyph-name="four.sup" horiz-adv-x="305" 
d="M239 506h-184l2 11l211 256h43l-39 -243h48l-4 -24h-48l-12 -77h-30zM242 530l35 219l-179 -219h144z" />
    <glyph glyph-name="three.sup" horiz-adv-x="307" 
d="M193 425c-66 0 -121 34 -124 102h29c4 -47 39 -77 95 -77c48 0 90 24 90 80c0 37 -25 67 -73 67h-24l4 24h28c41 0 75 21 75 68c0 41 -29 64 -72 64c-51 0 -82 -30 -93 -73h-28c11 57 57 96 121 96c53 0 102 -26 102 -86c0 -41 -25 -71 -68 -82c35 -9 59 -36 59 -79
c0 -66 -57 -104 -121 -104z" />
    <glyph glyph-name="two.sup" horiz-adv-x="285" 
d="M43 437l151 124c48 40 87 73 87 125c0 39 -27 66 -70 66c-47 0 -83 -29 -96 -85h-28c13 72 64 109 125 109c59 0 99 -34 99 -90c0 -62 -43 -94 -99 -142l-111 -90h181l-4 -25h-236z" />
    <glyph glyph-name="one.sup" horiz-adv-x="212" 
d="M186 737l-101 -65l4 30l111 71h23l-55 -344h-31z" />
    <glyph glyph-name="zero.sup" horiz-adv-x="349" 
d="M116 558c0 -60 29 -107 97 -107c92 0 127 92 127 193c0 60 -28 107 -96 107c-96 0 -128 -96 -128 -193zM213 425c-83 0 -127 54 -127 133c0 115 47 218 158 218c80 0 126 -52 126 -133c0 -117 -46 -218 -157 -218z" />
    <glyph glyph-name="minus.sub" horiz-adv-x="314" 
d="M12 95h242l-4 -25h-242z" />
    <glyph glyph-name="plus.sub" horiz-adv-x="314" 
d="M115 70h-107l4 25h107l18 112h27l-17 -112h107l-4 -25h-108l-17 -112h-28z" />
    <glyph glyph-name="uni20BD.oldtab" 
d="M333 327c126 0 204 54 204 184c0 100 -70 138 -177 138h-125l-50 -322h148zM161 173l-28 -173h-32l27 173h-95l4 25h95l16 104h-96l5 25h95l55 351h156c124 0 207 -50 207 -167c0 -151 -100 -212 -239 -212h-150l-16 -101h225l-4 -25h-225z" />
    <glyph glyph-name="nine.sub" horiz-adv-x="315" 
d="M146 261c71 0 112 -48 112 -109c0 -16 -1 -40 -4 -57l-4 -27c-19 -113 -68 -159 -144 -159c-63 0 -101 30 -104 85h27c5 -39 27 -60 78 -60c60 0 98 36 114 140l2 14c-20 -32 -60 -49 -99 -49c-56 0 -105 32 -105 97c0 72 51 125 127 125zM228 155c0 47 -30 81 -83 81
c-59 0 -96 -39 -96 -99c0 -47 30 -76 81 -76c53 0 98 33 98 94z" />
    <glyph glyph-name="eight.sub" horiz-adv-x="315" 
d="M118 -91c-63 0 -121 33 -121 94c0 55 37 85 93 96c-31 11 -56 35 -56 70c0 59 54 91 113 91c52 0 105 -29 105 -85c0 -43 -30 -71 -74 -80c39 -13 66 -39 66 -83c0 -69 -55 -103 -126 -103zM27 5c1 -43 35 -71 92 -71c49 0 95 19 95 78c0 47 -39 73 -90 73
c-48 0 -97 -23 -97 -80zM64 169c0 -39 36 -61 79 -61c40 0 80 21 80 66c0 40 -34 62 -77 62s-82 -20 -82 -67z" />
    <glyph glyph-name="uni041B.bgr" horiz-adv-x="635" 
d="M380 687l-358 -687h-36l375 715h48l156 -715h-35z" />
    <glyph glyph-name="seven.sub" horiz-adv-x="270" 
d="M208 231h-196l5 26h236l-1 -5l-195 -339h-34z" />
    <glyph glyph-name="six.sub" horiz-adv-x="316" 
d="M120 -91c-72 0 -113 47 -113 111c0 15 1 35 4 54l4 26c19 115 75 160 148 160c49 0 92 -24 95 -79h-27c-4 36 -30 54 -69 55c-59 0 -101 -35 -118 -140l-2 -14c20 32 60 49 99 49c56 0 106 -32 106 -97c0 -72 -50 -125 -127 -125zM37 15c0 -47 31 -81 83 -81
c60 0 96 39 96 99c0 47 -30 76 -81 76c-53 0 -98 -33 -98 -94z" />
    <glyph glyph-name="five.sub" horiz-adv-x="291" 
d="M99 -91c-56 0 -107 29 -111 93h29c4 -43 35 -68 82 -68c57 0 95 38 95 102c0 45 -31 78 -79 78c-39 0 -65 -17 -84 -38h-15l30 181h192l-4 -25h-167l-20 -122c17 15 44 28 76 28c57 0 102 -38 102 -101c-1 -76 -50 -127 -126 -128z" />
    <glyph glyph-name="four.sub" horiz-adv-x="305" 
d="M162 -10h-184l2 11l211 256h43l-39 -243h48l-4 -24h-48l-12 -77h-30zM165 14l35 219l-179 -219h144z" />
    <glyph glyph-name="three.sub" horiz-adv-x="307" 
d="M116 -91c-66 0 -121 34 -124 102h29c4 -47 39 -77 95 -77c48 0 90 24 90 80c0 37 -25 67 -73 67h-24l4 24h28c41 0 75 21 75 68c0 41 -29 64 -72 64c-51 0 -82 -30 -93 -73h-28c11 57 57 96 121 96c53 0 102 -26 102 -86c0 -41 -25 -71 -68 -82c35 -9 59 -36 59 -79
c0 -66 -57 -104 -121 -104z" />
    <glyph glyph-name="two.sub" horiz-adv-x="285" 
d="M-35 -79l151 124c48 40 87 73 87 125c0 39 -27 66 -70 66c-47 0 -83 -29 -96 -85h-28c13 72 64 109 125 109c59 0 99 -34 99 -90c0 -62 -43 -94 -99 -142l-111 -90h181l-4 -25h-236z" />
    <glyph glyph-name="one.sub" horiz-adv-x="212" 
d="M107 221l-101 -65l4 30l111 71h23l-55 -344h-31z" />
    <glyph glyph-name="zero.sub" horiz-adv-x="349" 
d="M38 42c0 -60 29 -107 97 -107c92 0 127 92 127 193c0 60 -28 107 -96 107c-96 0 -128 -96 -128 -193zM135 -91c-83 0 -127 54 -127 133c0 115 47 218 158 218c80 0 126 -52 126 -133c0 -117 -46 -218 -157 -218z" />
    <glyph glyph-name="nine.den" horiz-adv-x="315" 
d="M159 348c71 0 112 -48 112 -109c0 -16 -1 -40 -4 -57l-4 -27c-19 -113 -68 -159 -144 -159c-63 0 -101 30 -104 85h27c5 -39 27 -60 78 -60c60 0 98 36 114 140l2 14c-20 -32 -60 -49 -99 -49c-56 0 -105 32 -105 97c0 72 51 125 127 125zM241 242c0 47 -30 81 -83 81
c-59 0 -96 -39 -96 -99c0 -47 30 -76 81 -76c53 0 98 33 98 94z" />
    <glyph glyph-name="eight.den" horiz-adv-x="315" 
d="M128 -4c-63 0 -121 33 -121 94c0 55 37 85 93 96c-31 11 -56 35 -56 70c0 59 54 91 113 91c52 0 105 -29 105 -85c0 -43 -30 -71 -74 -80c39 -13 66 -39 66 -83c0 -69 -55 -103 -126 -103zM37 92c1 -43 35 -71 92 -71c49 0 95 19 95 78c0 47 -39 73 -90 73
c-48 0 -97 -23 -97 -80zM74 256c0 -39 36 -61 79 -61c40 0 80 21 80 66c0 40 -34 62 -77 62s-82 -20 -82 -67z" />
    <glyph glyph-name="seven.den" horiz-adv-x="270" 
d="M218 318h-196l5 26h236l-1 -5l-195 -339h-34z" />
    <glyph glyph-name="uni0431.locl" horiz-adv-x="573" 
d="M265 -7c-136 0 -228 105 -228 236c0 162 105 296 273 296c31 0 63 -11 70 -14c-112 61 -258 73 -258 173c0 56 44 89 117 89h187c84 0 118 7 135 12l-5 -30c-11 -4 -45 -13 -134 -13h-185c-60 0 -83 -26 -83 -61c0 -45 45 -71 104 -92c112 -45 277 -97 277 -295
c0 -168 -105 -301 -270 -301zM266 22c145 0 234 119 234 272c0 117 -68 207 -191 207c-149 0 -237 -125 -237 -272c0 -113 74 -207 194 -207z" />
    <glyph glyph-name="five.den" horiz-adv-x="291" 
d="M110 -4c-56 0 -107 29 -111 93h29c4 -43 35 -68 82 -68c57 0 95 38 95 102c0 45 -31 78 -79 78c-39 0 -65 -17 -84 -38h-15l30 181h192l-4 -25h-167l-20 -122c17 15 44 28 76 28c57 0 102 -38 102 -101c-1 -76 -50 -127 -126 -128z" />
    <glyph glyph-name="four.den" horiz-adv-x="305" 
d="M172 77h-184l2 11l211 256h43l-39 -243h48l-4 -24h-48l-12 -77h-30zM175 101l35 219l-179 -219h144z" />
    <glyph glyph-name="three.den" horiz-adv-x="307" 
d="M126 -4c-66 0 -121 34 -124 102h29c4 -47 39 -77 95 -77c48 0 90 24 90 80c0 37 -25 67 -73 67h-24l4 24h28c41 0 75 21 75 68c0 41 -29 64 -72 64c-51 0 -82 -30 -93 -73h-28c11 57 57 96 121 96c53 0 102 -26 102 -86c0 -41 -25 -71 -68 -82c35 -9 59 -36 59 -79
c0 -66 -57 -104 -121 -104z" />
    <glyph glyph-name="two.den" horiz-adv-x="285" 
d="M-24 8l151 124c48 40 87 73 87 125c0 39 -27 66 -70 66c-47 0 -83 -29 -96 -85h-28c13 72 64 109 125 109c59 0 99 -34 99 -90c0 -62 -43 -94 -99 -142l-111 -90h181l-4 -25h-236z" />
    <glyph glyph-name="one.den" horiz-adv-x="212" 
d="M118 308l-101 -65l4 30l111 71h23l-55 -344h-31z" />
    <glyph glyph-name="zero.den" horiz-adv-x="349" 
d="M47 129c0 -60 29 -107 97 -107c92 0 127 92 127 193c0 60 -28 107 -96 107c-96 0 -128 -96 -128 -193zM144 -4c-83 0 -127 54 -127 133c0 115 47 218 158 218c80 0 126 -52 126 -133c0 -117 -46 -218 -157 -218z" />
    <glyph glyph-name="nine.num" horiz-adv-x="315" 
d="M216 719c71 0 112 -48 112 -109c0 -16 -1 -40 -4 -57l-4 -27c-19 -113 -68 -159 -144 -159c-63 0 -101 30 -104 85h27c5 -39 27 -60 78 -60c60 0 98 36 114 140l2 14c-20 -32 -60 -49 -99 -49c-56 0 -105 32 -105 97c0 72 51 125 127 125zM298 613c0 47 -30 81 -83 81
c-59 0 -96 -39 -96 -99c0 -47 30 -76 81 -76c53 0 98 33 98 94z" />
    <glyph glyph-name="eight.num" horiz-adv-x="315" 
d="M187 367c-63 0 -121 33 -121 94c0 55 37 85 93 96c-31 11 -56 35 -56 70c0 59 54 91 113 91c52 0 105 -29 105 -85c0 -43 -30 -71 -74 -80c39 -13 66 -39 66 -83c0 -69 -55 -103 -126 -103zM96 463c1 -43 35 -71 92 -71c49 0 95 19 95 78c0 47 -39 73 -90 73
c-48 0 -97 -23 -97 -80zM133 627c0 -39 36 -61 79 -61c40 0 80 21 80 66c0 40 -34 62 -77 62s-82 -20 -82 -67z" />
    <glyph glyph-name="seven.num" horiz-adv-x="270" 
d="M277 689h-196l5 26h236l-1 -5l-195 -339h-34z" />
    <glyph glyph-name="six.num" horiz-adv-x="316" 
d="M189 367c-72 0 -113 47 -113 111c0 15 1 35 4 54l4 26c19 115 75 160 148 160c49 0 92 -24 95 -79h-27c-4 36 -30 54 -69 55c-59 0 -101 -35 -118 -140l-2 -14c20 32 60 49 99 49c56 0 106 -32 106 -97c0 -72 -50 -125 -127 -125zM106 473c0 -47 31 -81 83 -81
c60 0 96 39 96 99c0 47 -30 76 -81 76c-53 0 -98 -33 -98 -94z" />
    <glyph glyph-name="five.num" horiz-adv-x="291" 
d="M168 367c-56 0 -107 29 -111 93h29c4 -43 35 -68 82 -68c57 0 95 38 95 102c0 45 -31 78 -79 78c-39 0 -65 -17 -84 -38h-15l30 181h192l-4 -25h-167l-20 -122c17 15 44 28 76 28c57 0 102 -38 102 -101c-1 -76 -50 -127 -126 -128z" />
    <glyph glyph-name="uni0434.bgr" horiz-adv-x="601" 
d="M259 46c137 0 232 125 232 269c0 107 -66 186 -183 186c-140 0 -229 -115 -229 -261c0 -109 63 -194 180 -194zM482 18c-23 -140 -113 -204 -246 -204c-125 0 -209 56 -224 156h35c13 -80 81 -127 188 -127c120 0 194 58 213 177l21 133c-35 -68 -106 -135 -213 -135
c-129 0 -212 89 -212 221c0 160 106 292 264 292c110 0 176 -64 197 -151l22 143h35z" />
    <glyph glyph-name="three.num" horiz-adv-x="307" 
d="M184 367c-66 0 -121 34 -124 102h29c4 -47 39 -77 95 -77c48 0 90 24 90 80c0 37 -25 67 -73 67h-24l4 24h28c41 0 75 21 75 68c0 41 -29 64 -72 64c-51 0 -82 -30 -93 -73h-28c11 57 57 96 121 96c53 0 102 -26 102 -86c0 -41 -25 -71 -68 -82c35 -9 59 -36 59 -79
c0 -66 -57 -104 -121 -104z" />
    <glyph glyph-name="two.num" horiz-adv-x="285" 
d="M34 379l151 124c48 40 87 73 87 125c0 39 -27 66 -70 66c-47 0 -83 -29 -96 -85h-28c13 72 64 109 125 109c59 0 99 -34 99 -90c0 -62 -43 -94 -99 -142l-111 -90h181l-4 -25h-236z" />
    <glyph glyph-name="one.num" horiz-adv-x="212" 
d="M176 679l-101 -65l4 30l111 71h23l-55 -344h-31z" />
    <glyph glyph-name="zero.num" horiz-adv-x="349" 
d="M106 500c0 -60 29 -107 97 -107c92 0 127 92 127 193c0 60 -28 107 -96 107c-96 0 -128 -96 -128 -193zM203 367c-83 0 -127 54 -127 133c0 115 47 218 158 218c80 0 126 -52 126 -133c0 -117 -46 -218 -157 -218z" />
    <glyph glyph-name="nine.oldtab" 
d="M325 626c141 0 216 -88 216 -218c0 -25 -2 -50 -6 -76l-17 -108c-40 -248 -145 -328 -281 -328c-113 0 -181 56 -192 163h34c11 -85 62 -133 158 -133c120 0 208 70 245 294l13 80c-42 -82 -128 -118 -210 -118c-120 0 -203 74 -203 194c0 143 100 250 243 250zM507 418
c0 108 -66 179 -183 179c-124 0 -207 -92 -207 -220c0 -101 62 -166 174 -166c118 0 216 81 216 207z" />
    <glyph glyph-name="eight.oldtab" 
d="M282 -7c-125 0 -224 69 -224 187c0 117 89 192 196 205c-64 21 -113 73 -113 148c0 116 98 189 213 189c102 0 188 -65 188 -169c0 -100 -65 -159 -156 -175c79 -21 137 -83 137 -167c0 -139 -109 -218 -241 -218zM93 182c0 -97 75 -159 191 -159c112 0 204 64 204 187
c0 92 -73 157 -185 157s-210 -68 -210 -185zM176 532c0 -77 61 -137 160 -137c92 0 172 54 172 158c0 81 -64 140 -155 140c-97 0 -177 -60 -177 -161z" />
    <glyph glyph-name="uni043F.bgr" horiz-adv-x="567" 
d="M99 384c11 69 12 106 15 139h33c-1 -27 -4 -73 -11 -118c35 67 107 126 202 126c114 0 184 -72 160 -220l-49 -311h-35l50 316c20 125 -35 185 -131 185c-95 0 -191 -66 -210 -187l-50 -314h-34z" />
    <glyph glyph-name="seven.oldtab" 
d="M515 589h-395l5 29h439l-1 -7l-404 -708h-37z" />
    <glyph glyph-name="six.oldtab" 
d="M292 -8c-143 0 -217 87 -217 216c0 27 3 55 7 80l16 97c40 246 149 337 286 337c108 0 172 -51 181 -151h-34c-9 77 -55 122 -147 122c-117 0 -214 -79 -251 -305l-11 -69c43 81 127 117 208 117c125 0 204 -71 204 -194c0 -143 -97 -250 -242 -250zM110 202
c0 -109 64 -181 183 -181c125 0 206 93 206 220c0 101 -59 167 -175 167s-214 -81 -214 -206z" />
    <glyph glyph-name="five.oldtab" 
d="M71 78c8 -96 76 -152 183 -152c133 0 216 101 216 233c0 96 -59 170 -163 170c-85 0 -142 -38 -185 -83h-14l59 372h377l-5 -30h-346l-48 -295c35 35 95 65 168 65c117 0 193 -83 193 -197c0 -147 -97 -264 -252 -264c-117 0 -207 63 -215 181h32z" />
    <glyph glyph-name="four.oldtab" 
d="M385 71h-372l1 11l439 536h53l-82 -517h98l-5 -30h-97l-27 -168h-35zM389 101l79 491l-402 -491h323z" />
    <glyph glyph-name="three.oldtab" 
d="M267 -103c-131 0 -233 74 -233 203h33c4 -107 78 -174 201 -174c116 0 198 62 198 187c0 83 -51 152 -159 152h-49l4 30h52c108 0 173 57 173 162c0 81 -55 140 -155 140c-101 0 -168 -60 -191 -160h-32c19 113 108 189 225 189c115 0 187 -69 187 -168
c0 -96 -53 -160 -141 -179c73 -19 122 -78 122 -165c0 -140 -99 -217 -235 -217z" />
    <glyph glyph-name="two.oldtab" 
d="M24 9l291 221c76 57 177 129 177 236c0 89 -66 131 -150 131c-93 0 -170 -56 -195 -169h-33c24 128 118 198 229 198c99 0 185 -50 185 -159c0 -120 -104 -189 -195 -259l-235 -178h381l-4 -30h-452z" />
    <glyph glyph-name="one.oldtab" 
d="M387 576l-256 -174l5 35l265 181h26l-97 -618h-34z" />
    <glyph glyph-name="zero.oldtab" 
d="M98 286c-4 -27 -6 -51 -5 -72c3 -110 56 -192 187 -192c125 1 200 79 224 234l13 77c3 21 5 43 5 63c0 116 -61 201 -185 201s-204 -85 -227 -234zM280 -8c-151 0 -222 97 -222 222c0 25 1 48 4 72l13 78c27 167 121 262 264 262c145 0 218 -99 218 -230
c0 -21 -2 -44 -5 -65l-13 -77c-27 -171 -112 -262 -259 -262z" />
    <glyph glyph-name="yen.oldtab" 
d="M111 337h176l-154 357h37l144 -340l240 340h36l-253 -357h174l-4 -28h-182l-16 -104h181l-4 -28h-182l-27 -177h-35l28 177h-184l4 28h184l16 104h-183z" />
    <glyph glyph-name="sterling.oldtab" 
d="M72 353h74c-4 36 -8 71 -8 110c0 136 78 237 227 237c125 0 186 -69 189 -173h-34c-4 85 -52 143 -156 143c-127 0 -191 -84 -191 -207c0 -39 4 -74 8 -110h231l-5 -28h-223c3 -23 4 -45 4 -69c0 -71 -13 -115 -41 -158c77 -8 151 -74 231 -74c59 0 103 36 114 112h32
c-12 -92 -71 -143 -146 -143c-92 0 -175 76 -247 76c-45 0 -75 -28 -86 -69h-33c11 45 45 86 97 97c32 43 45 89 45 157c0 23 -2 47 -5 71h-82z" />
    <glyph glyph-name="Euro.oldtab" 
d="M57 428h61c31 179 124 271 257 272c117 1 189 -64 192 -189h-34c-4 104 -54 160 -158 160c-117 -1 -195 -79 -223 -243h235l-10 -28h-229l-17 -106h209l-9 -28h-204c-16 -127 14 -243 176 -243c105 0 173 59 204 176h32c-33 -143 -120 -206 -236 -206
c-177 0 -229 122 -210 273h-62l5 28h61l17 106h-62z" />
    <glyph glyph-name="dollar.oldtab" 
d="M274 -7l-19 -124h-30l20 127c-116 13 -193 78 -200 195h34c9 -96 67 -154 170 -166l51 324c-124 35 -179 83 -179 168c0 116 97 183 223 183h12l14 89h30l-15 -92c99 -11 165 -64 173 -160h-32c-11 80 -64 120 -145 131l-47 -295c131 -37 192 -75 192 -176
c0 -129 -98 -204 -236 -204h-16zM491 195c0 80 -46 114 -162 146l-50 -318h11c120 0 201 60 201 172zM156 518c0 -67 40 -104 149 -137l46 290h-9c-110 0 -186 -52 -186 -153z" />
    <glyph glyph-name="braceright.tab" horiz-adv-x="300" 
d="M121 777c120 -9 164 -77 120 -200l-43 -119c-27 -76 -3 -129 82 -140l-5 -27c-87 -4 -125 -48 -122 -124l4 -130c5 -138 -63 -179 -183 -182l5 28c96 3 149 32 146 155l-4 127c-3 92 42 126 110 142c-63 19 -93 68 -64 156l42 119c39 108 4 159 -93 167z" />
    <glyph glyph-name="uni045D.bgr" horiz-adv-x="563" 
d="M461 140c-11 -63 -12 -109 -13 -140h-33c0 31 3 74 10 115c-36 -68 -105 -123 -201 -123c-115 0 -182 74 -158 220l49 311h34l-50 -315c-20 -125 33 -186 129 -186s190 67 209 187l50 314h34zM250 747h40l51 -147h-28z" />
    <glyph glyph-name="braceleft.tab" horiz-adv-x="300" 
d="M194 -145c-121 9 -165 77 -121 200l43 119c27 76 4 129 -81 140l4 27c87 4 126 48 123 124l-5 130c-5 140 63 177 183 182l-5 -28c-93 -5 -150 -31 -145 -155l4 -127c3 -92 -43 -126 -111 -142c64 -19 95 -68 64 -156l-42 -119c-39 -109 -3 -159 93 -167z" />
    <glyph glyph-name="bracketright.tab" horiz-adv-x="300" 
d="M-20 -120h145l137 868h-145l5 28h178l-146 -924h-179z" />
    <glyph glyph-name="bracketleft.tab" horiz-adv-x="300" 
d="M160 776h179l-5 -28h-144l-137 -868h145l-5 -28h-179z" />
    <glyph glyph-name="parenright.tab" horiz-adv-x="300" 
d="M149 773c55 -89 99 -206 99 -358c0 -222 -99 -418 -238 -563h-37c151 157 240 350 240 562c0 149 -45 267 -98 359h34z" />
    <glyph glyph-name="parenleft.tab" horiz-adv-x="300" 
d="M167 -148c-55 89 -99 206 -99 358c0 222 98 419 239 563h36c-149 -157 -239 -350 -239 -562c0 -149 44 -268 98 -359h-35z" />
    <glyph glyph-name="semicolon.tab" horiz-adv-x="300" 
d="M22 -100l82 160l32 -16l-91 -157zM168 337c-16 0 -29 13 -29 29s12 29 29 29c16 0 29 -13 29 -29s-13 -29 -29 -29z" />
    <glyph glyph-name="colon.tab" horiz-adv-x="300" 
d="M111 -5c-16 0 -29 13 -29 29s13 29 29 29s29 -13 29 -29s-13 -29 -29 -29zM166 337c-16 0 -29 13 -29 29s12 29 29 29c16 0 29 -13 29 -29s-13 -29 -29 -29z" />
    <glyph glyph-name="uni20B8.tab" 
d="M125 689l5 26h492l-4 -26h-493zM330 554h-228l5 31h492l-5 -31h-228l-85 -554h-36z" />
    <glyph glyph-name="comma.tab" horiz-adv-x="300" 
d="M31 -100l81 160l32 -16l-90 -157z" />
    <glyph glyph-name="period.tab" horiz-adv-x="300" 
d="M111 -5c-16 0 -29 13 -29 29s13 29 29 29s29 -13 29 -29s-13 -29 -29 -29z" />
    <glyph glyph-name="greaterequal.tab" 
d="M77 30h383l-5 -30h-383zM506 320l-1 -9l-416 -195l5 35l360 167l-305 180l6 32z" />
    <glyph glyph-name="lessequal.tab" 
d="M112 326l2 10l416 194l-6 -35l-359 -166l304 -180l-5 -33zM67 30h383l-5 -30h-383z" />
    <glyph glyph-name="greater.tab" 
d="M506 317l-1 -10l-417 -197l5 35l362 170l-306 183l6 32z" />
    <glyph glyph-name="less.tab" 
d="M112 324l1 9l417 197l-5 -34l-362 -170l306 -183l-6 -33z" />
    <glyph glyph-name="approxequal.tab" 
d="M109 349c11 55 47 92 103 92c78 0 151 -60 220 -60c41 0 66 29 73 62h30c-11 -55 -47 -92 -103 -92c-78 0 -151 60 -221 60c-41 0 -65 -29 -72 -62h-30zM83 189c11 53 47 92 103 92c78 0 151 -60 220 -60c41 0 66 29 73 62h30c-11 -56 -47 -92 -103 -92
c-78 0 -151 59 -221 59c-41 0 -65 -29 -72 -61h-30z" />
    <glyph glyph-name="notequal.tab" 
d="M121 413h224l72 125h34l-72 -125h146l-5 -30h-158l-73 -129h211l-5 -30h-223l-72 -126h-34l72 126h-147l5 30h159l73 129h-212z" />
    <glyph glyph-name="uni043A.bgr" horiz-adv-x="467" 
d="M161 773h34l-122 -773h-34zM427 523h45l-309 -244l244 -279h-41l-246 280z" />
    <glyph glyph-name="equal.tab" 
d="M96 254h404l-5 -30h-404zM121 413h404l-5 -30h-404z" />
    <glyph glyph-name="uni0438.bgr" horiz-adv-x="563" 
d="M461 140c-11 -63 -12 -109 -13 -140h-33c0 31 3 76 10 117c-37 -68 -106 -125 -201 -125c-115 0 -182 74 -158 220l49 311h34l-50 -315c-20 -125 33 -186 129 -186s190 67 209 187l50 314h34z" />
    <glyph glyph-name="divide.tab" 
d="M99 357h431l-5 -30h-431zM289 143c-16 0 -29 13 -29 29s13 29 29 29s29 -13 29 -29s-13 -29 -29 -29zM335 484c-16 0 -28 13 -28 28c0 16 12 29 28 29c17 0 29 -13 29 -29c0 -15 -12 -28 -29 -28z" />
    <glyph glyph-name="multiply.tab" 
d="M97 172l185 165l-142 164l22 21l143 -165l185 165l20 -23l-186 -164l144 -165l-22 -20l-144 165l-186 -165z" />
    <glyph glyph-name="plusminus.tab" 
d="M294 332h-200l5 30h200l34 210h31l-33 -210h200l-5 -30h-200l-33 -209h-32zM47 30h431l-5 -30h-431z" />
    <glyph glyph-name="minus.tab" 
d="M99 357h431l-5 -30h-431z" />
    <glyph glyph-name="plus.tab" 
d="M293 327h-199l5 30h199l35 215h31l-34 -215h200l-5 -30h-200l-33 -214h-32z" />
    <glyph glyph-name="perthousand.tab" horiz-adv-x="1000" 
d="M126 554c1 -60 39 -102 99 -102c73 0 118 62 118 137c-1 60 -35 105 -98 105c-72 0 -119 -67 -119 -140zM224 424c-75 0 -130 51 -130 131c0 88 60 167 152 167c73 0 129 -53 129 -133c0 -92 -62 -165 -151 -165zM620 715h36l-580 -715h-35zM353 124
c1 -60 39 -102 99 -102c75 0 118 62 118 137c0 60 -36 105 -97 105c-74 0 -120 -67 -120 -140zM452 -6c-76 0 -130 52 -130 131c0 88 60 167 151 167c73 0 129 -53 129 -133c0 -92 -61 -165 -150 -165zM685 124c1 -60 39 -102 99 -102c73 0 118 62 118 137
c-1 60 -35 105 -98 105c-72 0 -119 -67 -119 -140zM783 -6c-75 0 -130 51 -130 131c0 88 60 167 152 167c73 0 129 -53 129 -133c0 -92 -62 -165 -151 -165z" />
    <glyph glyph-name="uni0433.locl" horiz-adv-x="200" 
d="M85 675h161l-5 -28h-161zM123 523h35l-83 -523h-34z" />
    <glyph glyph-name="percent.tab" horiz-adv-x="800" 
d="M130 548c1 -64 41 -113 109 -113c77 0 130 57 129 141c0 61 -41 116 -110 116c-77 0 -128 -65 -128 -144zM239 407c-83 0 -141 59 -141 142c0 92 68 171 161 171c80 0 142 -62 142 -144c0 -99 -71 -169 -162 -169zM686 715h36l-579 -715h-36zM460 135
c1 -64 41 -113 109 -113c76 0 129 59 129 142c0 61 -41 115 -110 115c-78 0 -128 -65 -128 -144zM569 -6c-83 0 -142 59 -142 142c0 92 68 171 162 171c81 0 141 -62 141 -144c0 -99 -71 -169 -161 -169z" />
    <glyph glyph-name="grave.uc" horiz-adv-x="400" 
d="M201 891h41l55 -120h-28z" />
    <glyph glyph-name="dieresis.uc" horiz-adv-x="400" 
d="M203 788c-15 0 -26 10 -26 25s12 27 27 27s25 -11 25 -26s-11 -26 -26 -26zM370 788c-15 0 -26 10 -26 25s11 27 26 27s26 -11 26 -26s-11 -26 -26 -26z" />
    <glyph glyph-name="uni0447.bgr" horiz-adv-x="521" 
d="M363 0l42 267c-29 -29 -84 -74 -176 -74c-104 0 -171 58 -147 205l20 125h35l-21 -130c-19 -120 28 -170 119 -170c114 0 170 72 176 81l35 219h34l-83 -523h-34z" />
    <glyph glyph-name="macron.uc" horiz-adv-x="400" 
d="M170 823h236l-4 -29h-236z" />
    <glyph glyph-name="acute.uc" horiz-adv-x="400" 
d="M340 891h43l-90 -120h-31z" />
    <glyph glyph-name="circumflex.uc" horiz-adv-x="400" 
d="M279 891h33l96 -120h-29l-86 91l-109 -91h-32z" />
    <glyph glyph-name="caron.uc" horiz-adv-x="400" 
d="M297 771h-34l-95 120h29l86 -91l109 91h31z" />
    <glyph glyph-name="breve.uc" horiz-adv-x="400" 
d="M290 773c-68 0 -114 49 -115 117h30c3 -52 34 -88 86 -88c51 0 91 35 102 88h29c-8 -69 -68 -117 -132 -117z" />
    <glyph glyph-name="uni0416.bgr" horiz-adv-x="852" 
d="M402 0h-36l113 715h36zM836 715h44l-374 -347l279 -368h-41l-277 368zM24 0h-47l403 372l-261 343h39l260 -347z" />
    <glyph glyph-name="uni044E.bgr" horiz-adv-x="749" 
d="M451 -7c-130 0 -218 105 -218 236c0 9 1 20 2 29h-121l-41 -258h-34l123 773h34l-77 -486h119c21 135 117 243 258 243c133 0 215 -108 215 -236c0 -168 -103 -301 -260 -301zM452 22c139 0 224 119 224 272c0 112 -65 207 -181 207c-144 0 -227 -125 -227 -272
c0 -113 69 -207 184 -207z" />
    <glyph glyph-name="uni0448.bgr" horiz-adv-x="882" 
d="M779 140c-11 -71 -13 -107 -14 -140h-33c0 28 4 70 11 117c-35 -67 -96 -125 -185 -125c-88 0 -144 47 -152 139c-35 -83 -110 -139 -195 -139c-109 0 -174 69 -150 221l49 310h34l-50 -313c-20 -131 27 -188 122 -188c88 0 173 69 192 186l49 315h35l-50 -315
c-20 -125 26 -186 121 -186c90 0 173 69 192 186l50 315h34z" />
    <glyph glyph-name="uni0442.locl" horiz-adv-x="882" 
d="M186 675h604l-4 -28h-605zM779 140c-11 -71 -13 -107 -14 -140h-33c0 28 4 70 11 117c-35 -67 -96 -125 -185 -125c-88 0 -144 47 -152 139c-35 -83 -110 -139 -195 -139c-109 0 -174 69 -150 221l49 310h34l-50 -313c-20 -131 27 -188 122 -188c88 0 173 69 192 186
l49 315h35l-50 -315c-20 -125 26 -186 121 -186c90 0 173 69 192 186l50 315h34z" />
    <glyph glyph-name="florin.tab" 
d="M132 397h121l30 153c24 129 102 174 180 174c47 0 75 -10 91 -18l-4 -28c-19 8 -44 17 -87 17c-62 0 -125 -37 -146 -146l-30 -152h188l-4 -29h-189l-107 -550h-34l106 550h-119z" />
    <glyph glyph-name="yen.tab" 
d="M113 347h181l-158 368h38l148 -350l247 350h37l-261 -368h180l-5 -29h-188l-16 -107h187l-5 -29h-187l-28 -182h-35l28 182h-190l5 29h190l16 107h-189z" />
    <glyph glyph-name="sterling.tab" 
d="M71 363h77c-5 37 -9 75 -9 114c0 140 74 245 230 245c128 0 191 -72 194 -179h-35c-4 87 -53 148 -160 148c-132 0 -193 -88 -193 -214c0 -39 4 -75 8 -114h238l-5 -29h-230c3 -23 4 -46 4 -71c0 -72 -12 -118 -43 -162c79 -8 152 -77 235 -77c59 0 105 39 116 116h33
c-12 -95 -73 -147 -150 -147c-96 0 -175 79 -249 79c-47 0 -78 -29 -89 -72h-33c11 47 45 91 100 100c32 44 46 93 46 161c0 24 -2 49 -5 73h-85z" />
    <glyph glyph-name="uni0433.bgr" horiz-adv-x="435" 
d="M187 -9c-113 0 -169 51 -169 130c0 85 50 132 189 161c116 26 165 57 165 131c0 59 -46 88 -117 88c-76 0 -135 -35 -159 -107h-32c28 95 107 136 195 136s145 -37 145 -117c0 -89 -58 -131 -193 -158c-120 -24 -158 -68 -158 -135c0 -60 41 -100 134 -100
s151 57 174 133h33c-24 -93 -100 -162 -207 -162z" />
    <glyph glyph-name="dotaccent.uc" horiz-adv-x="400" 
d="M286 787c-15 0 -26 11 -26 26s12 27 27 27s26 -11 26 -26s-12 -27 -27 -27z" />
    <glyph glyph-name="ring.uc" horiz-adv-x="400" 
d="M290 774c39 0 68 29 68 70c0 39 -26 65 -65 65s-68 -29 -68 -70c0 -36 26 -65 65 -65zM290 752c-52 0 -91 40 -91 87c0 51 43 93 94 93c53 0 91 -40 91 -88c0 -52 -41 -92 -94 -92z" />
    <glyph glyph-name="space.tab" horiz-adv-x="300" 
 />
    <glyph glyph-name="nine.old" horiz-adv-x="567" 
d="M310 626c142 0 218 -89 218 -216c0 -26 -2 -52 -6 -78l-17 -108c-40 -248 -147 -328 -283 -328c-113 0 -180 56 -191 163h34c11 -85 61 -133 158 -133c118 0 209 70 246 294l13 80c-42 -82 -129 -118 -211 -118c-122 0 -205 74 -205 194c0 143 99 250 244 250zM494 418
c0 108 -66 179 -185 179c-125 0 -208 -92 -208 -220c0 -100 63 -166 176 -166c117 0 217 81 217 207z" />
    <glyph glyph-name="eight.old" horiz-adv-x="558" 
d="M259 -7c-126 0 -226 69 -226 187c0 117 91 192 197 205c-64 21 -113 73 -113 148c0 116 99 189 214 189c101 0 190 -65 190 -169c0 -98 -67 -158 -157 -174c79 -21 138 -84 138 -168c0 -139 -111 -218 -243 -218zM68 182c0 -97 77 -159 193 -159c112 0 206 64 206 187
c0 92 -75 157 -187 157s-212 -68 -212 -185zM152 532c0 -77 63 -137 161 -137c92 0 173 54 173 158c0 81 -65 140 -156 140c-97 0 -178 -60 -178 -161z" />
    <glyph glyph-name="seven.old" horiz-adv-x="483" 
d="M471 589h-395l5 29h439l-1 -7l-404 -708h-37z" />
    <glyph glyph-name="six.old" horiz-adv-x="567" 
d="M271 -8c-144 0 -219 87 -219 216c0 27 3 55 7 80l15 97c40 246 148 337 289 337c105 0 171 -51 180 -151h-34c-9 77 -56 122 -148 122c-119 0 -215 -79 -252 -305l-11 -69c43 81 130 117 210 117c123 0 206 -71 206 -194c0 -143 -98 -250 -243 -250zM87 202
c0 -109 66 -181 185 -181c126 0 207 93 207 220c0 101 -61 167 -177 167s-215 -81 -215 -206z" />
    <glyph glyph-name="five.old" horiz-adv-x="538" 
d="M35 78c8 -96 76 -152 183 -152c133 0 216 101 216 233c0 96 -60 170 -164 170c-85 0 -142 -38 -185 -83h-13l59 372h377l-6 -30h-346l-47 -295c35 35 94 65 167 65c117 0 193 -83 193 -197c0 -147 -97 -264 -252 -264c-116 0 -207 63 -215 181h33z" />
    <glyph glyph-name="four.old" horiz-adv-x="581" 
d="M375 71h-378l1 11l444 536h53l-81 -517h99l-5 -30h-98l-28 -168h-35zM379 101l78 491l-406 -491h328z" />
    <glyph glyph-name="uni20B4.tab" 
d="M527 192c-24 -110 -95 -200 -241 -200c-133 0 -204 64 -204 159c0 60 25 102 74 141l-96 4l116 11c40 27 91 50 155 77c29 12 52 23 75 35l-323 13l130 12l220 -9c57 39 79 77 79 137c0 73 -47 119 -147 119s-156 -54 -183 -137h-34c29 100 101 167 218 167
s182 -59 182 -147c0 -60 -21 -102 -70 -141l104 -4l-127 -12c-31 -20 -70 -39 -118 -59c-43 -19 -77 -34 -108 -51l331 -13l-130 -12l-227 9c-57 -39 -85 -79 -85 -139c0 -75 53 -131 169 -131c131 0 182 82 204 171h36z" />
    <glyph glyph-name="three.old" horiz-adv-x="548" 
d="M241 -103c-132 0 -231 74 -234 203h34c3 -107 77 -174 201 -174c116 0 198 62 198 187c0 83 -52 152 -160 152h-49l5 30h52c108 0 173 57 173 162c0 81 -56 140 -155 140c-101 0 -168 -60 -191 -160h-32c19 113 108 189 225 189c115 0 187 -69 187 -168
c0 -96 -53 -160 -141 -179c73 -19 121 -78 121 -165c0 -140 -99 -217 -234 -217z" />
    <glyph glyph-name="two.old" horiz-adv-x="518" 
d="M-19 9l291 221c76 57 177 129 177 236c0 89 -66 131 -150 131c-93 0 -170 -56 -195 -169h-33c24 128 118 198 229 198c99 0 185 -50 185 -159c0 -120 -104 -189 -195 -259l-235 -178h381l-4 -30h-452z" />
    <glyph glyph-name="one.old" horiz-adv-x="345" 
d="M238 576l-182 -112l5 35l193 119h25l-97 -618h-35z" />
    <glyph glyph-name="zero.old" horiz-adv-x="615" 
d="M88 302c-3 -21 -5 -43 -5 -63c0 -120 62 -217 206 -217c132 0 219 89 244 253l7 43c3 20 5 41 5 60c0 124 -63 219 -203 219c-125 0 -220 -85 -247 -252zM288 -8c-163 0 -240 108 -240 248c0 20 2 41 5 64l7 43c29 181 141 279 283 279c163 0 237 -111 237 -249
c0 -19 -2 -40 -5 -61l-7 -43c-28 -179 -127 -281 -280 -281z" />
    <glyph glyph-name="yen.old" horiz-adv-x="521" 
d="M72 337h175l-155 357h36l147 -340l241 340h36l-254 -357h174l-5 -28h-181l-17 -104h181l-4 -28h-181l-28 -177h-35l28 177h-184l5 28h183l16 104h-183z" />
    <glyph glyph-name="uni0430.alt" horiz-adv-x="586" 
d="M301 501c-140 0 -228 -123 -228 -275c0 -131 79 -204 179 -204c138 0 222 139 225 274c0 125 -71 205 -176 205zM248 -8c-120 0 -210 90 -210 233c0 165 102 306 262 306c122 0 177 -88 191 -156l24 148h34l-57 -354c-15 -88 -16 -136 -17 -169h-33c0 35 5 90 12 131
c-38 -78 -105 -139 -206 -139z" />
    <glyph glyph-name="sterling.old" horiz-adv-x="580" 
d="M64 353h74c-5 36 -9 71 -9 110c0 136 78 237 227 237c125 0 187 -69 190 -173h-35c-4 85 -51 143 -156 143c-126 0 -191 -84 -191 -207c0 -39 4 -74 8 -110h231l-4 -28h-224c3 -23 4 -45 4 -69c0 -71 -12 -115 -41 -158c77 -8 152 -74 232 -74c57 0 102 36 113 112h33
c-12 -92 -71 -143 -147 -143c-93 0 -175 76 -246 76c-45 0 -76 -28 -87 -69h-32c9 45 45 86 97 97c32 43 45 89 45 157c0 23 -2 47 -5 71h-82z" />
    <glyph glyph-name="uni20B8.oldtab" 
d="M123 668l5 26h478l-5 -26h-478zM322 538h-221l5 29h477l-5 -29h-221l-83 -538h-35z" />
    <glyph glyph-name="Euro.old" horiz-adv-x="641" 
d="M56 428h65c32 171 125 272 277 272c125 0 202 -65 207 -193h-33c-7 104 -66 164 -175 164c-133 0 -210 -86 -241 -243h251l-8 -28h-248l-17 -106h228l-8 -28h-224c-13 -127 33 -243 193 -243c111 0 186 63 215 180h32c-29 -138 -125 -210 -248 -210
c-173 0 -243 120 -227 273h-64l5 28h63l17 106h-65z" />
    <glyph glyph-name="dollar.old" horiz-adv-x="575" 
d="M258 -7l-19 -124h-30l20 127c-117 13 -194 78 -201 195h35c8 -96 67 -154 170 -166l51 324c-124 35 -179 83 -179 168c0 116 96 183 223 183h12l14 89h30l-15 -92c99 -11 165 -64 173 -160h-33c-11 80 -63 120 -144 131l-47 -295c130 -37 192 -77 192 -176
c0 -129 -98 -204 -236 -204h-16zM475 195c0 80 -46 114 -162 146l-50 -318h11c120 0 201 60 201 172zM140 518c0 -67 40 -104 149 -137l46 290h-9c-110 0 -186 -52 -186 -153z" />
    <glyph glyph-name="space_uni0326" horiz-adv-x="400" 
d="M83 -183l68 139l34 -10l-79 -141z" />
    <glyph glyph-name="uni0434.locl" horiz-adv-x="601" 
d="M259 46c137 0 232 125 232 269c0 107 -66 186 -183 186c-140 0 -229 -115 -229 -261c0 -109 63 -194 180 -194zM482 18c-23 -140 -113 -204 -246 -204c-125 0 -209 56 -224 156h35c13 -80 81 -127 188 -127c120 0 194 58 213 177l21 133c-35 -68 -106 -135 -213 -135
c-129 0 -212 89 -212 221c0 160 106 292 264 292c110 0 176 -64 197 -151l22 143h35z" />
    <glyph glyph-name="tilde.uc" horiz-adv-x="400" 
d="M357 774c-50 0 -90 59 -130 59c-23 0 -47 -19 -55 -59h-28c12 60 44 89 84 89c48 0 90 -59 130 -59c23 0 46 19 55 58h27c-11 -59 -44 -88 -83 -88z" />
    <glyph glyph-name="hungarumlaut.uc" horiz-adv-x="400" 
d="M262 891h39l-70 -120h-28zM380 891h39l-70 -120h-28z" />
    <glyph glyph-name="f.short" horiz-adv-x="315" 
d="M64 523h82l16 98c19 119 84 155 158 155c23 0 41 -4 56 -8l-4 -29c-16 5 -33 8 -51 8c-59 0 -109 -26 -125 -128l-15 -96h156l-5 -29h-156l-78 -494h-34l78 494h-83z" />
    <glyph glyph-name="idotaccent" horiz-adv-x="200" 
d="M161 637c-15 0 -26 12 -26 27s12 26 27 26s26 -11 26 -26s-12 -27 -27 -27zM123 523h35l-83 -523h-34z" />
    <glyph glyph-name="f_f.short" horiz-adv-x="586" 
d="M64 523h82l15 94c19 115 85 150 159 150c25 0 43 -4 59 -9l-4 -29c-17 7 -33 9 -54 9c-60 0 -110 -25 -126 -122l-15 -93h237l16 98c19 119 86 155 158 155c23 0 41 -4 56 -8l-4 -29c-15 5 -32 8 -51 8c-59 0 -109 -26 -125 -128l-15 -96h156l-5 -29h-156l-78 -494h-34
l78 494h-237l-78 -494h-34l77 494h-82z" />
    <glyph glyph-name="uni021B.alt" horiz-adv-x="307" 
d="M-4 -183l68 139l34 -10l-79 -141zM150 494h-92l5 29h91l19 119h35l-19 -119h133l-5 -29h-133l-77 -494h-35z" />
    <glyph glyph-name="uni0437.bgr" horiz-adv-x="449" 
d="M159 -186c-139 0 -182 93 -179 180h35c-3 -78 35 -151 144 -151c115 0 181 95 181 206c0 92 -44 145 -140 145h-75l4 29h74c109 0 162 74 162 158c0 80 -46 121 -122 121c-80 0 -133 -48 -154 -124h-32c23 100 94 152 187 152c97 0 155 -57 155 -148
c0 -90 -63 -160 -140 -173c68 -15 114 -63 114 -160c0 -132 -82 -235 -214 -235z" />
    <glyph glyph-name="uni0449.bgr" horiz-adv-x="893" 
d="M796 -127l16 127h-80c0 28 4 70 11 117c-35 -67 -96 -125 -185 -125c-88 0 -144 47 -152 139c-35 -83 -110 -139 -195 -139c-109 0 -174 69 -150 221l49 310h34l-50 -313c-20 -131 27 -188 122 -188c88 0 173 69 192 186l49 315h35l-50 -315c-20 -125 26 -186 121 -186
c90 0 173 69 192 186l50 315h34l-63 -405c-7 -43 -8 -68 -11 -88h84l-25 -157h-28z" />
    <glyph glyph-name="uni044A.bgr" horiz-adv-x="550" 
d="M42 494l5 29h180l-33 -201c19 3 65 11 122 11c119 0 180 -59 180 -152c0 -112 -83 -188 -199 -188c-123 0 -180 70 -160 195l51 306h-146zM296 22c103 0 165 67 165 157c0 79 -50 125 -147 125c-56 0 -105 -8 -124 -12l-18 -105c-17 -107 27 -165 124 -165z" />
    <glyph glyph-name="uni02BC" unicode="&#x2bc;" horiz-adv-x="185" 
d="M96 564l77 156l32 -15l-86 -152z" />
    <glyph glyph-name="uni00AD" unicode="&#xad;" horiz-adv-x="333" 
d="M66 295h206l-5 -33h-207z" />
    </font>
</defs>
</svg>
