<?xml version="1.0" standalone="no"?>
<!DOCTYPE svg PUBLIC "-//W3C//DTD SVG 1.1//EN" "http://www.w3.org/Graphics/SVG/1.1/DTD/svg11.dtd" >
<svg xmlns="http://www.w3.org/2000/svg" xmlns:xlink="http://www.w3.org/1999/xlink" version="1.1">
<metadata>
Created by FontForge 20190801 at Mon Jul  4 10:32:52 2016
 By Jimmy Wärting
LCG stand for Latin, Cyrillic and Greek.
</metadata>
<defs>
<font id="GraphikLCG-Extralight" horiz-adv-x="600" >
  <font-face 
    font-family="Graphik LCG"
    font-weight="250"
    font-stretch="normal"
    units-per-em="1000"
    panose-1="2 11 3 3 3 2 2 6 2 3"
    ascent="818"
    descent="-182"
    x-height="523"
    cap-height="715"
    bbox="-220 -211 1055 1079"
    underline-thickness="50"
    underline-position="-100"
    stemh="30"
    stemv="34"
    unicode-range="U+000D-FB02"
  />
<missing-glyph horiz-adv-x="500" 
 />
    <glyph glyph-name="f_f" unicode="ff" horiz-adv-x="596" 
d="M107 494h-82v29h82v91c0 111 66 154 144 154c23 0 35 -3 54 -8v-30c-15 5 -31 8 -54 8c-60 0 -109 -31 -109 -122v-93h238v99c0 112 66 154 143 154c23 0 35 -1 54 -8v-30c-15 5 -32 9 -53 9c-61 0 -110 -31 -110 -122v-102h156v-29h-156v-494h-34v494h-238v-494h-35v494
z" />
    <glyph glyph-name=".notdef" horiz-adv-x="500" 
 />
    <glyph glyph-name="NULL" horiz-adv-x="0" 
 />
    <glyph glyph-name="NULL" horiz-adv-x="0" 
 />
    <glyph glyph-name="CR" unicode="&#xd;" horiz-adv-x="235" 
 />
    <glyph glyph-name="space" unicode=" " horiz-adv-x="235" 
 />
    <glyph glyph-name="exclam" unicode="!" horiz-adv-x="262" 
d="M131 -5c-16 0 -29 13 -29 29s13 29 29 29s29 -13 29 -29s-13 -29 -29 -29zM113 715h38l-5 -550h-28z" />
    <glyph glyph-name="quotedbl" unicode="&#x22;" horiz-adv-x="261" 
d="M57 715h37l-5 -186h-27zM167 715h38l-6 -186h-27z" />
    <glyph glyph-name="numbersign" unicode="#" horiz-adv-x="484" 
d="M292 303h-136l-29 -204h-30l30 204h-95v30h99l25 172h-96v30h101l26 180h30l-27 -180h136l26 180h30l-27 -180h97v-30h-101l-25 -172h98v-30h-103l-29 -204h-30zM161 333h135l25 172h-135z" />
    <glyph glyph-name="dollar" unicode="$" horiz-adv-x="593" 
d="M280 -6c-154 8 -225 93 -238 203h35c13 -89 66 -166 203 -174v337c-148 25 -212 77 -212 180c0 108 87 177 212 182v91h31v-92c117 -7 188 -68 204 -168h-34c-16 84 -70 133 -170 138v-304c155 -24 226 -66 226 -197c0 -107 -85 -194 -226 -197v-128h-31v129zM502 189
c0 106 -53 146 -191 167v-333c120 3 191 74 191 166zM102 542c0 -80 43 -126 178 -150v300c-109 -4 -178 -57 -178 -150z" />
    <glyph glyph-name="percent" unicode="%" horiz-adv-x="755" 
d="M196 435c65 0 119 47 119 128c0 80 -51 128 -119 128c-64 0 -119 -49 -119 -129s55 -127 119 -127zM196 407c-78 0 -151 61 -151 154c0 95 71 159 151 159c83 0 152 -64 152 -157c0 -96 -72 -156 -152 -156zM593 715h34l-467 -715h-34zM557 23c65 0 119 45 119 128
c0 80 -51 128 -119 128c-64 0 -119 -49 -119 -130c0 -80 55 -126 119 -126zM557 -6c-78 0 -151 60 -151 155c0 93 71 158 151 158c83 0 152 -64 152 -156c0 -97 -72 -157 -152 -157z" />
    <glyph glyph-name="ampersand" unicode="&#x26;" horiz-adv-x="649" 
d="M490 147l127 -147h-43l-103 119c-45 -64 -112 -126 -218 -126c-129 0 -206 81 -206 192c0 110 90 173 180 218c-51 60 -79 106 -79 166c0 88 68 150 153 150c87 0 142 -64 142 -142c0 -86 -72 -139 -166 -182l193 -223l102 185h34zM254 23c91 0 153 55 196 120l-205 239
c-82 -40 -162 -98 -162 -195c0 -95 61 -164 171 -164zM182 568c0 -53 29 -96 78 -153c86 40 150 88 150 162c0 67 -42 113 -110 113s-118 -49 -118 -122z" />
    <glyph glyph-name="quotesingle" unicode="'" horiz-adv-x="151" 
d="M57 715h37l-5 -186h-27z" />
    <glyph glyph-name="parenleft" unicode="(" horiz-adv-x="285" 
d="M221 -148c-91 107 -164 261 -164 460c0 200 73 352 164 461h35c-90 -111 -164 -258 -164 -461c0 -204 74 -349 164 -460h-35z" />
    <glyph glyph-name="parenright" unicode=")" horiz-adv-x="285" 
d="M29 -147c90 111 164 256 164 460c0 203 -74 350 -164 461h35c91 -109 165 -261 165 -461c0 -199 -74 -353 -165 -460h-35z" />
    <glyph glyph-name="asterisk" unicode="*" horiz-adv-x="415" 
d="M91 451l96 121l-138 46l10 29l135 -52l-2 148h32l-2 -148l134 52l10 -29l-138 -46l95 -121l-26 -19l-90 123l-90 -123z" />
    <glyph glyph-name="plus" unicode="+" horiz-adv-x="505" 
d="M237 327h-200v30h200v215h31v-215h200v-30h-200v-214h-31v214z" />
    <glyph glyph-name="comma" unicode="," horiz-adv-x="195" 
d="M31 -101l65 160l35 -15l-75 -157z" />
    <glyph glyph-name="hyphen" unicode="-" horiz-adv-x="333" 
d="M63 295h207v-33h-207v33z" />
    <glyph glyph-name="period" unicode="." horiz-adv-x="195" 
d="M98 -5c-17 0 -29 13 -29 29s12 29 29 29c16 0 28 -13 28 -29s-12 -29 -28 -29z" />
    <glyph glyph-name="slash" unicode="/" horiz-adv-x="383" 
d="M308 776h34l-291 -924h-34z" />
    <glyph glyph-name="zero" unicode="0" horiz-adv-x="646" 
d="M324 24c152 0 231 103 231 300v73c0 181 -87 295 -234 295s-230 -107 -230 -298v-73c0 -197 88 -297 233 -297zM324 -7c-171 0 -269 119 -269 328v73c0 208 98 328 266 328c165 0 270 -123 270 -326v-73c0 -209 -94 -330 -267 -330z" />
    <glyph glyph-name="one" unicode="1" horiz-adv-x="348" 
d="M189 674l-165 -113v34l174 120h27v-715h-36v674z" />
    <glyph glyph-name="two" unicode="2" horiz-adv-x="527" 
d="M21 9l289 295c81 83 117 149 117 228c0 107 -68 160 -167 160s-168 -57 -183 -177h-34c11 132 100 207 217 207c116 0 203 -67 203 -191c0 -87 -43 -161 -130 -248l-253 -252h397v-31h-456v9z" />
    <glyph glyph-name="three" unicode="3" horiz-adv-x="544" 
d="M268 -7c-145 0 -228 95 -233 203h33c8 -92 73 -172 200 -172c117 0 189 60 189 173c0 92 -55 162 -172 162h-50v31h47c108 0 151 70 151 145c0 88 -55 156 -157 156c-105 0 -170 -69 -181 -158h-32c8 107 92 189 213 189s193 -83 193 -186c0 -77 -47 -140 -120 -159
c85 -17 145 -80 145 -180c0 -129 -93 -204 -226 -204z" />
    <glyph glyph-name="four" unicode="4" horiz-adv-x="581" 
d="M405 167h-375v11l357 537h54v-517h99v-31h-99v-167h-36v167zM405 198v492l-325 -492h325z" />
    <glyph glyph-name="five" unicode="5" horiz-adv-x="545" 
d="M260 -7c-139 0 -216 89 -224 185h34c11 -80 70 -154 190 -154c125 0 198 79 198 206c0 121 -81 200 -185 200c-91 0 -147 -38 -183 -83h-14v368h382v-31h-351v-289c31 32 90 66 170 66c121 0 218 -89 218 -231c0 -147 -95 -237 -235 -237z" />
    <glyph glyph-name="six" unicode="6" horiz-adv-x="588" 
d="M304 -7c-171 0 -244 123 -244 286v73c0 265 110 370 263 370c100 0 179 -48 195 -156h-34c-15 87 -71 125 -163 125c-131 0 -225 -87 -225 -331v-48c32 92 125 137 210 137c153 0 234 -98 234 -226c0 -135 -95 -230 -236 -230zM304 23c123 0 200 82 200 199
c0 119 -68 197 -201 197c-105 0 -201 -68 -201 -188c0 -105 60 -208 202 -208z" />
    <glyph glyph-name="seven" unicode="7" horiz-adv-x="491" 
d="M428 685h-402v30h448v-7l-285 -708h-38z" />
    <glyph glyph-name="eight" unicode="8" horiz-adv-x="568" 
d="M285 -7c-126 0 -236 70 -236 204c0 102 73 168 172 189c-77 19 -141 72 -141 160c0 109 98 176 205 176c108 0 203 -69 203 -174c0 -90 -59 -143 -136 -162c98 -21 167 -83 167 -187c0 -136 -104 -206 -234 -206zM285 24c116 0 198 59 198 176c0 109 -89 170 -196 170
c-108 0 -202 -63 -202 -172c0 -117 91 -174 200 -174zM288 400c91 0 164 50 164 148c0 84 -71 144 -167 144c-97 0 -168 -58 -168 -146c0 -97 87 -146 171 -146z" />
    <glyph glyph-name="nine" unicode="9" horiz-adv-x="586" 
d="M276 -7c-108 0 -192 55 -213 163h35c19 -85 82 -132 178 -132c133 0 216 66 216 310v63c-32 -89 -126 -131 -213 -131c-150 0 -231 95 -231 226c0 139 94 230 235 230c172 0 245 -122 245 -280v-105c0 -261 -96 -344 -252 -344zM282 295c107 0 205 68 205 183
c0 107 -61 214 -204 214c-121 0 -199 -82 -199 -199c0 -116 67 -198 198 -198z" />
    <glyph glyph-name="colon" unicode=":" horiz-adv-x="202" 
d="M101 -5c-16 0 -29 13 -29 29s13 29 29 29s29 -13 29 -29s-13 -29 -29 -29zM101 337c-16 0 -29 13 -29 29s13 29 29 29s29 -13 29 -29s-13 -29 -29 -29z" />
    <glyph glyph-name="semicolon" unicode=";" horiz-adv-x="202" 
d="M25 -101l65 160l35 -15l-75 -157zM103 337c-16 0 -28 13 -28 29s12 29 28 29c17 0 29 -13 29 -29s-12 -29 -29 -29z" />
    <glyph glyph-name="less" unicode="&#x3c;" horiz-adv-x="491" 
d="M49 317v10l384 207v-34l-332 -178l332 -178v-34z" />
    <glyph glyph-name="equal" unicode="=" horiz-adv-x="484" 
d="M40 254h404v-30h-404v30zM40 413h404v-30h-404v30z" />
    <glyph glyph-name="greater" unicode="&#x3e;" horiz-adv-x="491" 
d="M58 144l333 178l-333 178v34l384 -207v-10l-384 -207v34z" />
    <glyph glyph-name="question" unicode="?" horiz-adv-x="469" 
d="M193 227c0 78 41 119 99 177c51 51 93 89 93 161c0 75 -46 127 -145 127c-96 0 -161 -61 -168 -162h-34c8 117 88 192 203 192c120 0 179 -68 179 -156c0 -87 -47 -122 -104 -181c-55 -55 -91 -92 -91 -161v-59h-32v62zM209 -5c-16 0 -29 13 -29 29s13 29 29 29
s29 -13 29 -29s-13 -29 -29 -29z" />
    <glyph glyph-name="at" unicode="@" horiz-adv-x="905" 
d="M461 -147c-268 0 -414 197 -414 410c0 244 201 425 424 425c239 0 391 -160 391 -366c0 -181 -89 -250 -169 -250c-69 0 -109 39 -112 110c-21 -51 -78 -117 -158 -117c-93 0 -158 66 -158 174c0 133 92 232 193 232c73 0 124 -49 136 -109l11 100h34l-27 -233
c-11 -77 13 -129 82 -129c75 0 135 70 135 221c0 195 -131 338 -358 338c-212 0 -391 -169 -391 -395c0 -200 129 -382 381 -382c146 0 241 54 294 118h34c-48 -77 -166 -147 -328 -147zM427 93c87 0 158 92 158 199c0 95 -50 150 -126 150c-82 0 -159 -82 -159 -203
c0 -92 51 -146 127 -146z" />
    <glyph glyph-name="A" unicode="A" horiz-adv-x="641" 
d="M296 715h48l266 -715h-36l-85 228h-339l-84 -228h-34zM161 258h317l-159 428z" />
    <glyph glyph-name="B" unicode="B" horiz-adv-x="592" 
d="M94 715h195c122 0 208 -55 208 -179v-4c0 -88 -51 -138 -131 -157c111 -17 167 -76 167 -176v-4c0 -129 -82 -195 -214 -195h-225v715zM318 30c119 0 180 58 180 165v4c0 105 -70 159 -203 159h-166v-328h189zM291 387c112 0 170 53 170 146v4c0 100 -64 148 -173 148
h-159v-298h162z" />
    <glyph glyph-name="C" unicode="C" horiz-adv-x="723" 
d="M382 -7c-201 0 -331 148 -331 360v8c0 212 148 361 331 361c146 0 263 -76 287 -216h-36c-25 119 -112 186 -251 186c-168 0 -294 -136 -294 -330v-8c0 -199 115 -330 295 -330c137 0 235 74 262 201h33c-27 -147 -145 -232 -296 -232z" />
    <glyph glyph-name="D" unicode="D" horiz-adv-x="680" 
d="M273 31c215 0 319 138 319 325v8c0 182 -100 321 -320 321h-142v-654h143zM94 715h183c231 0 352 -152 352 -351v-8c0 -197 -113 -356 -354 -356h-181v715z" />
    <glyph glyph-name="E" unicode="E" horiz-adv-x="566" 
d="M94 715h406v-30h-370v-301h301v-31h-301v-322h388v-31h-424v715z" />
    <glyph glyph-name="F" unicode="F" horiz-adv-x="537" 
d="M94 715h399v-30h-363v-304h287v-30h-287v-351h-36v715z" />
    <glyph glyph-name="G" unicode="G" horiz-adv-x="750" 
d="M393 -7c-213 0 -342 149 -342 360v8c0 210 148 361 338 361c136 0 254 -63 284 -203h-36c-29 120 -126 173 -247 173c-176 0 -302 -137 -302 -330v-8c0 -198 111 -330 305 -330c176 0 269 103 270 279v7h-227v31h262v-33c0 -205 -121 -315 -305 -315z" />
    <glyph glyph-name="H" unicode="H" horiz-adv-x="709" 
d="M94 715h36v-339h449v339h36v-715h-36v345h-449v-345h-36v715z" />
    <glyph glyph-name="I" unicode="I" horiz-adv-x="234" 
d="M99 715h36v-715h-36v715z" />
    <glyph glyph-name="J" unicode="J" horiz-adv-x="389" 
d="M137 -5c-48 0 -82 11 -101 20v32c24 -11 56 -22 99 -22c85 0 137 41 137 148v542h36v-543c0 -125 -70 -177 -171 -177z" />
    <glyph glyph-name="K" unicode="K" horiz-adv-x="588" 
d="M135 364l365 351h42l-363 -348l381 -367h-45zM94 715h36v-715h-36v715z" />
    <glyph glyph-name="L" unicode="L" horiz-adv-x="528" 
d="M94 715h36v-684h360v-31h-396v715z" />
    <glyph glyph-name="M" unicode="M" horiz-adv-x="849" 
d="M94 715h53l272 -649l277 649h53v-715h-36v672l-288 -672h-14l-283 672v-672h-34v715z" />
    <glyph glyph-name="N" unicode="N" horiz-adv-x="707" 
d="M94 715h51l433 -667v667h35v-715h-44l-440 678v-678h-35v715z" />
    <glyph glyph-name="O" unicode="O" horiz-adv-x="795" 
d="M400 24c178 0 307 144 307 332v8c0 183 -129 328 -309 328c-181 0 -310 -143 -310 -331v-8c0 -187 133 -329 312 -329zM400 -7c-200 0 -349 160 -349 360v8c0 203 151 361 347 361s346 -157 346 -358v-8c0 -202 -149 -363 -344 -363z" />
    <glyph glyph-name="P" unicode="P" horiz-adv-x="559" 
d="M94 715h180c140 0 239 -54 239 -195v-4c0 -144 -97 -201 -237 -201h-147v-315h-35v715zM277 345c124 0 200 48 200 171v4c0 124 -82 165 -202 165h-146v-340h148z" />
    <glyph glyph-name="Q" unicode="Q" horiz-adv-x="795" 
d="M591 52c-55 -39 -119 -59 -191 -59c-200 0 -349 160 -349 360v8c0 203 151 361 347 361s346 -157 346 -358v-8c0 -117 -48 -218 -128 -285l87 -91l-22 -22zM400 24c64 0 122 18 169 51l-113 120l23 22l116 -123c71 60 112 153 112 262v8c0 183 -129 328 -309 328
c-181 0 -310 -143 -310 -331v-8c0 -187 133 -329 312 -329z" />
    <glyph glyph-name="R" unicode="R" horiz-adv-x="593" 
d="M94 715h183c140 0 239 -51 239 -187v-4c0 -119 -78 -175 -190 -186l232 -338h-41l-230 335h-158v-335h-35v715zM278 365c124 0 202 44 202 159v4c0 117 -82 157 -202 157h-149v-320h149z" />
    <glyph glyph-name="S" unicode="S" horiz-adv-x="586" 
d="M299 -7c-168 0 -244 90 -260 204h35c13 -93 74 -173 225 -173c125 0 199 71 199 165c0 110 -55 146 -203 168c-160 23 -227 78 -227 183c0 111 89 182 222 182c128 0 203 -62 220 -169h-34c-17 88 -74 139 -186 139c-117 0 -187 -53 -187 -150c0 -84 47 -131 197 -152
c162 -24 234 -66 234 -200c0 -109 -88 -197 -235 -197z" />
    <glyph glyph-name="T" unicode="T" horiz-adv-x="558" 
d="M261 685h-230v30h497v-30h-231v-685h-36v685z" />
    <glyph glyph-name="U" unicode="U" horiz-adv-x="674" 
d="M336 -5c-159 0 -256 89 -256 258v462h36v-459c0 -155 79 -230 220 -230c153 0 221 76 221 243v446h36v-451c0 -169 -82 -269 -257 -269z" />
    <glyph glyph-name="V" unicode="V" horiz-adv-x="626" 
d="M29 715h35l255 -678l244 678h34l-257 -715h-43z" />
    <glyph glyph-name="W" unicode="W" horiz-adv-x="915" 
d="M32 715h36l176 -663l202 663h25l191 -665l188 665h33l-203 -715h-38l-184 648l-198 -648h-37z" />
    <glyph glyph-name="X" unicode="X" horiz-adv-x="638" 
d="M300 372l-230 343h40l213 -317l212 317h38l-231 -344l250 -371h-40l-233 345l-235 -345h-37z" />
    <glyph glyph-name="Y" unicode="Y" horiz-adv-x="565" 
d="M272 322l-250 393h41l228 -362l215 362h37l-235 -393v-322h-36v322z" />
    <glyph glyph-name="Z" unicode="Z" horiz-adv-x="582" 
d="M27 9l466 676h-430v30h482v-8l-464 -676h458v-31h-512v9z" />
    <glyph glyph-name="bracketleft" unicode="[" horiz-adv-x="331" 
d="M96 776h194v-28h-159v-868h159v-28h-194v924z" />
    <glyph glyph-name="backslash" unicode="\" horiz-adv-x="383" 
d="M41 776h34l291 -924h-34z" />
    <glyph glyph-name="bracketright" unicode="]" horiz-adv-x="331" 
d="M40 -120h160v868h-160v28h194v-924h-194v28z" />
    <glyph glyph-name="asciicircum" unicode="^" horiz-adv-x="461" 
d="M214 715h33l167 -284h-36l-148 251l-147 -251h-36z" />
    <glyph glyph-name="underscore" unicode="_" horiz-adv-x="387" 
d="M-1 -117h389v-29h-389v29z" />
    <glyph glyph-name="grave" unicode="`" horiz-adv-x="400" 
d="M104 747h41l72 -147h-29z" />
    <glyph glyph-name="a" unicode="a" horiz-adv-x="521" 
d="M225 -8c-108 0 -179 51 -179 147c0 121 109 157 235 157h130v51c0 108 -45 154 -146 154c-84 0 -147 -36 -162 -121h-34c13 103 101 151 197 151c117 0 179 -59 179 -184v-347h-34v89c-31 -52 -91 -97 -186 -97zM227 21c100 0 184 62 184 139v108h-130
c-111 0 -201 -24 -201 -129c0 -76 51 -118 147 -118z" />
    <glyph glyph-name="b" unicode="b" horiz-adv-x="602" 
d="M328 -8c-115 0 -186 76 -213 148v-140h-34v773h34v-394c29 80 111 152 213 152c127 0 232 -102 232 -265v-8c0 -167 -103 -266 -232 -266zM326 22c115 0 199 87 199 235v8c0 152 -92 236 -200 236c-105 0 -210 -84 -210 -236v-8c0 -148 97 -235 211 -235z" />
    <glyph glyph-name="c" unicode="c" horiz-adv-x="547" 
d="M288 -8c-137 0 -246 107 -246 265v8c0 160 111 266 247 266c104 0 200 -61 213 -169h-34c-13 91 -90 139 -179 139c-117 0 -212 -90 -212 -236v-8c0 -144 94 -235 211 -235c95 0 172 55 188 155h32c-16 -112 -105 -185 -220 -185z" />
    <glyph glyph-name="d" unicode="d" horiz-adv-x="602" 
d="M277 -8c-131 0 -235 96 -235 264v8c0 162 108 267 243 267c113 0 172 -71 202 -144v386h34v-773h-34v140c-24 -70 -99 -148 -210 -148zM279 22c112 0 209 87 209 235v8c0 152 -87 236 -201 236c-116 0 -210 -87 -210 -236v-8c0 -150 87 -235 202 -235z" />
    <glyph glyph-name="e" unicode="e" horiz-adv-x="545" 
d="M286 -8c-153 0 -244 110 -244 265v8c0 156 101 266 237 266c128 0 224 -88 224 -252v-15h-426c1 -153 74 -242 209 -242c91 0 158 39 179 122h34c-24 -97 -105 -152 -213 -152zM469 293c-4 139 -78 208 -190 208s-193 -83 -201 -208h391z" />
    <glyph glyph-name="f" unicode="f" horiz-adv-x="324" 
d="M107 494h-82v29h82v99c0 112 66 154 144 154c23 0 35 -1 54 -8v-30c-15 5 -31 9 -54 9c-60 0 -109 -31 -109 -122v-102h156v-29h-156v-494h-35v494z" />
    <glyph glyph-name="g" unicode="g" horiz-adv-x="602" 
d="M286 -187c-149 0 -220 74 -233 157h35c13 -72 74 -127 197 -127c115 0 202 53 202 193v125c-24 -70 -99 -144 -210 -144c-131 0 -235 94 -235 251v8c0 152 108 255 243 255c113 0 172 -66 202 -139v131h34v-489c0 -156 -99 -221 -235 -221zM279 46c112 0 209 83 209 224
v7c0 142 -87 224 -201 224c-116 0 -210 -83 -210 -224v-8c0 -141 87 -223 202 -223z" />
    <glyph glyph-name="h" unicode="h" horiz-adv-x="573" 
d="M81 773h34v-364c24 64 98 122 195 122c113 0 187 -63 187 -208v-323h-34v324c0 124 -58 177 -158 177c-93 0 -190 -64 -190 -184v-317h-34v773z" />
    <glyph glyph-name="i" unicode="i" horiz-adv-x="200" 
d="M83 523h34v-523h-34v523zM100 637c-15 0 -27 12 -27 27s12 26 27 26s26 -11 26 -26s-11 -27 -26 -27z" />
    <glyph glyph-name="j" unicode="j" horiz-adv-x="200" 
d="M6 -156c60 5 77 33 77 96v583h34v-581c0 -84 -28 -125 -111 -128v30zM100 637c-15 0 -27 12 -27 27s12 26 27 26s26 -11 26 -26s-11 -27 -26 -27z" />
    <glyph glyph-name="k" unicode="k" horiz-adv-x="468" 
d="M118 277l275 246h42l-275 -245l291 -278h-44zM81 773h34v-773h-34v773z" />
    <glyph glyph-name="l" unicode="l" horiz-adv-x="201" 
d="M83 773h35v-773h-35v773z" />
    <glyph glyph-name="m" unicode="m" horiz-adv-x="900" 
d="M81 523h34v-111c24 61 90 119 181 119c85 0 145 -37 164 -129c31 77 103 129 191 129c104 0 173 -55 173 -202v-329h-34v330c0 123 -52 171 -144 171c-87 0 -176 -64 -176 -183v-318h-34v330c0 123 -52 171 -144 171c-88 0 -177 -64 -177 -183v-318h-34v523z" />
    <glyph glyph-name="n" unicode="n" horiz-adv-x="573" 
d="M81 523h34v-114c24 64 98 122 195 122c113 0 187 -63 187 -208v-323h-34v324c0 124 -58 177 -158 177c-93 0 -190 -64 -190 -184v-317h-34v523z" />
    <glyph glyph-name="o" unicode="o" horiz-adv-x="583" 
d="M292 22c117 0 214 90 214 236v8c0 148 -98 235 -213 235c-116 0 -216 -90 -216 -236v-8c0 -143 97 -235 215 -235zM291 -8c-137 0 -249 110 -249 265v8c0 156 115 265 251 265s248 -105 248 -264v-8c0 -157 -114 -266 -250 -266z" />
    <glyph glyph-name="p" unicode="p" horiz-adv-x="602" 
d="M81 523h34v-144c29 80 111 152 213 152c127 0 232 -102 232 -265v-8c0 -167 -103 -266 -232 -266c-115 0 -186 76 -213 148v-322h-34v705zM326 22c115 0 199 87 199 235v8c0 152 -92 236 -200 236c-105 0 -210 -84 -210 -236v-8c0 -148 97 -235 211 -235z" />
    <glyph glyph-name="q" unicode="q" horiz-adv-x="602" 
d="M487 140c-24 -70 -99 -148 -210 -148c-131 0 -235 96 -235 264v8c0 162 108 267 243 267c113 0 172 -71 202 -144v136h34v-705h-34v322zM279 22c112 0 209 87 209 235v8c0 152 -87 236 -201 236c-116 0 -210 -87 -210 -236v-8c0 -150 87 -235 202 -235z" />
    <glyph glyph-name="r" unicode="r" horiz-adv-x="331" 
d="M81 523h34v-120c26 66 83 122 181 125v-31c-99 -5 -181 -59 -181 -205v-292h-34v523z" />
    <glyph glyph-name="s" unicode="s" horiz-adv-x="456" 
d="M235 -9c-121 0 -191 67 -199 163h33c11 -77 61 -134 166 -134c95 0 145 49 145 116c0 77 -39 97 -146 118c-123 21 -180 51 -180 142c0 82 77 134 171 134c95 0 162 -40 177 -136h-33c-14 71 -62 107 -145 107s-138 -41 -138 -105c0 -67 43 -93 156 -112
c116 -22 172 -49 172 -146c0 -82 -66 -147 -179 -147z" />
    <glyph glyph-name="t" unicode="t" horiz-adv-x="328" 
d="M221 -7c-75 0 -119 43 -119 130v371h-79v29h79v119h34v-119h146v-29h-146v-369c0 -72 35 -102 87 -102c28 0 47 4 66 11v-30c-17 -7 -36 -11 -68 -11z" />
    <glyph glyph-name="u" unicode="u" horiz-adv-x="569" 
d="M262 -8c-112 0 -186 56 -186 201v330h34v-329c0 -123 60 -171 157 -171c92 0 187 61 187 181v319h34v-523h-34v112c-24 -65 -95 -120 -192 -120z" />
    <glyph glyph-name="v" unicode="v" horiz-adv-x="508" 
d="M26 523h37l193 -490l191 490h35l-204 -523h-46z" />
    <glyph glyph-name="w" unicode="w" horiz-adv-x="765" 
d="M30 523h36l151 -482l153 482h29l149 -482l153 482h34l-166 -523h-41l-144 466l-149 -466h-41z" />
    <glyph glyph-name="x" unicode="x" horiz-adv-x="500" 
d="M228 271l-186 252h41l166 -227l163 227h39l-182 -250l201 -273h-41l-181 248l-180 -248h-38z" />
    <glyph glyph-name="y" unicode="y" horiz-adv-x="495" 
d="M234 40l-208 483h36l190 -444l181 444h36l-292 -705h-35z" />
    <glyph glyph-name="z" unicode="z" horiz-adv-x="468" 
d="M26 7l359 487h-329v29h383v-7l-357 -486h350v-30h-406v7z" />
    <glyph glyph-name="braceleft" unicode="{" horiz-adv-x="351" 
d="M311 -145c-130 0 -199 49 -170 193l24 120c16 77 -16 134 -122 134v28c105 1 137 55 122 134l-24 121c-29 143 40 192 170 192v-28c-108 0 -162 -33 -138 -163l24 -123c19 -88 -24 -131 -91 -147c66 -16 110 -58 91 -147l-24 -123c-24 -130 30 -163 138 -163v-28z" />
    <glyph glyph-name="bar" unicode="|" horiz-adv-x="233" 
d="M101 776h31v-924h-31v924z" />
    <glyph glyph-name="braceright" unicode="}" horiz-adv-x="351" 
d="M40 -117c107 0 164 33 138 163l-24 123c-17 89 24 132 91 147c-67 16 -108 59 -91 147l24 123c26 130 -31 163 -138 163v28c131 0 197 -49 171 -192l-25 -121c-16 -77 16 -134 122 -134v-28c-106 0 -138 -57 -122 -134l25 -120c27 -144 -40 -193 -171 -193v28z" />
    <glyph glyph-name="asciitilde" unicode="~" horiz-adv-x="433" 
d="M48 237c7 60 41 99 90 99c64 0 106 -66 157 -66c33 0 56 31 60 68h30c-7 -60 -41 -99 -89 -99c-65 0 -108 66 -157 66c-35 0 -56 -31 -61 -68h-30z" />
    <glyph glyph-name="uni00A0" unicode="&#xa0;" horiz-adv-x="280" 
 />
    <glyph glyph-name="exclamdown" unicode="&#xa1;" horiz-adv-x="263" 
d="M116 434h28l5 -551h-38zM131 546c-16 0 -28 13 -28 28c0 16 12 29 28 29c17 0 29 -13 29 -29c0 -15 -12 -28 -29 -28z" />
    <glyph glyph-name="cent" unicode="&#xa2;" horiz-adv-x="546" 
d="M271 -7c-129 8 -229 105 -229 264v8c0 158 102 257 229 265v99h31v-99c99 -5 187 -65 200 -168h-34c-13 86 -82 133 -166 138v-478c88 5 158 61 174 155h32c-16 -107 -99 -179 -206 -184v-128h-31v128zM77 257c0 -144 85 -227 194 -235v478c-109 -8 -194 -90 -194 -235
v-8z" />
    <glyph glyph-name="sterling" unicode="&#xa3;" horiz-adv-x="585" 
d="M50 363h74c-15 47 -27 96 -27 157c0 122 90 202 214 202c128 0 197 -72 208 -179h-35c-15 95 -65 148 -173 148c-105 0 -177 -70 -177 -171c0 -61 12 -109 27 -157h239v-29h-230c11 -43 21 -86 21 -139c0 -36 -9 -66 -22 -93c80 -5 162 -78 240 -78c68 0 107 41 111 116
h33c-7 -91 -61 -147 -141 -147c-95 0 -174 79 -249 79c-51 0 -79 -31 -86 -72h-33c7 44 34 88 89 99c15 27 25 59 25 96c0 52 -11 95 -24 139h-84v29z" />
    <glyph glyph-name="yen" unicode="&#xa5;" horiz-adv-x="531" 
d="M65 347h182l-219 368h39l207 -349l193 349h36l-204 -368h178v-29h-186v-107h186v-29h-186v-182h-36v182h-190v29h190v107h-190v29z" />
    <glyph glyph-name="brokenbar" unicode="&#xa6;" horiz-adv-x="235" 
d="M101 297h31v-445h-31v445zM101 776h31v-409h-31v409z" />
    <glyph glyph-name="section" unicode="&#xa7;" horiz-adv-x="532" 
d="M266 -137c-101 0 -175 53 -183 147h36c7 -73 62 -117 147 -117c88 0 132 47 132 119c0 81 -43 107 -162 139c-112 29 -187 65 -187 161c0 73 62 122 138 138c-49 28 -77 60 -77 128c0 88 75 146 164 146c97 0 154 -51 161 -139h-35c-7 71 -42 109 -125 109
c-73 0 -131 -40 -131 -115s40 -102 155 -137c111 -32 185 -70 185 -162c0 -76 -53 -118 -130 -137c52 -27 78 -67 78 -131c0 -88 -64 -149 -166 -149zM325 160c79 15 124 50 124 118c0 73 -57 99 -157 131l-76 25c-75 -13 -132 -53 -132 -120c0 -77 61 -102 160 -131z" />
    <glyph glyph-name="dieresis" unicode="&#xa8;" horiz-adv-x="400" 
d="M123 638c-15 0 -26 11 -26 26s11 26 26 26s26 -11 26 -26s-11 -26 -26 -26zM277 638c-15 0 -26 11 -26 26s11 26 26 26s26 -11 26 -26s-11 -26 -26 -26z" />
    <glyph glyph-name="copyright" unicode="&#xa9;" horiz-adv-x="844" 
d="M425 148c-120 0 -197 86 -197 210v7c0 123 88 210 196 210c88 0 156 -45 171 -130h-33c-15 67 -62 102 -138 102c-93 0 -162 -73 -162 -182v-6c0 -113 63 -182 163 -182c76 0 128 39 143 111h32c-16 -88 -83 -140 -175 -140zM421 -9c-204 0 -366 159 -366 366
c0 204 162 367 368 367c208 0 366 -162 366 -365c0 -209 -162 -368 -368 -368zM421 17c188 0 339 146 339 342c0 192 -146 339 -337 339c-189 0 -339 -148 -339 -341c0 -196 152 -340 337 -340z" />
    <glyph glyph-name="ordfeminine" unicode="&#xaa;" horiz-adv-x="418" 
d="M179 310c-81 0 -137 39 -137 112c0 94 83 121 183 121h95v37c0 80 -32 114 -108 114c-63 0 -108 -27 -119 -88h-33c11 80 77 116 154 116c88 0 139 -46 139 -142v-265h-33v67c-23 -39 -69 -72 -141 -72zM183 337c75 0 137 45 137 103v77h-95c-84 0 -150 -18 -150 -94
c0 -56 37 -86 108 -86z" />
    <glyph glyph-name="guillemotleft" unicode="&#xab;" horiz-adv-x="415" 
d="M52 261l137 178h36l-136 -178l136 -178h-36zM197 261l137 178h36l-136 -178l136 -178h-36z" />
    <glyph glyph-name="registered" unicode="&#xae;" horiz-adv-x="514" 
d="M184 626h73c51 0 84 -22 84 -66v-1c0 -39 -25 -58 -60 -63l73 -107h-31l-72 104h-40v-104h-27v237zM258 515c37 0 55 14 55 43v1c0 32 -18 44 -55 44h-47v-88h47zM257 282c-123 0 -222 96 -222 220c0 123 97 222 222 222s222 -97 222 -221c0 -125 -99 -221 -222 -221z
M257 304c112 0 197 84 197 199c0 113 -84 199 -197 199c-112 0 -197 -88 -197 -200c0 -114 88 -198 197 -198z" />
    <glyph glyph-name="macron" unicode="&#xaf;" horiz-adv-x="400" 
d="M85 675h230v-28h-230v28z" />
    <glyph glyph-name="degree" unicode="&#xb0;" horiz-adv-x="395" 
d="M198 467c65 0 113 52 113 114c0 64 -48 117 -113 117c-67 0 -115 -53 -115 -117c0 -62 48 -114 115 -114zM198 441c-81 0 -146 63 -146 140c0 80 65 143 146 143c80 0 145 -63 145 -143c0 -77 -65 -140 -145 -140z" />
    <glyph glyph-name="plusminus" unicode="&#xb1;" horiz-adv-x="505" 
d="M237 332h-200v30h200v210h31v-210h200v-30h-200v-209h-31v209zM37 30h431v-30h-431v30z" />
    <glyph glyph-name="twosuperior" unicode="&#xb2;" horiz-adv-x="288" 
d="M20 379l130 128c48 47 69 76 69 115c0 47 -32 72 -77 72c-51 0 -78 -32 -85 -85h-28c5 69 47 109 114 109c64 0 106 -38 106 -95c0 -48 -23 -81 -76 -130l-102 -97h181v-25h-232v8z" />
    <glyph glyph-name="threesuperior" unicode="&#xb3;" horiz-adv-x="307" 
d="M154 367c-77 0 -124 46 -128 102h29c5 -41 37 -77 98 -77c56 0 87 28 87 75c0 43 -30 72 -81 72h-27v24h25c49 0 73 29 73 65c0 40 -30 67 -77 67c-55 0 -81 -33 -86 -73h-28c4 53 45 96 114 96c64 0 106 -37 106 -89c0 -40 -24 -66 -60 -77c40 -8 72 -38 72 -85
c0 -64 -46 -100 -117 -100z" />
    <glyph glyph-name="acute" unicode="&#xb4;" horiz-adv-x="400" 
d="M255 747h41l-84 -147h-28z" />
    <glyph glyph-name="mu" unicode="&#xb5;" horiz-adv-x="574" 
d="M82 523h34v-338c0 -116 69 -162 165 -162c92 0 179 61 179 181v319h34v-523h-34v112c-24 -64 -87 -119 -183 -119c-73 0 -134 25 -161 93v-268h-34v705z" />
    <glyph glyph-name="paragraph" unicode="&#xb6;" horiz-adv-x="542" 
d="M269 357h-14c-124 0 -211 58 -211 175c0 124 91 183 211 183h192v-815h-31v789h-117v-789h-30v457z" />
    <glyph glyph-name="periodcentered" unicode="&#xb7;" horiz-adv-x="195" 
d="M98 293c-17 0 -29 13 -29 29s12 29 29 29c16 0 28 -13 28 -29s-12 -29 -28 -29z" />
    <glyph glyph-name="cedilla" unicode="&#xb8;" horiz-adv-x="400" 
d="M211 -211c-51 0 -87 28 -92 75h32c4 -28 24 -47 59 -47s56 20 56 49c0 35 -25 45 -52 45c-19 0 -32 -7 -39 -10l-20 18l46 81h32l-38 -67c50 16 104 -6 104 -68c0 -49 -37 -76 -88 -76z" />
    <glyph glyph-name="onesuperior" unicode="&#xb9;" horiz-adv-x="208" 
d="M111 680l-91 -65v29l99 71h23v-344h-31v309z" />
    <glyph glyph-name="ordmasculine" unicode="&#xba;" horiz-adv-x="464" 
d="M232 338c88 0 158 66 158 175v6c0 110 -70 174 -157 174s-159 -67 -159 -175v-6c0 -106 70 -174 158 -174zM231 310c-106 0 -191 82 -191 202v6c0 124 88 203 193 203c106 0 191 -77 191 -202v-6c0 -125 -86 -203 -193 -203z" />
    <glyph glyph-name="guillemotright" unicode="&#xbb;" horiz-adv-x="415" 
d="M181 261l-136 178h36l138 -178l-138 -178h-36zM326 261l-136 178h36l138 -178l-138 -178h-36z" />
    <glyph glyph-name="onequarter" unicode="&#xbc;" horiz-adv-x="650" 
d="M114 680l-91 -65v29l99 71h23v-344h-31v309zM566 715h31l-522 -715h-31zM543 77h-182v11l171 256h41v-243h47v-24h-47v-77h-30v77zM543 101v221l-145 -221h145z" />
    <glyph glyph-name="onehalf" unicode="&#xbd;" horiz-adv-x="658" 
d="M116 680l-91 -65v29l99 71h23v-344h-31v309zM546 715h31l-522 -715h-31zM386 8l130 128c48 47 69 76 69 115c0 47 -32 72 -77 72c-51 0 -78 -32 -85 -85h-28c5 69 47 109 114 109c64 0 106 -38 106 -95c0 -48 -23 -81 -76 -130l-102 -97h181v-25h-232v8z" />
    <glyph glyph-name="threequarters" unicode="&#xbe;" horiz-adv-x="671" 
d="M157 367c-77 0 -124 46 -128 102h29c5 -41 37 -77 98 -77c56 0 87 28 87 75c0 43 -30 72 -81 72h-27v24h25c49 0 73 29 73 65c0 40 -30 67 -77 67c-55 0 -81 -33 -86 -73h-28c4 53 45 96 114 96c64 0 106 -37 106 -89c0 -40 -24 -66 -60 -77c40 -8 72 -38 72 -85
c0 -64 -46 -100 -117 -100zM609 715h31l-522 -715h-31zM558 77h-182v11l171 256h41v-243h47v-24h-47v-77h-30v77zM558 101v221l-145 -221h145z" />
    <glyph glyph-name="questiondown" unicode="&#xbf;" horiz-adv-x="469" 
d="M276 372c0 -79 -41 -120 -99 -178c-51 -51 -93 -89 -93 -161c0 -75 46 -127 145 -127c96 0 161 61 168 162h34c-8 -117 -88 -192 -203 -192c-120 0 -179 68 -179 157c0 86 47 121 104 180c55 55 91 92 91 161v60h32v-62zM260 603c16 0 29 -13 29 -29
c0 -15 -13 -28 -29 -28s-29 13 -29 28c0 16 13 29 29 29z" />
    <glyph glyph-name="Agrave" unicode="&#xc0;" horiz-adv-x="641" 
d="M296 715h48l266 -715h-36l-85 228h-339l-84 -228h-34zM161 258h317l-159 428zM224 891h42l68 -120h-29z" />
    <glyph glyph-name="Aacute" unicode="&#xc1;" horiz-adv-x="641" 
d="M296 715h48l266 -715h-36l-85 228h-339l-84 -228h-34zM161 258h317l-159 428zM362 891h41l-81 -120h-29z" />
    <glyph glyph-name="Acircumflex" unicode="&#xc2;" horiz-adv-x="641" 
d="M296 715h48l266 -715h-36l-85 228h-339l-84 -228h-34zM161 258h317l-159 428zM298 891h34l110 -120h-30l-97 90l-99 -90h-30z" />
    <glyph glyph-name="Atilde" unicode="&#xc3;" horiz-adv-x="641" 
d="M296 715h48l266 -715h-36l-85 228h-339l-84 -228h-34zM161 258h317l-159 428zM381 773c-51 0 -93 60 -132 60c-27 0 -46 -20 -51 -59h-27c7 60 38 89 78 89c49 0 93 -60 132 -60c25 0 45 20 50 59h27c-7 -60 -38 -89 -77 -89z" />
    <glyph glyph-name="Adieresis" unicode="&#xc4;" horiz-adv-x="641" 
d="M296 715h48l266 -715h-36l-85 228h-339l-84 -228h-34zM161 258h317l-159 428zM231 788c-15 0 -26 11 -26 26s11 26 26 26s26 -11 26 -26s-11 -26 -26 -26zM397 788c-15 0 -26 11 -26 26s11 26 26 26s26 -11 26 -26s-11 -26 -26 -26z" />
    <glyph glyph-name="Aring" unicode="&#xc5;" horiz-adv-x="641" 
d="M296 715h48l266 -715h-36l-85 228h-339l-84 -228h-34zM161 258h317l-159 428zM314 774c39 0 67 30 67 67c0 39 -28 68 -67 68c-36 0 -66 -29 -66 -68c0 -37 30 -67 66 -67zM314 752c-50 0 -92 41 -92 89c0 51 41 91 92 91c52 0 93 -40 93 -91c0 -48 -41 -89 -93 -89z" />
    <glyph glyph-name="AE" unicode="&#xc6;" horiz-adv-x="943" 
d="M387 715h491v-30h-371v-301h301v-31h-301v-322h389v-31h-425v228h-291l-114 -228h-38zM195 258h276v427h-63z" />
    <glyph glyph-name="Ccedilla" unicode="&#xc7;" horiz-adv-x="723" 
d="M366 -211c-51 0 -87 28 -92 75h32c4 -28 24 -47 59 -47s56 20 56 49c0 35 -25 45 -52 45c-19 0 -32 -7 -39 -10l-20 18l42 75c-184 13 -301 157 -301 359v8c0 212 148 361 331 361c146 0 263 -76 287 -216h-36c-25 119 -112 186 -251 186c-168 0 -294 -136 -294 -330v-8
c0 -199 115 -330 295 -330c137 0 235 74 262 201h33c-27 -146 -144 -232 -294 -232l-34 -60c50 16 104 -6 104 -68c0 -49 -37 -76 -88 -76z" />
    <glyph glyph-name="Egrave" unicode="&#xc8;" horiz-adv-x="566" 
d="M94 715h406v-30h-370v-301h301v-31h-301v-322h388v-31h-424v715zM205 891h42l68 -120h-29z" />
    <glyph glyph-name="Eacute" unicode="&#xc9;" horiz-adv-x="566" 
d="M94 715h406v-30h-370v-301h301v-31h-301v-322h388v-31h-424v715zM343 891h41l-81 -120h-29z" />
    <glyph glyph-name="Ecircumflex" unicode="&#xca;" horiz-adv-x="566" 
d="M94 715h406v-30h-370v-301h301v-31h-301v-322h388v-31h-424v715zM279 891h34l110 -120h-30l-97 90l-99 -90h-30z" />
    <glyph glyph-name="Edieresis" unicode="&#xcb;" horiz-adv-x="566" 
d="M94 715h406v-30h-370v-301h301v-31h-301v-322h388v-31h-424v715zM212 788c-15 0 -26 11 -26 26s11 26 26 26s26 -11 26 -26s-11 -26 -26 -26zM378 788c-15 0 -26 11 -26 26s11 26 26 26s26 -11 26 -26s-11 -26 -26 -26z" />
    <glyph glyph-name="Igrave" unicode="&#xcc;" horiz-adv-x="234" 
d="M99 715h36v-715h-36v715zM27 891h42l68 -120h-29z" />
    <glyph glyph-name="Iacute" unicode="&#xcd;" horiz-adv-x="234" 
d="M99 715h36v-715h-36v715zM165 891h41l-81 -120h-29z" />
    <glyph glyph-name="Icircumflex" unicode="&#xce;" horiz-adv-x="234" 
d="M99 715h36v-715h-36v715zM101 891h34l110 -120h-30l-97 90l-99 -90h-30z" />
    <glyph glyph-name="Idieresis" unicode="&#xcf;" horiz-adv-x="234" 
d="M99 715h36v-715h-36v715zM34 788c-15 0 -26 11 -26 26s11 26 26 26s26 -11 26 -26s-11 -26 -26 -26zM200 788c-15 0 -26 11 -26 26s11 26 26 26s26 -11 26 -26s-11 -26 -26 -26z" />
    <glyph glyph-name="Eth" unicode="&#xd0;" horiz-adv-x="685" 
d="M24 375h75v340h183c231 0 352 -152 352 -351v-8c0 -197 -113 -356 -354 -356h-181v345h-75v30zM278 31c215 0 319 138 319 325v8c0 182 -100 321 -320 321h-142v-310h209v-30h-209v-314h143z" />
    <glyph glyph-name="Ntilde" unicode="&#xd1;" horiz-adv-x="707" 
d="M94 715h51l433 -667v667h35v-715h-44l-440 678v-678h-35v715zM431 773c-51 0 -93 60 -132 60c-27 0 -46 -20 -51 -59h-27c7 60 38 89 78 89c49 0 93 -60 132 -60c25 0 45 20 50 59h27c-7 -60 -38 -89 -77 -89z" />
    <glyph glyph-name="Ograve" unicode="&#xd2;" horiz-adv-x="795" 
d="M400 24c178 0 307 144 307 332v8c0 183 -129 328 -309 328c-181 0 -310 -143 -310 -331v-8c0 -187 133 -329 312 -329zM400 -7c-200 0 -349 160 -349 360v8c0 203 151 361 347 361s346 -157 346 -358v-8c0 -202 -149 -363 -344 -363zM307 891h42l68 -120h-29z" />
    <glyph glyph-name="Oacute" unicode="&#xd3;" horiz-adv-x="795" 
d="M400 24c178 0 307 144 307 332v8c0 183 -129 328 -309 328c-181 0 -310 -143 -310 -331v-8c0 -187 133 -329 312 -329zM400 -7c-200 0 -349 160 -349 360v8c0 203 151 361 347 361s346 -157 346 -358v-8c0 -202 -149 -363 -344 -363zM445 891h41l-81 -120h-29z" />
    <glyph glyph-name="Ocircumflex" unicode="&#xd4;" horiz-adv-x="795" 
d="M400 24c178 0 307 144 307 332v8c0 183 -129 328 -309 328c-181 0 -310 -143 -310 -331v-8c0 -187 133 -329 312 -329zM400 -7c-200 0 -349 160 -349 360v8c0 203 151 361 347 361s346 -157 346 -358v-8c0 -202 -149 -363 -344 -363zM381 891h34l110 -120h-30l-97 90
l-99 -90h-30z" />
    <glyph glyph-name="Otilde" unicode="&#xd5;" horiz-adv-x="795" 
d="M400 24c178 0 307 144 307 332v8c0 183 -129 328 -309 328c-181 0 -310 -143 -310 -331v-8c0 -187 133 -329 312 -329zM400 -7c-200 0 -349 160 -349 360v8c0 203 151 361 347 361s346 -157 346 -358v-8c0 -202 -149 -363 -344 -363zM464 773c-51 0 -93 60 -132 60
c-27 0 -46 -20 -51 -59h-27c7 60 38 89 78 89c49 0 93 -60 132 -60c25 0 45 20 50 59h27c-7 -60 -38 -89 -77 -89z" />
    <glyph glyph-name="Odieresis" unicode="&#xd6;" horiz-adv-x="795" 
d="M400 24c178 0 307 144 307 332v8c0 183 -129 328 -309 328c-181 0 -310 -143 -310 -331v-8c0 -187 133 -329 312 -329zM400 -7c-200 0 -349 160 -349 360v8c0 203 151 361 347 361s346 -157 346 -358v-8c0 -202 -149 -363 -344 -363zM314 788c-15 0 -26 11 -26 26
s11 26 26 26s26 -11 26 -26s-11 -26 -26 -26zM480 788c-15 0 -26 11 -26 26s11 26 26 26s26 -11 26 -26s-11 -26 -26 -26z" />
    <glyph glyph-name="multiply" unicode="&#xd7;" horiz-adv-x="492" 
d="M53 171l166 164l-166 166l21 21l165 -165l165 165l21 -21l-165 -166l165 -164l-21 -21l-165 165l-165 -165z" />
    <glyph glyph-name="Oslash" unicode="&#xd8;" horiz-adv-x="795" 
d="M45 2l96 106c-57 64 -90 149 -90 245v8c0 203 151 361 347 361c87 0 163 -31 223 -82l88 98l22 -22l-87 -97c63 -64 100 -154 100 -255v-8c0 -202 -149 -363 -344 -363c-95 0 -177 34 -238 93l-95 -106zM400 24c178 0 307 144 307 332v8c0 92 -30 172 -85 232l-438 -486
c56 -55 129 -86 216 -86zM88 353c0 -88 28 -163 75 -220l437 484c-53 47 -122 75 -202 75c-181 0 -310 -143 -310 -331v-8z" />
    <glyph glyph-name="Ugrave" unicode="&#xd9;" horiz-adv-x="674" 
d="M336 -5c-159 0 -256 89 -256 258v462h36v-459c0 -155 79 -230 220 -230c153 0 221 76 221 243v446h36v-451c0 -169 -82 -269 -257 -269zM247 891h42l68 -120h-29z" />
    <glyph glyph-name="Uacute" unicode="&#xda;" horiz-adv-x="674" 
d="M336 -5c-159 0 -256 89 -256 258v462h36v-459c0 -155 79 -230 220 -230c153 0 221 76 221 243v446h36v-451c0 -169 -82 -269 -257 -269zM384 891h41l-81 -120h-29z" />
    <glyph glyph-name="Ucircumflex" unicode="&#xdb;" horiz-adv-x="674" 
d="M336 -5c-159 0 -256 89 -256 258v462h36v-459c0 -155 79 -230 220 -230c153 0 221 76 221 243v446h36v-451c0 -169 -82 -269 -257 -269zM320 891h34l110 -120h-30l-97 90l-99 -90h-30z" />
    <glyph glyph-name="Udieresis" unicode="&#xdc;" horiz-adv-x="674" 
d="M336 -5c-159 0 -256 89 -256 258v462h36v-459c0 -155 79 -230 220 -230c153 0 221 76 221 243v446h36v-451c0 -169 -82 -269 -257 -269zM253 788c-15 0 -26 11 -26 26s11 26 26 26s26 -11 26 -26s-11 -26 -26 -26zM419 788c-15 0 -26 11 -26 26s11 26 26 26
s26 -11 26 -26s-11 -26 -26 -26z" />
    <glyph glyph-name="Yacute" unicode="&#xdd;" horiz-adv-x="565" 
d="M272 322l-250 393h41l228 -362l215 362h37l-235 -393v-322h-36v322zM335 891h41l-81 -120h-29z" />
    <glyph glyph-name="Thorn" unicode="&#xde;" horiz-adv-x="559" 
d="M94 715h35v-150h145c140 0 239 -50 239 -191v-4c0 -142 -99 -193 -239 -193h-145v-177h-35v715zM275 207c124 0 202 42 202 163v4c0 124 -82 160 -202 160h-146v-327h146z" />
    <glyph glyph-name="germandbls" unicode="&#xdf;" horiz-adv-x="557" 
d="M311 -5c-41 0 -71 5 -96 16v30c28 -11 56 -17 95 -17c88 0 172 45 172 182v7c0 124 -101 220 -229 217v30c112 0 166 73 166 149v4c0 80 -50 134 -146 134c-100 0 -158 -67 -158 -171v-576h-34v575c0 124 81 201 193 201c113 0 179 -70 179 -163v-4
c0 -77 -51 -142 -134 -162c102 -19 198 -106 198 -233v-7c0 -159 -105 -212 -206 -212z" />
    <glyph glyph-name="agrave" unicode="&#xe0;" horiz-adv-x="521" 
d="M225 -8c-108 0 -179 51 -179 147c0 121 109 157 235 157h130v51c0 108 -45 154 -146 154c-84 0 -147 -36 -162 -121h-34c13 103 101 151 197 151c117 0 179 -59 179 -184v-347h-34v89c-31 -52 -91 -97 -186 -97zM227 21c100 0 184 62 184 139v108h-130
c-111 0 -201 -24 -201 -129c0 -76 51 -118 147 -118zM173 747h41l72 -147h-29z" />
    <glyph glyph-name="aacute" unicode="&#xe1;" horiz-adv-x="521" 
d="M225 -8c-108 0 -179 51 -179 147c0 121 109 157 235 157h130v51c0 108 -45 154 -146 154c-84 0 -147 -36 -162 -121h-34c13 103 101 151 197 151c117 0 179 -59 179 -184v-347h-34v89c-31 -52 -91 -97 -186 -97zM227 21c100 0 184 62 184 139v108h-130
c-111 0 -201 -24 -201 -129c0 -76 51 -118 147 -118zM315 747h41l-84 -147h-28z" />
    <glyph glyph-name="acircumflex" unicode="&#xe2;" horiz-adv-x="521" 
d="M225 -8c-108 0 -179 51 -179 147c0 121 109 157 235 157h130v51c0 108 -45 154 -146 154c-84 0 -147 -36 -162 -121h-34c13 103 101 151 197 151c117 0 179 -59 179 -184v-347h-34v89c-31 -52 -91 -97 -186 -97zM227 21c100 0 184 62 184 139v108h-130
c-111 0 -201 -24 -201 -129c0 -76 51 -118 147 -118zM247 729h34l109 -129h-30l-96 100l-98 -100h-30z" />
    <glyph glyph-name="atilde" unicode="&#xe3;" horiz-adv-x="521" 
d="M225 -8c-108 0 -179 51 -179 147c0 121 109 157 235 157h130v51c0 108 -45 154 -146 154c-84 0 -147 -36 -162 -121h-34c13 103 101 151 197 151c117 0 179 -59 179 -184v-347h-34v89c-31 -52 -91 -97 -186 -97zM227 21c100 0 184 62 184 139v108h-130
c-111 0 -201 -24 -201 -129c0 -76 51 -118 147 -118zM333 615c-52 0 -94 58 -133 58c-23 0 -45 -19 -50 -58h-27c7 60 38 88 78 88c48 0 93 -59 133 -59c23 0 44 20 49 59h27c-7 -60 -38 -88 -77 -88z" />
    <glyph glyph-name="adieresis" unicode="&#xe4;" horiz-adv-x="521" 
d="M225 -8c-108 0 -179 51 -179 147c0 121 109 157 235 157h130v51c0 108 -45 154 -146 154c-84 0 -147 -36 -162 -121h-34c13 103 101 151 197 151c117 0 179 -59 179 -184v-347h-34v89c-31 -52 -91 -97 -186 -97zM227 21c100 0 184 62 184 139v108h-130
c-111 0 -201 -24 -201 -129c0 -76 51 -118 147 -118zM189 638c-15 0 -26 11 -26 26s11 26 26 26s26 -11 26 -26s-11 -26 -26 -26zM343 638c-15 0 -26 11 -26 26s11 26 26 26s26 -11 26 -26s-11 -26 -26 -26z" />
    <glyph glyph-name="aring" unicode="&#xe5;" horiz-adv-x="521" 
d="M225 -8c-108 0 -179 51 -179 147c0 121 109 157 235 157h130v51c0 108 -45 154 -146 154c-84 0 -147 -36 -162 -121h-34c13 103 101 151 197 151c117 0 179 -59 179 -184v-347h-34v89c-31 -52 -91 -97 -186 -97zM227 21c100 0 184 62 184 139v108h-130
c-111 0 -201 -24 -201 -129c0 -76 51 -118 147 -118zM266 625c39 0 67 30 67 67c0 39 -28 68 -67 68c-36 0 -66 -29 -66 -68c0 -37 30 -67 66 -67zM266 603c-50 0 -92 41 -92 89c0 51 41 91 92 91c52 0 93 -40 93 -91c0 -48 -41 -89 -93 -89z" />
    <glyph glyph-name="ae" unicode="&#xe6;" horiz-adv-x="909" 
d="M652 -8c-111 0 -184 57 -217 149c-24 -97 -112 -149 -209 -149c-108 0 -180 50 -180 146c0 121 107 154 232 154h136v54c0 108 -48 155 -148 155c-84 0 -148 -36 -163 -121h-34c13 103 102 151 198 151c100 0 159 -45 174 -137c36 85 109 137 204 137
c128 0 222 -87 222 -252v-15h-419c1 -153 71 -242 204 -242c91 0 154 39 177 122h34c-24 -97 -103 -152 -211 -152zM228 21c100 0 186 62 186 159v84h-135c-112 0 -199 -22 -199 -126c0 -77 52 -117 148 -117zM832 292c-3 139 -76 209 -187 209c-110 0 -189 -82 -197 -209
h384z" />
    <glyph glyph-name="ccedilla" unicode="&#xe7;" horiz-adv-x="547" 
d="M267 -211c-51 0 -87 28 -92 75h32c4 -28 24 -47 59 -47s56 20 56 49c0 35 -25 45 -52 45c-19 0 -32 -7 -39 -10l-20 18l43 76c-121 16 -212 116 -212 262v8c0 160 111 266 247 266c104 0 200 -61 213 -169h-34c-13 91 -90 139 -179 139c-117 0 -212 -90 -212 -236v-8
c0 -144 94 -235 211 -235c95 0 172 55 188 155h32c-16 -112 -105 -185 -220 -185h-4l-33 -59c50 16 104 -6 104 -68c0 -49 -37 -76 -88 -76z" />
    <glyph glyph-name="egrave" unicode="&#xe8;" horiz-adv-x="545" 
d="M286 -8c-153 0 -244 110 -244 265v8c0 156 101 266 237 266c128 0 224 -88 224 -252v-15h-426c1 -153 74 -242 209 -242c91 0 158 39 179 122h34c-24 -97 -105 -152 -213 -152zM469 293c-4 139 -78 208 -190 208s-193 -83 -201 -208h391zM184 747h41l72 -147h-29z" />
    <glyph glyph-name="eacute" unicode="&#xe9;" horiz-adv-x="545" 
d="M286 -8c-153 0 -244 110 -244 265v8c0 156 101 266 237 266c128 0 224 -88 224 -252v-15h-426c1 -153 74 -242 209 -242c91 0 158 39 179 122h34c-24 -97 -105 -152 -213 -152zM469 293c-4 139 -78 208 -190 208s-193 -83 -201 -208h391zM326 747h41l-84 -147h-28z" />
    <glyph glyph-name="ecircumflex" unicode="&#xea;" horiz-adv-x="545" 
d="M286 -8c-153 0 -244 110 -244 265v8c0 156 101 266 237 266c128 0 224 -88 224 -252v-15h-426c1 -153 74 -242 209 -242c91 0 158 39 179 122h34c-24 -97 -105 -152 -213 -152zM469 293c-4 139 -78 208 -190 208s-193 -83 -201 -208h391zM262 729h34l109 -129h-30
l-96 100l-98 -100h-30z" />
    <glyph glyph-name="edieresis" unicode="&#xeb;" horiz-adv-x="545" 
d="M286 -8c-153 0 -244 110 -244 265v8c0 156 101 266 237 266c128 0 224 -88 224 -252v-15h-426c1 -153 74 -242 209 -242c91 0 158 39 179 122h34c-24 -97 -105 -152 -213 -152zM469 293c-4 139 -78 208 -190 208s-193 -83 -201 -208h391zM201 638c-15 0 -26 11 -26 26
s11 26 26 26s26 -11 26 -26s-11 -26 -26 -26zM355 638c-15 0 -26 11 -26 26s11 26 26 26s26 -11 26 -26s-11 -26 -26 -26z" />
    <glyph glyph-name="igrave" unicode="&#xec;" horiz-adv-x="200" 
d="M83 523h34v-523h-34v523zM2 747h41l72 -147h-29z" />
    <glyph glyph-name="iacute" unicode="&#xed;" horiz-adv-x="200" 
d="M83 523h34v-523h-34v523zM154 747h41l-84 -147h-28z" />
    <glyph glyph-name="icircumflex" unicode="&#xee;" horiz-adv-x="200" 
d="M83 523h34v-523h-34v523zM84 729h34l109 -129h-30l-96 100l-98 -100h-30z" />
    <glyph glyph-name="idieresis" unicode="&#xef;" horiz-adv-x="200" 
d="M36 638c-15 0 -26 11 -26 26s11 26 26 26s26 -11 26 -26s-11 -26 -26 -26zM165 638c-15 0 -26 11 -26 26s11 26 26 26s26 -11 26 -26s-11 -26 -26 -26zM83 523h34v-523h-34v523z" />
    <glyph glyph-name="eth" unicode="&#xf0;" horiz-adv-x="588" 
d="M130 612l134 78c-39 29 -80 56 -123 83h49c31 -17 66 -39 103 -67l108 63l15 -24l-100 -57c112 -93 225 -231 225 -413v-17c0 -157 -114 -266 -250 -266c-137 0 -249 110 -249 265v8c0 157 115 266 239 266c100 0 160 -44 200 -104c-41 95 -109 175 -193 244l-144 -82z
M291 22c117 0 215 90 215 237v17c0 136 -96 225 -219 225c-112 0 -210 -90 -210 -236v-8c0 -143 97 -235 214 -235z" />
    <glyph glyph-name="ntilde" unicode="&#xf1;" horiz-adv-x="573" 
d="M81 523h34v-114c24 64 98 122 195 122c113 0 187 -63 187 -208v-323h-34v324c0 124 -58 177 -158 177c-93 0 -190 -64 -190 -184v-317h-34v523zM352 615c-52 0 -94 58 -133 58c-23 0 -45 -19 -50 -58h-27c7 60 38 88 78 88c48 0 93 -59 133 -59c23 0 44 20 49 59h27
c-7 -60 -38 -88 -77 -88z" />
    <glyph glyph-name="ograve" unicode="&#xf2;" horiz-adv-x="583" 
d="M292 22c117 0 214 90 214 236v8c0 148 -98 235 -213 235c-116 0 -216 -90 -216 -236v-8c0 -143 97 -235 215 -235zM291 -8c-137 0 -249 110 -249 265v8c0 156 115 265 251 265s248 -105 248 -264v-8c0 -157 -114 -266 -250 -266zM198 747h41l72 -147h-29z" />
    <glyph glyph-name="oacute" unicode="&#xf3;" horiz-adv-x="583" 
d="M292 22c117 0 214 90 214 236v8c0 148 -98 235 -213 235c-116 0 -216 -90 -216 -236v-8c0 -143 97 -235 215 -235zM291 -8c-137 0 -249 110 -249 265v8c0 156 115 265 251 265s248 -105 248 -264v-8c0 -157 -114 -266 -250 -266zM340 747h41l-84 -147h-28z" />
    <glyph glyph-name="ocircumflex" unicode="&#xf4;" horiz-adv-x="583" 
d="M292 22c117 0 214 90 214 236v8c0 148 -98 235 -213 235c-116 0 -216 -90 -216 -236v-8c0 -143 97 -235 215 -235zM291 -8c-137 0 -249 110 -249 265v8c0 156 115 265 251 265s248 -105 248 -264v-8c0 -157 -114 -266 -250 -266zM275 729h34l109 -129h-30l-96 100
l-98 -100h-30z" />
    <glyph glyph-name="otilde" unicode="&#xf5;" horiz-adv-x="583" 
d="M292 22c117 0 214 90 214 236v8c0 148 -98 235 -213 235c-116 0 -216 -90 -216 -236v-8c0 -143 97 -235 215 -235zM291 -8c-137 0 -249 110 -249 265v8c0 156 115 265 251 265s248 -105 248 -264v-8c0 -157 -114 -266 -250 -266zM358 615c-52 0 -94 58 -133 58
c-23 0 -45 -19 -50 -58h-27c7 60 38 88 78 88c48 0 93 -59 133 -59c23 0 44 20 49 59h27c-7 -60 -38 -88 -77 -88z" />
    <glyph glyph-name="odieresis" unicode="&#xf6;" horiz-adv-x="583" 
d="M292 22c117 0 214 90 214 236v8c0 148 -98 235 -213 235c-116 0 -216 -90 -216 -236v-8c0 -143 97 -235 215 -235zM291 -8c-137 0 -249 110 -249 265v8c0 156 115 265 251 265s248 -105 248 -264v-8c0 -157 -114 -266 -250 -266zM214 638c-15 0 -26 11 -26 26
s11 26 26 26s26 -11 26 -26s-11 -26 -26 -26zM368 638c-15 0 -26 11 -26 26s11 26 26 26s26 -11 26 -26s-11 -26 -26 -26z" />
    <glyph glyph-name="divide" unicode="&#xf7;" horiz-adv-x="505" 
d="M252 143c-16 0 -28 13 -28 29s12 29 28 29c17 0 29 -13 29 -29s-12 -29 -29 -29zM37 357h431v-30h-431v30zM252 484c-16 0 -28 13 -28 28c0 16 12 29 28 29c17 0 29 -13 29 -29c0 -15 -12 -28 -29 -28z" />
    <glyph glyph-name="oslash" unicode="&#xf8;" horiz-adv-x="583" 
d="M36 0l69 77c-39 47 -63 108 -63 180v8c0 156 115 265 251 265c63 0 119 -21 162 -60l63 70l22 -19l-64 -72c40 -45 65 -107 65 -183v-8c0 -157 -114 -266 -250 -266c-64 0 -122 23 -166 64l-67 -75zM292 22c117 0 214 90 214 236v8c0 67 -20 120 -52 159l-308 -345
c39 -37 90 -58 146 -58zM77 257c0 -64 19 -116 50 -156l307 345c-39 36 -88 55 -141 55c-116 0 -216 -90 -216 -236v-8z" />
    <glyph glyph-name="ugrave" unicode="&#xf9;" horiz-adv-x="569" 
d="M262 -8c-112 0 -186 56 -186 201v330h34v-329c0 -123 60 -171 157 -171c92 0 187 61 187 181v319h34v-523h-34v112c-24 -65 -95 -120 -192 -120zM191 747h41l72 -147h-29z" />
    <glyph glyph-name="uacute" unicode="&#xfa;" horiz-adv-x="569" 
d="M262 -8c-112 0 -186 56 -186 201v330h34v-329c0 -123 60 -171 157 -171c92 0 187 61 187 181v319h34v-523h-34v112c-24 -65 -95 -120 -192 -120zM333 747h41l-84 -147h-28z" />
    <glyph glyph-name="ucircumflex" unicode="&#xfb;" horiz-adv-x="569" 
d="M262 -8c-112 0 -186 56 -186 201v330h34v-329c0 -123 60 -171 157 -171c92 0 187 61 187 181v319h34v-523h-34v112c-24 -65 -95 -120 -192 -120zM269 729h34l109 -129h-30l-96 100l-98 -100h-30z" />
    <glyph glyph-name="udieresis" unicode="&#xfc;" horiz-adv-x="569" 
d="M262 -8c-112 0 -186 56 -186 201v330h34v-329c0 -123 60 -171 157 -171c92 0 187 61 187 181v319h34v-523h-34v112c-24 -65 -95 -120 -192 -120zM208 638c-15 0 -26 11 -26 26s11 26 26 26s26 -11 26 -26s-11 -26 -26 -26zM362 638c-15 0 -26 11 -26 26s11 26 26 26
s26 -11 26 -26s-11 -26 -26 -26z" />
    <glyph glyph-name="yacute" unicode="&#xfd;" horiz-adv-x="495" 
d="M234 40l-208 483h36l190 -444l181 444h36l-292 -705h-35zM296 747h41l-84 -147h-28z" />
    <glyph glyph-name="thorn" unicode="&#xfe;" horiz-adv-x="602" 
d="M81 773h34v-394c32 80 112 152 214 152c129 0 231 -102 231 -265v-8c0 -167 -103 -266 -232 -266c-115 0 -186 76 -213 148v-322h-34v955zM326 22c115 0 199 87 199 235v8c0 152 -91 236 -198 236c-108 0 -212 -84 -212 -236v-8c0 -148 97 -235 211 -235z" />
    <glyph glyph-name="ydieresis" unicode="&#xff;" horiz-adv-x="495" 
d="M234 40l-208 483h36l190 -444l181 444h36l-292 -705h-35zM174 638c-15 0 -26 11 -26 26s11 26 26 26s26 -11 26 -26s-11 -26 -26 -26zM328 638c-15 0 -26 11 -26 26s11 26 26 26s26 -11 26 -26s-11 -26 -26 -26z" />
    <glyph glyph-name="Amacron" unicode="&#x100;" horiz-adv-x="641" 
d="M296 715h48l266 -715h-36l-85 228h-339l-84 -228h-34zM161 258h317l-159 428zM196 823h236v-29h-236v29z" />
    <glyph glyph-name="amacron" unicode="&#x101;" horiz-adv-x="521" 
d="M225 -8c-108 0 -179 51 -179 147c0 121 109 157 235 157h130v51c0 108 -45 154 -146 154c-84 0 -147 -36 -162 -121h-34c13 103 101 151 197 151c117 0 179 -59 179 -184v-347h-34v89c-31 -52 -91 -97 -186 -97zM227 21c100 0 184 62 184 139v108h-130
c-111 0 -201 -24 -201 -129c0 -76 51 -118 147 -118zM151 675h230v-28h-230v28z" />
    <glyph glyph-name="Abreve" unicode="&#x102;" horiz-adv-x="641" 
d="M296 715h48l266 -715h-36l-85 228h-339l-84 -228h-34zM161 258h317l-159 428zM313 773c-67 0 -118 49 -123 117h30c5 -51 42 -88 93 -88c49 0 88 37 95 88h29c-5 -68 -59 -117 -124 -117z" />
    <glyph glyph-name="abreve" unicode="&#x103;" horiz-adv-x="521" 
d="M225 -8c-108 0 -179 51 -179 147c0 121 109 157 235 157h130v51c0 108 -45 154 -146 154c-84 0 -147 -36 -162 -121h-34c13 103 101 151 197 151c117 0 179 -59 179 -184v-347h-34v89c-31 -52 -91 -97 -186 -97zM227 21c100 0 184 62 184 139v108h-130
c-111 0 -201 -24 -201 -129c0 -76 51 -118 147 -118zM265 614c-67 0 -112 46 -117 114h30c5 -51 36 -85 87 -85c49 0 82 34 89 85h29c-4 -68 -54 -114 -118 -114z" />
    <glyph glyph-name="Aogonek" unicode="&#x104;" horiz-adv-x="641" 
d="M579 -182c-56 0 -87 31 -87 72c0 47 38 86 82 113h-2l-84 225h-338l-84 -228h-34l264 715h48l265 -714c-55 -35 -83 -67 -83 -107c0 -28 17 -48 56 -48c17 0 34 3 49 9v-27c-15 -7 -33 -10 -52 -10zM161 258h316l-158 428z" />
    <glyph glyph-name="aogonek" unicode="&#x105;" horiz-adv-x="521" 
d="M417 -182c-56 0 -87 31 -87 72c0 47 40 88 82 114h-1v85c-31 -52 -91 -97 -186 -97c-108 0 -179 51 -179 147c0 121 109 157 235 157h130v51c0 108 -45 154 -146 154c-84 0 -147 -36 -162 -121h-34c13 103 101 151 197 151c117 0 179 -59 179 -184v-346
c-52 -33 -82 -68 -82 -107c0 -28 18 -49 57 -49c17 0 33 3 49 9v-26c-15 -7 -33 -10 -52 -10zM227 21c100 0 184 62 184 139v109h-130c-111 0 -201 -25 -201 -130c0 -76 51 -118 147 -118z" />
    <glyph glyph-name="Cacute" unicode="&#x106;" horiz-adv-x="723" 
d="M382 -7c-201 0 -331 148 -331 360v8c0 212 148 361 331 361c146 0 263 -76 287 -216h-36c-25 119 -112 186 -251 186c-168 0 -294 -136 -294 -330v-8c0 -199 115 -330 295 -330c137 0 235 74 262 201h33c-27 -147 -145 -232 -296 -232zM431 891h41l-81 -120h-29z" />
    <glyph glyph-name="cacute" unicode="&#x107;" horiz-adv-x="547" 
d="M288 -8c-137 0 -246 107 -246 265v8c0 160 111 266 247 266c104 0 200 -61 213 -169h-34c-13 91 -90 139 -179 139c-117 0 -212 -90 -212 -236v-8c0 -144 94 -235 211 -235c95 0 172 55 188 155h32c-16 -112 -105 -185 -220 -185zM333 747h41l-84 -147h-28z" />
    <glyph glyph-name="Ccircumflex" unicode="&#x108;" horiz-adv-x="723" 
d="M382 -7c-201 0 -331 148 -331 360v8c0 212 148 361 331 361c146 0 263 -76 287 -216h-36c-25 119 -112 186 -251 186c-168 0 -294 -136 -294 -330v-8c0 -199 115 -330 295 -330c137 0 235 74 262 201h33c-27 -147 -145 -232 -296 -232zM367 891h34l110 -120h-30l-97 90
l-99 -90h-30z" />
    <glyph glyph-name="ccircumflex" unicode="&#x109;" horiz-adv-x="547" 
d="M288 -8c-137 0 -246 107 -246 265v8c0 160 111 266 247 266c104 0 200 -61 213 -169h-34c-13 91 -90 139 -179 139c-117 0 -212 -90 -212 -236v-8c0 -144 94 -235 211 -235c95 0 172 55 188 155h32c-16 -112 -105 -185 -220 -185zM268 729h34l109 -129h-30l-96 100
l-98 -100h-30z" />
    <glyph glyph-name="Cdotaccent" unicode="&#x10a;" horiz-adv-x="723" 
d="M382 -7c-201 0 -331 148 -331 360v8c0 212 148 361 331 361c146 0 263 -76 287 -216h-36c-25 119 -112 186 -251 186c-168 0 -294 -136 -294 -330v-8c0 -199 115 -330 295 -330c137 0 235 74 262 201h33c-27 -147 -145 -232 -296 -232zM382 787c-15 0 -26 12 -26 27
s11 26 26 26s27 -11 27 -26s-12 -27 -27 -27z" />
    <glyph glyph-name="cdotaccent" unicode="&#x10b;" horiz-adv-x="547" 
d="M288 -8c-137 0 -246 107 -246 265v8c0 160 111 266 247 266c104 0 200 -61 213 -169h-34c-13 91 -90 139 -179 139c-117 0 -212 -90 -212 -236v-8c0 -144 94 -235 211 -235c95 0 172 55 188 155h32c-16 -112 -105 -185 -220 -185zM284 637c-15 0 -26 12 -26 27
s11 26 26 26s27 -11 27 -26s-12 -27 -27 -27z" />
    <glyph glyph-name="Ccaron" unicode="&#x10c;" horiz-adv-x="723" 
d="M382 -7c-201 0 -331 148 -331 360v8c0 212 148 361 331 361c146 0 263 -76 287 -216h-36c-25 119 -112 186 -251 186c-168 0 -294 -136 -294 -330v-8c0 -199 115 -330 295 -330c137 0 235 74 262 201h33c-27 -147 -145 -232 -296 -232zM254 891h30l99 -91l100 91h29
l-113 -120h-34z" />
    <glyph glyph-name="ccaron" unicode="&#x10d;" horiz-adv-x="547" 
d="M288 -8c-137 0 -246 107 -246 265v8c0 160 111 266 247 266c104 0 200 -61 213 -169h-34c-13 91 -90 139 -179 139c-117 0 -212 -90 -212 -236v-8c0 -144 94 -235 211 -235c95 0 172 55 188 155h32c-16 -112 -105 -185 -220 -185zM157 742h30l97 -100l97 100h30
l-111 -129h-34z" />
    <glyph glyph-name="Dcaron" unicode="&#x10e;" horiz-adv-x="680" 
d="M273 31c215 0 319 138 319 325v8c0 182 -100 321 -320 321h-142v-654h143zM94 715h183c231 0 352 -152 352 -351v-8c0 -197 -113 -356 -354 -356h-181v715zM184 891h30l99 -91l100 91h29l-113 -120h-34z" />
    <glyph glyph-name="dcaron" unicode="&#x10f;" horiz-adv-x="602" 
d="M277 -8c-131 0 -235 96 -235 264v8c0 162 108 267 243 267c113 0 172 -71 202 -144v386h34v-773h-34v140c-24 -70 -99 -148 -210 -148zM279 22c112 0 209 87 209 235v8c0 152 -87 236 -201 236c-116 0 -210 -87 -210 -236v-8c0 -150 87 -235 202 -235zM594 773h37
l-23 -154h-27z" />
    <glyph glyph-name="Dcroat" unicode="&#x110;" horiz-adv-x="685" 
d="M24 375h75v340h183c231 0 352 -152 352 -351v-8c0 -197 -113 -356 -354 -356h-181v345h-75v30zM278 31c215 0 319 138 319 325v8c0 182 -100 321 -320 321h-142v-310h209v-30h-209v-314h143z" />
    <glyph glyph-name="dcroat" unicode="&#x111;" horiz-adv-x="602" 
d="M292 656h195v117h34v-117h80v-27h-80v-629h-34v140c-24 -70 -99 -148 -210 -148c-131 0 -235 96 -235 264v8c0 162 108 267 243 267c113 0 172 -71 202 -144v242h-195v27zM279 22c112 0 209 87 209 235v8c0 152 -87 236 -201 236c-116 0 -210 -87 -210 -236v-8
c0 -150 87 -235 202 -235z" />
    <glyph glyph-name="Emacron" unicode="&#x112;" horiz-adv-x="566" 
d="M94 715h406v-30h-370v-301h301v-31h-301v-322h388v-31h-424v715zM177 823h236v-29h-236v29z" />
    <glyph glyph-name="emacron" unicode="&#x113;" horiz-adv-x="545" 
d="M286 -8c-153 0 -244 110 -244 265v8c0 156 101 266 237 266c128 0 224 -88 224 -252v-15h-426c1 -153 74 -242 209 -242c91 0 158 39 179 122h34c-24 -97 -105 -152 -213 -152zM469 293c-4 139 -78 208 -190 208s-193 -83 -201 -208h391zM163 675h230v-28h-230v28z" />
    <glyph glyph-name="Ebreve" unicode="&#x114;" horiz-adv-x="566" 
d="M94 715h406v-30h-370v-301h301v-31h-301v-322h388v-31h-424v715zM296 773c-67 0 -118 49 -123 117h30c5 -51 42 -88 93 -88c49 0 88 37 95 88h29c-5 -68 -59 -117 -124 -117z" />
    <glyph glyph-name="ebreve" unicode="&#x115;" horiz-adv-x="545" 
d="M286 -8c-153 0 -244 110 -244 265v8c0 156 101 266 237 266c128 0 224 -88 224 -252v-15h-426c1 -153 74 -242 209 -242c91 0 158 39 179 122h34c-24 -97 -105 -152 -213 -152zM469 293c-4 139 -78 208 -190 208s-193 -83 -201 -208h391zM275 614c-67 0 -112 46 -117 114
h30c5 -51 36 -85 87 -85c49 0 82 34 89 85h29c-4 -68 -54 -114 -118 -114z" />
    <glyph glyph-name="Edotaccent" unicode="&#x116;" horiz-adv-x="566" 
d="M94 715h406v-30h-370v-301h301v-31h-301v-322h388v-31h-424v715zM295 787c-15 0 -26 12 -26 27s11 26 26 26s27 -11 27 -26s-12 -27 -27 -27z" />
    <glyph glyph-name="edotaccent" unicode="&#x117;" horiz-adv-x="545" 
d="M286 -8c-153 0 -244 110 -244 265v8c0 156 101 266 237 266c128 0 224 -88 224 -252v-15h-426c1 -153 74 -242 209 -242c91 0 158 39 179 122h34c-24 -97 -105 -152 -213 -152zM469 293c-4 139 -78 208 -190 208s-193 -83 -201 -208h391zM278 637c-15 0 -26 12 -26 27
s11 26 26 26s27 -11 27 -26s-12 -27 -27 -27z" />
    <glyph glyph-name="Eogonek" unicode="&#x118;" horiz-adv-x="566" 
d="M426 -182c-56 0 -87 31 -87 72c0 45 34 83 77 110h-322v715h406v-30h-370v-301h301v-31h-301v-322h388v-31h-64c-52 -35 -81 -66 -81 -106c0 -28 17 -48 56 -48c17 0 33 3 49 9v-27c-15 -7 -33 -10 -52 -10z" />
    <glyph glyph-name="eogonek" unicode="&#x119;" horiz-adv-x="545" 
d="M366 -182c-56 0 -87 31 -87 72c0 45 37 86 82 114c-24 -8 -49 -12 -75 -12c-153 0 -244 110 -244 265v8c0 156 101 266 237 266c128 0 224 -88 224 -252v-15h-426c1 -153 74 -242 209 -242c91 0 158 39 179 122h34c-15 -57 -44 -89 -73 -113c-48 -40 -114 -78 -114 -137
c0 -28 18 -49 57 -49c17 0 33 3 49 9v-26c-15 -7 -33 -10 -52 -10zM469 293c-4 139 -78 208 -190 208s-193 -83 -201 -208h391z" />
    <glyph glyph-name="Ecaron" unicode="&#x11a;" horiz-adv-x="566" 
d="M94 715h406v-30h-370v-301h301v-31h-301v-322h388v-31h-424v715zM167 891h30l99 -91l100 91h29l-113 -120h-34z" />
    <glyph glyph-name="ecaron" unicode="&#x11b;" horiz-adv-x="545" 
d="M286 -8c-153 0 -244 110 -244 265v8c0 156 101 266 237 266c128 0 224 -88 224 -252v-15h-426c1 -153 74 -242 209 -242c91 0 158 39 179 122h34c-24 -97 -105 -152 -213 -152zM469 293c-4 139 -78 208 -190 208s-193 -83 -201 -208h391zM151 742h30l97 -100l97 100h30
l-111 -129h-34z" />
    <glyph glyph-name="Gcircumflex" unicode="&#x11c;" horiz-adv-x="750" 
d="M393 -7c-213 0 -342 149 -342 360v8c0 210 148 361 338 361c136 0 254 -63 284 -203h-36c-29 120 -126 173 -247 173c-176 0 -302 -137 -302 -330v-8c0 -198 111 -330 305 -330c176 0 269 103 270 279v7h-227v31h262v-33c0 -205 -121 -315 -305 -315zM371 891h34
l110 -120h-30l-97 90l-99 -90h-30z" />
    <glyph glyph-name="gcircumflex" unicode="&#x11d;" horiz-adv-x="602" 
d="M286 -187c-149 0 -220 74 -233 157h35c13 -72 74 -127 197 -127c115 0 202 53 202 193v125c-24 -70 -99 -144 -210 -144c-131 0 -235 94 -235 251v8c0 152 108 255 243 255c113 0 172 -66 202 -139v131h34v-489c0 -156 -99 -221 -235 -221zM279 46c112 0 209 83 209 224
v7c0 142 -87 224 -201 224c-116 0 -210 -83 -210 -224v-8c0 -141 87 -223 202 -223zM271 729h34l109 -129h-30l-96 100l-98 -100h-30z" />
    <glyph glyph-name="Gbreve" unicode="&#x11e;" horiz-adv-x="750" 
d="M393 -7c-213 0 -342 149 -342 360v8c0 210 148 361 338 361c136 0 254 -63 284 -203h-36c-29 120 -126 173 -247 173c-176 0 -302 -137 -302 -330v-8c0 -198 111 -330 305 -330c176 0 269 103 270 279v7h-227v31h262v-33c0 -205 -121 -315 -305 -315zM386 773
c-67 0 -118 49 -123 117h30c5 -51 42 -88 93 -88c49 0 88 37 95 88h29c-5 -68 -59 -117 -124 -117z" />
    <glyph glyph-name="gbreve" unicode="&#x11f;" horiz-adv-x="602" 
d="M286 -187c-149 0 -220 74 -233 157h35c13 -72 74 -127 197 -127c115 0 202 53 202 193v125c-24 -70 -99 -144 -210 -144c-131 0 -235 94 -235 251v8c0 152 108 255 243 255c113 0 172 -66 202 -139v131h34v-489c0 -156 -99 -221 -235 -221zM279 46c112 0 209 83 209 224
v7c0 142 -87 224 -201 224c-116 0 -210 -83 -210 -224v-8c0 -141 87 -223 202 -223zM286 614c-67 0 -112 46 -117 114h30c5 -51 36 -85 87 -85c49 0 82 34 89 85h29c-4 -68 -54 -114 -118 -114z" />
    <glyph glyph-name="Gdotaccent" unicode="&#x120;" horiz-adv-x="750" 
d="M393 -7c-213 0 -342 149 -342 360v8c0 210 148 361 338 361c136 0 254 -63 284 -203h-36c-29 120 -126 173 -247 173c-176 0 -302 -137 -302 -330v-8c0 -198 111 -330 305 -330c176 0 269 103 270 279v7h-227v31h262v-33c0 -205 -121 -315 -305 -315zM387 787
c-15 0 -26 12 -26 27s11 26 26 26s27 -11 27 -26s-12 -27 -27 -27z" />
    <glyph glyph-name="gdotaccent" unicode="&#x121;" horiz-adv-x="602" 
d="M286 -187c-149 0 -220 74 -233 157h35c13 -72 74 -127 197 -127c115 0 202 53 202 193v125c-24 -70 -99 -144 -210 -144c-131 0 -235 94 -235 251v8c0 152 108 255 243 255c113 0 172 -66 202 -139v131h34v-489c0 -156 -99 -221 -235 -221zM279 46c112 0 209 83 209 224
v7c0 142 -87 224 -201 224c-116 0 -210 -83 -210 -224v-8c0 -141 87 -223 202 -223zM287 637c-15 0 -26 12 -26 27s11 26 26 26s27 -11 27 -26s-12 -27 -27 -27z" />
    <glyph glyph-name="uni0122" unicode="&#x122;" horiz-adv-x="750" 
d="M393 -7c-213 0 -342 149 -342 360v8c0 210 148 361 338 361c136 0 254 -63 284 -203h-36c-29 120 -126 173 -247 173c-176 0 -302 -137 -302 -330v-8c0 -198 111 -330 305 -330c176 0 269 103 270 279v7h-227v31h262v-33c0 -205 -121 -315 -305 -315zM323 -184l58 140
l34 -9l-68 -142z" />
    <glyph glyph-name="uni0123" unicode="&#x123;" horiz-adv-x="602" 
d="M286 -187c-149 0 -220 74 -233 157h35c13 -72 74 -127 197 -127c115 0 202 53 202 193v125c-24 -70 -99 -144 -210 -144c-131 0 -235 94 -235 251v8c0 152 108 255 243 255c113 0 172 -66 202 -139v131h34v-489c0 -156 -99 -221 -235 -221zM279 46c112 0 209 83 209 224
v7c0 142 -87 224 -201 224c-116 0 -210 -83 -210 -224v-8c0 -141 87 -223 202 -223zM263 619l68 142l24 -11l-58 -140z" />
    <glyph glyph-name="Hcircumflex" unicode="&#x124;" horiz-adv-x="709" 
d="M94 715h36v-339h449v339h36v-715h-36v345h-449v-345h-36v715zM338 891h34l110 -120h-30l-97 90l-99 -90h-30z" />
    <glyph glyph-name="hcircumflex" unicode="&#x125;" horiz-adv-x="573" 
d="M81 773h34v-364c24 64 98 122 195 122c113 0 187 -63 187 -208v-323h-34v324c0 124 -58 177 -158 177c-93 0 -190 -64 -190 -184v-317h-34v773zM276 933h34l110 -120h-30l-97 90l-99 -90h-30z" />
    <glyph glyph-name="Hbar" unicode="&#x126;" horiz-adv-x="709" 
d="M8 550h86v165h36v-165h449v165h36v-165h86v-28h-86v-522h-36v345h-449v-345h-36v522h-86v28zM579 376v146h-449v-146h449z" />
    <glyph glyph-name="hbar" unicode="&#x127;" horiz-adv-x="573" 
d="M2 656h79v117h34v-117h196v-27h-196v-220c24 64 98 122 195 122c113 0 187 -63 187 -208v-323h-34v324c0 124 -58 177 -158 177c-93 0 -190 -64 -190 -184v-317h-34v629h-79v27z" />
    <glyph glyph-name="Itilde" unicode="&#x128;" horiz-adv-x="234" 
d="M99 715h36v-715h-36v715zM184 773c-51 0 -93 60 -132 60c-27 0 -46 -20 -51 -59h-27c7 60 38 89 78 89c49 0 93 -60 132 -60c25 0 45 20 50 59h27c-7 -60 -38 -89 -77 -89z" />
    <glyph glyph-name="itilde" unicode="&#x129;" horiz-adv-x="200" 
d="M83 523h34v-523h-34v523zM168 615c-52 0 -94 58 -133 58c-23 0 -45 -19 -50 -58h-27c7 60 38 88 78 88c48 0 93 -59 133 -59c23 0 44 20 49 59h27c-7 -60 -38 -88 -77 -88z" />
    <glyph glyph-name="Imacron" unicode="&#x12a;" horiz-adv-x="234" 
d="M99 715h36v-715h-36v715zM-1 823h236v-29h-236v29z" />
    <glyph glyph-name="imacron" unicode="&#x12b;" horiz-adv-x="200" 
d="M20 675h161v-28h-161v28zM83 523h34v-523h-34v523z" />
    <glyph glyph-name="Ibreve" unicode="&#x12c;" horiz-adv-x="234" 
d="M99 715h36v-715h-36v715zM116 773c-67 0 -118 49 -123 117h30c5 -51 42 -88 93 -88c49 0 88 37 95 88h29c-5 -68 -59 -117 -124 -117z" />
    <glyph glyph-name="ibreve" unicode="&#x12d;" horiz-adv-x="200" 
d="M83 523h34v-523h-34v523zM100 614c-67 0 -112 46 -117 114h30c5 -51 36 -85 87 -85c49 0 82 34 89 85h29c-4 -68 -54 -114 -118 -114z" />
    <glyph glyph-name="Iogonek" unicode="&#x12e;" horiz-adv-x="234" 
d="M120 -182c-56 0 -87 31 -87 72c0 48 33 84 68 113h-2v712h36v-714c-37 -29 -68 -64 -68 -107c0 -28 17 -48 56 -48c17 0 33 3 49 9v-27c-15 -7 -33 -10 -52 -10z" />
    <glyph glyph-name="iogonek" unicode="&#x12f;" horiz-adv-x="200" 
d="M109 -182c-56 0 -87 31 -87 72c0 47 31 83 63 112h-2v521h34v-522c-33 -31 -62 -64 -62 -107c0 -28 18 -49 57 -49c17 0 33 3 49 9v-26c-15 -7 -33 -10 -52 -10zM100 637c-15 0 -27 12 -27 27s12 26 27 26s26 -11 26 -26s-11 -27 -26 -27z" />
    <glyph glyph-name="Idotaccent" unicode="&#x130;" horiz-adv-x="234" 
d="M99 715h36v-715h-36v715zM117 787c-15 0 -26 12 -26 27s11 26 26 26s27 -11 27 -26s-12 -27 -27 -27z" />
    <glyph glyph-name="dotlessi" unicode="&#x131;" horiz-adv-x="200" 
d="M83 523h34v-523h-34v523z" />
    <glyph glyph-name="IJ" unicode="&#x132;" horiz-adv-x="590" 
d="M99 715h36v-715h-36v715zM338 -5c-48 0 -82 11 -101 20v32c24 -11 56 -22 99 -22c85 0 137 41 137 148v542h36v-543c0 -125 -70 -177 -171 -177z" />
    <glyph glyph-name="ij" unicode="&#x133;" horiz-adv-x="200" 
d="M83 523h34v-523h-34v523zM100 637c-15 0 -27 12 -27 27s12 26 27 26s26 -11 26 -26s-11 -27 -26 -27zM206 -156c60 5 77 33 77 96v583h34v-581c0 -84 -28 -125 -111 -128v30zM300 637c-15 0 -27 12 -27 27s12 26 27 26s26 -11 26 -26s-11 -27 -26 -27z" />
    <glyph glyph-name="Jcircumflex" unicode="&#x134;" horiz-adv-x="389" 
d="M137 -5c-48 0 -82 11 -101 20v32c24 -11 56 -22 99 -22c85 0 137 41 137 148v542h36v-543c0 -125 -70 -177 -171 -177zM274 891h34l110 -120h-30l-97 90l-99 -90h-30z" />
    <glyph glyph-name="jcircumflex" unicode="&#x135;" horiz-adv-x="200" 
d="M6 -156c60 5 77 33 77 96v583h34v-581c0 -84 -28 -125 -111 -128v30zM85 729h34l109 -129h-30l-96 100l-98 -100h-30z" />
    <glyph glyph-name="uni0136" unicode="&#x136;" horiz-adv-x="588" 
d="M135 364l365 351h42l-363 -348l381 -367h-45zM94 715h36v-715h-36v715zM241 -184l58 140l34 -9l-68 -142z" />
    <glyph glyph-name="uni0137" unicode="&#x137;" horiz-adv-x="468" 
d="M118 277l275 246h42l-275 -245l291 -278h-44zM81 773h34v-773h-34v773zM181 -184l58 140l34 -9l-68 -142z" />
    <glyph glyph-name="Lacute" unicode="&#x139;" horiz-adv-x="528" 
d="M94 715h36v-684h360v-31h-396v715zM162 891h41l-81 -120h-29z" />
    <glyph glyph-name="lacute" unicode="&#x13a;" horiz-adv-x="201" 
d="M83 773h35v-773h-35v773zM149 933h41l-81 -120h-29z" />
    <glyph glyph-name="uni013B" unicode="&#x13b;" horiz-adv-x="528" 
d="M94 715h36v-684h360v-31h-396v715zM218 -184l58 140l34 -9l-68 -142z" />
    <glyph glyph-name="uni013C" unicode="&#x13c;" horiz-adv-x="201" 
d="M83 773h35v-773h-35v773zM33 -184l58 140l34 -9l-68 -142z" />
    <glyph glyph-name="Lcaron" unicode="&#x13d;" horiz-adv-x="528" 
d="M336 715h38l-36 -157h-28zM94 715h36v-684h360v-31h-396v715z" />
    <glyph glyph-name="lcaron" unicode="&#x13e;" horiz-adv-x="201" 
d="M83 773h35v-773h-35v773zM190 773h37l-23 -154h-27z" />
    <glyph glyph-name="Ldot" unicode="&#x13f;" horiz-adv-x="528" 
d="M94 715h36v-684h360v-31h-396v715zM432 342c-17 0 -29 13 -29 29s12 29 29 29c16 0 28 -13 28 -29s-12 -29 -28 -29z" />
    <glyph glyph-name="ldot" unicode="&#x140;" horiz-adv-x="249" 
d="M83 773h35v-773h-35v773zM224 348c-17 0 -29 13 -29 29s12 29 29 29c16 0 28 -13 28 -29s-12 -29 -28 -29z" />
    <glyph glyph-name="Lslash" unicode="&#x141;" horiz-adv-x="539" 
d="M29 294l77 28v393h36v-379l237 88v-29l-237 -88v-276h360v-31h-396v293l-77 -28v29z" />
    <glyph glyph-name="lslash" unicode="&#x142;" horiz-adv-x="216" 
d="M13 377l78 52v344h34v-321l82 55v-32l-82 -55v-420h-34v397l-78 -52v32z" />
    <glyph glyph-name="Nacute" unicode="&#x143;" horiz-adv-x="707" 
d="M94 715h51l433 -667v667h35v-715h-44l-440 678v-678h-35v715zM412 891h41l-81 -120h-29z" />
    <glyph glyph-name="nacute" unicode="&#x144;" horiz-adv-x="573" 
d="M81 523h34v-114c24 64 98 122 195 122c113 0 187 -63 187 -208v-323h-34v324c0 124 -58 177 -158 177c-93 0 -190 -64 -190 -184v-317h-34v523zM334 747h41l-84 -147h-28z" />
    <glyph glyph-name="uni0145" unicode="&#x145;" horiz-adv-x="707" 
d="M94 715h51l433 -667v667h35v-715h-44l-440 678v-678h-35v715zM279 -184l58 140l34 -9l-68 -142z" />
    <glyph glyph-name="uni0146" unicode="&#x146;" horiz-adv-x="573" 
d="M81 523h34v-114c24 64 98 122 195 122c113 0 187 -63 187 -208v-323h-34v324c0 124 -58 177 -158 177c-93 0 -190 -64 -190 -184v-317h-34v523zM221 -184l58 140l34 -9l-68 -142z" />
    <glyph glyph-name="Ncaron" unicode="&#x147;" horiz-adv-x="707" 
d="M94 715h51l433 -667v667h35v-715h-44l-440 678v-678h-35v715zM235 891h30l99 -91l100 91h29l-113 -120h-34z" />
    <glyph glyph-name="ncaron" unicode="&#x148;" horiz-adv-x="573" 
d="M81 523h34v-114c24 64 98 122 195 122c113 0 187 -63 187 -208v-323h-34v324c0 124 -58 177 -158 177c-93 0 -190 -64 -190 -184v-317h-34v523zM158 742h30l97 -100l97 100h30l-111 -129h-34z" />
    <glyph glyph-name="napostrophe" unicode="&#x149;" horiz-adv-x="585" 
d="M92 523h34v-114c24 64 98 122 195 122c113 0 187 -63 187 -208v-323h-34v324c0 124 -58 177 -158 177c-93 0 -190 -64 -190 -184v-317h-34v523zM-30 564l66 156l34 -14l-76 -153z" />
    <glyph glyph-name="Eng" unicode="&#x14a;" horiz-adv-x="707" 
d="M441 -189c-48 0 -81 12 -100 21v31c24 -11 56 -21 99 -21c84 0 135 39 138 150l-449 686v-678h-35v715h51l433 -662v662h35v-718c0 -132 -70 -186 -172 -186z" />
    <glyph glyph-name="eng" unicode="&#x14b;" horiz-adv-x="573" 
d="M371 -156c67 5 92 35 92 114v366c0 124 -58 177 -158 177c-93 0 -190 -64 -190 -184v-317h-34v523h34v-114c24 64 98 122 195 122c113 0 187 -63 187 -208v-363c0 -101 -37 -141 -126 -146v30z" />
    <glyph glyph-name="Omacron" unicode="&#x14c;" horiz-adv-x="795" 
d="M400 24c178 0 307 144 307 332v8c0 183 -129 328 -309 328c-181 0 -310 -143 -310 -331v-8c0 -187 133 -329 312 -329zM400 -7c-200 0 -349 160 -349 360v8c0 203 151 361 347 361s346 -157 346 -358v-8c0 -202 -149 -363 -344 -363zM279 823h236v-29h-236v29z" />
    <glyph glyph-name="omacron" unicode="&#x14d;" horiz-adv-x="583" 
d="M292 22c117 0 214 90 214 236v8c0 148 -98 235 -213 235c-116 0 -216 -90 -216 -236v-8c0 -143 97 -235 215 -235zM291 -8c-137 0 -249 110 -249 265v8c0 156 115 265 251 265s248 -105 248 -264v-8c0 -157 -114 -266 -250 -266zM176 675h230v-28h-230v28z" />
    <glyph glyph-name="Obreve" unicode="&#x14e;" horiz-adv-x="795" 
d="M400 24c178 0 307 144 307 332v8c0 183 -129 328 -309 328c-181 0 -310 -143 -310 -331v-8c0 -187 133 -329 312 -329zM400 -7c-200 0 -349 160 -349 360v8c0 203 151 361 347 361s346 -157 346 -358v-8c0 -202 -149 -363 -344 -363zM396 773c-67 0 -118 49 -123 117h30
c5 -51 42 -88 93 -88c49 0 88 37 95 88h29c-5 -68 -59 -117 -124 -117z" />
    <glyph glyph-name="obreve" unicode="&#x14f;" horiz-adv-x="583" 
d="M292 22c117 0 214 90 214 236v8c0 148 -98 235 -213 235c-116 0 -216 -90 -216 -236v-8c0 -143 97 -235 215 -235zM291 -8c-137 0 -249 110 -249 265v8c0 156 115 265 251 265s248 -105 248 -264v-8c0 -157 -114 -266 -250 -266zM290 614c-67 0 -112 46 -117 114h30
c5 -51 36 -85 87 -85c49 0 82 34 89 85h29c-4 -68 -54 -114 -118 -114z" />
    <glyph glyph-name="Ohungarumlaut" unicode="&#x150;" horiz-adv-x="795" 
d="M400 24c178 0 307 144 307 332v8c0 183 -129 328 -309 328c-181 0 -310 -143 -310 -331v-8c0 -187 133 -329 312 -329zM400 -7c-200 0 -349 160 -349 360v8c0 203 151 361 347 361s346 -157 346 -358v-8c0 -202 -149 -363 -344 -363zM372 891h39l-61 -120h-28zM490 891
h39l-61 -120h-28z" />
    <glyph glyph-name="ohungarumlaut" unicode="&#x151;" horiz-adv-x="583" 
d="M292 22c117 0 214 90 214 236v8c0 148 -98 235 -213 235c-116 0 -216 -90 -216 -236v-8c0 -143 97 -235 215 -235zM291 -8c-137 0 -249 110 -249 265v8c0 156 115 265 251 265s248 -105 248 -264v-8c0 -157 -114 -266 -250 -266zM276 747h38l-65 -147h-28zM394 747h38
l-65 -147h-28z" />
    <glyph glyph-name="OE" unicode="&#x152;" horiz-adv-x="957" 
d="M51 359c0 197 114 356 355 356h486v-30h-356v-301h286v-31h-286v-322h374v-31h-506c-232 0 -353 150 -353 350v9zM408 685c-216 0 -320 -138 -320 -326v-8c0 -182 101 -321 321 -321h91v655h-92z" />
    <glyph glyph-name="oe" unicode="&#x153;" horiz-adv-x="1009" 
d="M291 -8c-137 0 -249 110 -249 265v8c0 156 115 265 251 265c108 0 197 -64 230 -172c31 107 112 173 220 173c128 0 224 -88 224 -252v-15h-426c1 -153 73 -242 209 -242c91 0 156 39 179 122h34c-24 -97 -105 -152 -213 -152c-121 0 -200 68 -228 173
c-32 -107 -123 -173 -231 -173zM292 22c117 0 214 90 214 236v8c0 148 -98 235 -213 235c-116 0 -216 -90 -216 -236v-8c0 -143 97 -235 215 -235zM932 293c-3 137 -78 208 -189 208c-112 0 -193 -83 -201 -208h390z" />
    <glyph glyph-name="Racute" unicode="&#x154;" horiz-adv-x="593" 
d="M94 715h183c140 0 239 -51 239 -187v-4c0 -119 -78 -175 -190 -186l232 -338h-41l-230 335h-158v-335h-35v715zM278 365c124 0 202 44 202 159v4c0 117 -82 157 -202 157h-149v-320h149zM332 891h41l-81 -120h-29z" />
    <glyph glyph-name="racute" unicode="&#x155;" horiz-adv-x="331" 
d="M81 523h34v-120c26 66 83 122 181 125v-31c-99 -5 -181 -59 -181 -205v-292h-34v523zM233 747h41l-84 -147h-28z" />
    <glyph glyph-name="uni0156" unicode="&#x156;" horiz-adv-x="593" 
d="M94 715h183c140 0 239 -51 239 -187v-4c0 -119 -78 -175 -190 -186l232 -338h-41l-230 335h-158v-335h-35v715zM278 365c124 0 202 44 202 159v4c0 117 -82 157 -202 157h-149v-320h149zM235 -184l58 140l34 -9l-68 -142z" />
    <glyph glyph-name="uni0157" unicode="&#x157;" horiz-adv-x="331" 
d="M81 523h34v-120c26 66 83 122 181 125v-31c-99 -5 -181 -59 -181 -205v-292h-34v523zM31 -184l58 140l34 -9l-68 -142z" />
    <glyph glyph-name="Rcaron" unicode="&#x158;" horiz-adv-x="593" 
d="M94 715h183c140 0 239 -51 239 -187v-4c0 -119 -78 -175 -190 -186l232 -338h-41l-230 335h-158v-335h-35v715zM278 365c124 0 202 44 202 159v4c0 117 -82 157 -202 157h-149v-320h149zM155 891h30l99 -91l100 91h29l-113 -120h-34z" />
    <glyph glyph-name="rcaron" unicode="&#x159;" horiz-adv-x="331" 
d="M81 523h34v-120c26 66 83 122 181 125v-31c-99 -5 -181 -59 -181 -205v-292h-34v523zM57 742h30l97 -100l97 100h30l-111 -129h-34z" />
    <glyph glyph-name="Sacute" unicode="&#x15a;" horiz-adv-x="586" 
d="M299 -7c-168 0 -244 90 -260 204h35c13 -93 74 -173 225 -173c125 0 199 71 199 165c0 110 -55 146 -203 168c-160 23 -227 78 -227 183c0 111 89 182 222 182c128 0 203 -62 220 -169h-34c-17 88 -74 139 -186 139c-117 0 -187 -53 -187 -150c0 -84 47 -131 197 -152
c162 -24 234 -66 234 -200c0 -109 -88 -197 -235 -197zM337 891h41l-81 -120h-29z" />
    <glyph glyph-name="sacute" unicode="&#x15b;" horiz-adv-x="456" 
d="M235 -9c-121 0 -191 67 -199 163h33c11 -77 61 -134 166 -134c95 0 145 49 145 116c0 77 -39 97 -146 118c-123 21 -180 51 -180 142c0 82 77 134 171 134c95 0 162 -40 177 -136h-33c-14 71 -62 107 -145 107s-138 -41 -138 -105c0 -67 43 -93 156 -112
c116 -22 172 -49 172 -146c0 -82 -66 -147 -179 -147zM278 747h41l-84 -147h-28z" />
    <glyph glyph-name="Scircumflex" unicode="&#x15c;" horiz-adv-x="586" 
d="M299 -7c-168 0 -244 90 -260 204h35c13 -93 74 -173 225 -173c125 0 199 71 199 165c0 110 -55 146 -203 168c-160 23 -227 78 -227 183c0 111 89 182 222 182c128 0 203 -62 220 -169h-34c-17 88 -74 139 -186 139c-117 0 -187 -53 -187 -150c0 -84 47 -131 197 -152
c162 -24 234 -66 234 -200c0 -109 -88 -197 -235 -197zM274 891h34l110 -120h-30l-97 90l-99 -90h-30z" />
    <glyph glyph-name="scircumflex" unicode="&#x15d;" horiz-adv-x="456" 
d="M235 -9c-121 0 -191 67 -199 163h33c11 -77 61 -134 166 -134c95 0 145 49 145 116c0 77 -39 97 -146 118c-123 21 -180 51 -180 142c0 82 77 134 171 134c95 0 162 -40 177 -136h-33c-14 71 -62 107 -145 107s-138 -41 -138 -105c0 -67 43 -93 156 -112
c116 -22 172 -49 172 -146c0 -82 -66 -147 -179 -147zM213 729h34l109 -129h-30l-96 100l-98 -100h-30z" />
    <glyph glyph-name="uni015E" unicode="&#x15e;" horiz-adv-x="586" 
d="M269 -211c-51 0 -87 28 -92 75h32c4 -28 24 -47 59 -47s56 20 56 49c0 35 -25 45 -52 45c-19 0 -32 -7 -39 -10l-20 18l43 76c-139 13 -204 98 -217 202h35c13 -93 74 -173 225 -173c125 0 199 71 199 165c0 110 -55 146 -203 168c-160 23 -227 78 -227 183
c0 111 89 182 222 182c128 0 203 -62 220 -169h-34c-17 88 -74 139 -186 139c-117 0 -187 -53 -187 -150c0 -84 47 -131 197 -152c162 -24 234 -66 234 -200c0 -109 -88 -197 -235 -197h-12l-34 -60c50 16 104 -6 104 -68c0 -49 -37 -76 -88 -76z" />
    <glyph glyph-name="uni015F" unicode="&#x15f;" horiz-adv-x="456" 
d="M212 -211c-51 0 -87 28 -92 75h32c4 -28 24 -47 59 -47s56 20 56 49c0 35 -25 45 -52 45c-19 0 -32 -7 -39 -10l-20 18l42 74c-100 12 -155 74 -162 161h33c11 -77 61 -134 166 -134c95 0 145 49 145 116c0 77 -39 97 -146 118c-123 21 -180 51 -180 142
c0 82 77 134 171 134c95 0 162 -40 177 -136h-33c-14 71 -62 107 -145 107s-138 -41 -138 -105c0 -67 43 -93 156 -112c116 -22 172 -49 172 -146c0 -82 -66 -147 -179 -147h-6l-33 -58c50 16 104 -6 104 -68c0 -49 -37 -76 -88 -76z" />
    <glyph glyph-name="Scaron" unicode="&#x160;" horiz-adv-x="586" 
d="M299 -7c-168 0 -244 90 -260 204h35c13 -93 74 -173 225 -173c125 0 199 71 199 165c0 110 -55 146 -203 168c-160 23 -227 78 -227 183c0 111 89 182 222 182c128 0 203 -62 220 -169h-34c-17 88 -74 139 -186 139c-117 0 -187 -53 -187 -150c0 -84 47 -131 197 -152
c162 -24 234 -66 234 -200c0 -109 -88 -197 -235 -197zM158 891h30l99 -91l100 91h29l-113 -120h-34z" />
    <glyph glyph-name="scaron" unicode="&#x161;" horiz-adv-x="456" 
d="M235 -9c-121 0 -191 67 -199 163h33c11 -77 61 -134 166 -134c95 0 145 49 145 116c0 77 -39 97 -146 118c-123 21 -180 51 -180 142c0 82 77 134 171 134c95 0 162 -40 177 -136h-33c-14 71 -62 107 -145 107s-138 -41 -138 -105c0 -67 43 -93 156 -112
c116 -22 172 -49 172 -146c0 -82 -66 -147 -179 -147zM102 742h30l97 -100l97 100h30l-111 -129h-34z" />
    <glyph glyph-name="Tcommaaccent" unicode="&#x162;" horiz-adv-x="558" 
d="M261 685h-230v30h497v-30h-231v-685h-36v685zM214 -184l58 140l34 -9l-68 -142z" />
    <glyph glyph-name="tcommaaccent" unicode="&#x163;" horiz-adv-x="328" 
d="M221 -7c-75 0 -119 43 -119 130v371h-79v29h79v119h34v-119h146v-29h-146v-369c0 -72 35 -102 87 -102c28 0 47 4 66 11v-30c-17 -7 -36 -11 -68 -11zM114 -184l58 140l34 -9l-68 -142z" />
    <glyph glyph-name="Tcaron" unicode="&#x164;" horiz-adv-x="558" 
d="M261 685h-230v30h497v-30h-231v-685h-36v685zM149 891h30l99 -91l100 91h29l-113 -120h-34z" />
    <glyph glyph-name="tcaron" unicode="&#x165;" horiz-adv-x="328" 
d="M221 -7c-75 0 -119 43 -119 130v371h-79v29h79v119h34v-119h146v-29h-146v-369c0 -72 35 -102 87 -102c28 0 47 4 66 11v-30c-17 -7 -36 -11 -68 -11zM249 773h37l-23 -154h-27z" />
    <glyph glyph-name="Tbar" unicode="&#x166;" horiz-adv-x="558" 
d="M105 410h156v275h-230v30h497v-30h-231v-275h157v-28h-157v-382h-36v382h-156v28z" />
    <glyph glyph-name="tbar" unicode="&#x167;" horiz-adv-x="328" 
d="M23 342h79v152h-79v29h79v119h34v-119h146v-29h-146v-152h146v-27h-146v-190c0 -72 35 -102 87 -102c28 0 47 4 66 11v-30c-17 -7 -36 -11 -68 -11c-75 0 -119 43 -119 130v192h-79v27z" />
    <glyph glyph-name="Utilde" unicode="&#x168;" horiz-adv-x="674" 
d="M336 -5c-159 0 -256 89 -256 258v462h36v-459c0 -155 79 -230 220 -230c153 0 221 76 221 243v446h36v-451c0 -169 -82 -269 -257 -269zM403 773c-51 0 -93 60 -132 60c-27 0 -46 -20 -51 -59h-27c7 60 38 89 78 89c49 0 93 -60 132 -60c25 0 45 20 50 59h27
c-7 -60 -38 -89 -77 -89z" />
    <glyph glyph-name="utilde" unicode="&#x169;" horiz-adv-x="569" 
d="M262 -8c-112 0 -186 56 -186 201v330h34v-329c0 -123 60 -171 157 -171c92 0 187 61 187 181v319h34v-523h-34v112c-24 -65 -95 -120 -192 -120zM352 615c-52 0 -94 58 -133 58c-23 0 -45 -19 -50 -58h-27c7 60 38 88 78 88c48 0 93 -59 133 -59c23 0 44 20 49 59h27
c-7 -60 -38 -88 -77 -88z" />
    <glyph glyph-name="Umacron" unicode="&#x16a;" horiz-adv-x="674" 
d="M336 -5c-159 0 -256 89 -256 258v462h36v-459c0 -155 79 -230 220 -230c153 0 221 76 221 243v446h36v-451c0 -169 -82 -269 -257 -269zM218 823h236v-29h-236v29z" />
    <glyph glyph-name="umacron" unicode="&#x16b;" horiz-adv-x="569" 
d="M262 -8c-112 0 -186 56 -186 201v330h34v-329c0 -123 60 -171 157 -171c92 0 187 61 187 181v319h34v-523h-34v112c-24 -65 -95 -120 -192 -120zM170 675h230v-28h-230v28z" />
    <glyph glyph-name="Ubreve" unicode="&#x16c;" horiz-adv-x="674" 
d="M336 -5c-159 0 -256 89 -256 258v462h36v-459c0 -155 79 -230 220 -230c153 0 221 76 221 243v446h36v-451c0 -169 -82 -269 -257 -269zM336 773c-67 0 -118 49 -123 117h30c5 -51 42 -88 93 -88c49 0 88 37 95 88h29c-5 -68 -59 -117 -124 -117z" />
    <glyph glyph-name="ubreve" unicode="&#x16d;" horiz-adv-x="569" 
d="M262 -8c-112 0 -186 56 -186 201v330h34v-329c0 -123 60 -171 157 -171c92 0 187 61 187 181v319h34v-523h-34v112c-24 -65 -95 -120 -192 -120zM284 614c-67 0 -112 46 -117 114h30c5 -51 36 -85 87 -85c49 0 82 34 89 85h29c-4 -68 -54 -114 -118 -114z" />
    <glyph glyph-name="Uring" unicode="&#x16e;" horiz-adv-x="674" 
d="M336 -5c-159 0 -256 89 -256 258v462h36v-459c0 -155 79 -230 220 -230c153 0 221 76 221 243v446h36v-451c0 -169 -82 -269 -257 -269zM336 747c39 0 67 30 67 67c0 39 -28 68 -67 68c-36 0 -66 -29 -66 -68c0 -37 30 -67 66 -67zM336 725c-50 0 -92 41 -92 89
c0 51 41 91 92 91c52 0 93 -40 93 -91c0 -48 -41 -89 -93 -89z" />
    <glyph glyph-name="uring" unicode="&#x16f;" horiz-adv-x="569" 
d="M262 -8c-112 0 -186 56 -186 201v330h34v-329c0 -123 60 -171 157 -171c92 0 187 61 187 181v319h34v-523h-34v112c-24 -65 -95 -120 -192 -120zM284 618c39 0 67 30 67 67c0 39 -28 68 -67 68c-36 0 -66 -29 -66 -68c0 -37 30 -67 66 -67zM284 596c-50 0 -92 41 -92 89
c0 51 41 91 92 91c52 0 93 -40 93 -91c0 -48 -41 -89 -93 -89z" />
    <glyph glyph-name="Uhungarumlaut" unicode="&#x170;" horiz-adv-x="674" 
d="M336 -5c-159 0 -256 89 -256 258v462h36v-459c0 -155 79 -230 220 -230c153 0 221 76 221 243v446h36v-451c0 -169 -82 -269 -257 -269zM311 891h39l-61 -120h-28zM429 891h39l-61 -120h-28z" />
    <glyph glyph-name="uhungarumlaut" unicode="&#x171;" horiz-adv-x="569" 
d="M262 -8c-112 0 -186 56 -186 201v330h34v-329c0 -123 60 -171 157 -171c92 0 187 61 187 181v319h34v-523h-34v112c-24 -65 -95 -120 -192 -120zM269 747h38l-65 -147h-28zM387 747h38l-65 -147h-28z" />
    <glyph glyph-name="Uogonek" unicode="&#x172;" horiz-adv-x="674" 
d="M380 -182c-56 0 -87 31 -87 72c0 43 32 82 76 106c-9 -1 -22 -1 -33 -1c-159 0 -256 89 -256 258v462h36v-459c0 -155 79 -230 220 -230c153 0 221 76 221 243v446h36v-451c0 -125 -44 -212 -136 -248c-71 -29 -130 -63 -130 -122c0 -28 17 -48 56 -48c17 0 33 3 49 9
v-27c-15 -7 -33 -10 -52 -10z" />
    <glyph glyph-name="uogonek" unicode="&#x173;" horiz-adv-x="569" 
d="M461 -182c-56 0 -87 31 -87 72c0 47 40 88 82 114h-2v108c-24 -65 -95 -120 -192 -120c-112 0 -186 56 -186 201v330h34v-329c0 -123 60 -171 157 -171c92 0 187 61 187 181v319h34v-522c-52 -35 -81 -68 -81 -107c0 -28 18 -49 57 -49c17 0 33 3 49 9v-26
c-15 -7 -33 -10 -52 -10z" />
    <glyph glyph-name="Wcircumflex" unicode="&#x174;" horiz-adv-x="915" 
d="M32 715h36l176 -663l202 663h25l191 -665l188 665h33l-203 -715h-38l-184 648l-198 -648h-37zM441 891h34l110 -120h-30l-97 90l-99 -90h-30z" />
    <glyph glyph-name="wcircumflex" unicode="&#x175;" horiz-adv-x="765" 
d="M30 523h36l151 -482l153 482h29l149 -482l153 482h34l-166 -523h-41l-144 466l-149 -466h-41zM367 729h34l109 -129h-30l-96 100l-98 -100h-30z" />
    <glyph glyph-name="Ycircumflex" unicode="&#x176;" horiz-adv-x="565" 
d="M272 322l-250 393h41l228 -362l215 362h37l-235 -393v-322h-36v322zM271 891h34l110 -120h-30l-97 90l-99 -90h-30z" />
    <glyph glyph-name="ycircumflex" unicode="&#x177;" horiz-adv-x="495" 
d="M234 40l-208 483h36l190 -444l181 444h36l-292 -705h-35zM233 729h34l109 -129h-30l-96 100l-98 -100h-30z" />
    <glyph glyph-name="Ydieresis" unicode="&#x178;" horiz-adv-x="565" 
d="M272 322l-250 393h41l228 -362l215 362h37l-235 -393v-322h-36v322zM204 788c-15 0 -26 11 -26 26s11 26 26 26s26 -11 26 -26s-11 -26 -26 -26zM370 788c-15 0 -26 11 -26 26s11 26 26 26s26 -11 26 -26s-11 -26 -26 -26z" />
    <glyph glyph-name="Zacute" unicode="&#x179;" horiz-adv-x="582" 
d="M27 9l466 676h-430v30h482v-8l-464 -676h458v-31h-512v9zM346 891h41l-81 -120h-29z" />
    <glyph glyph-name="zacute" unicode="&#x17a;" horiz-adv-x="468" 
d="M26 7l359 487h-329v29h383v-7l-357 -486h350v-30h-406v7zM293 747h41l-84 -147h-28z" />
    <glyph glyph-name="Zdotaccent" unicode="&#x17b;" horiz-adv-x="582" 
d="M27 9l466 676h-430v30h482v-8l-464 -676h458v-31h-512v9zM298 787c-15 0 -26 12 -26 27s11 26 26 26s27 -11 27 -26s-12 -27 -27 -27z" />
    <glyph glyph-name="zdotaccent" unicode="&#x17c;" horiz-adv-x="468" 
d="M26 7l359 487h-329v29h383v-7l-357 -486h350v-30h-406v7zM244 637c-15 0 -26 12 -26 27s11 26 26 26s27 -11 27 -26s-12 -27 -27 -27z" />
    <glyph glyph-name="Zcaron" unicode="&#x17d;" horiz-adv-x="582" 
d="M27 9l466 676h-430v30h482v-8l-464 -676h458v-31h-512v9zM169 891h30l99 -91l100 91h29l-113 -120h-34z" />
    <glyph glyph-name="zcaron" unicode="&#x17e;" horiz-adv-x="468" 
d="M26 7l359 487h-329v29h383v-7l-357 -486h350v-30h-406v7zM117 742h30l97 -100l97 100h30l-111 -129h-34z" />
    <glyph glyph-name="uni0192" unicode="&#x192;" horiz-adv-x="376" 
d="M30 397h92l26 170c19 115 77 157 157 157c31 0 49 -4 68 -11v-30c-15 5 -37 12 -68 12c-64 0 -108 -33 -123 -129l-26 -169h153v-29h-158l-83 -550h-34l83 550h-87v29z" />
    <glyph glyph-name="Aringacute" unicode="&#x1fa;" horiz-adv-x="641" 
d="M296 715h48l266 -715h-36l-85 228h-339l-84 -228h-34zM161 258h317l-159 428zM316 772c39 0 67 30 67 67c0 39 -28 68 -67 68c-36 0 -66 -29 -66 -68c0 -37 30 -67 66 -67zM316 750c-50 0 -92 41 -92 89c0 51 41 91 92 91c52 0 93 -40 93 -91c0 -48 -41 -89 -93 -89z
M365 1079h41l-81 -120h-29z" />
    <glyph glyph-name="aringacute" unicode="&#x1fb;" horiz-adv-x="521" 
d="M225 -8c-108 0 -179 51 -179 147c0 121 109 157 235 157h130v51c0 108 -45 154 -146 154c-84 0 -147 -36 -162 -121h-34c13 103 101 151 197 151c117 0 179 -59 179 -184v-347h-34v89c-31 -52 -91 -97 -186 -97zM227 21c100 0 184 62 184 139v108h-130
c-111 0 -201 -24 -201 -129c0 -76 51 -118 147 -118zM267 620c39 0 67 30 67 67c0 39 -28 68 -67 68c-36 0 -66 -29 -66 -68c0 -37 30 -67 66 -67zM267 598c-50 0 -92 41 -92 89c0 51 41 91 92 91c52 0 93 -40 93 -91c0 -48 -41 -89 -93 -89zM317 950h41l-81 -120h-29z" />
    <glyph glyph-name="AEacute" unicode="&#x1fc;" horiz-adv-x="943" 
d="M387 715h491v-30h-371v-301h301v-31h-301v-322h389v-31h-425v228h-291l-114 -228h-38zM195 258h276v427h-63zM655 891h41l-81 -120h-29z" />
    <glyph glyph-name="aeacute" unicode="&#x1fd;" horiz-adv-x="909" 
d="M652 -8c-111 0 -184 57 -217 149c-24 -97 -112 -149 -209 -149c-108 0 -180 50 -180 146c0 121 107 154 232 154h136v54c0 108 -48 155 -148 155c-84 0 -148 -36 -163 -121h-34c13 103 102 151 198 151c100 0 159 -45 174 -137c36 85 109 137 204 137
c128 0 222 -87 222 -252v-15h-419c1 -153 71 -242 204 -242c91 0 154 39 177 122h34c-24 -97 -103 -152 -211 -152zM228 21c100 0 186 62 186 159v84h-135c-112 0 -199 -22 -199 -126c0 -77 52 -117 148 -117zM832 292c-3 139 -76 209 -187 209c-110 0 -189 -82 -197 -209
h384zM508 747h41l-84 -147h-28z" />
    <glyph glyph-name="Oslashacute" unicode="&#x1fe;" horiz-adv-x="795" 
d="M45 2l96 106c-57 64 -90 149 -90 245v8c0 203 151 361 347 361c87 0 163 -31 223 -82l88 98l22 -22l-87 -97c63 -64 100 -154 100 -255v-8c0 -202 -149 -363 -344 -363c-95 0 -177 34 -238 93l-95 -106zM400 24c178 0 307 144 307 332v8c0 92 -30 172 -85 232l-438 -486
c56 -55 129 -86 216 -86zM88 353c0 -88 28 -163 75 -220l437 484c-53 47 -122 75 -202 75c-181 0 -310 -143 -310 -331v-8zM445 891h41l-81 -120h-29z" />
    <glyph glyph-name="oslashacute" unicode="&#x1ff;" horiz-adv-x="583" 
d="M36 0l69 77c-39 47 -63 108 -63 180v8c0 156 115 265 251 265c63 0 119 -21 162 -60l63 70l22 -19l-64 -72c40 -45 65 -107 65 -183v-8c0 -157 -114 -266 -250 -266c-64 0 -122 23 -166 64l-67 -75zM292 22c117 0 214 90 214 236v8c0 67 -20 120 -52 159l-308 -345
c39 -37 90 -58 146 -58zM77 257c0 -64 19 -116 50 -156l307 345c-39 36 -88 55 -141 55c-116 0 -216 -90 -216 -236v-8zM340 747h41l-84 -147h-28z" />
    <glyph glyph-name="uni0218" unicode="&#x218;" horiz-adv-x="586" 
d="M299 -7c-168 0 -244 90 -260 204h35c13 -93 74 -173 225 -173c125 0 199 71 199 165c0 110 -55 146 -203 168c-160 23 -227 78 -227 183c0 111 89 182 222 182c128 0 203 -62 220 -169h-34c-17 88 -74 139 -186 139c-117 0 -187 -53 -187 -150c0 -84 47 -131 197 -152
c162 -24 234 -66 234 -200c0 -109 -88 -197 -235 -197zM222 -184l58 140l34 -9l-68 -142z" />
    <glyph glyph-name="uni0219" unicode="&#x219;" horiz-adv-x="456" 
d="M235 -9c-121 0 -191 67 -199 163h33c11 -77 61 -134 166 -134c95 0 145 49 145 116c0 77 -39 97 -146 118c-123 21 -180 51 -180 142c0 82 77 134 171 134c95 0 162 -40 177 -136h-33c-14 71 -62 107 -145 107s-138 -41 -138 -105c0 -67 43 -93 156 -112
c116 -22 172 -49 172 -146c0 -82 -66 -147 -179 -147zM165 -184l58 140l34 -9l-68 -142z" />
    <glyph glyph-name="uni021A" unicode="&#x21a;" horiz-adv-x="558" 
d="M261 685h-230v30h497v-30h-231v-685h-36v685zM214 -184l58 140l34 -9l-68 -142z" />
    <glyph glyph-name="uni021B" unicode="&#x21b;" horiz-adv-x="328" 
d="M221 -7c-75 0 -119 43 -119 130v371h-79v29h79v119h34v-119h146v-29h-146v-369c0 -72 35 -102 87 -102c28 0 47 4 66 11v-30c-17 -7 -36 -11 -68 -11zM114 -184l58 140l34 -9l-68 -142z" />
    <glyph glyph-name="uni0237" unicode="&#x237;" horiz-adv-x="200" 
d="M6 -156c60 5 77 33 77 96v583h34v-581c0 -84 -28 -125 -111 -128v30z" />
    <glyph glyph-name="circumflex" unicode="&#x2c6;" horiz-adv-x="400" 
d="M184 729h34l109 -129h-30l-96 100l-98 -100h-30z" />
    <glyph glyph-name="caron" unicode="&#x2c7;" horiz-adv-x="400" 
d="M73 742h30l97 -100l97 100h30l-111 -129h-34z" />
    <glyph glyph-name="breve" unicode="&#x2d8;" horiz-adv-x="400" 
d="M200 614c-67 0 -112 46 -117 114h30c5 -51 36 -85 87 -85c49 0 82 34 89 85h29c-4 -68 -54 -114 -118 -114z" />
    <glyph glyph-name="dotaccent" unicode="&#x2d9;" horiz-adv-x="400" 
d="M200 637c-15 0 -26 12 -26 27s11 26 26 26s27 -11 27 -26s-12 -27 -27 -27z" />
    <glyph glyph-name="ring" unicode="&#x2da;" horiz-adv-x="400" 
d="M200 625c39 0 67 30 67 67c0 39 -28 68 -67 68c-36 0 -66 -29 -66 -68c0 -37 30 -67 66 -67zM200 603c-50 0 -92 41 -92 89c0 51 41 91 92 91c52 0 93 -40 93 -91c0 -48 -41 -89 -93 -89z" />
    <glyph glyph-name="ogonek" unicode="&#x2db;" horiz-adv-x="400" 
d="M213 -182c-56 0 -86 31 -86 72c0 47 39 85 80 110h34c-51 -35 -81 -66 -81 -106c0 -28 18 -49 57 -49c17 0 33 3 49 9v-26c-15 -7 -33 -10 -53 -10z" />
    <glyph glyph-name="tilde" unicode="&#x2dc;" horiz-adv-x="400" 
d="M270 615c-52 0 -94 58 -133 58c-23 0 -45 -19 -50 -58h-27c7 60 38 88 78 88c48 0 93 -59 133 -59c23 0 44 20 49 59h27c-7 -60 -38 -88 -77 -88z" />
    <glyph glyph-name="hungarumlaut" unicode="&#x2dd;" horiz-adv-x="400" 
d="M177 747h38l-65 -147h-28zM295 747h38l-65 -147h-28z" />
    <glyph glyph-name="uni037E" unicode="&#x37e;" horiz-adv-x="202" 
d="M25 -101l65 160l35 -15l-75 -157zM103 337c-16 0 -28 13 -28 29s12 29 28 29c17 0 29 -13 29 -29s-12 -29 -29 -29z" />
    <glyph glyph-name="tonos" unicode="&#x384;" horiz-adv-x="400" 
d="M255 747h41l-84 -147h-28z" />
    <glyph glyph-name="dieresistonos" unicode="&#x385;" horiz-adv-x="400" 
d="M221 785h39l-55 -147h-28zM296 638c-15 0 -26 11 -26 26s11 26 26 26s26 -11 26 -26s-11 -26 -26 -26zM104 638c-15 0 -26 11 -26 26s11 26 26 26s26 -11 26 -26s-11 -26 -26 -26z" />
    <glyph glyph-name="Alphatonos" unicode="&#x386;" horiz-adv-x="641" 
d="M296 715h48l266 -715h-36l-85 228h-339l-84 -228h-34zM161 258h317l-159 428zM105 715h41l-84 -147h-28z" />
    <glyph glyph-name="anoteleia" unicode="&#x387;" horiz-adv-x="195" 
d="M98 293c-17 0 -29 13 -29 29s12 29 29 29c16 0 28 -13 28 -29s-12 -29 -28 -29z" />
    <glyph glyph-name="Epsilontonos" unicode="&#x388;" horiz-adv-x="566" 
d="M94 715h406v-30h-370v-301h301v-31h-301v-322h388v-31h-424v715zM-25 715h41l-84 -147h-28z" />
    <glyph glyph-name="Etatonos" unicode="&#x389;" horiz-adv-x="709" 
d="M94 715h36v-339h449v339h36v-715h-36v345h-449v-345h-36v715zM-25 715h41l-84 -147h-28z" />
    <glyph glyph-name="Iotatonos" unicode="&#x38a;" horiz-adv-x="234" 
d="M99 715h36v-715h-36v715zM-25 715h41l-84 -147h-28z" />
    <glyph glyph-name="Omicrontonos" unicode="&#x38c;" horiz-adv-x="795" 
d="M400 24c178 0 307 144 307 332v8c0 183 -129 328 -309 328c-181 0 -310 -143 -310 -331v-8c0 -187 133 -329 312 -329zM400 -7c-200 0 -349 160 -349 360v8c0 203 151 361 347 361s346 -157 346 -358v-8c0 -202 -149 -363 -344 -363zM38 715h41l-84 -147h-28z" />
    <glyph glyph-name="Upsilontonos" unicode="&#x38e;" horiz-adv-x="565" 
d="M272 322l-250 393h41l228 -362l215 362h37l-235 -393v-322h-36v322zM-57 715h41l-84 -147h-28z" />
    <glyph glyph-name="Omegatonos" unicode="&#x38f;" horiz-adv-x="797" 
d="M88 357c0 -170 91 -273 223 -337v-20h-258v30h191c-95 50 -193 154 -193 327v8c0 180 135 357 348 357c212 0 347 -174 347 -355v-8c0 -176 -97 -278 -193 -329h191v-30h-258v20c132 59 223 166 223 339v8c0 162 -112 325 -310 325s-311 -162 -311 -327v-8zM38 715h41
l-84 -147h-28z" />
    <glyph glyph-name="iotadieresistonos" unicode="&#x390;" horiz-adv-x="200" 
d="M83 523h34v-523h-34v523zM130 785h39l-55 -147h-28zM205 638c-15 0 -26 11 -26 26s11 26 26 26s26 -11 26 -26s-11 -26 -26 -26zM13 638c-15 0 -26 11 -26 26s11 26 26 26s26 -11 26 -26s-11 -26 -26 -26z" />
    <glyph glyph-name="Alpha" unicode="&#x391;" horiz-adv-x="641" 
d="M296 715h48l266 -715h-36l-85 228h-339l-84 -228h-34zM161 258h317l-159 428z" />
    <glyph glyph-name="Beta" unicode="&#x392;" horiz-adv-x="592" 
d="M94 715h195c122 0 208 -55 208 -179v-4c0 -88 -51 -138 -131 -157c111 -17 167 -76 167 -176v-4c0 -129 -82 -195 -214 -195h-225v715zM318 30c119 0 180 58 180 165v4c0 105 -70 159 -203 159h-166v-328h189zM291 387c112 0 170 53 170 146v4c0 100 -64 148 -173 148
h-159v-298h162z" />
    <glyph glyph-name="Gamma" unicode="&#x393;" horiz-adv-x="522" 
d="M94 715h398v-30h-362v-685h-36v715z" />
    <glyph glyph-name="uni0394" unicode="&#x394;" horiz-adv-x="643" 
d="M35 9l260 706h51l262 -706v-9h-573v9zM76 31h488l-244 658z" />
    <glyph glyph-name="Epsilon" unicode="&#x395;" horiz-adv-x="566" 
d="M94 715h406v-30h-370v-301h301v-31h-301v-322h388v-31h-424v715z" />
    <glyph glyph-name="Zeta" unicode="&#x396;" horiz-adv-x="582" 
d="M27 9l466 676h-430v30h482v-8l-464 -676h458v-31h-512v9z" />
    <glyph glyph-name="Eta" unicode="&#x397;" horiz-adv-x="709" 
d="M94 715h36v-339h449v339h36v-715h-36v345h-449v-345h-36v715z" />
    <glyph glyph-name="Theta" unicode="&#x398;" horiz-adv-x="795" 
d="M400 -7c-200 0 -349 160 -349 360v8c0 203 151 361 347 361s346 -157 346 -358v-8c0 -202 -149 -363 -344 -363zM400 24c178 0 307 144 307 332v8c0 183 -129 328 -309 328c-181 0 -310 -143 -310 -331v-8c0 -187 133 -329 312 -329zM246 379h304v-31h-304v31z" />
    <glyph glyph-name="Iota" unicode="&#x399;" horiz-adv-x="234" 
d="M99 715h36v-715h-36v715z" />
    <glyph glyph-name="Kappa" unicode="&#x39a;" horiz-adv-x="588" 
d="M135 364l365 351h42l-363 -348l381 -367h-45zM94 715h36v-715h-36v715z" />
    <glyph glyph-name="Lambda" unicode="&#x39b;" horiz-adv-x="629" 
d="M604 0h-36l-250 678l-249 -678h-34l262 715h43z" />
    <glyph glyph-name="Mu" unicode="&#x39c;" horiz-adv-x="849" 
d="M94 715h53l272 -649l277 649h53v-715h-36v672l-288 -672h-14l-283 672v-672h-34v715z" />
    <glyph glyph-name="Nu" unicode="&#x39d;" horiz-adv-x="707" 
d="M94 715h51l433 -667v667h35v-715h-44l-440 678v-678h-35v715z" />
    <glyph glyph-name="Xi" unicode="&#x39e;" horiz-adv-x="583" 
d="M526 715v-31h-469v31h469zM467 379v-31h-351v31h351zM49 32h485v-32h-485v32z" />
    <glyph glyph-name="Omicron" unicode="&#x39f;" horiz-adv-x="795" 
d="M400 24c178 0 307 144 307 332v8c0 183 -129 328 -309 328c-181 0 -310 -143 -310 -331v-8c0 -187 133 -329 312 -329zM400 -7c-200 0 -349 160 -349 360v8c0 203 151 361 347 361s346 -157 346 -358v-8c0 -202 -149 -363 -344 -363z" />
    <glyph glyph-name="Pi" unicode="&#x3a0;" horiz-adv-x="700" 
d="M94 715h512v-715h-36v684h-440v-684h-36v715z" />
    <glyph glyph-name="Rho" unicode="&#x3a1;" horiz-adv-x="559" 
d="M94 715h180c140 0 239 -54 239 -195v-4c0 -144 -97 -201 -237 -201h-147v-315h-35v715zM277 345c124 0 200 48 200 171v4c0 124 -82 165 -202 165h-146v-340h148z" />
    <glyph glyph-name="Sigma" unicode="&#x3a3;" horiz-adv-x="572" 
d="M62 684v31h445v-30h-404l246 -321l-245 -332h421v-32h-466v24l249 338z" />
    <glyph glyph-name="Tau" unicode="&#x3a4;" horiz-adv-x="558" 
d="M261 685h-230v30h497v-30h-231v-685h-36v685z" />
    <glyph glyph-name="Upsilon" unicode="&#x3a5;" horiz-adv-x="565" 
d="M272 322l-250 393h41l228 -362l215 362h37l-235 -393v-322h-36v322z" />
    <glyph glyph-name="Phi" unicode="&#x3a6;" horiz-adv-x="832" 
d="M399 52c-213 5 -348 143 -348 303v6c0 165 136 300 348 305v63h35v-63c211 -5 347 -139 347 -302v-7c0 -163 -136 -302 -347 -305v-66h-35v66zM88 356c0 -150 122 -267 311 -275v556c-194 -5 -311 -124 -311 -275v-6zM744 364c0 147 -118 268 -310 273v-556
c191 5 310 123 310 276v7z" />
    <glyph glyph-name="Chi" unicode="&#x3a7;" horiz-adv-x="638" 
d="M300 372l-230 343h40l213 -317l212 317h38l-231 -344l250 -371h-40l-233 345l-235 -345h-37z" />
    <glyph glyph-name="Psi" unicode="&#x3a8;" horiz-adv-x="747" 
d="M356 197c-184 5 -286 106 -286 267v251h36v-248c0 -148 87 -236 250 -241v489h35v-489c173 4 252 94 252 255v234h35v-241c0 -161 -88 -272 -287 -277v-197h-35v197z" />
    <glyph glyph-name="uni03A9" unicode="&#x3a9;" horiz-adv-x="797" 
d="M88 357c0 -170 91 -273 223 -337v-20h-258v30h191c-95 50 -193 154 -193 327v8c0 180 135 357 348 357c212 0 347 -174 347 -355v-8c0 -176 -97 -278 -193 -329h191v-30h-258v20c132 59 223 166 223 339v8c0 162 -112 325 -310 325s-311 -162 -311 -327v-8z" />
    <glyph glyph-name="Iotadieresis" unicode="&#x3aa;" horiz-adv-x="234" 
d="M99 715h36v-715h-36v715zM34 788c-15 0 -26 11 -26 26s11 26 26 26s26 -11 26 -26s-11 -26 -26 -26zM200 788c-15 0 -26 11 -26 26s11 26 26 26s26 -11 26 -26s-11 -26 -26 -26z" />
    <glyph glyph-name="Upsilondieresis" unicode="&#x3ab;" horiz-adv-x="565" 
d="M272 322l-250 393h41l228 -362l215 362h37l-235 -393v-322h-36v322zM207 788c-15 0 -26 11 -26 26s11 26 26 26s26 -11 26 -26s-11 -26 -26 -26zM373 788c-15 0 -26 11 -26 26s11 26 26 26s26 -11 26 -26s-11 -26 -26 -26z" />
    <glyph glyph-name="alphatonos" unicode="&#x3ac;" horiz-adv-x="593" 
d="M275 22c107 0 204 87 204 235v8c0 152 -88 236 -196 236c-111 0 -206 -87 -206 -236v-8c0 -150 89 -235 198 -235zM273 -8c-124 0 -231 96 -231 264v8c0 162 111 267 239 267c108 0 168 -70 197 -142v134h34v-523h-34v141c-24 -69 -99 -149 -205 -149zM355 747h41
l-84 -147h-28z" />
    <glyph glyph-name="epsilontonos" unicode="&#x3ad;" horiz-adv-x="532" 
d="M160 271c-60 9 -102 55 -102 112c0 81 60 148 209 148c150 0 206 -59 219 -138h-34c-14 60 -51 108 -184 108c-125 0 -176 -44 -176 -119c0 -50 44 -98 120 -98h124v-28h-127c-87 0 -130 -54 -130 -114c0 -80 67 -120 184 -120s184 40 199 124h32
c-17 -104 -101 -154 -230 -154c-140 0 -219 53 -219 149c0 68 46 118 115 130zM333 747h41l-84 -147h-28z" />
    <glyph glyph-name="etatonos" unicode="&#x3ae;" horiz-adv-x="573" 
d="M81 523h34v-114c24 64 98 122 195 122c113 0 187 -63 187 -208v-505h-34v506c0 124 -58 177 -158 177c-93 0 -190 -64 -190 -184v-317h-34v523zM331 747h41l-84 -147h-28z" />
    <glyph glyph-name="iotatonos" unicode="&#x3af;" horiz-adv-x="200" 
d="M83 523h34v-523h-34v523zM158 747h41l-84 -147h-28z" />
    <glyph glyph-name="upsilondieresistonos" unicode="&#x3b0;" horiz-adv-x="557" 
d="M278 -8c-108 0 -206 70 -206 214v317h35v-317c0 -124 76 -183 172 -183s171 55 171 183v317h35v-319c0 -144 -98 -212 -207 -212zM304 785h39l-55 -147h-28zM379 638c-15 0 -26 11 -26 26s11 26 26 26s26 -11 26 -26s-11 -26 -26 -26zM187 638c-15 0 -26 11 -26 26
s11 26 26 26s26 -11 26 -26s-11 -26 -26 -26z" />
    <glyph glyph-name="alpha" unicode="&#x3b1;" horiz-adv-x="593" 
d="M275 22c107 0 204 87 204 235v8c0 152 -88 236 -196 236c-111 0 -206 -87 -206 -236v-8c0 -150 89 -235 198 -235zM273 -8c-124 0 -231 96 -231 264v8c0 162 111 267 239 267c108 0 168 -70 197 -142v134h34v-523h-34v141c-24 -69 -99 -149 -205 -149z" />
    <glyph glyph-name="beta" unicode="&#x3b2;" horiz-adv-x="578" 
d="M275 427c127 -5 193 85 193 163v4c0 93 -63 153 -171 153c-123 0 -182 -78 -182 -194v-336c0 -114 98 -195 197 -195c100 0 190 63 190 191v8c0 113 -83 179 -227 176v30zM351 414c97 -13 186 -72 186 -192v-8c0 -144 -108 -222 -224 -222c-88 0 -163 53 -198 129v-303
h-34v735c0 133 77 223 217 223c126 0 204 -75 204 -182v-4c0 -84 -68 -163 -151 -176z" />
    <glyph glyph-name="gamma" unicode="&#x3b3;" horiz-adv-x="534" 
d="M474 523h35l-224 -515v-190h-34v190l-226 515h37l207 -474z" />
    <glyph glyph-name="delta" unicode="&#x3b4;" horiz-adv-x="581" 
d="M101 773h393v-29h-337l292 -294c47 -47 90 -105 90 -195v-7c0 -143 -109 -256 -250 -256c-139 0 -247 111 -247 254v6c0 125 101 247 241 247c27 0 64 -5 93 -20l-275 277v17zM504 255c0 116 -90 216 -214 216s-213 -103 -213 -218v-8c0 -124 90 -223 213 -223
c122 0 214 97 214 226v7z" />
    <glyph glyph-name="epsilon" unicode="&#x3b5;" horiz-adv-x="532" 
d="M160 271c-60 9 -102 55 -102 112c0 81 60 148 209 148c150 0 206 -59 219 -138h-34c-14 60 -51 108 -184 108c-125 0 -176 -44 -176 -119c0 -50 44 -98 120 -98h124v-28h-127c-87 0 -130 -54 -130 -114c0 -80 67 -120 184 -120s184 40 199 124h32
c-17 -104 -101 -154 -230 -154c-140 0 -219 53 -219 149c0 68 46 118 115 130z" />
    <glyph glyph-name="zeta" unicode="&#x3b6;" horiz-adv-x="475" 
d="M270 0c-132 0 -228 77 -228 209c0 207 206 400 356 534h-324v30h389v-9c-229 -200 -386 -375 -386 -554c0 -119 81 -180 193 -180h82c79 0 112 -30 112 -79c0 -37 -11 -74 -20 -105h-33c11 32 19 66 19 99c0 39 -23 55 -79 55h-81z" />
    <glyph glyph-name="eta" unicode="&#x3b7;" horiz-adv-x="573" 
d="M81 523h34v-114c24 64 98 122 195 122c113 0 187 -63 187 -208v-505h-34v506c0 124 -58 177 -158 177c-93 0 -190 -64 -190 -184v-317h-34v523z" />
    <glyph glyph-name="theta" unicode="&#x3b8;" horiz-adv-x="596" 
d="M534 362c0 -240 -83 -370 -236 -370c-151 0 -237 128 -237 368v50c0 239 87 366 235 366c147 0 238 -128 238 -364v-50zM296 747c-129 0 -198 -117 -199 -333v-5h402v7c-1 219 -78 331 -203 331zM298 22c133 0 201 115 201 339v18h-402v-20c0 -221 69 -337 201 -337z" />
    <glyph glyph-name="iota" unicode="&#x3b9;" horiz-adv-x="200" 
d="M83 523h34v-523h-34v523z" />
    <glyph glyph-name="kappa" unicode="&#x3ba;" horiz-adv-x="473" 
d="M405 523h42l-287 -256l295 -267h-43l-294 266zM115 0h-34v523h34v-523z" />
    <glyph glyph-name="lambda" unicode="&#x3bb;" horiz-adv-x="521" 
d="M170 692c-15 37 -28 55 -63 55c-17 0 -40 -5 -55 -12v30c17 7 39 11 59 11c45 0 70 -25 89 -73l230 -622c13 -35 31 -55 62 -55c9 0 25 3 33 6v-30c-8 -3 -21 -6 -36 -6c-42 0 -72 24 -89 72l-150 411l-189 -479h-35l207 522z" />
    <glyph glyph-name="uni03BC" unicode="&#x3bc;" horiz-adv-x="574" 
d="M82 523h34v-338c0 -116 69 -162 165 -162c92 0 179 61 179 181v319h34v-523h-34v112c-24 -64 -87 -119 -183 -119c-73 0 -134 25 -161 93v-268h-34v705z" />
    <glyph glyph-name="nu" unicode="&#x3bd;" horiz-adv-x="508" 
d="M26 523h37l193 -490l191 490h35l-204 -523h-46z" />
    <glyph glyph-name="xi" unicode="&#x3be;" horiz-adv-x="496" 
d="M362 30c80 0 112 -30 112 -79c0 -37 -9 -74 -20 -105h-32c11 32 18 66 18 99c0 39 -23 55 -79 55h-70c-146 0 -249 76 -249 209c0 120 84 195 175 214c-75 23 -122 80 -122 156s57 149 145 165h-185v29h408v-29h-120c-116 0 -213 -60 -213 -164c0 -72 53 -144 160 -144
h128v-30h-131c-128 0 -210 -85 -210 -197c0 -117 88 -179 214 -179h71z" />
    <glyph glyph-name="omicron" unicode="&#x3bf;" horiz-adv-x="583" 
d="M292 22c117 0 214 90 214 236v8c0 148 -98 235 -213 235c-116 0 -216 -90 -216 -236v-8c0 -143 97 -235 215 -235zM291 -8c-137 0 -249 110 -249 265v8c0 156 115 265 251 265s248 -105 248 -264v-8c0 -157 -114 -266 -250 -266z" />
    <glyph glyph-name="pi" unicode="&#x3c0;" horiz-adv-x="582" 
d="M446 494h-310v-494h-34v494h-79v29h536v-29h-79v-494h-34v494z" />
    <glyph glyph-name="rho" unicode="&#x3c1;" horiz-adv-x="582" 
d="M305 22c116 0 200 88 200 235v8c0 149 -88 236 -203 236c-117 0 -207 -90 -207 -236v-8c0 -147 96 -235 210 -235zM306 -7c-112 0 -184 74 -211 147v-322h-34v448c0 157 105 264 241 264s238 -105 238 -265v-8c0 -165 -102 -264 -234 -264z" />
    <glyph glyph-name="uni03C2" unicode="&#x3c2;" horiz-adv-x="547" 
d="M77 257c0 -132 76 -227 218 -227h50c80 0 112 -30 112 -79c0 -37 -9 -74 -20 -105h-33c11 32 19 66 19 99c0 39 -23 55 -79 55h-50c-148 0 -252 96 -252 257v8c0 160 111 266 247 266c104 0 200 -61 213 -169h-34c-13 91 -90 139 -179 139c-117 0 -212 -90 -212 -236v-8z
" />
    <glyph glyph-name="sigma" unicode="&#x3c3;" horiz-adv-x="601" 
d="M291 -8c-137 0 -249 110 -249 265v8c0 156 113 258 251 258h278v-29h-180c88 -31 150 -113 150 -228v-8c0 -157 -114 -266 -250 -266zM292 22c117 0 214 90 214 236v8c0 145 -94 228 -213 228c-118 0 -216 -84 -216 -229v-8c0 -143 97 -235 215 -235z" />
    <glyph glyph-name="tau" unicode="&#x3c4;" horiz-adv-x="448" 
d="M315 -7c-76 0 -115 49 -115 136v365h-177v29h400v-29h-189v-366c0 -73 30 -105 82 -105c28 0 64 4 83 11v-30c-17 -7 -52 -11 -84 -11z" />
    <glyph glyph-name="upsilon" unicode="&#x3c5;" horiz-adv-x="557" 
d="M278 -8c-108 0 -206 70 -206 214v317h35v-317c0 -124 76 -183 172 -183s171 55 171 183v317h35v-319c0 -144 -98 -212 -207 -212z" />
    <glyph glyph-name="phi" unicode="&#x3c6;" horiz-adv-x="728" 
d="M686 263c0 -166 -133 -266 -306 -269v-176h-34v176c-189 8 -304 114 -304 262v8c0 151 89 242 196 263v-29c-92 -24 -161 -103 -161 -234v-8c0 -134 98 -224 269 -232v505c7 1 20 1 25 1c212 0 315 -107 315 -259v-8zM651 271c0 139 -90 230 -271 230v-477
c163 5 271 88 271 239v8z" />
    <glyph glyph-name="chi" unicode="&#x3c7;" horiz-adv-x="525" 
d="M248 178l-155 289c-15 28 -26 33 -42 33c-9 0 -20 -2 -31 -7v29c11 5 22 7 35 7c27 0 45 -8 66 -47l147 -272l178 313h37l-198 -346l152 -281c19 -33 30 -52 57 -52c9 0 24 3 32 6v-29c-8 -3 -23 -7 -36 -7c-37 0 -58 22 -83 69l-142 263l-187 -328h-37z" />
    <glyph glyph-name="psi" unicode="&#x3c8;" horiz-adv-x="720" 
d="M104 246c0 -117 70 -211 239 -219v496h34v-496c163 8 239 100 239 218v278h34v-277c0 -133 -90 -237 -273 -248v-180h-34v180c-189 11 -273 115 -273 250v275h34v-277z" />
    <glyph glyph-name="omega" unicode="&#x3c9;" horiz-adv-x="734" 
d="M384 162c0 -88 60 -140 129 -140c97 0 144 85 144 213v7c0 124 -32 240 -174 259v29c160 -16 209 -144 209 -288v-8c0 -138 -61 -242 -176 -242c-81 0 -132 48 -149 113c-16 -63 -65 -113 -148 -113c-116 0 -177 103 -177 243v8c0 143 55 271 210 287v-29
c-138 -19 -175 -135 -175 -258v-8c0 -128 49 -213 145 -213c70 0 128 52 128 140v189h34v-189z" />
    <glyph glyph-name="iotadieresis" unicode="&#x3ca;" horiz-adv-x="200" 
d="M83 523h34v-523h-34v523zM24 638c-15 0 -26 11 -26 26s11 26 26 26s26 -11 26 -26s-11 -26 -26 -26zM178 638c-15 0 -26 11 -26 26s11 26 26 26s26 -11 26 -26s-11 -26 -26 -26z" />
    <glyph glyph-name="upsilondieresis" unicode="&#x3cb;" horiz-adv-x="557" 
d="M278 -8c-108 0 -206 70 -206 214v317h35v-317c0 -124 76 -183 172 -183s171 55 171 183v317h35v-319c0 -144 -98 -212 -207 -212zM201 638c-15 0 -26 11 -26 26s11 26 26 26s26 -11 26 -26s-11 -26 -26 -26zM355 638c-15 0 -26 11 -26 26s11 26 26 26s26 -11 26 -26
s-11 -26 -26 -26z" />
    <glyph glyph-name="omicrontonos" unicode="&#x3cc;" horiz-adv-x="583" 
d="M292 22c117 0 214 90 214 236v8c0 148 -98 235 -213 235c-116 0 -216 -90 -216 -236v-8c0 -143 97 -235 215 -235zM291 -8c-137 0 -249 110 -249 265v8c0 156 115 265 251 265s248 -105 248 -264v-8c0 -157 -114 -266 -250 -266zM349 747h41l-84 -147h-28z" />
    <glyph glyph-name="upsilontonos" unicode="&#x3cd;" horiz-adv-x="557" 
d="M278 -8c-108 0 -206 70 -206 214v317h35v-317c0 -124 76 -183 172 -183s171 55 171 183v317h35v-319c0 -144 -98 -212 -207 -212zM331 747h41l-84 -147h-28z" />
    <glyph glyph-name="omegatonos" unicode="&#x3ce;" horiz-adv-x="734" 
d="M384 162c0 -88 60 -140 129 -140c97 0 144 85 144 213v7c0 124 -32 240 -174 259v29c160 -16 209 -144 209 -288v-8c0 -138 -61 -242 -176 -242c-81 0 -132 48 -149 113c-16 -63 -65 -113 -148 -113c-116 0 -177 103 -177 243v8c0 143 55 271 210 287v-29
c-138 -19 -175 -135 -175 -258v-8c0 -128 49 -213 145 -213c70 0 128 52 128 140v189h34v-189zM424 747h41l-84 -147h-28z" />
    <glyph glyph-name="uni0401" unicode="&#x401;" horiz-adv-x="566" 
d="M94 715h406v-30h-370v-301h301v-31h-301v-322h388v-31h-424v715zM212 788c-15 0 -26 11 -26 26s11 26 26 26s26 -11 26 -26s-11 -26 -26 -26zM378 788c-15 0 -26 11 -26 26s11 26 26 26s26 -11 26 -26s-11 -26 -26 -26z" />
    <glyph glyph-name="uni0402" unicode="&#x402;" horiz-adv-x="761" 
d="M297 343c8 8 59 91 197 91c143 0 213 -90 213 -227c0 -133 -65 -212 -173 -212c-47 0 -76 11 -95 20v32c23 -11 52 -22 92 -22c92 0 142 69 142 182c0 118 -56 197 -181 197c-140 0 -188 -95 -195 -105v-299h-36v685h-230v30h514v-30h-248v-342z" />
    <glyph glyph-name="uni0403" unicode="&#x403;" horiz-adv-x="521" 
d="M94 715h389v-31h-353v-684h-36v715zM343 891h41l-81 -120h-29z" />
    <glyph glyph-name="uni0404" unicode="&#x404;" horiz-adv-x="723" 
d="M678 225c-27 -147 -145 -232 -296 -232c-201 0 -331 148 -331 360v8c0 212 148 361 331 361c146 0 263 -76 287 -216h-36c-25 119 -112 186 -251 186c-162 0 -288 -128 -293 -313h406v-31h-407c3 -196 115 -324 295 -324c137 0 235 74 262 201h33z" />
    <glyph glyph-name="uni0405" unicode="&#x405;" horiz-adv-x="586" 
d="M299 -7c-168 0 -244 90 -260 204h35c13 -93 74 -173 225 -173c125 0 199 71 199 165c0 110 -55 146 -203 168c-160 23 -227 78 -227 183c0 111 89 182 222 182c128 0 203 -62 220 -169h-34c-17 88 -74 139 -186 139c-117 0 -187 -53 -187 -150c0 -84 47 -131 197 -152
c162 -24 234 -66 234 -200c0 -109 -88 -197 -235 -197z" />
    <glyph glyph-name="uni0406" unicode="&#x406;" horiz-adv-x="234" 
d="M99 715h36v-715h-36v715z" />
    <glyph glyph-name="uni0407" unicode="&#x407;" horiz-adv-x="234" 
d="M99 715h36v-715h-36v715zM34 788c-15 0 -26 11 -26 26s11 26 26 26s26 -11 26 -26s-11 -26 -26 -26zM200 788c-15 0 -26 11 -26 26s11 26 26 26s26 -11 26 -26s-11 -26 -26 -26z" />
    <glyph glyph-name="uni0408" unicode="&#x408;" horiz-adv-x="389" 
d="M137 -5c-48 0 -82 11 -101 20v32c24 -11 56 -22 99 -22c85 0 137 41 137 148v542h36v-543c0 -125 -70 -177 -171 -177z" />
    <glyph glyph-name="uni0409" unicode="&#x409;" horiz-adv-x="1001" 
d="M537 684h-321c0 -66 -2 -261 -15 -434c-13 -171 -38 -257 -135 -257c-13 0 -24 2 -32 5c-4 1 -8 3 -11 5v35c4 -2 8 -4 13 -5c8 -3 18 -4 29 -4c67 0 91 70 102 227c7 104 11 218 14 307c1 52 2 103 2 152h390v-307h148c141 0 239 -63 239 -194v-4
c0 -133 -89 -210 -218 -210h-205v684zM743 30c117 0 181 69 181 180v4c0 107 -72 164 -201 164h-150v-348h170z" />
    <glyph glyph-name="uni040A" unicode="&#x40a;" horiz-adv-x="1025" 
d="M767 30c117 0 181 65 181 176v4c0 105 -72 168 -201 168h-150v-348h170zM562 345h-432v-345h-36v715h36v-339h432v339h35v-307h149c142 0 238 -67 238 -198v-4c0 -132 -89 -206 -218 -206h-204v345z" />
    <glyph glyph-name="uni040B" unicode="&#x40b;" horiz-adv-x="778" 
d="M297 343c11 17 25 32 43 45c31 23 78 46 149 46c151 0 209 -80 209 -251v-183h-36v185c0 147 -44 219 -175 219c-69 0 -116 -25 -147 -52c-17 -15 -32 -32 -43 -51v-301h-36v685h-230v30h514v-30h-248v-342z" />
    <glyph glyph-name="uni040C" unicode="&#x40c;" horiz-adv-x="588" 
d="M341 891h41l-81 -120h-29zM135 364l365 351h42l-363 -348l381 -367h-45zM94 715h36v-715h-36v715z" />
    <glyph glyph-name="uni040D" unicode="&#x40d;" horiz-adv-x="719" 
d="M94 0v715h36v-664l460 664h35v-715h-36v664l-460 -664h-35zM277 891h42l68 -120h-29z" />
    <glyph glyph-name="uni040E" unicode="&#x40e;" horiz-adv-x="569" 
d="M298 773c-63 0 -119 49 -122 117h31c4 -51 39 -92 91 -92s89 41 94 92h31c-5 -68 -60 -117 -125 -117zM139 -7c-16 0 -28 2 -37 5c-5 1 -9 3 -13 5l1 34c4 -2 8 -4 13 -5c8 -3 20 -4 35 -4c61 0 98 42 134 119l-242 568h38l222 -525l223 525h34l-234 -550
c-42 -100 -83 -172 -174 -172z" />
    <glyph glyph-name="uni040F" unicode="&#x40f;" horiz-adv-x="699" 
d="M94 0v715h36v-684h439v684h36v-715h-238l-2 -130h-30l-2 130h-239z" />
    <glyph glyph-name="uni0410" unicode="&#x410;" horiz-adv-x="641" 
d="M296 715h48l266 -715h-36l-85 228h-339l-84 -228h-34zM161 258h317l-159 428z" />
    <glyph glyph-name="uni0411" unicode="&#x411;" horiz-adv-x="592" 
d="M533 204c0 -129 -82 -204 -214 -204h-225v715h392v-30h-357v-280h169c144 0 235 -69 235 -197v-4zM318 30c119 0 180 66 180 174v4c0 104 -70 167 -202 167h-167v-345h189z" />
    <glyph glyph-name="uni0412" unicode="&#x412;" horiz-adv-x="592" 
d="M94 715h195c122 0 208 -55 208 -179v-4c0 -88 -51 -138 -131 -157c111 -17 167 -76 167 -176v-4c0 -129 -82 -195 -214 -195h-225v715zM318 30c119 0 180 58 180 165v4c0 105 -70 159 -203 159h-166v-328h189zM291 387c112 0 170 53 170 146v4c0 100 -64 148 -173 148
h-159v-298h162z" />
    <glyph glyph-name="uni0413" unicode="&#x413;" horiz-adv-x="521" 
d="M94 715h389v-31h-353v-684h-36v715z" />
    <glyph glyph-name="uni0414" unicode="&#x414;" horiz-adv-x="693" 
d="M178 280c-12 -124 -28 -216 -69 -249h432v654h-339c0 -23 -8 -234 -24 -405zM40 -130h-30v161h51c52 22 71 117 84 255c9 104 16 211 20 292c3 47 4 93 5 137h406v-684h95v-161h-30l-3 130h-594z" />
    <glyph glyph-name="uni0415" unicode="&#x415;" horiz-adv-x="566" 
d="M94 715h406v-30h-370v-301h301v-31h-301v-322h388v-31h-424v715z" />
    <glyph glyph-name="uni0416" unicode="&#x416;" horiz-adv-x="863" 
d="M414 715h35v-715h-35v715zM794 0l-338 364l323 351h42l-326 -348l343 -367h-44zM26 0l342 365l-327 350h43l323 -352l-338 -363h-43z" />
    <glyph glyph-name="uni0417" unicode="&#x417;" horiz-adv-x="582" 
d="M285 -7c-151 0 -227 90 -243 204h36c13 -93 72 -173 207 -173c131 0 202 66 202 175c0 106 -67 159 -200 159h-94v29h94c109 0 170 60 170 152c0 100 -62 153 -170 153s-164 -51 -181 -139h-34c17 107 90 169 217 169c120 0 203 -64 203 -183c0 -91 -54 -148 -134 -165
c108 -15 165 -75 165 -175c0 -128 -94 -206 -238 -206z" />
    <glyph glyph-name="uni0418" unicode="&#x418;" horiz-adv-x="719" 
d="M94 0v715h36v-664l460 664h35v-715h-36v664l-460 -664h-35z" />
    <glyph glyph-name="uni0419" unicode="&#x419;" horiz-adv-x="719" 
d="M368 773c-63 0 -119 49 -122 117h31c4 -51 39 -92 91 -92s89 41 94 92h31c-5 -68 -60 -117 -125 -117zM94 0v715h36v-664l460 664h35v-715h-36v664l-460 -664h-35z" />
    <glyph glyph-name="uni041A" unicode="&#x41a;" horiz-adv-x="588" 
d="M135 364l365 351h42l-363 -348l381 -367h-45zM94 715h36v-715h-36v715z" />
    <glyph glyph-name="uni041B" unicode="&#x41b;" horiz-adv-x="677" 
d="M201 250c-13 -171 -38 -257 -135 -257c-13 0 -24 2 -32 5c-4 1 -8 3 -11 5v35c4 -2 8 -4 13 -5c8 -3 18 -4 29 -4c67 0 91 70 102 227c7 104 11 218 14 307c1 52 2 103 2 152h400v-715h-36v684h-331c0 -66 -2 -261 -15 -434z" />
    <glyph glyph-name="uni041C" unicode="&#x41c;" horiz-adv-x="849" 
d="M94 715h53l272 -649l277 649h53v-715h-36v672l-288 -672h-14l-283 672v-672h-34v715z" />
    <glyph glyph-name="uni041D" unicode="&#x41d;" horiz-adv-x="709" 
d="M94 715h36v-339h449v339h36v-715h-36v345h-449v-345h-36v715z" />
    <glyph glyph-name="uni041E" unicode="&#x41e;" horiz-adv-x="795" 
d="M400 24c178 0 307 144 307 332v8c0 183 -129 328 -309 328c-181 0 -310 -143 -310 -331v-8c0 -187 133 -329 312 -329zM400 -7c-200 0 -349 160 -349 360v8c0 203 151 361 347 361s346 -157 346 -358v-8c0 -202 -149 -363 -344 -363z" />
    <glyph glyph-name="uni041F" unicode="&#x41f;" horiz-adv-x="699" 
d="M569 684h-439v-684h-36v715h511v-715h-36v684z" />
    <glyph glyph-name="uni0420" unicode="&#x420;" horiz-adv-x="559" 
d="M94 715h180c140 0 239 -54 239 -195v-4c0 -144 -97 -201 -237 -201h-147v-315h-35v715zM277 345c124 0 200 48 200 171v4c0 124 -82 165 -202 165h-146v-340h148z" />
    <glyph glyph-name="uni0421" unicode="&#x421;" horiz-adv-x="723" 
d="M382 -7c-201 0 -331 148 -331 360v8c0 212 148 361 331 361c146 0 263 -76 287 -216h-36c-25 119 -112 186 -251 186c-168 0 -294 -136 -294 -330v-8c0 -199 115 -330 295 -330c137 0 235 74 262 201h33c-27 -147 -145 -232 -296 -232z" />
    <glyph glyph-name="uni0422" unicode="&#x422;" horiz-adv-x="558" 
d="M261 685h-230v30h497v-30h-231v-685h-36v685z" />
    <glyph glyph-name="uni0423" unicode="&#x423;" horiz-adv-x="569" 
d="M139 -7c-16 0 -28 2 -37 5c-5 1 -9 3 -13 5l1 34c4 -2 8 -4 13 -5c8 -3 20 -4 35 -4c61 0 98 42 134 119l-242 568h38l222 -525l223 525h34l-234 -550c-42 -100 -83 -172 -174 -172z" />
    <glyph glyph-name="uni0424" unicode="&#x424;" horiz-adv-x="770" 
d="M403 631c194 0 321 -94 321 -266v-8c0 -176 -132 -269 -321 -269v-98h-36v98c-194 0 -321 94 -321 267v7c0 178 132 269 321 269v94h36v-94zM403 118c172 0 285 78 285 239v8c0 157 -108 237 -285 238v-485zM367 602c-173 0 -284 -78 -284 -240v-7
c0 -157 107 -237 284 -238v485z" />
    <glyph glyph-name="uni0425" unicode="&#x425;" horiz-adv-x="638" 
d="M300 372l-230 343h40l213 -317l212 317h38l-231 -344l250 -371h-40l-233 345l-235 -345h-37z" />
    <glyph glyph-name="uni0426" unicode="&#x426;" horiz-adv-x="722" 
d="M670 -130l-3 130h-573v715h36v-684h439v684h36v-684h95v-161h-30z" />
    <glyph glyph-name="uni0427" unicode="&#x427;" horiz-adv-x="635" 
d="M505 0v381c-16 -24 -86 -89 -222 -89c-145 0 -218 79 -218 247v176h36v-177c0 -145 61 -217 183 -217c155 0 216 91 221 102v292h36v-715h-36z" />
    <glyph glyph-name="uni0428" unicode="&#x428;" horiz-adv-x="975" 
d="M94 715h36v-684h339v684h36v-684h340v684h36v-715h-787v715z" />
    <glyph glyph-name="uni0429" unicode="&#x429;" horiz-adv-x="997" 
d="M946 -130l-4 130h-848v715h36v-684h339v684h36v-684h340v684h36v-684h95v-161h-30z" />
    <glyph glyph-name="uni042A" unicode="&#x42a;" horiz-adv-x="705" 
d="M231 684h-200v31h235v-307h159c141 0 239 -67 239 -198v-4c0 -132 -89 -206 -219 -206h-214v684zM447 30c117 0 181 65 181 176v4c0 105 -72 168 -201 168h-161v-348h181z" />
    <glyph glyph-name="uni042B" unicode="&#x42b;" horiz-adv-x="762" 
d="M669 0h-36v715h36v-715zM94 715h35v-307h150c141 0 239 -67 239 -198v-4c0 -132 -89 -206 -219 -206h-205v715zM301 30c117 0 181 65 181 176v4c0 105 -72 168 -201 168h-152v-348h172z" />
    <glyph glyph-name="uni042C" unicode="&#x42c;" horiz-adv-x="568" 
d="M94 715h35v-307h159c141 0 239 -67 239 -198v-4c0 -132 -89 -206 -219 -206h-214v715zM310 30c116 0 181 65 181 176v4c0 105 -73 168 -202 168h-160v-348h181z" />
    <glyph glyph-name="uni042D" unicode="&#x42d;" horiz-adv-x="718" 
d="M339 -7c-149 0 -267 76 -294 217h36c25 -120 117 -187 258 -187c164 0 288 134 291 325h-400v31h400c-5 188 -112 313 -285 313c-137 0 -233 -73 -264 -201h-34c32 147 147 231 298 231c201 0 322 -146 322 -359v-8c0 -211 -145 -362 -328 -362z" />
    <glyph glyph-name="uni042E" unicode="&#x42e;" horiz-adv-x="1007" 
d="M622 -7c-196 0 -336 156 -339 352h-153v-345h-36v715h36v-339h153c8 196 145 346 337 346c196 0 336 -157 336 -358v-8c0 -202 -140 -363 -334 -363zM622 24c178 0 297 144 297 332v8c0 183 -119 328 -299 328c-181 0 -300 -143 -300 -331v-8c0 -187 123 -329 302 -329z
" />
    <glyph glyph-name="uni042F" unicode="&#x42f;" horiz-adv-x="604" 
d="M294 685c-117 0 -181 -54 -181 -165v-4c0 -107 72 -170 201 -170h161v339h-181zM510 0h-35v316h-156c-9 0 -18 0 -26 1l-220 -317h-42l225 321c-109 17 -179 83 -179 195v4c0 132 89 195 219 195h214v-715z" />
    <glyph glyph-name="uni0430" unicode="&#x430;" horiz-adv-x="521" 
d="M225 -8c-108 0 -179 51 -179 147c0 121 109 157 235 157h130v51c0 108 -45 154 -146 154c-84 0 -147 -36 -162 -121h-34c13 103 101 151 197 151c117 0 179 -59 179 -184v-347h-34v89c-31 -52 -91 -97 -186 -97zM227 21c100 0 184 62 184 139v108h-130
c-111 0 -201 -24 -201 -129c0 -76 51 -118 147 -118z" />
    <glyph glyph-name="uni0431" unicode="&#x431;" horiz-adv-x="593" 
d="M301 -8c-137 0 -249 103 -249 286v75c0 253 70 409 286 414l45 1c84 3 117 10 134 17v-30c-15 -7 -48 -15 -132 -18l-45 -1c-187 -5 -255 -125 -260 -368h2c33 100 124 162 233 162c135 0 236 -103 236 -263v-7c0 -161 -114 -268 -250 -268zM302 22c117 0 214 89 214 238
v6c0 150 -87 235 -203 235c-119 0 -226 -84 -226 -232v-2c0 -155 97 -245 215 -245z" />
    <glyph glyph-name="uni0432" unicode="&#x432;" horiz-adv-x="508" 
d="M82 523h190c93 0 159 -42 159 -131v-3c0 -64 -37 -101 -96 -113c77 -12 122 -54 122 -127v-3c0 -96 -59 -146 -172 -146h-203v523zM116 495v-208h156c80 0 123 34 123 101v3c0 72 -45 104 -124 104h-155zM116 259v-230h167c92 0 138 39 138 116v3c0 75 -50 111 -145 111
h-160z" />
    <glyph glyph-name="uni0433" unicode="&#x433;" horiz-adv-x="439" 
d="M116 494v-494h-34v523h332v-29h-298z" />
    <glyph glyph-name="uni0434" unicode="&#x434;" horiz-adv-x="565" 
d="M157 253c-12 -116 -23 -191 -60 -223h336v464h-259c-3 -48 -9 -168 -17 -241zM42 -127h-27v157h34c51 13 63 103 76 228c5 47 9 112 13 168l6 97h323v-493h72v-157h-28l-3 127h-462z" />
    <glyph glyph-name="uni0435" unicode="&#x435;" horiz-adv-x="545" 
d="M286 -8c-153 0 -244 110 -244 265v8c0 156 101 266 237 266c128 0 224 -88 224 -252v-15h-426c1 -153 74 -242 209 -242c91 0 158 39 179 122h34c-24 -97 -105 -152 -213 -152zM469 293c-4 139 -78 208 -190 208s-193 -83 -201 -208h391z" />
    <glyph glyph-name="uni0436" unicode="&#x436;" horiz-adv-x="659" 
d="M313 523h33v-523h-33v523zM600 0l-251 274l237 249h39l-239 -248l255 -275h-41zM18 0l255 275l-239 248h38l237 -249l-251 -274h-40z" />
    <glyph glyph-name="uni0437" unicode="&#x437;" horiz-adv-x="473" 
d="M396 395c0 -65 -37 -108 -96 -119c76 -9 122 -54 122 -127v-6c0 -83 -70 -152 -183 -152c-117 0 -185 62 -196 151h33c15 -72 63 -122 163 -122c93 0 147 54 147 122v6c0 74 -47 111 -142 111h-91v28h87c80 0 120 39 120 107v3c0 67 -45 104 -126 104
c-79 0 -128 -44 -140 -120h-33c11 97 82 150 175 150c95 0 160 -49 160 -133v-3z" />
    <glyph glyph-name="uni0438" unicode="&#x438;" horiz-adv-x="569" 
d="M82 0v523h34v-472l339 472h34v-523h-34v474l-339 -474h-34z" />
    <glyph glyph-name="uni0439" unicode="&#x439;" horiz-adv-x="569" 
d="M282 614c-63 0 -119 49 -122 117h31c4 -51 39 -92 91 -92s89 41 94 92h31c-5 -68 -60 -117 -125 -117zM82 0v523h34v-472l339 472h34v-523h-34v474l-339 -474h-34z" />
    <glyph glyph-name="uni043A" unicode="&#x43a;" horiz-adv-x="468" 
d="M81 523h34v-523h-34v523zM118 274l275 249h42l-275 -248l291 -275h-44z" />
    <glyph glyph-name="uni043B" unicode="&#x43b;" horiz-adv-x="551" 
d="M170 253c-16 -162 -38 -257 -122 -257c-12 0 -22 1 -29 4c-4 1 -7 3 -10 5v33c3 -2 7 -4 11 -5c7 -3 15 -4 26 -4c62 0 79 92 92 229c4 47 9 112 12 168c2 32 4 64 5 97h315v-523h-35v494h-250c-3 -49 -7 -169 -15 -241z" />
    <glyph glyph-name="uni043C" unicode="&#x43c;" horiz-adv-x="674" 
d="M113 485v-485h-31v523h50l203 -467l210 467h47v-523h-34v485l-217 -485h-17z" />
    <glyph glyph-name="uni043D" unicode="&#x43d;" horiz-adv-x="561" 
d="M445 258h-329v-258h-34v523h34v-236h329v236h34v-523h-34v258z" />
    <glyph glyph-name="uni043E" unicode="&#x43e;" horiz-adv-x="583" 
d="M292 22c117 0 214 90 214 236v8c0 148 -98 235 -213 235c-116 0 -216 -90 -216 -236v-8c0 -143 97 -235 215 -235zM291 -8c-137 0 -249 110 -249 265v8c0 156 115 265 251 265s248 -105 248 -264v-8c0 -157 -114 -266 -250 -266z" />
    <glyph glyph-name="uni043F" unicode="&#x43f;" horiz-adv-x="551" 
d="M435 494h-319v-494h-34v523h387v-523h-34v494z" />
    <glyph glyph-name="uni0440" unicode="&#x440;" horiz-adv-x="602" 
d="M81 523h34v-144c29 80 111 152 213 152c127 0 232 -102 232 -265v-8c0 -167 -103 -266 -232 -266c-115 0 -186 76 -213 148v-322h-34v705zM326 22c115 0 199 87 199 235v8c0 152 -92 236 -200 236c-105 0 -210 -84 -210 -236v-8c0 -148 97 -235 211 -235z" />
    <glyph glyph-name="uni0441" unicode="&#x441;" horiz-adv-x="547" 
d="M288 -8c-137 0 -246 107 -246 265v8c0 160 111 266 247 266c104 0 200 -61 213 -169h-34c-13 91 -90 139 -179 139c-117 0 -212 -90 -212 -236v-8c0 -144 94 -235 211 -235c95 0 172 55 188 155h32c-16 -112 -105 -185 -220 -185z" />
    <glyph glyph-name="uni0442" unicode="&#x442;" horiz-adv-x="455" 
d="M432 494h-187v-494h-35v494h-187v29h409v-29z" />
    <glyph glyph-name="uni0443" unicode="&#x443;" horiz-adv-x="495" 
d="M234 40l-208 483h36l190 -444l181 444h36l-292 -705h-35z" />
    <glyph glyph-name="uni0444" unicode="&#x444;" horiz-adv-x="671" 
d="M352 530c162 -5 277 -106 277 -265v-8c0 -158 -116 -261 -277 -264v-175h-34v175c-161 3 -276 108 -276 264v8c0 161 115 260 276 265v243h34v-243zM318 503c-140 -5 -241 -89 -241 -238v-7c0 -146 99 -235 241 -238v483zM352 20c141 3 242 90 242 237v8
c0 147 -98 234 -242 237v-482z" />
    <glyph glyph-name="uni0445" unicode="&#x445;" horiz-adv-x="500" 
d="M228 271l-186 252h41l166 -227l163 227h39l-182 -250l201 -273h-41l-181 248l-180 -248h-38z" />
    <glyph glyph-name="uni0446" unicode="&#x446;" horiz-adv-x="567" 
d="M514 -127l-4 127h-428v523h34v-493h319v493h34v-493h72v-157h-27z" />
    <glyph glyph-name="uni0447" unicode="&#x447;" horiz-adv-x="560" 
d="M426 0v276c-24 -35 -79 -85 -177 -85c-105 0 -177 56 -177 201v131h35v-130c0 -123 56 -172 147 -172c119 0 164 88 172 96v206h34v-523h-34z" />
    <glyph glyph-name="uni0448" unicode="&#x448;" horiz-adv-x="789" 
d="M82 523h34v-493h262v493h34v-493h261v493h35v-523h-626v523z" />
    <glyph glyph-name="uni0449" unicode="&#x449;" horiz-adv-x="805" 
d="M752 -127l-4 127h-666v523h34v-493h262v493h34v-493h261v493h35v-493h71v-157h-27z" />
    <glyph glyph-name="uni044A" unicode="&#x44a;" horiz-adv-x="571" 
d="M184 494h-161v29h196v-197h126c115 0 191 -55 191 -159v-3c0 -105 -71 -164 -175 -164h-177v494zM362 28c91 0 139 51 139 136v3c0 83 -54 131 -154 131h-128v-270h143z" />
    <glyph glyph-name="uni044B" unicode="&#x44b;" horiz-adv-x="648" 
d="M532 523h34v-523h-34v523zM82 523h34v-197h127c113 0 190 -55 190 -159v-3c0 -105 -70 -164 -174 -164h-177v523zM260 28c91 0 139 51 139 136v3c0 83 -55 131 -155 131h-128v-270h144z" />
    <glyph glyph-name="uni044C" unicode="&#x44c;" horiz-adv-x="469" 
d="M82 523h34v-197h127c115 0 190 -56 190 -160v-3c0 -107 -70 -163 -174 -163h-177v523zM260 28c92 0 139 51 139 135v3c0 84 -55 132 -155 132h-128v-270h144z" />
    <glyph glyph-name="uni044D" unicode="&#x44d;" horiz-adv-x="547" 
d="M264 -8c-112 0 -208 63 -224 181h33c16 -101 95 -151 191 -151c120 0 203 90 206 236h-295v29h295c-8 135 -97 214 -208 214c-91 0 -162 -47 -186 -143h-33c24 108 107 173 219 173c139 0 243 -105 243 -264v-8c0 -158 -99 -267 -241 -267z" />
    <glyph glyph-name="uni044E" unicode="&#x44e;" horiz-adv-x="764" 
d="M481 -8c-133 0 -234 103 -237 261c-1 1 -1 2 -1 5h-127v-258h-34v523h34v-236h127c11 146 112 243 241 243c136 0 238 -105 238 -264v-8c0 -157 -104 -266 -241 -266zM482 22c117 0 205 90 205 236v8c0 148 -88 235 -203 235c-117 0 -206 -90 -206 -236v-8
c0 -143 87 -235 204 -235z" />
    <glyph glyph-name="uni044F" unicode="&#x44f;" horiz-adv-x="501" 
d="M241 495c-91 0 -139 -41 -139 -125v-3c0 -80 55 -122 155 -122h128v250h-144zM419 0h-34v218h-126c-8 0 -15 0 -23 1l-155 -219h-41l161 224c-80 13 -133 59 -133 143v3c0 105 70 153 174 153h177v-523z" />
    <glyph glyph-name="uni0451" unicode="&#x451;" horiz-adv-x="545" 
d="M286 -8c-153 0 -244 110 -244 265v8c0 156 101 266 237 266c128 0 224 -88 224 -252v-15h-426c1 -153 74 -242 209 -242c91 0 158 39 179 122h34c-24 -97 -105 -152 -213 -152zM469 293c-4 139 -78 208 -190 208s-193 -83 -201 -208h391zM201 638c-15 0 -26 11 -26 26
s11 26 26 26s26 -11 26 -26s-11 -26 -26 -26zM355 638c-15 0 -26 11 -26 26s11 26 26 26s26 -11 26 -26s-11 -26 -26 -26z" />
    <glyph glyph-name="uni0452" unicode="&#x452;" horiz-adv-x="573" 
d="M463 324c0 124 -58 177 -158 177c-93 0 -190 -64 -190 -184v-317h-34v629h-79v27h79v117h34v-117h196v-27h-196v-220c24 64 98 122 195 122c113 0 187 -63 187 -208v-381c0 -84 -28 -125 -111 -128v30c60 5 77 33 77 96v384z" />
    <glyph glyph-name="uni0453" unicode="&#x453;" horiz-adv-x="439" 
d="M116 494v-494h-34v523h332v-29h-298zM290 747h41l-84 -147h-28z" />
    <glyph glyph-name="uni0454" unicode="&#x454;" horiz-adv-x="547" 
d="M508 177c-16 -112 -105 -185 -220 -185c-137 0 -246 107 -246 265v8c0 160 111 266 247 266c104 0 200 -61 213 -169h-34c-13 91 -90 139 -179 139c-110 0 -203 -81 -211 -214h293v-28h-294c3 -151 94 -237 211 -237c95 0 172 55 188 155h32z" />
    <glyph glyph-name="uni0455" unicode="&#x455;" horiz-adv-x="456" 
d="M235 -9c-121 0 -191 67 -199 163h33c11 -77 61 -134 166 -134c95 0 145 49 145 116c0 77 -39 97 -146 118c-123 21 -180 51 -180 142c0 82 77 134 171 134c95 0 162 -40 177 -136h-33c-14 71 -62 107 -145 107s-138 -41 -138 -105c0 -67 43 -93 156 -112
c116 -22 172 -49 172 -146c0 -82 -66 -147 -179 -147z" />
    <glyph glyph-name="uni0456" unicode="&#x456;" horiz-adv-x="200" 
d="M83 523h34v-523h-34v523zM100 637c-15 0 -27 12 -27 27s12 26 27 26s26 -11 26 -26s-11 -27 -26 -27z" />
    <glyph glyph-name="uni0457" unicode="&#x457;" horiz-adv-x="200" 
d="M36 638c-15 0 -26 11 -26 26s11 26 26 26s26 -11 26 -26s-11 -26 -26 -26zM165 638c-15 0 -26 11 -26 26s11 26 26 26s26 -11 26 -26s-11 -26 -26 -26zM83 523h34v-523h-34v523z" />
    <glyph glyph-name="uni0458" unicode="&#x458;" horiz-adv-x="200" 
d="M6 -156c60 5 77 33 77 96v583h34v-581c0 -84 -28 -125 -111 -128v30zM100 637c-15 0 -27 12 -27 27s12 26 27 26s26 -11 26 -26s-11 -27 -26 -27z" />
    <glyph glyph-name="uni0459" unicode="&#x459;" horiz-adv-x="802" 
d="M425 494h-240c-3 -49 -7 -169 -15 -241c-16 -162 -38 -257 -122 -257c-12 0 -22 1 -29 4c-4 1 -7 3 -10 5v33c3 -2 7 -4 11 -5c7 -3 15 -4 26 -4c62 0 79 92 92 229c4 47 9 112 12 168c2 32 4 64 5 97h304v-197h117c115 0 190 -55 190 -159v-3c0 -105 -70 -164 -174 -164
h-167v494zM593 28c91 0 139 51 139 136v3c0 83 -55 131 -155 131h-118v-270h134z" />
    <glyph glyph-name="uni045A" unicode="&#x45a;" horiz-adv-x="812" 
d="M603 28c91 0 139 51 139 136v3c0 83 -55 131 -155 131h-118v-270h134zM435 258h-319v-258h-34v523h34v-236h319v236h34v-197h117c115 0 190 -55 190 -159v-3c0 -105 -70 -164 -174 -164h-167v258z" />
    <glyph glyph-name="uni045B" unicode="&#x45b;" horiz-adv-x="573" 
d="M2 656h79v117h34v-117h196v-27h-196v-220c24 64 98 122 195 122c113 0 187 -63 187 -208v-323h-34v324c0 124 -58 177 -158 177c-93 0 -190 -64 -190 -184v-317h-34v629h-79v27z" />
    <glyph glyph-name="uni045C" unicode="&#x45c;" horiz-adv-x="468" 
d="M298 747h41l-84 -147h-28zM81 523h34v-523h-34v523zM118 274l275 249h42l-275 -248l291 -275h-44z" />
    <glyph glyph-name="uni045D" unicode="&#x45d;" horiz-adv-x="571" 
d="M82 0v523h34v-472l339 472h34v-523h-34v474l-339 -474h-34zM205 747h41l72 -147h-29z" />
    <glyph glyph-name="uni045E" unicode="&#x45e;" horiz-adv-x="495" 
d="M253 614c-65 0 -117 49 -122 117h31c4 -51 39 -92 91 -92s89 41 94 92h31c-5 -68 -60 -117 -125 -117zM234 40l-208 483h36l190 -444l181 444h36l-292 -705h-35z" />
    <glyph glyph-name="uni045F" unicode="&#x45f;" horiz-adv-x="551" 
d="M82 0v523h34v-493h319v493h34v-523h-178l-2 -127h-26l-3 127h-178z" />
    <glyph glyph-name="uni0490" unicode="&#x490;" horiz-adv-x="527" 
d="M130 684v-684h-36v715h356l3 134h30v-165h-353z" />
    <glyph glyph-name="uni0491" unicode="&#x491;" horiz-adv-x="432" 
d="M116 494v-494h-34v523h288l4 134h27v-163h-285z" />
    <glyph glyph-name="Wgrave" unicode="&#x1e80;" horiz-adv-x="915" 
d="M32 715h36l176 -663l202 663h25l191 -665l188 665h33l-203 -715h-38l-184 648l-198 -648h-37zM368 891h42l68 -120h-29z" />
    <glyph glyph-name="wgrave" unicode="&#x1e81;" horiz-adv-x="765" 
d="M30 523h36l151 -482l153 482h29l149 -482l153 482h34l-166 -523h-41l-144 466l-149 -466h-41zM292 747h41l72 -147h-29z" />
    <glyph glyph-name="Wacute" unicode="&#x1e82;" horiz-adv-x="915" 
d="M32 715h36l176 -663l202 663h25l191 -665l188 665h33l-203 -715h-38l-184 648l-198 -648h-37zM508 891h41l-81 -120h-29z" />
    <glyph glyph-name="wacute" unicode="&#x1e83;" horiz-adv-x="765" 
d="M30 523h36l151 -482l153 482h29l149 -482l153 482h34l-166 -523h-41l-144 466l-149 -466h-41zM434 747h41l-84 -147h-28z" />
    <glyph glyph-name="Wdieresis" unicode="&#x1e84;" horiz-adv-x="915" 
d="M32 715h36l176 -663l202 663h25l191 -665l188 665h33l-203 -715h-38l-184 648l-198 -648h-37zM375 788c-15 0 -26 11 -26 26s11 26 26 26s26 -11 26 -26s-11 -26 -26 -26zM541 788c-15 0 -26 11 -26 26s11 26 26 26s26 -11 26 -26s-11 -26 -26 -26z" />
    <glyph glyph-name="wdieresis" unicode="&#x1e85;" horiz-adv-x="765" 
d="M30 523h36l151 -482l153 482h29l149 -482l153 482h34l-166 -523h-41l-144 466l-149 -466h-41zM307 638c-15 0 -26 11 -26 26s11 26 26 26s26 -11 26 -26s-11 -26 -26 -26zM461 638c-15 0 -26 11 -26 26s11 26 26 26s26 -11 26 -26s-11 -26 -26 -26z" />
    <glyph glyph-name="Ygrave" unicode="&#x1ef2;" horiz-adv-x="565" 
d="M272 322l-250 393h41l228 -362l215 362h37l-235 -393v-322h-36v322zM200 891h42l68 -120h-29z" />
    <glyph glyph-name="ygrave" unicode="&#x1ef3;" horiz-adv-x="495" 
d="M234 40l-208 483h36l190 -444l181 444h36l-292 -705h-35zM157 747h41l72 -147h-29z" />
    <glyph glyph-name="uni2009" unicode="&#x2009;" horiz-adv-x="110" 
 />
    <glyph glyph-name="endash" unicode="&#x2013;" horiz-adv-x="489" 
d="M47 293h394v-29h-394v29z" />
    <glyph glyph-name="emdash" unicode="&#x2014;" horiz-adv-x="859" 
d="M47 293h765v-29h-765v29z" />
    <glyph glyph-name="quoteleft" unicode="&#x2018;" horiz-adv-x="188" 
d="M44 568l76 152l24 -11l-67 -156z" />
    <glyph glyph-name="quoteright" unicode="&#x2019;" horiz-adv-x="188" 
d="M45 564l66 156l34 -14l-76 -153z" />
    <glyph glyph-name="quotesinglbase" unicode="&#x201a;" horiz-adv-x="188" 
d="M45 -59l66 156l34 -14l-76 -153z" />
    <glyph glyph-name="quotedblleft" unicode="&#x201c;" horiz-adv-x="305" 
d="M44 568l76 152l24 -11l-67 -156zM160 568l76 152l24 -11l-67 -156z" />
    <glyph glyph-name="quotedblright" unicode="&#x201d;" horiz-adv-x="305" 
d="M45 564l66 156l34 -14l-76 -153zM161 564l67 156l33 -14l-76 -153z" />
    <glyph glyph-name="quotedblbase" unicode="&#x201e;" horiz-adv-x="305" 
d="M45 -59l66 156l34 -14l-76 -153zM161 -59l67 156l33 -14l-76 -153z" />
    <glyph glyph-name="dagger" unicode="&#x2020;" horiz-adv-x="334" 
d="M151 547h-121v29h121v139h32v-139h120v-29h-120v-321h-32v321z" />
    <glyph glyph-name="daggerdbl" unicode="&#x2021;" horiz-adv-x="334" 
d="M151 547h-121v29h121v139h32v-139h120v-29h-120v-153h120v-29h-120v-139h-32v139h-121v29h121v153z" />
    <glyph glyph-name="bullet" unicode="&#x2022;" horiz-adv-x="307" 
d="M153 205c-56 0 -99 45 -99 100c0 56 43 99 99 99c59 0 100 -43 100 -99s-41 -100 -100 -100z" />
    <glyph glyph-name="ellipsis" unicode="&#x2026;" horiz-adv-x="628" 
d="M98 -5c-17 0 -29 13 -29 29s12 29 29 29c16 0 28 -13 28 -29s-12 -29 -28 -29zM314 -5c-16 0 -29 13 -29 29s13 29 29 29s29 -13 29 -29s-13 -29 -29 -29zM530 -5c-16 0 -29 13 -29 29s13 29 29 29s29 -13 29 -29s-13 -29 -29 -29z" />
    <glyph glyph-name="perthousand" unicode="&#x2030;" horiz-adv-x="1099" 
d="M195 438c64 0 118 47 118 127c0 79 -51 127 -118 127c-64 0 -118 -49 -118 -129c0 -79 55 -125 118 -125zM195 410c-77 0 -150 59 -150 153c0 93 70 157 150 157c82 0 150 -63 150 -155c0 -96 -71 -155 -150 -155zM591 715h34l-467 -715h-34zM552 22c64 0 118 47 118 127
c0 79 -51 127 -118 127c-64 0 -118 -49 -118 -129c0 -78 55 -125 118 -125zM552 -6c-77 0 -150 59 -150 153c0 93 70 157 150 157c82 0 150 -63 150 -155c0 -96 -71 -155 -150 -155zM904 22c64 0 118 47 118 127c0 79 -51 127 -118 127c-64 0 -118 -49 -118 -129
c0 -78 55 -125 118 -125zM904 -6c-77 0 -150 59 -150 153c0 93 70 157 150 157c83 0 151 -63 151 -155c0 -96 -72 -155 -151 -155z" />
    <glyph glyph-name="uni2032" unicode="&#x2032;" horiz-adv-x="151" 
d="M74 715h38l-43 -186h-27z" />
    <glyph glyph-name="uni2033" unicode="&#x2033;" horiz-adv-x="261" 
d="M74 715h38l-43 -186h-27zM185 715h37l-42 -186h-28z" />
    <glyph glyph-name="guilsinglleft" unicode="&#x2039;" horiz-adv-x="270" 
d="M52 261l137 178h36l-136 -178l136 -178h-36z" />
    <glyph glyph-name="guilsinglright" unicode="&#x203a;" horiz-adv-x="270" 
d="M181 261l-136 178h36l138 -178l-138 -178h-36z" />
    <glyph glyph-name="fraction" unicode="&#x2044;" horiz-adv-x="113" 
d="M302 715h31l-522 -715h-31z" />
    <glyph glyph-name="Euro" unicode="&#x20ac;" horiz-adv-x="646" 
d="M31 441h67c8 165 101 281 259 281c137 0 214 -76 230 -199h-34c-15 105 -79 169 -196 169c-138 0 -215 -99 -223 -251h261l-5 -28h-256v-110h235l-5 -28h-230c7 -155 83 -251 224 -251c123 0 189 70 206 185h33c-17 -136 -102 -216 -239 -216c-160 0 -252 114 -260 282
h-67v28h67v110h-67v28z" />
    <glyph glyph-name="uni20B4" unicode="&#x20b4;" horiz-adv-x="566" 
d="M273 -7c-132 0 -216 57 -216 166c0 57 19 94 55 126h-82v26h116c37 24 85 47 141 76c24 12 46 23 65 34h-322v26h361c40 31 59 65 59 124c0 83 -58 121 -154 121c-111 0 -166 -49 -183 -136h-33c16 104 89 166 216 166c115 0 189 -50 189 -150c0 -56 -17 -93 -52 -125
h103v-26h-135c-29 -20 -65 -39 -108 -60c-37 -19 -69 -35 -96 -50h339v-26h-379c-43 -31 -64 -66 -64 -125c0 -91 73 -136 180 -136c135 0 193 78 206 171h36c-16 -113 -88 -202 -242 -202z" />
    <glyph glyph-name="uni20B8" unicode="&#x20b8;" horiz-adv-x="558" 
d="M31 689v26h497v-26h-497zM261 555h-230v30h497v-30h-231v-555h-36v555z" />
    <glyph glyph-name="uni20BD" unicode="&#x20bd;" horiz-adv-x="599" 
d="M317 345c124 0 200 48 200 171v4c0 124 -82 165 -202 165h-146v-340h148zM169 182v-182h-35v182h-100v27h100v109h-100v27h100v370h180c140 0 239 -54 239 -195v-4c0 -144 -97 -201 -237 -201h-147v-106h265v-27h-265z" />
    <glyph glyph-name="uni2116" unicode="&#x2116;" horiz-adv-x="1040" 
d="M831 350c-95 0 -171 75 -171 183v6c0 112 77 182 173 182c95 0 171 -69 171 -181v-6c0 -112 -77 -184 -173 -184zM832 378c77 0 139 60 139 156v5c0 97 -61 154 -138 154c-76 0 -140 -58 -140 -154v-5c0 -94 61 -156 139 -156zM94 715h51l392 -666v666h35v-715h-45
l-398 677v-677h-35v715zM678 260h308v-30h-308v30z" />
    <glyph glyph-name="trademark" unicode="&#x2122;" horiz-adv-x="649" 
d="M312 715h40l108 -261l107 261h40v-311h-28v277l-115 -277h-10l-116 277v-277h-26v311zM126 692h-98v23h223v-23h-97v-288h-28v288z" />
    <glyph glyph-name="Omega" unicode="&#x2126;" horiz-adv-x="797" 
d="M88 357c0 -170 91 -273 223 -337v-20h-258v30h191c-95 50 -193 154 -193 327v8c0 180 135 357 348 357c212 0 347 -174 347 -355v-8c0 -176 -97 -278 -193 -329h191v-30h-258v20c132 59 223 166 223 339v8c0 162 -112 325 -310 325s-311 -162 -311 -327v-8z" />
    <glyph glyph-name="onethird" unicode="&#x2153;" horiz-adv-x="691" 
d="M119 680l-91 -65v29l99 71h23v-344h-31v309zM550 715h31l-522 -715h-31zM534 -4c-77 0 -124 46 -128 102h29c5 -41 37 -77 98 -77c56 0 87 28 87 75c0 43 -30 72 -81 72h-27v24h25c49 0 73 29 73 65c0 40 -30 67 -77 67c-55 0 -81 -33 -86 -73h-28c4 53 45 96 114 96
c64 0 106 -37 106 -89c0 -40 -24 -66 -60 -77c40 -8 72 -38 72 -85c0 -64 -46 -100 -117 -100z" />
    <glyph glyph-name="twothirds" unicode="&#x2154;" horiz-adv-x="732" 
d="M23 379l130 128c48 47 69 76 69 115c0 47 -32 72 -77 72c-51 0 -78 -32 -85 -85h-28c5 69 47 109 114 109c64 0 106 -38 106 -95c0 -48 -23 -81 -76 -130l-102 -97h181v-25h-232v8zM612 715h31l-522 -715h-31zM575 -4c-77 0 -124 46 -128 102h29c5 -41 37 -77 98 -77
c56 0 87 28 87 75c0 43 -30 72 -81 72h-27v24h25c49 0 73 29 73 65c0 40 -30 67 -77 67c-55 0 -81 -33 -86 -73h-28c4 53 45 96 114 96c64 0 106 -37 106 -89c0 -40 -24 -66 -60 -77c40 -8 72 -38 72 -85c0 -64 -46 -100 -117 -100z" />
    <glyph glyph-name="oneeighth" unicode="&#x215b;" horiz-adv-x="685" 
d="M114 680l-91 -65v29l99 71h23v-344h-31v309zM554 715h31l-522 -715h-31zM525 -4c-69 0 -124 33 -124 98c0 51 35 79 80 90c-35 11 -66 37 -66 77c0 53 51 86 110 86s108 -34 108 -85c0 -41 -28 -67 -63 -78c45 -11 78 -40 78 -88c0 -68 -52 -100 -123 -100zM525 21
c55 0 93 24 93 76c0 48 -41 75 -92 75c-52 0 -95 -28 -95 -76c0 -51 42 -75 94 -75zM526 195c43 0 78 23 78 66c0 37 -34 62 -79 62c-47 0 -80 -24 -80 -63c0 -43 41 -65 81 -65z" />
    <glyph glyph-name="threeeighths" unicode="&#x215c;" horiz-adv-x="722" 
d="M157 367c-77 0 -124 46 -128 102h29c5 -41 37 -77 98 -77c56 0 87 28 87 75c0 43 -30 72 -81 72h-27v24h25c49 0 73 29 73 65c0 40 -30 67 -77 67c-55 0 -81 -33 -86 -73h-28c4 53 45 96 114 96c64 0 106 -37 106 -89c0 -40 -24 -66 -60 -77c40 -8 72 -38 72 -85
c0 -64 -46 -100 -117 -100zM604 715h31l-522 -715h-31zM562 -4c-69 0 -124 33 -124 98c0 51 35 79 80 90c-35 11 -66 37 -66 77c0 53 51 86 110 86s108 -34 108 -85c0 -41 -28 -67 -63 -78c45 -11 78 -40 78 -88c0 -68 -52 -100 -123 -100zM562 21c55 0 93 24 93 76
c0 48 -41 75 -92 75c-52 0 -95 -28 -95 -76c0 -51 42 -75 94 -75zM563 195c43 0 78 23 78 66c0 37 -34 62 -79 62c-47 0 -80 -24 -80 -63c0 -43 41 -65 81 -65z" />
    <glyph glyph-name="fiveeighths" unicode="&#x215d;" horiz-adv-x="709" 
d="M143 367c-72 0 -110 42 -115 93h29c7 -36 31 -68 86 -68c53 0 86 35 86 91c0 53 -35 89 -82 89c-41 0 -69 -17 -86 -38h-15l1 181h193v-25h-167v-124c15 15 44 30 81 30c60 0 106 -43 106 -114c0 -72 -48 -115 -117 -115zM589 715h31l-522 -715h-31zM548 -4
c-69 0 -124 33 -124 98c0 51 35 79 80 90c-35 11 -66 37 -66 77c0 53 51 86 110 86s108 -34 108 -85c0 -41 -28 -67 -63 -78c45 -11 78 -40 78 -88c0 -68 -52 -100 -123 -100zM548 21c55 0 93 24 93 76c0 48 -41 75 -92 75c-52 0 -95 -28 -95 -76c0 -51 42 -75 94 -75z
M549 195c43 0 78 23 78 66c0 37 -34 62 -79 62c-47 0 -80 -24 -80 -63c0 -43 41 -65 81 -65z" />
    <glyph glyph-name="seveneighths" unicode="&#x215e;" horiz-adv-x="683" 
d="M218 689h-196v26h235v-5l-142 -339h-32zM548 715h31l-522 -715h-31zM523 -4c-69 0 -124 33 -124 98c0 51 35 79 80 90c-35 11 -66 37 -66 77c0 53 51 86 110 86s108 -34 108 -85c0 -41 -28 -67 -63 -78c45 -11 78 -40 78 -88c0 -68 -52 -100 -123 -100zM523 21
c55 0 93 24 93 76c0 48 -41 75 -92 75c-52 0 -95 -28 -95 -76c0 -51 42 -75 94 -75zM524 195c43 0 78 23 78 66c0 37 -34 62 -79 62c-47 0 -80 -24 -80 -63c0 -43 41 -65 81 -65z" />
    <glyph glyph-name="Delta" unicode="&#x2206;" horiz-adv-x="643" 
d="M35 9l260 706h51l262 -706v-9h-573v9zM76 31h488l-244 658z" />
    <glyph glyph-name="minus" unicode="&#x2212;" horiz-adv-x="505" 
d="M37 357h431v-30h-431v30z" />
    <glyph glyph-name="approxequal" unicode="&#x2248;" horiz-adv-x="493" 
d="M37 189c7 53 40 92 99 92c79 0 153 -60 222 -60c41 0 64 29 68 62h30c-7 -55 -41 -92 -98 -92c-79 0 -153 59 -223 59c-41 0 -63 -29 -68 -61h-30zM37 349c7 53 40 92 99 92c79 0 153 -60 222 -60c41 0 64 29 68 62h30c-7 -53 -41 -92 -98 -92c-79 0 -153 60 -223 60
c-41 0 -63 -29 -68 -62h-30z" />
    <glyph glyph-name="notequal" unicode="&#x2260;" horiz-adv-x="484" 
d="M40 413h229l58 125h33l-58 -125h142v-30h-156l-59 -129h215v-30h-229l-57 -126h-32l57 126h-143v30h157l59 129h-216v30z" />
    <glyph glyph-name="lessequal" unicode="&#x2264;" horiz-adv-x="491" 
d="M49 320v10l384 204v-34l-332 -175l332 -175v-34zM49 30h384v-30h-384v30z" />
    <glyph glyph-name="greaterequal" unicode="&#x2265;" horiz-adv-x="491" 
d="M58 150l332 175l-332 175v34l384 -204v-10l-384 -204v34zM58 30h384v-30h-384v30z" />
    <glyph glyph-name="uni24C5" unicode="&#x24c5;" horiz-adv-x="844" 
d="M315 568h113c87 0 143 -35 143 -119v-2c0 -85 -58 -119 -143 -119h-80v-178h-33v418zM428 354c68 0 110 26 110 93v2c0 67 -42 92 -110 92h-80v-187h80zM421 -9c-204 0 -366 159 -366 366c0 204 162 367 368 367c208 0 366 -162 366 -365c0 -209 -162 -368 -368 -368z
M421 17c188 0 339 146 339 342c0 192 -146 339 -337 339c-189 0 -339 -148 -339 -341c0 -196 152 -340 337 -340z" />
    <glyph glyph-name="zero.tab" unicode="&#xe44f;" 
d="M302 24c137 0 206 86 206 258v156c0 159 -76 254 -209 254c-131 0 -205 -91 -205 -258v-154c0 -172 76 -256 208 -256zM302 -7c-152 0 -245 102 -245 286v155c0 183 94 288 242 288s245 -104 245 -284v-156c0 -185 -87 -289 -242 -289z" />
    <glyph glyph-name="one.tab" unicode="&#xe450;" 
d="M334 672l-236 -186v36l242 193h29v-715h-35v672z" />
    <glyph glyph-name="two.tab" unicode="&#xe451;" 
d="M57 9l289 295c83 83 118 149 118 228c0 107 -68 160 -167 160s-169 -57 -184 -177h-33c11 132 100 207 217 207c116 0 203 -67 203 -191c0 -87 -43 -161 -131 -248l-253 -252h398v-31h-457v9z" />
    <glyph glyph-name="three.tab" unicode="&#xe452;" 
d="M296 -7c-145 0 -227 95 -232 203h34c8 -92 71 -172 198 -172c117 0 189 60 189 173c0 92 -55 162 -172 162h-50v31h47c108 0 152 70 152 145c0 88 -57 156 -158 156c-104 0 -169 -69 -180 -158h-32c8 107 92 189 212 189c122 0 193 -83 193 -186
c0 -77 -47 -140 -120 -159c84 -17 144 -80 144 -180c0 -129 -92 -204 -225 -204z" />
    <glyph glyph-name="four.tab" unicode="&#xe453;" 
d="M411 167h-365v11l347 537h53v-517h96v-31h-96v-167h-35v167zM411 198v491l-317 -491h317z" />
    <glyph glyph-name="five.tab" unicode="&#xe454;" 
d="M287 -7c-139 0 -217 89 -225 185h34c11 -80 71 -154 190 -154c127 0 199 79 199 206c0 121 -82 200 -186 200c-89 0 -146 -38 -183 -83h-14v368h383v-31h-351v-289c31 32 90 66 170 66c121 0 217 -89 217 -231c0 -147 -95 -237 -234 -237z" />
    <glyph glyph-name="six.tab" unicode="&#xe455;" 
d="M311 -7c-172 0 -244 123 -244 286v73c0 265 110 370 263 370c100 0 179 -48 195 -156h-34c-15 87 -71 125 -163 125c-132 0 -225 -87 -225 -331v-48c32 92 124 137 210 137c152 0 234 -98 234 -226c0 -135 -95 -230 -236 -230zM311 23c122 0 199 82 199 199
c0 118 -67 197 -201 197c-105 0 -200 -68 -200 -188c0 -105 60 -208 202 -208z" />
    <glyph glyph-name="seven.tab" unicode="&#xe456;" 
d="M482 685h-401v30h447v-7l-289 -708h-38z" />
    <glyph glyph-name="eight.tab" unicode="&#xe457;" 
d="M301 -7c-126 0 -236 70 -236 204c0 102 73 168 172 189c-77 19 -140 72 -140 160c0 109 97 176 204 176c108 0 203 -69 203 -174c0 -91 -58 -143 -135 -162c98 -21 167 -83 167 -187c0 -136 -105 -206 -235 -206zM301 24c117 0 198 59 198 176c0 109 -88 170 -196 170
c-107 0 -201 -63 -201 -172c0 -117 89 -174 199 -174zM304 400c91 0 164 50 164 148c0 84 -70 144 -167 144s-168 -58 -168 -146c0 -97 88 -146 171 -146z" />
    <glyph glyph-name="nine.tab" unicode="&#xe458;" 
d="M283 -7c-108 0 -192 55 -213 163h36c19 -85 82 -132 178 -132c133 0 216 66 216 310v63c-32 -89 -128 -131 -214 -131c-149 0 -231 95 -231 226c0 139 95 230 236 230c171 0 244 -122 244 -280v-105c0 -261 -96 -344 -252 -344zM289 295c108 0 206 68 206 183
c0 107 -63 214 -204 214c-123 0 -200 -82 -200 -199c0 -116 67 -198 198 -198z" />
    <glyph glyph-name="cent.tab" unicode="&#xe459;" 
d="M300 -7c-131 8 -230 105 -230 264v8c0 158 102 257 230 265v99h29v-99c100 -5 188 -65 201 -168h-34c-13 86 -84 133 -167 138v-478c89 5 159 59 175 155h32c-16 -109 -99 -179 -207 -184v-128h-29v128zM105 257c0 -145 85 -227 195 -235v478c-110 -8 -195 -90 -195 -235
v-8z" />
    <glyph glyph-name="dollar.tab" unicode="&#xe45a;" 
d="M284 -6c-154 8 -225 93 -238 203h35c13 -90 66 -166 203 -174v337c-148 25 -212 79 -212 180c0 108 87 177 212 182v91h30v-92c117 -5 188 -68 204 -168h-34c-16 83 -70 133 -170 138v-304c156 -24 227 -66 227 -197c0 -107 -84 -194 -227 -197v-128h-30v129zM506 189
c0 107 -55 146 -192 167v-333c122 3 192 74 192 166zM106 542c0 -80 43 -126 178 -150v300c-112 -4 -178 -57 -178 -150z" />
    <glyph glyph-name="Euro.tab" unicode="&#xe45b;" 
d="M34 441h61c3 173 85 281 236 281c127 0 193 -70 209 -194h-34c-15 105 -67 164 -175 164c-131 0 -197 -92 -200 -251h233l-5 -28h-228v-110h207l-5 -28h-202c3 -163 65 -251 200 -251c113 0 170 64 187 179h33c-17 -135 -92 -210 -220 -210c-152 0 -233 103 -236 282h-61
v28h61v110h-61v28z" />
    <glyph glyph-name="a.alt" unicode="&#xe4c0;" horiz-adv-x="593" 
d="M273 -8c-124 0 -231 96 -231 264v8c0 162 111 267 239 267c108 0 168 -70 197 -142v134h34v-523h-34v141c-24 -69 -99 -149 -205 -149zM275 22c107 0 204 87 204 235v8c0 152 -88 236 -196 236c-111 0 -206 -87 -206 -236v-8c0 -150 89 -235 198 -235z" />
    <glyph glyph-name="t.alt" unicode="&#xe4d3;" horiz-adv-x="307" 
d="M114 494h-91v29h91v119h35v-119h133v-29h-133v-494h-35v494z" />
    <glyph glyph-name="f_i" unicode="&#xfb01;" horiz-adv-x="517" 
d="M107 494h-82v29h82v99c0 113 62 154 137 154c23 0 39 -3 54 -7v-30c-13 4 -32 8 -53 8c-56 0 -103 -30 -103 -122v-102h156v-29h-156v-494h-35v494zM399 523h34v-523h-34v523zM416 637c-15 0 -27 12 -27 27s12 26 27 26s26 -11 26 -26s-11 -27 -26 -27z" />
    <glyph glyph-name="f_l" unicode="&#xfb02;" horiz-adv-x="517" 
d="M107 494h-82v29h82v99c0 113 62 154 137 154c23 0 39 -3 54 -7v-30c-13 4 -32 8 -53 8c-56 0 -103 -30 -103 -122v-102h156v-29h-156v-494h-35v494zM399 773h35v-773h-35v773z" />
    <glyph glyph-name="six.den" horiz-adv-x="316" 
d="M161 -4c-89 0 -123 63 -123 148v24c0 124 56 179 133 179c53 0 93 -24 101 -79h-28c-7 36 -32 55 -75 55c-59 0 -101 -44 -101 -148v-14c15 36 58 57 99 57c72 0 115 -45 115 -109c0 -68 -49 -113 -121 -113zM161 21c53 0 91 35 91 87s-33 88 -89 88
c-49 0 -92 -32 -92 -85c0 -49 30 -90 90 -90z" />
    <glyph glyph-name="four.num" horiz-adv-x="305" 
d="M201 448h-182v11l171 256h41v-243h47v-24h-47v-77h-30v77zM201 472v221l-145 -221h145z" />
    <glyph glyph-name="uni0434.bgr" horiz-adv-x="602" 
d="M279 46c112 0 209 83 209 224v7c0 142 -87 224 -201 224c-116 0 -210 -83 -210 -224v-8c0 -141 87 -223 202 -223zM286 -187c-149 0 -220 74 -233 157h35c13 -72 74 -127 197 -127c115 0 202 53 202 193v125c-24 -70 -99 -144 -210 -144c-131 0 -235 94 -235 251v8
c0 152 108 255 243 255c113 0 172 -66 202 -139v131h34v-489c0 -156 -99 -221 -235 -221z" />
    <glyph glyph-name="uni20B4.oldtab" 
d="M292 -7c-128 0 -209 54 -209 161c0 56 18 91 53 122h-79v26h113c36 23 80 45 135 73c24 12 43 22 62 33h-310v26h350c39 31 57 64 57 120c0 80 -57 117 -149 117c-108 0 -162 -48 -177 -132h-33c16 101 86 161 210 161c112 0 183 -49 183 -145c0 -55 -16 -90 -49 -121h98
v-26h-131c-27 -19 -61 -37 -104 -58c-35 -19 -65 -33 -92 -48h327v-26h-367c-41 -31 -62 -64 -62 -121c0 -88 70 -133 174 -133c133 0 187 77 200 166h35c-16 -109 -84 -195 -235 -195z" />
    <glyph glyph-name="backslash.uc" horiz-adv-x="383" 
d="M41 778h34l271 -862h-33z" />
    <glyph glyph-name="slash.uc" horiz-adv-x="383" 
d="M308 778h34l-272 -862h-33z" />
    <glyph glyph-name="braceright.uc" horiz-adv-x="353" 
d="M40 -59c107 0 162 31 138 158l-18 101c-16 89 25 131 92 146c-68 16 -108 58 -92 146l18 101c24 127 -31 158 -138 158v28c130 0 195 -47 171 -188l-18 -98c-13 -77 15 -133 117 -133v-28c-102 0 -130 -56 -117 -133l18 -98c24 -141 -41 -188 -171 -188v28z" />
    <glyph glyph-name="braceleft.uc" horiz-adv-x="353" 
d="M312 -87c-130 0 -194 47 -170 188l18 98c13 77 -15 133 -117 133v28c102 0 130 56 117 133l-18 98c-24 141 40 188 170 188v-28c-106 0 -161 -31 -137 -158l17 -101c16 -88 -23 -130 -91 -146c68 -15 107 -57 91 -146l-17 -101c-24 -127 31 -158 137 -158v-28z" />
    <glyph glyph-name="bracketright.uc" horiz-adv-x="331" 
d="M40 -56h160v806h-160v28h194v-862h-194v28z" />
    <glyph glyph-name="uni043D.bgr" horiz-adv-x="561" 
d="M445 258h-329v-258h-34v523h34v-236h329v236h34v-523h-34v258z" />
    <glyph glyph-name="bracketleft.uc" horiz-adv-x="331" 
d="M96 778h194v-28h-159v-806h159v-28h-194v862z" />
    <glyph glyph-name="parenright.uc" horiz-adv-x="281" 
d="M29 -98c87 111 159 253 159 440c0 186 -71 332 -159 441h35c88 -106 159 -255 159 -441c0 -185 -71 -334 -159 -440h-35z" />
    <glyph glyph-name="uni043F.locl" horiz-adv-x="551" 
d="M435 494h-319v-494h-34v523h387v-523h-34v494z" />
    <glyph glyph-name="parenleft.uc" horiz-adv-x="281" 
d="M217 -98c-88 106 -159 255 -159 440c0 186 71 335 159 441h35c-88 -109 -159 -255 -159 -441c0 -187 72 -329 159 -440h-35z" />
    <glyph glyph-name="uni20BD.old" horiz-adv-x="583" 
d="M311 338c121 0 195 47 195 166v4c0 121 -81 161 -197 161h-143v-331h145zM166 177v-177h-34v177h-98v26h98v106h-98v26h98v364h176c136 0 234 -52 234 -191v-4c0 -140 -95 -196 -232 -196h-144v-105h256v-26h-256z" />
    <glyph glyph-name="guillemotright.uc" horiz-adv-x="415" 
d="M181 301l-136 181h36l138 -181l-138 -180h-36zM326 301l-136 181h36l138 -181l-138 -180h-36z" />
    <glyph glyph-name="uni0446.bgr" horiz-adv-x="591" 
d="M533 -127l-4 127h-75v112c-24 -65 -95 -120 -192 -120c-112 0 -186 56 -186 201v330h34v-329c0 -123 60 -171 157 -171c92 0 187 61 187 181v319h34v-493h72v-157h-27z" />
    <glyph glyph-name="uni044C.bgr" horiz-adv-x="475" 
d="M258 -7c-109 0 -177 66 -177 174v356h34v-206c16 4 63 14 126 14c124 0 198 -60 198 -164v-3c0 -106 -77 -171 -181 -171zM258 21c92 0 147 58 147 142v3c0 84 -56 137 -164 137c-59 0 -109 -10 -126 -14v-122c0 -88 51 -146 143 -146z" />
    <glyph glyph-name="guillemotleft.uc" horiz-adv-x="415" 
d="M52 301l137 181h36l-136 -181l136 -180h-36zM197 301l137 181h36l-136 -181l136 -180h-36z" />
    <glyph glyph-name="uni0439.bgr" horiz-adv-x="569" 
d="M280 614c-65 0 -117 49 -122 117h31c4 -51 39 -92 91 -92s89 41 94 92h31c-5 -68 -60 -117 -125 -117zM262 -8c-112 0 -186 56 -186 201v330h34v-329c0 -123 60 -171 157 -171c92 0 187 61 187 181v319h34v-523h-34v112c-24 -65 -95 -120 -192 -120z" />
    <glyph glyph-name="guilsinglright.uc" horiz-adv-x="270" 
d="M181 301l-136 181h36l138 -181l-138 -180h-36z" />
    <glyph glyph-name="guilsinglleft.uc" horiz-adv-x="270" 
d="M52 301l137 181h36l-136 -181l136 -180h-36z" />
    <glyph glyph-name="uni0414.bgr" horiz-adv-x="691" 
d="M102 31h486l-244 655zM30 -130h-30v161h68l253 684h48l254 -684h68v-161h-30l-3 130h-624z" />
    <glyph glyph-name="uni043B.bgr" horiz-adv-x="508" 
d="M482 0h-37l-193 490l-191 -490h-35l204 523h46z" />
    <glyph glyph-name="emdash.uc" horiz-adv-x="859" 
d="M47 351h765v-30h-765v30z" />
    <glyph glyph-name="uni041A.bgr" horiz-adv-x="588" 
d="M94 715h36v-715h-36v715zM135 364l365 351h42l-363 -348l381 -367h-45z" />
    <glyph glyph-name="uni0436.bgr" horiz-adv-x="659" 
d="M313 773h33v-773h-33v773zM601 0l-251 274l237 249h39l-239 -248l255 -275h-41zM18 0l255 275l-239 248h38l237 -249l-251 -274h-40z" />
    <glyph glyph-name="endash.uc" horiz-adv-x="489" 
d="M47 351h394v-30h-394v30z" />
    <glyph glyph-name="hyphen.uc" horiz-adv-x="355" 
d="M63 353h229v-33h-229v33z" />
    <glyph glyph-name="uni20B8.old" horiz-adv-x="543" 
d="M31 668v26h482v-26h-482zM254 538h-223v29h482v-29h-224v-538h-35v538z" />
    <glyph glyph-name="uni0432.bgr" horiz-adv-x="496" 
d="M61 534c0 167 74 245 185 245c117 0 182 -79 182 -187v-3c0 -91 -49 -161 -118 -174c79 -13 144 -81 144 -189v-6c0 -144 -89 -227 -197 -227c-142 0 -196 94 -196 242v299zM95 429h158c97 0 139 75 139 160v3c0 88 -45 158 -147 158c-93 0 -150 -69 -150 -214v-107z
M256 23c92 0 163 66 163 197v6c0 99 -56 175 -165 175h-159v-167c0 -131 44 -211 161 -211z" />
    <glyph glyph-name="exclamdown.uc" horiz-adv-x="263" 
d="M116 551h28l5 -551h-38zM131 663c-16 0 -28 13 -28 28c0 16 12 29 28 29c17 0 29 -13 29 -29c0 -15 -12 -28 -29 -28z" />
    <glyph glyph-name="questiondown.uc" horiz-adv-x="469" 
d="M276 489c0 -79 -41 -120 -99 -178c-51 -51 -93 -89 -93 -161c0 -75 46 -127 145 -127c96 0 161 61 168 162h34c-8 -117 -88 -192 -203 -192c-120 0 -179 68 -179 157c0 86 47 121 104 180c55 55 91 92 91 161v60h32v-62zM260 720c16 0 29 -13 29 -29
c0 -15 -13 -28 -29 -28s-29 13 -29 28c0 16 13 29 29 29z" />
    <glyph glyph-name="caron.alt" horiz-adv-x="292" 
d="M133 773h37l-23 -154h-27z" />
    <glyph glyph-name="registered.alt" horiz-adv-x="844" 
d="M304 572h113c85 0 143 -32 143 -112v-2c0 -69 -43 -101 -107 -109l132 -195h-36l-130 191h-83v-191h-32v418zM417 371c69 0 110 22 110 86v3c0 65 -42 85 -110 85h-81v-174h81zM421 -9c-204 0 -366 159 -366 366c0 204 162 367 368 367c208 0 366 -162 366 -365
c0 -209 -162 -368 -368 -368zM421 17c188 0 339 146 339 342c0 192 -146 339 -337 339c-189 0 -339 -148 -339 -341c0 -196 152 -340 337 -340z" />
    <glyph glyph-name="uni0424.bgr" horiz-adv-x="778" 
d="M407 656c194 -3 321 -101 321 -291v-8c0 -192 -132 -291 -321 -291v-76h-36v76c-194 0 -321 100 -321 289v7c0 195 132 291 321 294v69h36v-69zM407 95c174 0 285 84 285 262v8c0 173 -108 261 -285 262v-532zM371 626c-173 0 -284 -84 -284 -264v-7
c0 -173 107 -259 284 -260v531z" />
    <glyph glyph-name="space_uni0326.alt" horiz-adv-x="400" 
d="M171 619l68 142l24 -11l-58 -140z" />
    <glyph glyph-name="tcommaaccent.alt" horiz-adv-x="307" 
d="M62 -184l58 140l34 -9l-68 -142zM114 494h-91v29h91v119h35v-119h133v-29h-133v-494h-35v494z" />
    <glyph glyph-name="tcaron.alt" horiz-adv-x="307" 
d="M114 494h-91v29h91v119h35v-119h133v-29h-133v-494h-35v494zM248 773h37l-23 -154h-27z" />
    <glyph glyph-name="uni0442.bgr" horiz-adv-x="900" 
d="M81 523h34v-111c24 61 90 119 181 119c85 0 145 -37 164 -129c31 77 103 129 191 129c104 0 173 -55 173 -202v-329h-34v330c0 123 -52 171 -144 171c-87 0 -176 -64 -176 -183v-318h-34v330c0 123 -52 171 -144 171c-88 0 -177 -64 -177 -183v-318h-34v523z" />
    <glyph glyph-name="tbar.alt" horiz-adv-x="307" 
d="M23 342h91v152h-91v29h91v119h35v-119h133v-29h-133v-152h133v-27h-133v-315h-35v315h-91v27z" />
    <glyph glyph-name="germandbls.alt" horiz-adv-x="583" 
d="M382 -5c-106 0 -165 66 -170 140h33c5 -55 48 -111 137 -111c77 0 130 45 130 122c0 71 -52 95 -126 134c-77 40 -127 65 -127 124c0 92 174 126 174 233c0 69 -53 110 -137 110c-116 0 -181 -79 -181 -200v-547h-34v546c0 139 83 230 215 230c104 0 171 -53 171 -138
c0 -123 -176 -154 -176 -234c0 -40 41 -57 116 -97c78 -43 141 -77 141 -160c0 -97 -70 -152 -166 -152z" />
    <glyph glyph-name="atilde.alt" horiz-adv-x="593" 
d="M273 -8c-124 0 -231 96 -231 264v8c0 162 111 267 239 267c108 0 168 -70 197 -142v134h34v-523h-34v141c-24 -69 -99 -149 -205 -149zM275 22c107 0 204 87 204 235v8c0 152 -88 236 -196 236c-111 0 -206 -87 -206 -236v-8c0 -150 89 -235 198 -235zM356 615
c-52 0 -94 58 -133 58c-23 0 -45 -19 -50 -58h-27c7 60 38 88 78 88c48 0 93 -59 133 -59c23 0 44 20 49 59h27c-7 -60 -38 -88 -77 -88z" />
    <glyph glyph-name="aringacute.alt" horiz-adv-x="593" 
d="M273 -8c-124 0 -231 96 -231 264v8c0 162 111 267 239 267c108 0 168 -70 197 -142v134h34v-523h-34v141c-24 -69 -99 -149 -205 -149zM275 22c107 0 204 87 204 235v8c0 152 -88 236 -196 236c-111 0 -206 -87 -206 -236v-8c0 -150 89 -235 198 -235zM288 620
c39 0 67 30 67 67c0 39 -28 68 -67 68c-36 0 -66 -29 -66 -68c0 -37 30 -67 66 -67zM288 598c-50 0 -92 41 -92 89c0 51 41 91 92 91c52 0 93 -40 93 -91c0 -48 -41 -89 -93 -89zM338 950h41l-81 -120h-29z" />
    <glyph glyph-name="aring.alt" horiz-adv-x="593" 
d="M273 -8c-124 0 -231 96 -231 264v8c0 162 111 267 239 267c108 0 168 -70 197 -142v134h34v-523h-34v141c-24 -69 -99 -149 -205 -149zM275 22c107 0 204 87 204 235v8c0 152 -88 236 -196 236c-111 0 -206 -87 -206 -236v-8c0 -150 89 -235 198 -235zM288 625
c39 0 67 30 67 67c0 39 -28 68 -67 68c-36 0 -66 -29 -66 -68c0 -37 30 -67 66 -67zM288 603c-50 0 -92 41 -92 89c0 51 41 91 92 91c52 0 93 -40 93 -91c0 -48 -41 -89 -93 -89z" />
    <glyph glyph-name="aogonek.alt" horiz-adv-x="593" 
d="M484 -182c-56 0 -86 31 -86 72c0 47 40 87 81 114h-1v137c-24 -69 -99 -149 -205 -149c-124 0 -231 96 -231 264v8c0 162 111 267 239 267c108 0 168 -70 197 -142v134h34v-522c-52 -35 -81 -68 -81 -107c0 -28 18 -49 57 -49c17 0 33 3 49 9v-26c-15 -7 -33 -10 -53 -10
zM275 22c107 0 204 87 204 235v8c0 152 -88 236 -196 236c-111 0 -206 -87 -206 -236v-8c0 -150 89 -235 198 -235z" />
    <glyph glyph-name="amacron.alt" horiz-adv-x="593" 
d="M273 -8c-124 0 -231 96 -231 264v8c0 162 111 267 239 267c108 0 168 -70 197 -142v134h34v-523h-34v141c-24 -69 -99 -149 -205 -149zM275 22c107 0 204 87 204 235v8c0 152 -88 236 -196 236c-111 0 -206 -87 -206 -236v-8c0 -150 89 -235 198 -235zM174 675h230v-28
h-230v28z" />
    <glyph glyph-name="agrave.alt" horiz-adv-x="593" 
d="M273 -8c-124 0 -231 96 -231 264v8c0 162 111 267 239 267c108 0 168 -70 197 -142v134h34v-523h-34v141c-24 -69 -99 -149 -205 -149zM275 22c107 0 204 87 204 235v8c0 152 -88 236 -196 236c-111 0 -206 -87 -206 -236v-8c0 -150 89 -235 198 -235zM196 747h41
l72 -147h-29z" />
    <glyph glyph-name="adieresis.alt" horiz-adv-x="593" 
d="M273 -8c-124 0 -231 96 -231 264v8c0 162 111 267 239 267c108 0 168 -70 197 -142v134h34v-523h-34v141c-24 -69 -99 -149 -205 -149zM275 22c107 0 204 87 204 235v8c0 152 -88 236 -196 236c-111 0 -206 -87 -206 -236v-8c0 -150 89 -235 198 -235zM213 638
c-15 0 -26 11 -26 26s11 26 26 26s26 -11 26 -26s-11 -26 -26 -26zM367 638c-15 0 -26 11 -26 26s11 26 26 26s26 -11 26 -26s-11 -26 -26 -26z" />
    <glyph glyph-name="acircumflex.alt" horiz-adv-x="593" 
d="M273 -8c-124 0 -231 96 -231 264v8c0 162 111 267 239 267c108 0 168 -70 197 -142v134h34v-523h-34v141c-24 -69 -99 -149 -205 -149zM275 22c107 0 204 87 204 235v8c0 152 -88 236 -196 236c-111 0 -206 -87 -206 -236v-8c0 -150 89 -235 198 -235zM273 729h34
l109 -129h-30l-96 100l-98 -100h-30z" />
    <glyph glyph-name="abreve.alt" horiz-adv-x="593" 
d="M273 -8c-124 0 -231 96 -231 264v8c0 162 111 267 239 267c108 0 168 -70 197 -142v134h34v-523h-34v141c-24 -69 -99 -149 -205 -149zM275 22c107 0 204 87 204 235v8c0 152 -88 236 -196 236c-111 0 -206 -87 -206 -236v-8c0 -150 89 -235 198 -235zM288 614
c-67 0 -112 46 -117 114h30c5 -51 36 -85 87 -85c49 0 82 34 89 85h29c-4 -68 -54 -114 -118 -114z" />
    <glyph glyph-name="aacute.alt" horiz-adv-x="593" 
d="M273 -8c-124 0 -231 96 -231 264v8c0 162 111 267 239 267c108 0 168 -70 197 -142v134h34v-523h-34v141c-24 -69 -99 -149 -205 -149zM275 22c107 0 204 87 204 235v8c0 152 -88 236 -196 236c-111 0 -206 -87 -206 -236v-8c0 -150 89 -235 198 -235zM337 747h41
l-84 -147h-28z" />
    <glyph glyph-name="bar.uc" horiz-adv-x="233" 
d="M101 778h31v-862h-31v862z" />
    <glyph glyph-name="at.uc" horiz-adv-x="887" 
d="M452 -59c-261 0 -402 187 -402 394c0 237 195 415 411 415c232 0 379 -153 379 -354c0 -172 -80 -242 -163 -242c-68 0 -107 36 -110 107c-21 -50 -74 -114 -153 -114c-92 0 -152 64 -152 168c0 130 86 225 186 225c72 0 121 -46 132 -105l10 96h35l-26 -225
c-11 -75 11 -123 78 -123c72 0 130 65 130 212c0 187 -127 325 -346 325c-203 0 -377 -164 -377 -384c0 -191 125 -364 368 -364c141 0 230 51 281 112h36c-47 -76 -160 -143 -317 -143zM418 175c84 0 153 89 153 192c0 91 -49 144 -121 144c-79 0 -153 -79 -153 -196
c0 -88 49 -140 121 -140z" />
    <glyph glyph-name="minus.sup" horiz-adv-x="314" 
d="M36 613h242v-25h-242v25z" />
    <glyph glyph-name="plus.sup" horiz-adv-x="314" 
d="M143 588h-107v25h107v112h27v-112h108v-25h-108v-111h-27v111z" />
    <glyph glyph-name="nine.sup" horiz-adv-x="315" 
d="M148 425c-56 0 -101 30 -109 85h29c9 -40 36 -60 81 -60c60 0 99 35 99 137v24c-17 -37 -58 -57 -98 -57c-72 0 -116 45 -116 109c0 68 49 114 121 114c87 0 124 -61 124 -148v-36c0 -124 -54 -168 -131 -168zM153 577c49 0 92 32 92 85c0 48 -30 90 -90 90
c-53 0 -91 -36 -91 -88s33 -87 89 -87z" />
    <glyph glyph-name="eight.sup" horiz-adv-x="315" 
d="M158 425c-69 0 -124 33 -124 98c0 51 35 79 80 90c-35 11 -66 37 -66 77c0 53 51 86 110 86s108 -34 108 -85c0 -41 -28 -67 -63 -78c45 -11 78 -40 78 -88c0 -68 -52 -100 -123 -100zM158 450c55 0 93 24 93 76c0 48 -41 75 -92 75c-52 0 -95 -28 -95 -76
c0 -51 42 -75 94 -75zM159 624c43 0 78 23 78 66c0 37 -34 62 -79 62c-47 0 -80 -24 -80 -63c0 -43 41 -65 81 -65z" />
    <glyph glyph-name="seven.sup" horiz-adv-x="271" 
d="M212 747h-196v26h235v-5l-142 -339h-32z" />
    <glyph glyph-name="six.sup" horiz-adv-x="316" 
d="M161 425c-89 0 -123 63 -123 148v24c0 124 56 179 133 179c53 0 93 -24 101 -79h-28c-7 36 -32 55 -75 55c-59 0 -101 -44 -101 -148v-14c15 36 58 57 99 57c72 0 115 -45 115 -109c0 -68 -49 -113 -121 -113zM161 450c53 0 91 35 91 87s-33 88 -89 88
c-49 0 -92 -32 -92 -85c0 -49 30 -90 90 -90z" />
    <glyph glyph-name="five.sup" horiz-adv-x="291" 
d="M140 425c-72 0 -110 42 -115 93h29c7 -36 31 -68 86 -68c53 0 86 35 86 91c0 53 -35 89 -82 89c-41 0 -69 -17 -86 -38h-15l1 181h193v-25h-167v-124c15 15 44 30 81 30c60 0 106 -43 106 -114c0 -72 -48 -115 -117 -115z" />
    <glyph glyph-name="four.sup" horiz-adv-x="305" 
d="M201 506h-182v11l171 256h41v-243h47v-24h-47v-77h-30v77zM201 530v221l-145 -221h145z" />
    <glyph glyph-name="uni20B4.old" horiz-adv-x="550" 
d="M265 -7c-127 0 -209 54 -209 161c0 56 18 91 53 122h-79v26h113c36 23 81 45 136 73c24 12 43 22 62 33h-311v26h351c39 31 56 64 56 120c0 80 -56 117 -149 117c-108 0 -161 -48 -177 -132h-32c15 101 86 161 209 161c112 0 183 -49 183 -145c0 -55 -16 -90 -49 -121h98
v-26h-131c-27 -19 -61 -37 -104 -58c-35 -19 -65 -33 -92 -48h327v-26h-367c-41 -31 -62 -64 -62 -121c0 -88 70 -133 174 -133c132 0 187 77 201 166h34c-16 -109 -84 -195 -235 -195z" />
    <glyph glyph-name="three.sup" horiz-adv-x="307" 
d="M154 425c-77 0 -124 46 -128 102h29c5 -41 37 -77 98 -77c56 0 87 28 87 75c0 43 -30 72 -81 72h-27v24h25c49 0 73 29 73 65c0 40 -30 67 -77 67c-55 0 -81 -33 -86 -73h-28c4 53 45 96 114 96c64 0 106 -37 106 -89c0 -40 -24 -66 -60 -77c40 -8 72 -38 72 -85
c0 -64 -46 -100 -117 -100z" />
    <glyph glyph-name="two.sup" horiz-adv-x="285" 
d="M20 437l130 128c48 47 69 76 69 115c0 47 -32 72 -77 72c-51 0 -78 -32 -85 -85h-28c5 69 47 109 114 109c64 0 106 -38 106 -95c0 -48 -23 -81 -76 -130l-102 -97h181v-25h-232v8z" />
    <glyph glyph-name="one.sup" horiz-adv-x="212" 
d="M111 738l-91 -65v29l99 71h23v-344h-31v309z" />
    <glyph glyph-name="zero.sup" horiz-adv-x="349" 
d="M175 451c68 0 108 44 108 137v29c0 88 -44 134 -109 134s-107 -46 -107 -135v-30c0 -93 44 -135 108 -135zM175 425c-84 0 -139 57 -139 161v29c0 104 54 161 138 161c83 0 139 -55 139 -159v-30c0 -104 -53 -162 -138 -162z" />
    <glyph glyph-name="minus.sub" horiz-adv-x="314" 
d="M36 95h242v-25h-242v25z" />
    <glyph glyph-name="plus.sub" horiz-adv-x="314" 
d="M143 70h-107v25h107v112h27v-112h108v-25h-108v-112h-27v112z" />
    <glyph glyph-name="nine.sub" horiz-adv-x="315" 
d="M148 -90c-56 0 -101 30 -109 85h29c9 -40 36 -60 81 -60c60 0 99 35 99 137v24c-17 -37 -58 -57 -98 -57c-72 0 -116 45 -116 109c0 68 49 114 121 114c87 0 124 -61 124 -148v-36c0 -124 -54 -168 -131 -168zM153 62c49 0 92 32 92 85c0 48 -30 90 -90 90
c-53 0 -91 -36 -91 -88s33 -87 89 -87z" />
    <glyph glyph-name="uni20BD.oldtab" 
d="M312 335c120 0 194 46 194 165v4c0 121 -79 160 -197 160h-130v-329h133zM179 174v-174h-35v174h-97v26h97v106h-97v26h97v362h164c139 0 234 -50 234 -190v-4c0 -140 -95 -195 -232 -195h-131v-105h243v-26h-243z" />
    <glyph glyph-name="eight.sub" horiz-adv-x="315" 
d="M158 -90c-69 0 -124 33 -124 98c0 51 35 79 80 90c-35 11 -66 37 -66 77c0 53 51 86 110 86s108 -34 108 -85c0 -41 -28 -67 -63 -78c45 -11 78 -40 78 -88c0 -68 -52 -100 -123 -100zM158 -65c55 0 93 24 93 76c0 48 -41 75 -92 75c-52 0 -95 -28 -95 -76
c0 -51 42 -75 94 -75zM159 109c43 0 78 23 78 66c0 37 -34 62 -79 62c-47 0 -80 -24 -80 -63c0 -43 41 -65 81 -65z" />
    <glyph glyph-name="seven.sub" horiz-adv-x="271" 
d="M212 232h-196v26h235v-5l-142 -339h-32z" />
    <glyph glyph-name="uni041B.bgr" horiz-adv-x="641" 
d="M319 686l-253 -686h-34l264 715h48l266 -715h-36z" />
    <glyph glyph-name="six.sub" horiz-adv-x="316" 
d="M161 -90c-89 0 -123 63 -123 148v24c0 124 56 179 133 179c53 0 93 -24 101 -79h-28c-7 36 -32 55 -75 55c-59 0 -101 -44 -101 -148v-14c15 36 58 57 99 57c72 0 115 -45 115 -109c0 -68 -49 -113 -121 -113zM161 -65c53 0 91 35 91 87s-33 88 -89 88
c-49 0 -92 -32 -92 -85c0 -49 30 -90 90 -90z" />
    <glyph glyph-name="five.sub" horiz-adv-x="291" 
d="M140 -90c-72 0 -110 42 -115 93h29c7 -36 31 -68 86 -68c53 0 86 35 86 91c0 53 -35 89 -82 89c-41 0 -69 -17 -86 -38h-15l1 181h193v-25h-167v-124c15 15 44 30 81 30c60 0 106 -43 106 -114c0 -72 -48 -115 -117 -115z" />
    <glyph glyph-name="four.sub" horiz-adv-x="305" 
d="M201 -9h-182v11l171 256h41v-243h47v-24h-47v-77h-30v77zM201 15v221l-145 -221h145z" />
    <glyph glyph-name="three.sub" horiz-adv-x="307" 
d="M154 -90c-77 0 -124 46 -128 102h29c5 -41 37 -77 98 -77c56 0 87 28 87 75c0 43 -30 72 -81 72h-27v24h25c49 0 73 29 73 65c0 40 -30 67 -77 67c-55 0 -81 -33 -86 -73h-28c4 53 45 96 114 96c64 0 106 -37 106 -89c0 -40 -24 -66 -60 -77c40 -8 72 -38 72 -85
c0 -64 -46 -100 -117 -100z" />
    <glyph glyph-name="two.sub" horiz-adv-x="285" 
d="M20 -78l130 128c48 47 69 76 69 115c0 47 -32 72 -77 72c-51 0 -78 -32 -85 -85h-28c5 69 47 109 114 109c64 0 106 -38 106 -95c0 -48 -23 -81 -76 -130l-102 -97h181v-25h-232v8z" />
    <glyph glyph-name="one.sub" horiz-adv-x="212" 
d="M111 223l-91 -65v29l99 71h23v-344h-31v309z" />
    <glyph glyph-name="zero.sub" horiz-adv-x="349" 
d="M175 -64c68 0 108 44 108 137v29c0 88 -44 134 -109 134s-107 -46 -107 -135v-30c0 -93 44 -135 108 -135zM175 -90c-84 0 -139 57 -139 161v29c0 104 54 161 138 161c83 0 139 -55 139 -159v-30c0 -104 -53 -162 -138 -162z" />
    <glyph glyph-name="nine.den" horiz-adv-x="315" 
d="M148 -4c-56 0 -101 30 -109 85h29c9 -40 36 -60 81 -60c60 0 99 35 99 137v24c-17 -37 -58 -57 -98 -57c-72 0 -116 45 -116 109c0 68 49 114 121 114c87 0 124 -61 124 -148v-36c0 -124 -54 -168 -131 -168zM153 148c49 0 92 32 92 85c0 48 -30 90 -90 90
c-53 0 -91 -36 -91 -88s33 -87 89 -87z" />
    <glyph glyph-name="eight.den" horiz-adv-x="315" 
d="M158 -4c-69 0 -124 33 -124 98c0 51 35 79 80 90c-35 11 -66 37 -66 77c0 53 51 86 110 86s108 -34 108 -85c0 -41 -28 -67 -63 -78c45 -11 78 -40 78 -88c0 -68 -52 -100 -123 -100zM158 21c55 0 93 24 93 76c0 48 -41 75 -92 75c-52 0 -95 -28 -95 -76
c0 -51 42 -75 94 -75zM159 195c43 0 78 23 78 66c0 37 -34 62 -79 62c-47 0 -80 -24 -80 -63c0 -43 41 -65 81 -65z" />
    <glyph glyph-name="seven.den" horiz-adv-x="271" 
d="M212 318h-196v26h235v-5l-142 -339h-32z" />
    <glyph glyph-name="uni0431.locl" horiz-adv-x="583" 
d="M291 -8c-137 0 -249 107 -249 255v8c0 149 115 253 248 253c5 0 12 0 17 -1c-136 59 -218 96 -218 181c0 52 43 85 110 85h165c72 0 108 4 129 9v-30c-19 -5 -53 -10 -130 -10h-160c-52 0 -80 -25 -80 -60c0 -73 100 -112 234 -168c101 -48 184 -107 184 -258v-8
c0 -152 -114 -256 -250 -256zM292 22c117 0 214 90 214 226v7c0 140 -90 226 -213 226c-116 0 -216 -91 -216 -226v-8c0 -133 97 -225 215 -225z" />
    <glyph glyph-name="five.den" horiz-adv-x="291" 
d="M140 -4c-72 0 -110 42 -115 93h29c7 -36 31 -68 86 -68c53 0 86 35 86 91c0 53 -35 89 -82 89c-41 0 -69 -17 -86 -38h-15l1 181h193v-25h-167v-124c15 15 44 30 81 30c60 0 106 -43 106 -114c0 -72 -48 -115 -117 -115z" />
    <glyph glyph-name="four.den" horiz-adv-x="305" 
d="M201 77h-182v11l171 256h41v-243h47v-24h-47v-77h-30v77zM201 101v221l-145 -221h145z" />
    <glyph glyph-name="three.den" horiz-adv-x="307" 
d="M154 -4c-77 0 -124 46 -128 102h29c5 -41 37 -77 98 -77c56 0 87 28 87 75c0 43 -30 72 -81 72h-27v24h25c49 0 73 29 73 65c0 40 -30 67 -77 67c-55 0 -81 -33 -86 -73h-28c4 53 45 96 114 96c64 0 106 -37 106 -89c0 -40 -24 -66 -60 -77c40 -8 72 -38 72 -85
c0 -64 -46 -100 -117 -100z" />
    <glyph glyph-name="two.den" horiz-adv-x="285" 
d="M20 8l130 128c48 47 69 76 69 115c0 47 -32 72 -77 72c-51 0 -78 -32 -85 -85h-28c5 69 47 109 114 109c64 0 106 -38 106 -95c0 -48 -23 -81 -76 -130l-102 -97h181v-25h-232v8z" />
    <glyph glyph-name="one.den" horiz-adv-x="212" 
d="M111 309l-91 -65v29l99 71h23v-344h-31v309z" />
    <glyph glyph-name="zero.den" horiz-adv-x="349" 
d="M175 22c68 0 108 44 108 137v29c0 88 -44 134 -109 134s-107 -46 -107 -135v-30c0 -93 44 -135 108 -135zM175 -4c-84 0 -139 57 -139 161v29c0 104 54 161 138 161c83 0 139 -55 139 -159v-30c0 -104 -53 -162 -138 -162z" />
    <glyph glyph-name="nine.num" horiz-adv-x="315" 
d="M148 367c-56 0 -101 30 -109 85h29c9 -40 36 -60 81 -60c60 0 99 35 99 137v24c-17 -37 -58 -57 -98 -57c-72 0 -116 45 -116 109c0 68 49 114 121 114c87 0 124 -61 124 -148v-36c0 -124 -54 -168 -131 -168zM153 519c49 0 92 32 92 85c0 48 -30 90 -90 90
c-53 0 -91 -36 -91 -88s33 -87 89 -87z" />
    <glyph glyph-name="eight.num" horiz-adv-x="315" 
d="M158 367c-69 0 -124 33 -124 98c0 51 35 79 80 90c-35 11 -66 37 -66 77c0 53 51 86 110 86s108 -34 108 -85c0 -41 -28 -67 -63 -78c45 -11 78 -40 78 -88c0 -68 -52 -100 -123 -100zM158 392c55 0 93 24 93 76c0 48 -41 75 -92 75c-52 0 -95 -28 -95 -76
c0 -51 42 -75 94 -75zM159 566c43 0 78 23 78 66c0 37 -34 62 -79 62c-47 0 -80 -24 -80 -63c0 -43 41 -65 81 -65z" />
    <glyph glyph-name="seven.num" horiz-adv-x="270" 
d="M212 689h-196v26h235v-5l-142 -339h-32z" />
    <glyph glyph-name="six.num" horiz-adv-x="316" 
d="M161 367c-89 0 -123 63 -123 148v24c0 124 56 179 133 179c53 0 93 -24 101 -79h-28c-7 36 -32 55 -75 55c-59 0 -101 -44 -101 -148v-14c15 36 58 57 99 57c72 0 115 -45 115 -109c0 -68 -49 -113 -121 -113zM161 392c53 0 91 35 91 87s-33 88 -89 88
c-49 0 -92 -32 -92 -85c0 -49 30 -90 90 -90z" />
    <glyph glyph-name="five.num" horiz-adv-x="291" 
d="M140 367c-72 0 -110 42 -115 93h29c7 -36 31 -68 86 -68c53 0 86 35 86 91c0 53 -35 89 -82 89c-41 0 -69 -17 -86 -38h-15l1 181h193v-25h-167v-124c15 15 44 30 81 30c60 0 106 -43 106 -114c0 -72 -48 -115 -117 -115z" />
    <glyph glyph-name="uni20BD.tab" 
d="M318 345c124 0 200 48 200 171v4c0 124 -82 165 -202 165h-141v-340h143zM175 182v-182h-35v182h-100v27h100v109h-100v27h100v370h175c140 0 239 -54 239 -195v-4c0 -144 -97 -201 -237 -201h-142v-106h260v-27h-260z" />
    <glyph glyph-name="three.num" horiz-adv-x="307" 
d="M154 367c-77 0 -124 46 -128 102h29c5 -41 37 -77 98 -77c56 0 87 28 87 75c0 43 -30 72 -81 72h-27v24h25c49 0 73 29 73 65c0 40 -30 67 -77 67c-55 0 -81 -33 -86 -73h-28c4 53 45 96 114 96c64 0 106 -37 106 -89c0 -40 -24 -66 -60 -77c40 -8 72 -38 72 -85
c0 -64 -46 -100 -117 -100z" />
    <glyph glyph-name="two.num" horiz-adv-x="285" 
d="M20 379l130 128c48 47 69 76 69 115c0 47 -32 72 -77 72c-51 0 -78 -32 -85 -85h-28c5 69 47 109 114 109c64 0 106 -38 106 -95c0 -48 -23 -81 -76 -130l-102 -97h181v-25h-232v8z" />
    <glyph glyph-name="one.num" horiz-adv-x="212" 
d="M111 680l-91 -65v29l99 71h23v-344h-31v309z" />
    <glyph glyph-name="zero.num" horiz-adv-x="349" 
d="M175 393c68 0 108 44 108 137v29c0 88 -44 134 -109 134s-107 -46 -107 -135v-30c0 -93 44 -135 108 -135zM175 367c-84 0 -139 57 -139 161v29c0 104 54 161 138 161c83 0 139 -55 139 -159v-30c0 -104 -53 -162 -138 -162z" />
    <glyph glyph-name="nine.oldtab" 
d="M284 -104c-107 0 -190 59 -206 163h33c15 -83 79 -133 175 -133c127 0 207 84 207 319v71c-30 -92 -118 -134 -201 -134c-147 0 -227 96 -227 220c0 132 92 224 228 224c168 0 235 -117 235 -280v-100c0 -253 -95 -350 -244 -350zM295 211c101 0 193 69 193 186
c0 101 -58 200 -195 200c-117 0 -193 -80 -193 -194s67 -192 195 -192z" />
    <glyph glyph-name="eight.oldtab" 
d="M300 -7c-122 0 -231 68 -231 202c0 101 71 166 166 187c-75 19 -135 74 -135 162c0 109 96 178 200 178c105 0 200 -69 200 -176c0 -92 -55 -144 -131 -164c95 -21 163 -83 163 -185c0 -135 -106 -204 -232 -204zM300 23c113 0 197 58 197 175c0 109 -90 168 -195 168
c-104 0 -198 -60 -198 -170c0 -116 89 -173 196 -173zM303 395c91 0 162 51 162 151c0 85 -71 147 -165 147c-93 0 -165 -58 -165 -149c0 -97 85 -149 168 -149z" />
    <glyph glyph-name="seven.oldtab" 
d="M479 589h-395v29h439v-7l-293 -708h-36z" />
    <glyph glyph-name="uni043F.bgr" horiz-adv-x="573" 
d="M81 523h34v-114c24 64 98 122 195 122c113 0 187 -63 187 -208v-323h-34v324c0 124 -58 177 -158 177c-93 0 -190 -64 -190 -184v-317h-34v523z" />
    <glyph glyph-name="six.oldtab" 
d="M309 -8c-167 0 -236 122 -236 278v95c0 255 109 357 256 357c103 0 171 -55 187 -151h-33c-15 76 -67 122 -156 122c-125 0 -219 -88 -219 -327v-63c29 88 120 133 202 133c148 0 227 -96 227 -220c0 -132 -92 -224 -228 -224zM309 21c116 0 192 80 192 194
c0 115 -65 193 -194 193c-101 0 -194 -69 -194 -184c0 -100 60 -203 196 -203z" />
    <glyph glyph-name="five.oldtab" 
d="M289 -103c-137 0 -213 85 -224 181h33c11 -80 74 -152 190 -152c124 0 198 76 198 205c0 121 -80 198 -182 198c-89 0 -146 -38 -182 -83h-14v372h377v-30h-347v-296c31 33 91 66 170 66c120 0 213 -87 213 -227c0 -147 -97 -234 -232 -234z" />
    <glyph glyph-name="four.oldtab" 
d="M414 71h-373v11l354 536h54v-517h97v-30h-97v-168h-35v168zM414 101v492l-325 -492h325z" />
    <glyph glyph-name="three.oldtab" 
d="M299 -103c-149 0 -234 95 -239 203h32c8 -93 74 -174 207 -174c119 0 192 60 192 173c0 92 -65 166 -181 166h-53v30h49c109 0 157 69 157 145c0 92 -57 157 -161 157c-107 0 -171 -68 -182 -160h-32c8 107 94 189 214 189c122 0 196 -82 196 -186
c0 -81 -49 -139 -124 -158c84 -16 152 -83 152 -183c0 -128 -93 -202 -227 -202z" />
    <glyph glyph-name="two.oldtab" 
d="M67 9l252 225c86 75 143 134 143 220c0 92 -61 143 -158 143s-167 -60 -180 -169h-33c11 122 99 198 213 198c115 0 193 -64 193 -172c0 -96 -67 -162 -157 -241l-208 -183h380v-30h-445v9z" />
    <glyph glyph-name="one.oldtab" 
d="M332 577l-228 -174v34l236 181h26v-618h-34v577z" />
    <glyph glyph-name="zero.oldtab" 
d="M301 22c136 0 206 90 206 251v77c0 149 -77 247 -208 247s-205 -93 -205 -249v-78c0 -160 76 -248 207 -248zM301 -8c-150 0 -242 105 -242 278v78c0 171 91 278 240 278c148 0 243 -105 243 -276v-77c0 -175 -86 -281 -241 -281z" />
    <glyph glyph-name="yen.oldtab" 
d="M100 337h176l-210 357h39l197 -340l186 340h34l-196 -357h174v-28h-181v-104h181v-28h-181v-177h-35v177h-184v28h184v104h-184v28z" />
    <glyph glyph-name="sterling.oldtab" 
d="M59 353h72c-15 47 -26 92 -26 151c0 119 87 196 207 196c125 0 191 -69 202 -173h-34c-13 91 -63 143 -168 143c-102 0 -172 -65 -172 -166c0 -59 12 -104 27 -151h232v-28h-224c11 -41 21 -84 21 -136c0 -35 -9 -65 -22 -90c79 -5 155 -75 233 -75c64 0 103 39 107 112
h32c-5 -88 -59 -143 -136 -143c-93 0 -170 76 -241 76c-49 0 -76 -29 -83 -69h-33c7 43 34 85 87 96c15 27 23 58 23 93c0 51 -11 93 -24 136h-80v28z" />
    <glyph glyph-name="Euro.oldtab" 
d="M33 428h62c3 168 87 272 234 272c123 0 189 -70 205 -189h-33c-15 103 -68 160 -172 160c-128 0 -197 -88 -200 -243h235l-5 -28h-230v-106h209l-5 -28h-204c3 -157 69 -243 200 -243c111 0 167 65 183 176h33c-16 -132 -92 -206 -216 -206c-147 0 -230 101 -234 273h-62
v28h62v106h-62v28z" />
    <glyph glyph-name="dollar.oldtab" 
d="M287 -6c-150 8 -217 91 -231 197h34c13 -87 64 -160 197 -168v326c-145 23 -206 76 -206 175c0 105 83 171 206 176v89h30v-90c113 -5 183 -65 198 -162h-33c-16 80 -69 128 -165 133v-294c150 -24 219 -64 219 -192c0 -103 -82 -188 -219 -191v-127h-30v128zM501 183
c0 104 -51 140 -184 161v-321c116 3 184 71 184 160zM114 526c0 -78 42 -124 173 -145v290c-107 -4 -173 -56 -173 -145z" />
    <glyph glyph-name="braceright.tab" horiz-adv-x="300" 
d="M41 -117c92 0 147 35 120 163l-25 123c-19 88 25 128 84 147c-59 19 -103 59 -84 147l25 123c27 128 -24 163 -120 163v28c119 0 182 -49 153 -192l-26 -121c-17 -79 17 -127 104 -134v-28c-87 -5 -121 -55 -104 -134l26 -120c29 -144 -35 -193 -153 -193v28z" />
    <glyph glyph-name="uni045D.bgr" horiz-adv-x="569" 
d="M262 -8c-112 0 -186 56 -186 201v330h34v-329c0 -123 60 -171 157 -171c92 0 187 61 187 181v319h34v-523h-34v112c-24 -65 -95 -120 -192 -120zM192 747h41l72 -147h-29z" />
    <glyph glyph-name="braceleft.tab" horiz-adv-x="300" 
d="M259 -145c-118 0 -182 49 -153 193l26 120c17 79 -17 129 -104 134v28c87 7 121 55 104 134l-26 121c-29 143 34 192 153 192v-28c-94 0 -147 -35 -120 -163l26 -123c19 -88 -25 -128 -85 -147c60 -19 104 -59 85 -147l-26 -123c-27 -128 28 -163 120 -163v-28z" />
    <glyph glyph-name="bracketright.tab" horiz-adv-x="300" 
d="M41 -120h145v868h-145v28h179v-924h-179v28z" />
    <glyph glyph-name="bracketleft.tab" horiz-adv-x="300" 
d="M80 776h179v-28h-145v-868h145v-28h-179v924z" />
    <glyph glyph-name="parenright.tab" horiz-adv-x="300" 
d="M38 -148c85 112 157 258 157 460c0 203 -72 349 -157 461h35c85 -109 157 -261 157 -461c0 -199 -72 -353 -157 -460h-35z" />
    <glyph glyph-name="parenleft.tab" horiz-adv-x="300" 
d="M228 -148c-85 107 -157 261 -157 460c0 200 72 352 157 461h35c-85 -112 -157 -258 -157 -461c0 -202 72 -348 157 -460h-35z" />
    <glyph glyph-name="semicolon.tab" horiz-adv-x="300" 
d="M74 -101l66 160l34 -15l-75 -157zM152 337c-16 0 -28 13 -28 29s12 29 28 29c17 0 29 -13 29 -29s-12 -29 -29 -29z" />
    <glyph glyph-name="colon.tab" horiz-adv-x="300" 
d="M150 -5c-16 0 -29 13 -29 29s13 29 29 29s29 -13 29 -29s-13 -29 -29 -29zM150 337c-16 0 -29 13 -29 29s13 29 29 29s29 -13 29 -29s-13 -29 -29 -29z" />
    <glyph glyph-name="uni20B8.tab" 
d="M54 688v27h492v-27h-492zM282 555h-228v30h492v-30h-228v-555h-36v555z" />
    <glyph glyph-name="comma.tab" horiz-adv-x="300" 
d="M83 -101l66 160l34 -15l-75 -157z" />
    <glyph glyph-name="period.tab" horiz-adv-x="300" 
d="M150 -5c-16 0 -29 13 -29 29s13 29 29 29s29 -13 29 -29s-13 -29 -29 -29z" />
    <glyph glyph-name="greaterequal.tab" 
d="M113 150l332 175l-332 175v34l384 -204v-10l-384 -204v34zM113 30h384v-30h-384v30z" />
    <glyph glyph-name="lessequal.tab" 
d="M104 320v10l384 204v-34l-332 -175l332 -175v-34zM104 30h384v-30h-384v30z" />
    <glyph glyph-name="greater.tab" 
d="M113 144l333 178l-333 178v34l384 -207v-10l-384 -207v34z" />
    <glyph glyph-name="less.tab" 
d="M104 317v10l384 207v-34l-333 -178l333 -178v-34z" />
    <glyph glyph-name="approxequal.tab" 
d="M91 189c7 53 40 92 99 92c79 0 153 -60 222 -60c41 0 64 29 68 62h30c-7 -55 -41 -92 -98 -92c-79 0 -153 59 -223 59c-41 0 -63 -29 -68 -61h-30zM91 349c7 53 40 92 99 92c79 0 153 -60 222 -60c41 0 64 29 68 62h30c-7 -53 -41 -92 -98 -92c-79 0 -153 60 -223 60
c-41 0 -63 -29 -68 -62h-30z" />
    <glyph glyph-name="notequal.tab" 
d="M98 413h229l58 125h33l-58 -125h142v-30h-156l-59 -129h215v-30h-229l-57 -126h-32l57 126h-143v30h157l59 129h-216v30z" />
    <glyph glyph-name="uni043A.bgr" horiz-adv-x="468" 
d="M81 773h34v-773h-34v773zM118 276l275 247h42l-275 -246l291 -277h-44z" />
    <glyph glyph-name="equal.tab" 
d="M98 254h404v-30h-404v30zM98 413h404v-30h-404v30z" />
    <glyph glyph-name="uni0438.bgr" horiz-adv-x="569" 
d="M262 -8c-112 0 -186 56 -186 201v330h34v-329c0 -123 60 -171 157 -171c92 0 187 61 187 181v319h34v-523h-34v112c-24 -65 -95 -120 -192 -120z" />
    <glyph glyph-name="divide.tab" 
d="M300 143c-16 0 -29 13 -29 29s13 29 29 29s29 -13 29 -29s-13 -29 -29 -29zM85 357h431v-30h-431v30zM300 484c-16 0 -29 13 -29 28c0 16 13 29 29 29s29 -13 29 -29c0 -15 -13 -28 -29 -28z" />
    <glyph glyph-name="multiply.tab" 
d="M107 171l166 164l-166 166l21 21l165 -165l165 165l21 -21l-165 -166l165 -164l-21 -21l-165 165l-165 -165z" />
    <glyph glyph-name="plusminus.tab" 
d="M284 332h-199v30h199v210h32v-210h200v-30h-200v-209h-32v209zM85 30h431v-30h-431v30z" />
    <glyph glyph-name="minus.tab" 
d="M85 357h431v-30h-431v30z" />
    <glyph glyph-name="plus.tab" 
d="M284 327h-199v30h199v215h32v-215h200v-30h-200v-214h-32v214z" />
    <glyph glyph-name="perthousand.tab" horiz-adv-x="1000" 
d="M188 452c61 0 109 48 109 120s-48 122 -109 122c-63 0 -110 -50 -110 -123c0 -72 49 -119 110 -119zM188 424c-76 0 -142 59 -142 147c0 90 66 151 142 151c77 0 141 -61 141 -150s-66 -148 -141 -148zM548 715h34l-467 -715h-34zM479 22c61 0 110 49 110 121
s-47 121 -110 121c-61 0 -109 -49 -109 -122c0 -72 48 -120 109 -120zM479 -6c-75 0 -141 59 -141 148s66 150 141 150c78 0 142 -61 142 -149c0 -91 -66 -149 -142 -149zM813 22c61 0 109 49 109 121s-46 121 -109 121c-61 0 -109 -49 -109 -122c0 -72 48 -120 109 -120z
M813 -6c-75 0 -141 59 -141 148s65 150 141 150c77 0 141 -61 141 -149c0 -91 -65 -149 -141 -149z" />
    <glyph glyph-name="uni0433.locl" horiz-adv-x="444" 
d="M116 494v-494h-34v523h332v-29h-298z" />
    <glyph glyph-name="percent.tab" horiz-adv-x="800" 
d="M204 435c65 0 119 47 119 128c0 80 -51 128 -119 128c-64 0 -119 -49 -119 -129s55 -127 119 -127zM204 407c-78 0 -151 61 -151 154c0 95 71 159 151 159c83 0 152 -64 152 -157c0 -96 -72 -156 -152 -156zM617 715h34l-467 -715h-34zM596 23c65 0 119 45 119 128
c0 80 -52 128 -119 128c-65 0 -119 -49 -119 -130c0 -80 55 -126 119 -126zM596 -6c-80 0 -152 60 -152 155c0 93 72 158 152 158c83 0 152 -64 152 -156c0 -97 -72 -157 -152 -157z" />
    <glyph glyph-name="grave.uc" horiz-adv-x="400" 
d="M107 891h42l68 -120h-29z" />
    <glyph glyph-name="dieresis.uc" horiz-adv-x="400" 
d="M117 788c-15 0 -26 11 -26 26s11 26 26 26s26 -11 26 -26s-11 -26 -26 -26zM283 788c-15 0 -26 11 -26 26s11 26 26 26s26 -11 26 -26s-11 -26 -26 -26z" />
    <glyph glyph-name="uni0447.bgr" horiz-adv-x="560" 
d="M426 0v276c-24 -35 -79 -85 -177 -85c-105 0 -177 56 -177 201v131h35v-130c0 -123 56 -172 147 -172c119 0 164 88 172 96v206h34v-523h-34z" />
    <glyph glyph-name="macron.uc" horiz-adv-x="400" 
d="M82 823h236v-29h-236v29z" />
    <glyph glyph-name="acute.uc" horiz-adv-x="400" 
d="M252 891h41l-81 -120h-29z" />
    <glyph glyph-name="circumflex.uc" horiz-adv-x="400" 
d="M184 891h34l110 -120h-30l-97 90l-99 -90h-30z" />
    <glyph glyph-name="caron.uc" horiz-adv-x="400" 
d="M71 891h30l99 -91l100 91h29l-113 -120h-34z" />
    <glyph glyph-name="breve.uc" horiz-adv-x="400" 
d="M200 773c-67 0 -118 49 -123 117h30c5 -51 42 -88 93 -88c49 0 88 37 95 88h29c-5 -68 -59 -117 -124 -117z" />
    <glyph glyph-name="uni0416.bgr" horiz-adv-x="863" 
d="M414 715h35v-715h-35v715zM794 0l-338 364l323 351h42l-326 -348l343 -367h-44zM26 0l342 365l-327 350h43l323 -352l-338 -363h-43z" />
    <glyph glyph-name="uni044E.bgr" horiz-adv-x="764" 
d="M481 -8c-136 0 -235 109 -238 265v1h-127v-258h-34v773h34v-486h127c11 146 112 243 241 243c136 0 238 -105 238 -264v-8c0 -157 -104 -266 -241 -266zM482 22c117 0 205 90 205 236v8c0 148 -88 235 -203 235c-117 0 -206 -90 -206 -236v-8c0 -143 87 -235 204 -235z
" />
    <glyph glyph-name="uni0448.bgr" horiz-adv-x="900" 
d="M823 0h-34v112c-24 -62 -89 -120 -181 -120c-85 0 -145 37 -164 129c-31 -77 -102 -129 -190 -129c-107 0 -174 56 -174 203v328h34v-330c0 -123 52 -170 144 -170c88 0 176 62 176 182v318h35v-330c0 -123 51 -170 144 -170c87 0 176 64 176 183v317h34v-523z" />
    <glyph glyph-name="uni0442.locl" horiz-adv-x="455" 
d="M432 494h-187v-494h-35v494h-187v29h409v-29z" />
    <glyph glyph-name="florin.tab" 
d="M111 397h124l24 156c19 123 81 171 173 171c31 0 54 -5 71 -12v-30c-15 7 -39 13 -70 13c-75 0 -125 -40 -140 -143l-24 -155h185v-29h-190l-84 -550h-34l84 550h-119v29z" />
    <glyph glyph-name="yen.tab" 
d="M100 347h182l-217 368h39l204 -349l191 349h36l-203 -368h180v-29h-187v-107h187v-29h-187v-182h-35v182h-190v29h190v107h-190v29z" />
    <glyph glyph-name="sterling.tab" 
d="M54 363h74c-15 47 -27 96 -27 157c0 122 88 202 209 202c125 0 194 -72 205 -179h-35c-15 95 -63 148 -170 148c-102 0 -173 -70 -173 -171c0 -61 13 -109 28 -157h239v-29h-231c12 -43 22 -86 22 -139c0 -36 -8 -67 -23 -94c78 -5 160 -77 237 -77c65 0 103 41 107 116
h33c-7 -91 -58 -147 -138 -147c-92 0 -175 79 -248 79c-48 0 -75 -31 -82 -72h-33c7 44 33 88 89 99c15 27 24 59 24 96c0 52 -11 95 -24 139h-83v29z" />
    <glyph glyph-name="uni0433.bgr" horiz-adv-x="449" 
d="M219 -9c-115 0 -179 56 -179 135c0 88 61 125 172 151c105 24 150 52 150 123c0 64 -52 101 -127 101c-79 0 -129 -37 -144 -113h-33c16 97 88 142 177 142c92 0 161 -46 161 -129c0 -93 -61 -123 -172 -149c-102 -24 -148 -55 -148 -126c0 -64 52 -106 144 -106
c105 0 145 53 156 125h33c-8 -92 -67 -154 -190 -154z" />
    <glyph glyph-name="dotaccent.uc" horiz-adv-x="400" 
d="M200 787c-15 0 -26 12 -26 27s11 26 26 26s27 -11 27 -26s-12 -27 -27 -27z" />
    <glyph glyph-name="ring.uc" horiz-adv-x="400" 
d="M200 774c39 0 67 30 67 67c0 39 -28 68 -67 68c-36 0 -66 -29 -66 -68c0 -37 30 -67 66 -67zM200 752c-50 0 -92 41 -92 89c0 51 41 91 92 91c52 0 93 -40 93 -91c0 -48 -41 -89 -93 -89z" />
    <glyph glyph-name="space.tab" horiz-adv-x="300" 
 />
    <glyph glyph-name="nine.old" horiz-adv-x="563" 
d="M265 -104c-106 0 -192 59 -208 163h34c15 -83 80 -133 176 -133c129 0 210 84 210 319v71c-30 -92 -121 -134 -204 -134c-149 0 -228 96 -228 220c0 132 92 224 229 224c172 0 238 -120 238 -283v-94c0 -256 -98 -353 -247 -353zM276 211c101 0 196 69 196 186
c0 101 -59 200 -198 200c-118 0 -194 -80 -194 -194s66 -192 196 -192z" />
    <glyph glyph-name="eight.old" horiz-adv-x="558" 
d="M279 -7c-123 0 -233 68 -233 202c0 101 74 166 167 187c-74 18 -136 74 -136 162c0 109 98 178 202 178c107 0 202 -69 202 -176c0 -90 -57 -145 -132 -164c93 -21 164 -83 164 -185c0 -135 -106 -204 -234 -204zM279 23c115 0 199 58 199 175c0 109 -91 168 -197 168
c-105 0 -200 -60 -200 -170c0 -116 91 -173 198 -173zM282 395c91 0 164 51 164 151c0 85 -71 147 -167 147c-93 0 -167 -58 -167 -149c0 -97 87 -149 170 -149z" />
    <glyph glyph-name="seven.old" horiz-adv-x="483" 
d="M421 589h-396v29h440v-7l-291 -708h-36z" />
    <glyph glyph-name="six.old" horiz-adv-x="563" 
d="M289 -8c-171 0 -237 125 -237 281v89c0 258 110 360 258 360c104 0 171 -55 187 -151h-33c-15 76 -67 122 -156 122c-127 0 -222 -88 -222 -327v-63c29 88 122 133 205 133c148 0 228 -96 228 -220c0 -132 -91 -224 -230 -224zM289 21c118 0 194 80 194 194
c0 115 -64 193 -196 193c-104 0 -196 -69 -196 -184c0 -100 59 -203 198 -203z" />
    <glyph glyph-name="five.old" horiz-adv-x="538" 
d="M256 -103c-135 0 -215 82 -223 181h32c11 -80 74 -152 191 -152c123 0 197 79 197 207c0 121 -80 196 -181 196c-91 0 -147 -38 -183 -83h-14v372h377v-30h-347v-296c31 33 91 66 171 66c119 0 213 -85 213 -225c0 -146 -95 -236 -233 -236z" />
    <glyph glyph-name="four.old" horiz-adv-x="581" 
d="M405 71h-377v11l360 536h52v-517h100v-30h-100v-168h-35v168zM405 101v492l-329 -492h329z" />
    <glyph glyph-name="uni20B4.tab" 
d="M289 -7c-129 0 -210 57 -210 166c0 56 18 94 53 126h-80v26h113c36 25 82 48 138 76c24 12 45 23 64 34h-315v26h353c39 31 56 65 56 124c0 83 -56 121 -148 121c-108 0 -162 -49 -178 -136h-34c17 104 87 166 212 166c112 0 183 -50 183 -150c0 -56 -17 -93 -49 -125
h100v-26h-132c-28 -20 -63 -39 -106 -60c-36 -19 -67 -35 -94 -50h332v-26h-371c-40 -31 -61 -66 -61 -125c0 -91 70 -136 174 -136c133 0 189 78 202 171h35c-16 -113 -85 -202 -237 -202z" />
    <glyph glyph-name="three.old" horiz-adv-x="548" 
d="M274 -103c-149 0 -234 95 -239 203h32c8 -93 74 -174 207 -174c119 0 192 60 192 173c0 92 -65 166 -181 166h-53v30h49c109 0 157 69 157 145c0 92 -57 157 -161 157c-107 0 -171 -68 -182 -160h-32c8 107 94 189 214 189c122 0 196 -82 196 -186
c0 -81 -49 -139 -124 -158c84 -16 152 -83 152 -183c0 -128 -93 -202 -227 -202z" />
    <glyph glyph-name="two.old" horiz-adv-x="518" 
d="M25 9l253 225c86 75 143 134 143 220c0 92 -61 143 -158 143s-167 -60 -180 -169h-33c11 122 97 198 213 198c115 0 193 -64 193 -172c0 -96 -67 -162 -157 -241l-208 -183h379v-30h-445v9z" />
    <glyph glyph-name="one.old" horiz-adv-x="345" 
d="M189 578l-164 -112v33l173 119h26v-618h-35v578z" />
    <glyph glyph-name="zero.old" horiz-adv-x="615" 
d="M308 22c134 0 224 95 224 267v44c0 165 -93 264 -225 264c-131 0 -224 -98 -224 -266v-43c0 -171 93 -266 225 -266zM307 -8c-152 0 -259 115 -259 295v44c0 183 107 295 259 295c151 0 260 -111 260 -293v-44c0 -184 -105 -297 -260 -297z" />
    <glyph glyph-name="yen.old" horiz-adv-x="521" 
d="M60 337h176l-212 357h39l200 -340l187 340h35l-198 -357h173v-28h-181v-104h181v-28h-181v-177h-35v177h-184v28h184v104h-184v28z" />
    <glyph glyph-name="uni0430.alt" horiz-adv-x="593" 
d="M273 -8c-124 0 -231 96 -231 264v8c0 162 111 267 239 267c108 0 168 -70 197 -142v134h34v-523h-34v141c-24 -69 -99 -149 -205 -149zM275 22c107 0 204 87 204 235v8c0 152 -88 236 -196 236c-111 0 -206 -87 -206 -236v-8c0 -150 89 -235 198 -235z" />
    <glyph glyph-name="sterling.old" horiz-adv-x="580" 
d="M49 353h71c-13 47 -26 92 -26 151c0 119 87 196 208 196c124 0 190 -70 201 -173h-33c-15 91 -64 143 -168 143c-102 0 -172 -65 -172 -166c0 -59 13 -104 26 -151h232v-28h-224c11 -41 21 -84 21 -136c0 -35 -9 -65 -21 -90c78 -5 156 -75 233 -75c64 0 102 39 107 112
h32c-5 -88 -59 -143 -136 -143c-93 0 -170 76 -242 76c-48 0 -75 -29 -82 -69h-33c7 43 34 85 86 96c15 27 24 58 24 93c0 51 -12 93 -24 136h-80v28z" />
    <glyph glyph-name="uni20B8.oldtab" 
d="M58 668v26h482v-26h-482zM281 538h-223v29h482v-29h-224v-538h-35v538z" />
    <glyph glyph-name="Euro.old" horiz-adv-x="641" 
d="M30 428h65c8 160 98 272 251 272c133 0 208 -73 224 -193h-34c-15 103 -75 164 -190 164c-134 0 -208 -96 -216 -243h253l-5 -28h-248v-106h228l-5 -28h-223c7 -149 80 -243 217 -243c119 0 183 68 200 180h32c-16 -132 -99 -210 -232 -210c-156 0 -244 111 -252 273h-65
v28h65v106h-65v28z" />
    <glyph glyph-name="dollar.old" horiz-adv-x="575" 
d="M272 -6c-150 8 -217 91 -231 197h35c13 -87 63 -160 196 -168v326c-145 23 -206 76 -206 175c0 105 83 171 206 176v89h30v-90c113 -5 183 -65 198 -162h-33c-16 80 -69 128 -165 133v-294c148 -24 219 -64 219 -192c0 -103 -82 -188 -219 -191v-127h-30v128zM486 183
c0 104 -51 140 -184 161v-321c116 3 184 71 184 160zM99 526c0 -78 42 -124 173 -145v290c-105 -4 -173 -56 -173 -145z" />
    <glyph glyph-name="space_uni0326" horiz-adv-x="400" 
d="M147 -184l58 140l34 -9l-68 -142z" />
    <glyph glyph-name="uni0434.locl" horiz-adv-x="565" 
d="M157 253c-12 -116 -23 -191 -60 -223h336v464h-259c-3 -48 -9 -168 -17 -241zM42 -127h-27v157h34c51 13 63 103 76 228c5 47 9 112 13 168l6 97h323v-493h72v-157h-28l-3 127h-462z" />
    <glyph glyph-name="tilde.uc" horiz-adv-x="400" 
d="M270 773c-51 0 -93 60 -132 60c-27 0 -46 -20 -51 -59h-27c7 60 38 89 78 89c49 0 93 -60 132 -60c25 0 45 20 50 59h27c-7 -60 -38 -89 -77 -89z" />
    <glyph glyph-name="hungarumlaut.uc" horiz-adv-x="400" 
d="M172 891h39l-61 -120h-28zM290 891h39l-61 -120h-28z" />
    <glyph glyph-name="f.short" horiz-adv-x="314" 
d="M107 494h-82v29h82v99c0 113 62 154 137 154c23 0 39 -3 54 -7v-30c-13 4 -32 8 -53 8c-56 0 -103 -30 -103 -122v-102h156v-29h-156v-494h-35v494z" />
    <glyph glyph-name="idotaccent" horiz-adv-x="200" 
d="M100 637c-15 0 -27 12 -27 27s12 26 27 26s26 -11 26 -26s-11 -27 -26 -27zM83 523h34v-523h-34v523z" />
    <glyph glyph-name="f_f.short" horiz-adv-x="586" 
d="M107 494h-82v29h82v91c0 111 66 154 144 154c23 0 35 -3 54 -8v-30c-15 5 -31 8 -54 8c-60 0 -109 -31 -109 -122v-93h238v99c0 113 63 154 136 154c24 0 39 -3 54 -7v-30c-13 4 -30 8 -53 8c-56 0 -103 -30 -103 -122v-102h156v-29h-156v-494h-34v494h-238v-494h-35v494
z" />
    <glyph glyph-name="uni021B.alt" horiz-adv-x="307" 
d="M62 -184l58 140l34 -9l-68 -142zM114 494h-91v29h91v119h35v-119h133v-29h-133v-494h-35v494z" />
    <glyph glyph-name="uni0437.bgr" horiz-adv-x="459" 
d="M416 25c0 -143 -82 -212 -189 -212c-124 0 -184 80 -192 172h35c8 -80 56 -142 156 -142c89 0 155 54 155 182v6c0 98 -52 164 -163 164h-72v28h71c96 0 138 55 138 142v3c0 77 -46 133 -131 133c-77 0 -121 -48 -136 -120h-33c12 95 78 150 170 150
c101 0 166 -66 166 -163v-3c0 -88 -50 -144 -113 -155c76 -11 138 -70 138 -179v-6z" />
    <glyph glyph-name="uni0449.bgr" horiz-adv-x="926" 
d="M868 -127l-4 127h-75v112c-24 -62 -89 -120 -181 -120c-85 0 -145 37 -164 129c-31 -77 -102 -129 -190 -129c-107 0 -174 56 -174 203v328h34v-330c0 -123 52 -170 144 -170c88 0 176 62 176 182v318h35v-330c0 -123 51 -170 144 -170c87 0 176 64 176 183v317h34v-493
h72v-157h-27z" />
    <glyph glyph-name="uni044A.bgr" horiz-adv-x="572" 
d="M19 494v29h193v-206c16 4 63 14 126 14c124 0 199 -60 199 -164v-3c0 -106 -78 -171 -181 -171c-109 0 -178 66 -178 174v327h-159zM356 21c92 0 147 58 147 142v3c0 84 -56 137 -164 137c-60 0 -110 -10 -127 -14v-122c0 -88 51 -146 144 -146z" />
    <glyph glyph-name="uni02BC" unicode="&#x2bc;" horiz-adv-x="188" 
d="M45 564l66 156l34 -14l-76 -153z" />
    <glyph glyph-name="uni00AD" unicode="&#xad;" horiz-adv-x="333" 
d="M63 295h207v-33h-207v33z" />
    </font>
</defs>
</svg>
