<?xml version="1.0" standalone="no"?>
<!DOCTYPE svg PUBLIC "-//W3C//DTD SVG 1.1//EN" "http://www.w3.org/Graphics/SVG/1.1/DTD/svg11.dtd" >
<svg xmlns="http://www.w3.org/2000/svg" xmlns:xlink="http://www.w3.org/1999/xlink" version="1.1">
<metadata>
Created by FontForge 20190801 at Mon Jul  4 10:33:27 2016
 By Jimmy Wärting
LCG stand for Latin, Cyrillic and Greek.
</metadata>
<defs>
<font id="GraphikLCG-BoldItalic" horiz-adv-x="608" >
  <font-face 
    font-family="Graphik LCG"
    font-weight="700"
    font-style="italic"
    font-stretch="normal"
    units-per-em="1000"
    panose-1="2 11 8 3 3 2 2 13 2 3"
    ascent="825"
    descent="-175"
    x-height="523"
    cap-height="715"
    bbox="-253 -232 1198 1137"
    underline-thickness="50"
    underline-position="-100"
    slope="-8"
    stemh="133"
    stemv="171"
    unicode-range="U+000D-FB02"
  />
<missing-glyph horiz-adv-x="519" 
 />
    <glyph glyph-name="f_f" unicode="ff" horiz-adv-x="721" 
d="M433 401h-152l-63 -401h-178l63 401h-66l19 122h66l9 56c9 61 36 105 75 133c37 28 86 41 141 41c44 0 68 -5 91 -14l-20 -130c-15 5 -26 7 -46 7c-40 0 -58 -18 -65 -55l-6 -38h151l11 66c9 61 37 106 76 134s89 41 144 41c47 0 70 -6 93 -14l-21 -131
c-13 5 -25 8 -48 8c-41 0 -60 -20 -67 -55l-8 -49h106l-19 -122h-106l-64 -401h-179z" />
    <glyph glyph-name=".notdef" horiz-adv-x="519" 
 />
    <glyph glyph-name="NULL" horiz-adv-x="0" 
 />
    <glyph glyph-name="NULL" horiz-adv-x="0" 
 />
    <glyph glyph-name="CR" unicode="&#xd;" horiz-adv-x="197" 
 />
    <glyph glyph-name="space" unicode=" " horiz-adv-x="197" 
 />
    <glyph glyph-name="exclam" unicode="!" horiz-adv-x="342" 
d="M141 715h202l-103 -480h-149zM144 -11c-60 0 -102 42 -102 98c0 28 11 53 30 72c19 17 45 29 74 29c59 0 104 -43 104 -99s-46 -100 -106 -100z" />
    <glyph glyph-name="quotedbl" unicode="&#x22;" horiz-adv-x="470" 
d="M115 715h169l-63 -275h-126zM328 715h168l-62 -275h-127z" />
    <glyph glyph-name="numbersign" unicode="#" horiz-adv-x="577" 
d="M302 241h-63l-33 -142h-121l33 142h-77l23 141h88l18 76h-78l20 134h90l29 123h121l-29 -123h62l30 123h121l-30 -123h79l-20 -134h-91l-18 -76h81l-23 -141h-91l-34 -142h-121zM273 382h62l18 76h-62z" />
    <glyph glyph-name="dollar" unicode="$" horiz-adv-x="651" 
d="M245 -6c-63 9 -119 30 -159 69c-41 37 -68 91 -69 163h184c1 -47 23 -77 66 -92l24 152c-145 33 -215 90 -215 205c0 72 32 130 84 170c51 40 122 63 201 64l14 88h78l-15 -93c59 -8 110 -27 149 -60c37 -35 61 -84 64 -153h-181c-3 40 -23 62 -54 73l-23 -144
c68 -16 123 -37 163 -69c39 -33 60 -76 60 -136c0 -79 -31 -140 -83 -180c-52 -41 -126 -63 -211 -63l-19 -123h-78zM432 204c0 29 -15 47 -66 63l-22 -140c59 4 88 30 88 77zM254 518c0 -32 15 -49 64 -64l21 133c-47 -4 -85 -26 -85 -69z" />
    <glyph glyph-name="percent" unicode="%" horiz-adv-x="835" 
d="M195 528c0 -31 12 -61 53 -60c21 0 37 13 48 30c9 17 15 40 15 64c0 31 -15 59 -51 59c-45 0 -65 -42 -65 -93zM243 364c-49 0 -95 14 -127 42c-33 27 -54 66 -54 118c0 55 21 105 57 141c35 36 85 58 145 58c48 0 93 -15 126 -42c32 -28 52 -68 52 -119
c0 -53 -20 -103 -55 -139c-36 -36 -85 -59 -144 -59zM676 715h99l-577 -715h-99zM561 152c0 -31 13 -60 53 -60c43 1 63 47 63 94c0 31 -14 60 -51 60c-45 0 -65 -43 -65 -94zM609 -12c-49 0 -94 14 -126 42c-33 27 -54 66 -54 118c0 53 20 104 56 140c35 36 85 59 145 59
c48 0 93 -15 126 -42c32 -28 53 -68 53 -119c0 -53 -20 -103 -55 -139c-36 -36 -86 -59 -145 -59z" />
    <glyph glyph-name="ampersand" unicode="&#x26;" horiz-adv-x="770" 
d="M480 0l-36 54c-44 -35 -107 -65 -195 -65c-59 0 -116 13 -157 44c-43 31 -71 78 -71 149c0 61 24 110 60 147s85 63 133 82c-21 35 -34 77 -34 113c0 64 27 114 71 149c43 33 103 51 167 51c51 0 102 -11 142 -38c39 -27 66 -68 66 -128c0 -51 -19 -89 -50 -118
s-72 -52 -116 -69l71 -110l71 111h162l-153 -237l86 -135h-217zM216 210c0 -47 28 -75 79 -75c29 0 56 11 75 30l-91 138c-32 -17 -63 -42 -63 -93zM415 597c-35 0 -61 -25 -61 -66c0 -24 13 -48 32 -75c20 9 40 20 56 33c15 13 25 31 25 55c0 29 -17 53 -52 53z" />
    <glyph glyph-name="quotesingle" unicode="'" horiz-adv-x="264" 
d="M115 715h175l-62 -275h-133z" />
    <glyph glyph-name="parenleft" unicode="(" horiz-adv-x="364" 
d="M144 -148c-27 41 -53 90 -72 150c-20 59 -33 127 -33 208c0 113 24 218 68 314c44 95 107 179 183 251h147c-71 -87 -127 -174 -166 -267c-40 -95 -62 -195 -62 -311c0 -141 31 -257 74 -345h-139z" />
    <glyph glyph-name="parenright" unicode=")" horiz-adv-x="364" 
d="M233 775c27 -41 53 -90 73 -149c19 -60 32 -128 32 -209c0 -228 -96 -420 -251 -565h-147c69 87 127 173 167 268c39 93 61 194 61 310c0 141 -31 257 -74 345h139z" />
    <glyph glyph-name="asterisk" unicode="*" horiz-adv-x="448" 
d="M90 457l102 84l-115 20l54 120l102 -59l-5 121h143l-43 -127l117 45l15 -124l-120 -5l76 -96l-120 -68l-38 117l-73 -111z" />
    <glyph glyph-name="plus" unicode="+" horiz-adv-x="578" 
d="M218 275h-176l21 130h176l30 192h143l-30 -192h176l-21 -130h-176l-30 -192h-143z" />
    <glyph glyph-name="comma" unicode="," horiz-adv-x="314" 
d="M-18 -80l107 262l157 -59l-165 -247z" />
    <glyph glyph-name="hyphen" unicode="-" horiz-adv-x="390" 
d="M68 353h280l-22 -135h-280z" />
    <glyph glyph-name="period" unicode="." horiz-adv-x="307" 
d="M124 -11c-29 0 -56 11 -73 30c-19 17 -29 43 -29 71s10 53 29 72c17 17 43 29 72 29s56 -12 76 -29c19 -19 30 -44 30 -72s-11 -54 -30 -71c-19 -19 -46 -30 -75 -30z" />
    <glyph glyph-name="slash" unicode="/" horiz-adv-x="442" 
d="M368 776h146l-449 -924h-145z" />
    <glyph glyph-name="zero" unicode="0" horiz-adv-x="740" 
d="M352 -12c-95 0 -171 27 -223 78c-52 49 -81 121 -81 212c0 27 3 55 7 83l5 30c17 109 59 193 122 249c61 56 142 85 235 85c92 0 167 -27 220 -76c53 -51 83 -125 83 -218c0 -24 -2 -51 -6 -78l-5 -30c-35 -220 -162 -335 -357 -335zM361 147c84 0 125 61 145 188l5 29
c4 27 6 52 6 76c0 36 -6 68 -22 92c-16 23 -42 38 -83 38c-83 0 -129 -62 -149 -190l-5 -29c-4 -27 -8 -54 -8 -79c0 -33 6 -64 23 -87c17 -24 45 -38 88 -38z" />
    <glyph glyph-name="one" unicode="1" horiz-adv-x="458" 
d="M210 513l-149 -86l27 175l183 113h177l-113 -715h-205z" />
    <glyph glyph-name="two" unicode="2" horiz-adv-x="623" 
d="M-29 29l295 265c39 33 75 67 102 102c27 33 44 68 44 105c0 41 -21 70 -68 70c-49 0 -87 -28 -107 -116h-185c11 92 47 160 102 205c53 44 126 65 207 65c73 0 138 -17 183 -52s73 -87 73 -156c0 -59 -20 -107 -51 -150c-32 -44 -75 -82 -122 -121l-111 -93h236l-24 -153
h-578z" />
    <glyph glyph-name="three" unicode="3" horiz-adv-x="660" 
d="M317 -12c-88 0 -161 20 -212 61c-52 40 -81 102 -81 186h186c0 -57 27 -99 99 -99c60 0 98 32 98 92c0 47 -27 73 -88 73h-50l21 127h64c52 0 89 24 90 81c0 47 -30 69 -75 69c-56 0 -94 -30 -106 -91h-182c9 72 42 130 94 173c52 41 123 65 207 65c65 0 130 -14 178 -43
c48 -31 79 -78 79 -147c0 -81 -51 -145 -139 -168c71 -19 113 -73 113 -145c0 -80 -36 -138 -91 -177s-129 -57 -205 -57z" />
    <glyph glyph-name="four" unicode="4" horiz-adv-x="686" 
d="M349 137h-347l12 77l378 501h246l-69 -437h92l-23 -141h-92l-21 -137h-197zM376 278l44 276l-200 -276h156z" />
    <glyph glyph-name="five" unicode="5" horiz-adv-x="639" 
d="M295 -12c-73 0 -143 16 -192 55c-51 37 -83 97 -83 182h192c1 -51 24 -83 83 -83c64 0 97 45 98 113c1 57 -31 91 -94 91c-53 0 -91 -23 -118 -52h-119l78 421h482l-24 -150h-333l-27 -154c31 39 85 72 166 72c59 0 107 -18 142 -53c33 -36 53 -89 53 -157
c0 -87 -30 -158 -82 -207c-53 -51 -129 -78 -222 -78z" />
    <glyph glyph-name="six" unicode="6" horiz-adv-x="682" 
d="M339 -12c-91 0 -164 23 -213 70c-51 45 -78 115 -77 207c0 29 3 62 8 94l4 24c15 97 54 183 114 244c59 61 140 98 239 98c68 0 130 -15 177 -48c45 -35 75 -87 78 -163h-190c-3 37 -22 60 -70 60c-45 0 -78 -22 -101 -57c-24 -35 -38 -82 -47 -131c33 44 86 83 169 82
c56 0 109 -17 149 -52c39 -35 65 -85 65 -153c0 -87 -34 -155 -89 -202s-132 -73 -216 -73zM251 225c0 -51 28 -92 89 -92c63 0 104 51 104 118c0 48 -28 89 -88 89c-31 0 -56 -12 -75 -32c-19 -21 -30 -50 -30 -83z" />
    <glyph glyph-name="seven" unicode="7" horiz-adv-x="584" 
d="M355 549h-283l26 166h544l-3 -21l-362 -694h-211z" />
    <glyph glyph-name="eight" unicode="8" horiz-adv-x="665" 
d="M314 -12c-75 0 -147 16 -200 49c-55 32 -90 82 -90 150c0 107 64 170 159 197c-51 27 -82 73 -82 129c0 69 33 123 85 159c51 35 120 53 195 53c60 0 126 -14 177 -43c49 -31 85 -78 85 -147c0 -81 -50 -137 -126 -165c71 -27 107 -85 107 -150c0 -79 -33 -137 -89 -174
c-56 -39 -133 -58 -221 -58zM229 216c0 -52 37 -84 93 -84c59 0 102 36 102 101c0 51 -37 81 -89 81c-59 0 -106 -33 -106 -98zM285 503c0 -43 31 -73 80 -73c23 0 45 6 62 21c17 13 28 34 28 62c0 44 -32 74 -80 74c-23 0 -46 -8 -62 -21c-17 -15 -28 -35 -28 -63z" />
    <glyph glyph-name="nine" unicode="9" horiz-adv-x="683" 
d="M297 -11c-69 0 -134 14 -182 49c-48 33 -80 87 -84 164h190c5 -44 37 -61 84 -61c80 0 120 66 143 183c-35 -47 -84 -81 -165 -81c-56 0 -110 16 -150 49c-40 32 -67 83 -67 154c0 85 32 156 88 205c55 48 131 75 219 75c180 0 289 -95 290 -283c0 -28 -1 -58 -8 -89
l-3 -23c-39 -232 -155 -342 -355 -342zM263 464c0 -53 28 -89 83 -89c61 0 111 42 111 115c0 49 -27 92 -88 92s-106 -47 -106 -118z" />
    <glyph glyph-name="colon" unicode=":" horiz-adv-x="313" 
d="M127 -11c-29 0 -56 11 -73 30c-19 17 -30 43 -30 71s10 53 29 72c17 17 44 29 73 29s56 -12 75 -29c19 -19 30 -44 30 -72c0 -56 -44 -101 -104 -101zM173 275c-60 0 -103 44 -103 101c0 28 10 53 29 72c17 17 44 29 73 29s56 -12 76 -29c19 -19 30 -44 30 -72
c0 -57 -45 -101 -105 -101z" />
    <glyph glyph-name="semicolon" unicode=";" horiz-adv-x="329" 
d="M-23 -80l106 262l158 -59l-165 -247zM195 275c-60 0 -102 44 -102 101c0 28 10 53 29 72c17 17 43 29 72 29s56 -12 76 -29c19 -19 30 -44 30 -72c0 -57 -45 -101 -105 -101z" />
    <glyph glyph-name="less" unicode="&#x3c;" horiz-adv-x="521" 
d="M52 310l6 35l459 240l-26 -166l-206 -98l174 -107l-25 -155z" />
    <glyph glyph-name="equal" unicode="=" horiz-adv-x="565" 
d="M46 289h479l-19 -122h-479zM77 486h479l-19 -123h-479z" />
    <glyph glyph-name="greater" unicode="&#x3e;" horiz-adv-x="521" 
d="M485 335l-5 -35l-460 -240l26 167l206 98l-173 107l24 154z" />
    <glyph glyph-name="question" unicode="?" horiz-adv-x="564" 
d="M171 259c7 40 24 71 47 98c21 27 49 48 74 67c24 17 45 32 61 48c15 16 25 33 25 57c-1 32 -21 51 -58 51c-43 0 -73 -28 -84 -88h-175c9 79 43 137 92 176c48 39 112 57 184 57c76 0 135 -19 174 -51s59 -78 59 -131c0 -44 -12 -77 -31 -105c-20 -28 -46 -51 -74 -72
c-25 -19 -55 -36 -79 -56c-25 -21 -44 -44 -51 -75h-168zM229 -11c-60 0 -102 42 -102 98c0 28 11 53 30 72c19 17 45 29 74 29c59 0 104 -43 104 -99s-46 -100 -106 -100z" />
    <glyph glyph-name="at" unicode="@" horiz-adv-x="926" 
d="M661 190c-7 -43 5 -66 41 -66c28 0 56 15 79 48c21 32 37 84 37 157c0 87 -33 160 -90 212c-59 51 -141 80 -242 80c-103 0 -195 -36 -260 -100c-67 -65 -107 -158 -107 -271c0 -95 29 -180 88 -241s146 -98 262 -98c117 0 206 41 257 89h91c-32 -48 -82 -87 -142 -115
c-61 -28 -133 -43 -209 -43c-135 0 -244 46 -317 119c-75 75 -115 177 -115 290c0 132 54 243 138 320c83 76 196 120 315 120c117 0 220 -36 293 -100s117 -155 117 -264c0 -100 -29 -168 -70 -212c-43 -44 -98 -63 -153 -63c-83 0 -129 30 -142 82
c-27 -51 -73 -84 -142 -84c-92 0 -153 66 -154 175c0 73 23 134 60 178c36 43 87 68 146 68c63 0 92 -27 107 -60l9 52h147zM445 168c47 0 83 52 83 121c0 43 -21 66 -60 66c-45 0 -82 -45 -81 -121c0 -43 21 -66 58 -66z" />
    <glyph glyph-name="A" unicode="A" horiz-adv-x="746" 
d="M463 133h-237l-59 -133h-196l342 715h265l114 -715h-212zM288 274h157l-35 275z" />
    <glyph glyph-name="B" unicode="B" horiz-adv-x="687" 
d="M144 715h289c81 0 139 -18 176 -49c37 -32 53 -75 53 -126c0 -93 -56 -151 -139 -171c72 -16 123 -62 123 -150c0 -65 -27 -121 -74 -158c-48 -39 -116 -61 -200 -61h-341zM342 137c68 0 106 38 106 94c0 51 -28 75 -96 75h-73l-27 -169h90zM378 431c65 0 97 28 97 83
c0 47 -25 65 -81 65h-72l-24 -148h80z" />
    <glyph glyph-name="C" unicode="C" horiz-adv-x="770" 
d="M397 -12c-105 0 -193 27 -253 80c-61 53 -96 131 -96 235c0 121 38 228 107 303s169 120 293 120c93 0 169 -23 224 -68c55 -47 86 -115 90 -207h-206c-7 75 -41 115 -114 115c-60 0 -104 -29 -133 -76c-31 -47 -46 -111 -47 -179c0 -47 9 -86 32 -115
c21 -29 56 -46 105 -46c72 0 122 40 142 119h203c-15 -93 -58 -163 -119 -210c-61 -48 -141 -71 -228 -71z" />
    <glyph glyph-name="D" unicode="D" horiz-adv-x="756" 
d="M144 715h231c243 0 364 -115 364 -304c0 -131 -42 -234 -114 -303c-73 -71 -178 -108 -303 -108h-291zM323 157c131 0 204 88 204 245c0 100 -48 157 -156 157h-46l-64 -402h62z" />
    <glyph glyph-name="E" unicode="E" horiz-adv-x="622" 
d="M144 715h493l-25 -158h-289l-19 -123h230l-22 -144h-231l-21 -132h306l-25 -158h-510z" />
    <glyph glyph-name="F" unicode="F" horiz-adv-x="590" 
d="M144 715h483l-26 -159h-277l-24 -152h222l-24 -151h-222l-39 -253h-206z" />
    <glyph glyph-name="G" unicode="G" horiz-adv-x="796" 
d="M405 -12c-109 0 -198 28 -259 83c-63 53 -97 133 -97 236c0 120 42 224 114 299c71 75 172 119 291 119c84 0 162 -19 219 -60c57 -43 96 -109 100 -202h-204c-7 67 -44 101 -123 101c-60 0 -106 -30 -137 -77c-32 -47 -48 -110 -48 -178c0 -103 48 -165 148 -165
c91 0 134 45 147 108h-132l23 143h335c-15 -273 -136 -407 -377 -407z" />
    <glyph glyph-name="H" unicode="H" horiz-adv-x="792" 
d="M144 715h206l-44 -273h236l43 273h205l-113 -715h-205l44 282h-235l-44 -282h-206z" />
    <glyph glyph-name="I" unicode="I" horiz-adv-x="361" 
d="M148 715h207l-113 -715h-207z" />
    <glyph glyph-name="J" unicode="J" horiz-adv-x="486" 
d="M149 -9c-81 0 -125 17 -152 30l25 152c23 -11 52 -19 92 -19c52 0 88 23 99 88l75 473h206l-76 -482c-27 -168 -120 -242 -269 -242z" />
    <glyph glyph-name="K" unicode="K" horiz-adv-x="734" 
d="M144 715h206l-45 -284l264 284h220l-324 -342l213 -373h-221l-171 311l-49 -311h-206z" />
    <glyph glyph-name="L" unicode="L" horiz-adv-x="583" 
d="M144 715h206l-88 -556h270l-25 -159h-476z" />
    <glyph glyph-name="M" unicode="M" horiz-adv-x="949" 
d="M144 715h259l77 -379l197 379h270l-113 -715h-204l71 448l-246 -448h-68l-102 448l-71 -448h-183z" />
    <glyph glyph-name="N" unicode="N" horiz-adv-x="785" 
d="M144 715h234l159 -402l64 402h182l-113 -715h-200l-186 449l-70 -449h-183z" />
    <glyph glyph-name="O" unicode="O" horiz-adv-x="827" 
d="M808 409c0 -124 -42 -230 -114 -303c-73 -75 -177 -118 -300 -118c-95 0 -181 29 -244 82c-63 52 -102 131 -102 231c0 124 42 230 115 305c72 75 174 119 294 119c99 0 186 -28 250 -81c63 -55 101 -134 101 -235zM595 402c0 45 -11 86 -34 115c-24 29 -61 48 -110 48
c-63 0 -110 -30 -142 -77c-32 -48 -48 -112 -48 -179c0 -96 50 -160 147 -160c61 0 109 30 140 78c31 47 47 110 47 175z" />
    <glyph glyph-name="P" unicode="P" horiz-adv-x="660" 
d="M144 715h257c172 0 264 -77 265 -204c0 -89 -30 -157 -82 -201c-53 -45 -129 -68 -218 -68h-91l-38 -242h-206zM358 381c73 0 113 36 113 107c0 51 -31 75 -92 75h-55l-28 -182h62z" />
    <glyph glyph-name="Q" unicode="Q" horiz-adv-x="827" 
d="M394 -12c-95 0 -181 29 -244 82c-63 52 -102 131 -102 231c0 124 42 230 115 305c72 75 174 119 294 119c99 0 186 -28 250 -81c63 -55 101 -134 101 -235c0 -152 -62 -274 -166 -347l66 -68l-123 -114l-106 116c-28 -5 -57 -8 -85 -8zM455 258l66 -69
c49 47 74 125 74 213c0 44 -11 85 -34 114c-24 29 -61 49 -110 49c-63 0 -110 -30 -142 -77c-32 -48 -48 -112 -48 -179c0 -68 24 -122 75 -149z" />
    <glyph glyph-name="R" unicode="R" horiz-adv-x="705" 
d="M144 715h272c175 0 263 -76 262 -203c0 -120 -69 -192 -165 -217l135 -295h-208l-117 256h-48l-40 -256h-204zM369 389c69 0 109 30 109 98c1 49 -29 74 -89 74h-65l-27 -172h72z" />
    <glyph glyph-name="S" unicode="S" horiz-adv-x="655" 
d="M318 -12c-195 0 -302 90 -301 239h193c1 -24 8 -48 27 -65c17 -17 45 -28 86 -28c63 -1 94 26 94 73c0 35 -25 53 -101 69c-87 19 -147 42 -184 75s-53 77 -53 137c0 67 26 126 75 169s121 68 212 68c84 0 152 -18 199 -54c47 -37 72 -93 72 -169h-187
c-4 55 -35 77 -90 77c-56 0 -83 -26 -83 -65c0 -33 22 -48 101 -65c80 -17 140 -40 180 -73s60 -78 60 -139c0 -73 -26 -135 -77 -179s-126 -70 -223 -70z" />
    <glyph glyph-name="T" unicode="T" horiz-adv-x="626" 
d="M255 557h-185l26 158h576l-26 -158h-185l-87 -557h-206z" />
    <glyph glyph-name="U" unicode="U" horiz-adv-x="772" 
d="M373 -12c-108 0 -192 27 -244 80s-72 133 -55 240l65 407h205l-65 -413c-17 -104 12 -153 97 -153c40 0 68 11 88 35c19 23 29 58 37 105l67 426h207l-70 -444c-31 -193 -135 -283 -332 -283z" />
    <glyph glyph-name="V" unicode="V" horiz-adv-x="727" 
d="M83 715h213l65 -502l226 502h199l-346 -715h-233z" />
    <glyph glyph-name="W" unicode="W" horiz-adv-x="994" 
d="M83 715h208l20 -454l172 454h173l40 -458l168 458h189l-285 -715h-201l-41 436l-176 -436h-207z" />
    <glyph glyph-name="X" unicode="X" horiz-adv-x="731" 
d="M255 376l-149 339h220l81 -215l142 215h213l-245 -348l160 -367h-220l-97 247l-169 -247h-215z" />
    <glyph glyph-name="Y" unicode="Y" horiz-adv-x="686" 
d="M249 307l-168 408h214l86 -238l157 238h205l-289 -419l-46 -296h-207z" />
    <glyph glyph-name="Z" unicode="Z" horiz-adv-x="633" 
d="M-22 23l386 535h-264l25 157h560l-4 -22l-384 -535h280l-25 -158h-577z" />
    <glyph glyph-name="bracketleft" unicode="[" horiz-adv-x="417" 
d="M150 776h305l-20 -131h-125l-105 -662h125l-21 -131h-305z" />
    <glyph glyph-name="backslash" unicode="\" horiz-adv-x="442" 
d="M76 776h137l190 -924h-137z" />
    <glyph glyph-name="bracketright" unicode="]" horiz-adv-x="525" 
d="M-2 -17h123l105 662h-124l21 131h304l-146 -924h-304z" />
    <glyph glyph-name="asciicircum" unicode="^" horiz-adv-x="539" 
d="M259 715h157l116 -322h-149l-65 176l-117 -176h-154z" />
    <glyph glyph-name="underscore" unicode="_" horiz-adv-x="442" 
d="M-50 -75h434l-13 -86h-435z" />
    <glyph glyph-name="grave" unicode="`" horiz-adv-x="408" 
d="M107 749h178l40 -166h-125z" />
    <glyph glyph-name="a" unicode="a" horiz-adv-x="586" 
d="M177 -12c-48 0 -89 13 -118 38c-31 25 -48 60 -48 107c0 68 26 114 74 143c48 28 117 40 201 40h77l2 14c8 49 -3 81 -60 81c-48 0 -68 -27 -76 -62h-168c27 129 119 188 252 188c168 0 251 -73 226 -229l-23 -145c-11 -68 -15 -119 -8 -163h-173c-4 23 -4 44 -3 65
c-32 -43 -78 -77 -155 -77zM248 108c49 0 87 28 94 75l5 32h-56c-72 0 -102 -15 -102 -58c0 -27 20 -49 59 -49z" />
    <glyph glyph-name="b" unicode="b" horiz-adv-x="651" 
d="M371 -12c-84 0 -141 40 -164 96l-13 -84h-180l120 753h179l-48 -302c36 55 91 86 172 86c53 0 100 -20 133 -57c33 -39 54 -96 54 -169c0 -100 -27 -181 -72 -237s-108 -86 -181 -86zM321 123c36 0 65 17 86 49c20 31 32 74 32 126c0 68 -30 106 -86 106
c-36 0 -68 -18 -89 -49c-23 -32 -36 -75 -36 -126c0 -68 33 -106 93 -106z" />
    <glyph glyph-name="c" unicode="c" horiz-adv-x="587" 
d="M294 -11c-77 0 -143 21 -190 61c-48 40 -76 100 -76 179c0 93 30 170 82 223s125 84 212 84c68 0 128 -16 172 -51c43 -35 70 -88 73 -164h-168c-7 56 -32 76 -81 76c-39 0 -65 -19 -84 -50c-19 -32 -27 -75 -27 -120c0 -68 26 -108 93 -108c49 0 85 29 96 86h161
c-19 -140 -112 -216 -263 -216z" />
    <glyph glyph-name="d" unicode="d" horiz-adv-x="649" 
d="M220 -12c-56 0 -104 19 -139 58s-55 95 -55 170c0 100 27 180 74 236c47 55 111 85 187 85c81 0 131 -31 156 -86l48 302h180l-93 -590c-11 -69 -15 -119 -11 -163h-177c-4 23 -3 50 -2 79c-39 -61 -89 -91 -168 -91zM297 122c36 0 66 17 89 49c21 31 35 75 35 128
c0 68 -34 105 -90 105c-36 0 -67 -17 -88 -48c-21 -32 -33 -75 -33 -127c0 -68 30 -107 87 -107z" />
    <glyph glyph-name="e" unicode="e" horiz-adv-x="603" 
d="M203 216c0 -60 26 -105 98 -105c52 0 81 23 93 62h169c-27 -121 -126 -185 -267 -185c-76 0 -143 19 -191 58s-78 99 -78 179c0 93 32 171 85 226c52 55 126 86 213 86c85 0 154 -28 198 -77c44 -51 63 -123 48 -215l-4 -25h-364v-4zM325 419c-47 0 -89 -26 -110 -98h188
c5 59 -15 98 -78 98z" />
    <glyph glyph-name="f" unicode="f" horiz-adv-x="390" 
d="M56 523h66l11 66c9 61 37 106 76 134s88 41 143 41c47 0 70 -6 93 -14l-21 -131c-13 5 -26 8 -47 8c-43 0 -61 -20 -68 -55l-8 -49h106l-19 -122h-106l-64 -401h-178l63 401h-66z" />
    <glyph glyph-name="g" unicode="g" horiz-adv-x="648" 
d="M298 156c37 0 68 16 89 44c21 27 33 65 33 109c0 57 -33 96 -89 96c-39 0 -67 -18 -86 -45c-20 -28 -30 -65 -30 -102c0 -60 27 -102 83 -102zM554 30c-12 -76 -38 -132 -83 -169c-47 -36 -111 -55 -203 -55c-96 0 -164 22 -208 58s-64 84 -67 136h178
c5 -33 29 -68 92 -68c39 0 65 11 82 28c16 17 26 43 30 71l12 75c-33 -53 -86 -80 -157 -80c-59 0 -108 19 -143 56c-36 37 -57 92 -57 164c0 85 27 158 72 210c44 51 108 81 183 81c81 0 131 -31 156 -86l12 72h179z" />
    <glyph glyph-name="h" unicode="h" horiz-adv-x="630" 
d="M134 753h179l-49 -313c36 56 88 97 173 97c49 0 93 -16 121 -52c27 -36 39 -91 27 -170l-50 -315h-179l47 302c11 60 -10 90 -59 90c-56 0 -93 -35 -104 -103l-46 -289h-179z" />
    <glyph glyph-name="i" unicode="i" horiz-adv-x="303" 
d="M212 574c-56 0 -96 38 -96 91c0 52 41 92 97 92s96 -39 96 -91c0 -53 -41 -92 -97 -92zM103 523h178l-82 -523h-179z" />
    <glyph glyph-name="j" unicode="j" horiz-adv-x="303" 
d="M-53 -54c45 3 66 19 73 59l82 518h179l-85 -535c-8 -51 -27 -95 -67 -127c-41 -31 -105 -48 -201 -44zM211 574c-56 0 -96 38 -96 91c0 52 41 92 97 92s96 -39 96 -91c0 -53 -41 -92 -97 -92z" />
    <glyph glyph-name="k" unicode="k" horiz-adv-x="584" 
d="M134 753h179l-70 -439l175 209h194l-216 -242l140 -281h-193l-111 240l-38 -240h-179z" />
    <glyph glyph-name="l" unicode="l" horiz-adv-x="301" 
d="M138 753h179l-119 -753h-178z" />
    <glyph glyph-name="m" unicode="m" horiz-adv-x="935" 
d="M70 352c12 76 16 124 19 171h175c0 -27 -1 -54 -5 -86c35 55 96 100 175 100c69 0 115 -33 134 -97c52 71 110 97 178 97c49 0 92 -17 119 -50c27 -35 38 -87 26 -159l-51 -328h-179l48 305c9 59 -9 87 -54 87c-47 0 -81 -32 -92 -93l-47 -299h-177l48 306
c9 57 -9 86 -54 86c-49 0 -81 -33 -92 -93l-47 -299h-179z" />
    <glyph glyph-name="n" unicode="n" horiz-adv-x="630" 
d="M70 352c12 76 16 124 19 171h175c0 -27 -1 -58 -5 -89c37 60 93 103 178 103c49 0 93 -16 121 -52c27 -36 39 -91 27 -170l-50 -315h-179l47 302c11 60 -10 90 -59 90c-56 0 -93 -35 -104 -103l-46 -289h-179z" />
    <glyph glyph-name="o" unicode="o" horiz-adv-x="623" 
d="M294 -12c-71 0 -137 19 -185 59c-49 40 -81 100 -81 180c0 89 31 166 84 221s129 88 218 88c71 0 138 -19 187 -59c48 -40 79 -101 79 -182c0 -91 -31 -168 -84 -221c-53 -55 -129 -86 -218 -86zM297 121c40 0 70 20 90 52c19 32 29 77 29 129c0 57 -28 101 -89 101
c-39 0 -69 -19 -89 -51s-31 -76 -31 -127c0 -27 5 -53 20 -72c13 -20 35 -32 70 -32z" />
    <glyph glyph-name="p" unicode="p" horiz-adv-x="651" 
d="M436 537c53 0 101 -20 134 -57c33 -39 54 -96 54 -169c0 -100 -27 -181 -71 -237c-45 -56 -109 -86 -182 -86c-84 0 -141 40 -164 96l-41 -259h-179l83 527c12 76 16 124 19 171h175c0 -24 -1 -50 -4 -81c40 63 95 95 176 95zM321 123c36 0 65 17 86 49
c20 31 32 74 32 126c0 68 -30 106 -86 106c-36 0 -68 -18 -89 -49c-23 -32 -36 -75 -36 -126c0 -68 33 -106 93 -106z" />
    <glyph glyph-name="q" unicode="q" horiz-adv-x="651" 
d="M384 72c-35 -52 -85 -84 -164 -84c-56 0 -104 19 -139 58s-55 95 -55 170c0 100 27 180 74 236c47 55 111 85 187 85c81 0 131 -31 156 -86l12 72h179l-110 -698h-180zM297 122c36 0 66 17 89 49c21 31 35 75 35 128c0 68 -34 105 -90 105c-36 0 -67 -17 -88 -48
c-21 -32 -33 -75 -33 -127c0 -68 30 -107 87 -107z" />
    <glyph glyph-name="r" unicode="r" horiz-adv-x="437" 
d="M70 352c12 76 17 124 18 171h175c0 -27 -2 -68 -7 -111c43 83 98 119 190 118l-26 -167c-111 4 -173 -29 -189 -132l-37 -231h-179z" />
    <glyph glyph-name="s" unicode="s" horiz-adv-x="521" 
d="M235 -13c-72 0 -130 14 -170 45c-41 29 -65 74 -65 134h166c3 -35 21 -59 74 -59c41 0 61 14 61 42c0 13 -5 22 -17 30c-13 7 -36 13 -72 20c-119 23 -171 68 -171 157c0 60 25 106 68 137c41 29 99 44 166 44c64 0 118 -12 157 -39s62 -70 66 -130h-163
c-3 29 -24 52 -65 52c-40 0 -60 -12 -60 -39s25 -35 82 -48c65 -13 112 -30 143 -55c29 -25 43 -61 43 -110c0 -61 -25 -107 -68 -136c-44 -31 -104 -45 -175 -45z" />
    <glyph glyph-name="t" unicode="t" horiz-adv-x="393" 
d="M228 -12c-61 0 -107 15 -135 47s-38 81 -27 150l34 216h-63l19 122h63l18 109h179l-17 -109h101l-18 -122h-102l-34 -211c-7 -45 10 -60 46 -60c15 0 33 2 50 9l-21 -135c-23 -9 -53 -16 -93 -16z" />
    <glyph glyph-name="u" unicode="u" horiz-adv-x="629" 
d="M554 163c-11 -69 -16 -119 -13 -163h-175c-3 24 -2 48 1 79c-39 -53 -87 -91 -166 -91c-55 0 -101 16 -129 52c-29 35 -41 89 -29 168l50 315h179l-49 -312c-9 -59 10 -90 57 -90c56 0 93 35 104 104l47 298h179z" />
    <glyph glyph-name="v" unicode="v" horiz-adv-x="588" 
d="M50 523h185l48 -339l158 339h178l-273 -523h-194z" />
    <glyph glyph-name="w" unicode="w" horiz-adv-x="838" 
d="M52 523h182l27 -314l131 314h145l29 -314l128 314h174l-244 -523h-172l-29 293l-125 -293h-175z" />
    <glyph glyph-name="x" unicode="x" horiz-adv-x="593" 
d="M183 270l-122 253h197l59 -137l100 137h189l-201 -248l136 -275h-198l-68 156l-119 -156h-188z" />
    <glyph glyph-name="y" unicode="y" horiz-adv-x="585" 
d="M177 59l-127 464h186l60 -281l141 281h178l-386 -698h-179z" />
    <glyph glyph-name="z" unicode="z" horiz-adv-x="513" 
d="M-26 18l281 371h-199l20 134h460l-3 -19l-286 -370h216l-21 -134h-470z" />
    <glyph glyph-name="braceleft" unicode="{" horiz-adv-x="426" 
d="M318 -148c-195 3 -280 86 -227 241l26 80c17 52 -4 83 -83 87l20 124c80 0 109 25 108 80l-1 85c0 87 22 144 73 180c49 35 126 48 230 48l-20 -130c-41 -3 -67 -9 -83 -25c-17 -16 -23 -40 -24 -77l-2 -96c-3 -76 -47 -119 -123 -134c75 -19 102 -71 79 -144l-27 -89
c-21 -71 -3 -94 74 -99z" />
    <glyph glyph-name="bar" unicode="|" horiz-adv-x="276" 
d="M89 776h125v-924h-125v924z" />
    <glyph glyph-name="braceright" unicode="}" horiz-adv-x="426" 
d="M122 777c196 -3 277 -85 228 -241l-26 -79c-17 -51 5 -82 82 -89l-19 -124c-80 3 -108 -21 -108 -77v-86c0 -87 -24 -144 -73 -180s-126 -49 -230 -49l21 130c40 1 67 9 83 25s23 41 23 77l3 100c3 76 48 117 123 130c-75 21 -100 74 -80 143l27 90c11 36 12 59 0 75
c-12 15 -35 22 -74 25z" />
    <glyph glyph-name="asciitilde" unicode="~" horiz-adv-x="526" 
d="M27 214c9 72 32 122 61 154c29 31 65 44 101 44s66 -11 93 -22c25 -11 48 -22 65 -22c27 0 43 15 50 46h116c-8 -68 -31 -117 -60 -149c-29 -33 -66 -49 -102 -49c-37 0 -69 11 -94 22c-27 11 -48 22 -65 22c-27 0 -42 -18 -49 -46h-116z" />
    <glyph glyph-name="uni00A0" unicode="&#xa0;" horiz-adv-x="258" 
 />
    <glyph glyph-name="exclamdown" unicode="&#xa1;" horiz-adv-x="342" 
d="M209 -117h-202l103 480h149zM206 608c60 0 102 -41 102 -97c0 -28 -11 -53 -30 -72c-19 -17 -45 -29 -74 -29c-59 0 -104 43 -104 99s46 99 106 99z" />
    <glyph glyph-name="cent" unicode="&#xa2;" horiz-adv-x="602" 
d="M233 -6c-60 9 -112 34 -148 73c-37 39 -60 91 -60 155c0 89 30 166 82 222c52 55 125 88 212 92l15 93h78l-16 -98c112 -17 183 -82 188 -210h-162c-1 40 -18 66 -47 77l-45 -285c45 7 76 35 88 92h156c-8 -67 -38 -120 -83 -157c-47 -37 -108 -59 -181 -60l-19 -123h-78
zM199 224c0 -53 18 -88 54 -104l45 282c-60 -15 -99 -74 -99 -178z" />
    <glyph glyph-name="sterling" unicode="&#xa3;" horiz-adv-x="665" 
d="M61 407h49c-3 20 -4 40 -4 63c0 77 29 142 80 186s122 69 207 69c76 0 142 -16 190 -53c47 -39 74 -99 74 -188h-191c0 57 -18 87 -73 87c-36 0 -59 -15 -72 -38c-15 -24 -19 -56 -19 -89v-37h185l-20 -120h-162v-7c0 -36 -6 -72 -25 -108c39 -11 74 -22 101 -22
c36 0 60 18 67 59h183c-8 -63 -31 -117 -68 -156c-39 -39 -91 -62 -160 -62c-49 0 -92 13 -128 26s-66 26 -90 26c-29 0 -47 -19 -51 -43h-151c13 80 52 150 123 178c13 29 20 61 20 94c0 7 0 12 -1 15h-83z" />
    <glyph glyph-name="yen" unicode="&#xa5;" horiz-adv-x="654" 
d="M83 365h138l-135 350h217l66 -233l141 233h200l-237 -350h139l-11 -71h-162l-8 -51h161l-11 -72h-161l-27 -171h-206l27 171h-162l11 72h162l8 51h-160z" />
    <glyph glyph-name="brokenbar" unicode="&#xa6;" horiz-adv-x="276" 
d="M89 301h125v-449h-125v449zM89 776h125v-404h-125v404z" />
    <glyph glyph-name="section" unicode="&#xa7;" horiz-adv-x="614" 
d="M263 -137c-60 0 -116 13 -157 42s-66 76 -66 141h164c3 -39 19 -62 66 -62c32 0 58 14 58 45c0 27 -27 43 -104 68c-60 19 -108 41 -143 70c-35 28 -54 66 -54 115c0 87 56 131 132 154c-21 25 -32 55 -32 88c0 68 27 119 71 152c43 32 102 49 167 49
c60 0 113 -12 152 -41s62 -74 65 -142h-167c-1 39 -15 59 -58 60c-35 0 -59 -15 -59 -46c0 -28 25 -43 98 -67c60 -19 109 -41 144 -70s54 -67 54 -118c0 -84 -51 -126 -130 -151c24 -25 35 -54 35 -89c0 -68 -28 -118 -71 -151c-44 -32 -102 -47 -165 -47zM370 221
c23 5 47 13 47 44c0 27 -23 40 -82 64l-80 34c-23 -3 -49 -13 -49 -44c0 -27 22 -40 82 -64z" />
    <glyph glyph-name="dieresis" unicode="&#xa8;" horiz-adv-x="408" 
d="M160 580c-24 0 -45 9 -60 24c-16 15 -25 36 -25 59c0 47 38 84 86 84c24 0 45 -9 61 -24c15 -16 24 -36 24 -59c0 -47 -38 -84 -86 -84zM373 580c-48 0 -85 36 -85 83s37 84 85 84s86 -36 86 -83s-38 -84 -86 -84z" />
    <glyph glyph-name="copyright" unicode="&#xa9;" horiz-adv-x="851" 
d="M445 151c-143 0 -212 80 -212 203v8c0 61 22 112 59 147s89 55 148 55c107 0 180 -48 189 -157h-128c-4 40 -24 59 -61 59c-47 0 -76 -35 -76 -104v-7c0 -68 27 -105 78 -105c37 0 64 18 69 61h122c-7 -105 -83 -160 -188 -160zM437 31c88 0 168 32 227 91
c59 57 95 138 95 237c0 96 -36 178 -93 235s-138 90 -227 90c-91 0 -172 -34 -229 -91c-59 -57 -94 -139 -94 -236c0 -99 36 -180 95 -236c59 -57 138 -90 226 -90zM437 -20c-107 0 -203 41 -271 109c-69 67 -112 161 -112 268c0 105 43 200 112 268c68 68 165 110 273 110
c109 0 205 -41 274 -109c68 -68 109 -162 109 -267c0 -108 -43 -202 -112 -270s-165 -109 -273 -109z" />
    <glyph glyph-name="ordfeminine" unicode="&#xaa;" horiz-adv-x="491" 
d="M186 287c-36 0 -68 10 -92 30c-24 19 -38 48 -38 84c0 55 22 90 62 113s98 31 169 31h46l2 14c5 33 0 56 -41 56c-32 0 -48 -20 -53 -45h-149c20 104 101 153 214 153c144 0 201 -55 180 -194l-16 -102c-8 -52 -10 -94 -6 -129h-151c-3 17 -3 36 -3 52
c-23 -33 -60 -63 -124 -63zM252 392c35 0 58 16 65 51l4 23h-40c-51 0 -69 -13 -69 -41c0 -20 13 -33 40 -33z" />
    <glyph glyph-name="guillemotleft" unicode="&#xab;" horiz-adv-x="488" 
d="M34 265l144 187h119l-143 -189l90 -193h-112zM215 263l145 189h118l-143 -193l87 -189h-112z" />
    <glyph glyph-name="uni00AD" unicode="&#xad;" horiz-adv-x="390" 
d="M68 353h280l-22 -135h-280z" />
    <glyph glyph-name="registered" unicode="&#xae;" horiz-adv-x="525" 
d="M213 615h90c61 0 91 -23 91 -71v-1c0 -31 -14 -47 -37 -58l50 -89h-72l-40 75h-12v-75h-70v219zM298 516c19 0 28 8 28 23v1c0 15 -9 22 -28 22h-15v-46h15zM298 319c52 0 99 19 132 52c33 32 54 77 54 132c0 53 -20 100 -52 133c-33 32 -81 51 -134 51
c-55 0 -100 -19 -133 -52s-52 -80 -52 -133c0 -55 21 -100 54 -132c32 -32 79 -51 131 -51zM298 281c-64 0 -121 24 -162 64c-41 39 -67 94 -67 157c0 61 26 118 67 158c40 40 98 65 162 65c65 0 123 -25 164 -65s66 -96 66 -157c0 -63 -26 -118 -67 -158s-99 -64 -163 -64z
" />
    <glyph glyph-name="macron" unicode="&#xaf;" horiz-adv-x="408" 
d="M120 712h307l-15 -100h-308z" />
    <glyph glyph-name="degree" unicode="&#xb0;" horiz-adv-x="461" 
d="M274 451c53 0 91 42 91 102c0 57 -37 101 -89 101c-56 0 -94 -43 -94 -104c0 -56 37 -99 92 -99zM274 381c-49 0 -93 19 -125 50s-51 72 -51 119c0 48 19 91 51 123s76 51 127 51c48 0 92 -19 124 -50c31 -32 50 -74 50 -121s-19 -90 -51 -121c-32 -32 -76 -51 -125 -51z
" />
    <glyph glyph-name="plusminus" unicode="&#xb1;" horiz-adv-x="578" 
d="M229 341h-176l20 131h176l26 164h144l-26 -164h175l-20 -131h-176l-26 -165h-144zM18 118h497l-18 -118h-498z" />
    <glyph glyph-name="twosuperior" unicode="&#xb2;" horiz-adv-x="361" 
d="M23 357l149 132c20 17 41 35 57 54c16 17 28 35 28 51c0 20 -9 29 -29 29c-21 0 -38 -15 -46 -52h-122c15 100 83 149 178 149c40 0 78 -8 106 -25c27 -17 44 -47 44 -88c0 -55 -40 -94 -103 -147l-31 -26h109l-16 -95h-327z" />
    <glyph glyph-name="threesuperior" unicode="&#xb3;" horiz-adv-x="382" 
d="M219 332c-48 0 -90 10 -119 31s-47 55 -47 103h118c0 -27 14 -42 42 -42c19 0 40 10 40 37c0 21 -14 31 -43 31h-28l12 74h33c31 0 45 11 45 34c0 17 -10 29 -34 29c-21 0 -38 -11 -45 -38h-116c12 83 74 129 173 129c35 0 72 -5 100 -21s47 -41 47 -81
c0 -47 -30 -76 -77 -89c39 -8 64 -30 64 -77c0 -41 -20 -71 -49 -91c-31 -20 -72 -29 -116 -29z" />
    <glyph glyph-name="acute" unicode="&#xb4;" horiz-adv-x="408" 
d="M255 749h182l-125 -166h-130z" />
    <glyph glyph-name="mu" unicode="&#xb5;" horiz-adv-x="625" 
d="M554 163c-11 -69 -16 -120 -13 -163h-175c-3 23 -2 53 1 81c-27 -59 -62 -81 -109 -81c-23 0 -48 7 -63 30l-34 -205h-178l110 698h180l-51 -317c-9 -57 12 -86 55 -86c55 0 96 36 107 104l47 299h179z" />
    <glyph glyph-name="paragraph" unicode="&#xb6;" horiz-adv-x="559" 
d="M270 329h-3c-56 0 -105 14 -141 43c-36 28 -57 71 -57 127c0 72 27 126 71 162s105 54 174 54h242l-129 -815h-76l119 751h-75l-118 -751h-75z" />
    <glyph glyph-name="periodcentered" unicode="&#xb7;" horiz-adv-x="307" 
d="M161 225c-29 0 -55 11 -72 30c-19 17 -30 43 -30 71s10 53 29 72c17 17 43 29 72 29s56 -12 76 -29c19 -19 30 -44 30 -72s-11 -54 -30 -71c-19 -19 -46 -30 -75 -30z" />
    <glyph glyph-name="cedilla" unicode="&#xb8;" horiz-adv-x="408" 
d="M143 -226c-32 0 -62 7 -85 22s-38 39 -41 71h85c3 -15 11 -28 35 -28c15 0 33 9 33 33c0 19 -11 28 -32 28c-15 0 -22 -5 -29 -10l-34 38l58 72h72l-37 -45c53 4 98 -24 98 -79c0 -69 -55 -102 -123 -102z" />
    <glyph glyph-name="onesuperior" unicode="&#xb9;" horiz-adv-x="294" 
d="M156 585l-89 -46l17 109l113 67h114l-60 -376h-134z" />
    <glyph glyph-name="ordmasculine" unicode="&#xba;" horiz-adv-x="530" 
d="M278 287c-129 0 -208 70 -208 187c0 75 28 137 75 181c45 43 109 68 177 68c136 0 207 -77 207 -190c0 -75 -29 -136 -74 -179c-47 -43 -109 -67 -177 -67zM289 402c28 0 48 16 63 41c13 24 21 57 21 93c0 44 -18 72 -61 72c-53 0 -85 -58 -85 -134c0 -45 19 -72 62 -72z
" />
    <glyph glyph-name="guillemotright" unicode="&#xbb;" horiz-adv-x="488" 
d="M453 257l-145 -187h-118l143 189l-90 193h112zM272 259l-145 -189h-119l144 193l-87 189h112z" />
    <glyph glyph-name="onequarter" unicode="&#xbc;" horiz-adv-x="809" 
d="M158 585l-89 -46l17 109l113 67h114l-60 -376h-134zM668 715h95l-611 -715h-95zM576 70h-187l8 49l197 257h159l-35 -219h48l-14 -87h-47l-11 -70h-129zM594 157l20 128l-94 -128h74z" />
    <glyph glyph-name="onehalf" unicode="&#xbd;" horiz-adv-x="822" 
d="M159 585l-89 -46l17 109l113 67h114l-60 -376h-134zM655 715h95l-611 -715h-95zM427 18l149 132c20 17 41 35 57 54c16 17 28 35 28 51c0 20 -9 29 -29 29c-21 0 -38 -15 -46 -52h-122c15 100 83 149 178 149c40 0 78 -8 106 -25c27 -17 44 -47 44 -88
c0 -55 -40 -94 -103 -147l-31 -26h109l-16 -95h-327z" />
    <glyph glyph-name="threequarters" unicode="&#xbe;" horiz-adv-x="850" 
d="M222 332c-48 0 -90 10 -119 31s-47 55 -47 103h118c0 -27 14 -42 42 -42c19 0 40 10 40 37c0 21 -14 31 -43 31h-28l12 74h33c31 0 45 11 45 34c0 17 -10 29 -34 29c-21 0 -38 -11 -45 -38h-116c12 83 74 129 173 129c35 0 72 -5 100 -21s47 -41 47 -81
c0 -47 -30 -76 -77 -89c39 -8 64 -30 64 -77c0 -41 -20 -71 -49 -91c-31 -20 -72 -29 -116 -29zM722 715h95l-611 -715h-95zM616 70h-187l8 49l197 257h159l-35 -219h48l-14 -87h-47l-11 -70h-129zM634 157l20 128l-94 -128h74z" />
    <glyph glyph-name="questiondown" unicode="&#xbf;" horiz-adv-x="564" 
d="M402 340c-7 -40 -24 -71 -47 -98c-21 -27 -49 -48 -74 -67c-24 -17 -45 -32 -61 -48c-15 -16 -25 -33 -25 -57c1 -32 21 -51 58 -51c43 0 73 28 84 88h175c-9 -79 -43 -137 -92 -176c-48 -39 -112 -57 -184 -57c-76 0 -135 19 -174 51s-59 78 -59 131c0 44 12 77 31 105
c20 28 46 51 74 72c25 19 55 36 79 56c25 21 44 44 51 75h168zM344 609c60 0 102 -41 102 -97c0 -28 -11 -53 -30 -72c-19 -17 -45 -29 -74 -29c-59 0 -104 43 -104 99s46 99 106 99z" />
    <glyph glyph-name="Agrave" unicode="&#xc0;" horiz-adv-x="746" 
d="M463 133h-237l-59 -133h-196l342 715h265l114 -715h-212zM288 274h157l-35 275zM305 905h185l33 -146h-132z" />
    <glyph glyph-name="Aacute" unicode="&#xc1;" horiz-adv-x="746" 
d="M463 133h-237l-59 -133h-196l342 715h265l114 -715h-212zM288 274h157l-35 275zM436 905h188l-115 -146h-137z" />
    <glyph glyph-name="Acircumflex" unicode="&#xc2;" horiz-adv-x="746" 
d="M463 133h-237l-59 -133h-196l342 715h265l114 -715h-212zM288 274h157l-35 275zM384 905h150l93 -146h-125l-53 49l-64 -49h-132z" />
    <glyph glyph-name="Atilde" unicode="&#xc3;" horiz-adv-x="746" 
d="M463 133h-237l-59 -133h-196l342 715h265l114 -715h-212zM288 274h157l-35 275zM514 758c-29 0 -51 9 -70 17s-34 17 -49 17c-17 0 -31 -13 -36 -33h-101c17 107 71 153 134 153c28 0 49 -8 69 -16c19 -9 36 -17 52 -17c17 0 29 11 36 32h101
c-19 -105 -76 -153 -136 -153z" />
    <glyph glyph-name="Adieresis" unicode="&#xc4;" horiz-adv-x="746" 
d="M463 133h-237l-59 -133h-196l342 715h265l114 -715h-212zM288 274h157l-35 275zM340 758c-24 0 -45 9 -60 24c-16 15 -25 36 -25 59s9 44 25 60c15 15 36 24 60 24c48 0 86 -36 86 -83s-38 -84 -86 -84zM563 758c-48 0 -85 36 -85 83c0 23 9 44 25 60c15 15 36 24 60 24
c48 0 86 -36 86 -83s-38 -84 -86 -84z" />
    <glyph glyph-name="Aring" unicode="&#xc5;" horiz-adv-x="746" 
d="M463 133h-237l-59 -133h-196l342 715h265l114 -715h-212zM288 274h157l-35 275zM450 810c27 0 47 20 47 51s-18 49 -45 49c-28 0 -47 -19 -47 -50s18 -50 45 -50zM450 744c-32 0 -63 13 -84 34s-35 50 -35 82s13 61 36 82c21 21 52 34 85 34c32 0 63 -13 84 -33
c21 -21 35 -50 35 -82s-14 -62 -35 -82c-23 -21 -53 -35 -86 -35z" />
    <glyph glyph-name="AE" unicode="&#xc6;" horiz-adv-x="1010" 
d="M398 715h629l-25 -158h-282l-20 -123h225l-23 -144h-224l-21 -132h300l-25 -158h-504l23 146h-195l-84 -146h-199zM335 284h138l43 273h-23z" />
    <glyph glyph-name="Ccedilla" unicode="&#xc7;" horiz-adv-x="770" 
d="M319 -226c-32 0 -62 7 -85 22s-38 39 -41 71h85c3 -15 11 -28 35 -28c15 0 33 9 33 33c0 19 -11 28 -32 28c-15 0 -22 -5 -29 -10l-34 38l54 68c-159 28 -257 131 -257 307c0 121 38 228 107 303s169 120 293 120c93 0 169 -23 224 -68c55 -47 86 -115 90 -207h-206
c-7 75 -41 115 -114 115c-60 0 -104 -29 -133 -76c-31 -47 -46 -111 -47 -179c0 -47 9 -86 32 -115c21 -29 56 -46 105 -46c72 0 122 40 142 119h203c-15 -93 -58 -163 -119 -210c-61 -48 -141 -71 -228 -71h-27l-26 -33c53 4 98 -24 98 -79c0 -69 -55 -102 -123 -102z" />
    <glyph glyph-name="Egrave" unicode="&#xc8;" horiz-adv-x="622" 
d="M144 715h493l-25 -158h-289l-19 -123h230l-22 -144h-231l-21 -132h306l-25 -158h-510zM252 905h185l33 -146h-132z" />
    <glyph glyph-name="Eacute" unicode="&#xc9;" horiz-adv-x="622" 
d="M144 715h493l-25 -158h-289l-19 -123h230l-22 -144h-231l-21 -132h306l-25 -158h-510zM375 905h188l-115 -146h-137z" />
    <glyph glyph-name="Ecircumflex" unicode="&#xca;" horiz-adv-x="622" 
d="M144 715h493l-25 -158h-289l-19 -123h230l-22 -144h-231l-21 -132h306l-25 -158h-510zM334 905h150l93 -146h-125l-53 49l-64 -49h-132z" />
    <glyph glyph-name="Edieresis" unicode="&#xcb;" horiz-adv-x="622" 
d="M144 715h493l-25 -158h-289l-19 -123h230l-22 -144h-231l-21 -132h306l-25 -158h-510zM291 758c-24 0 -45 9 -60 24c-16 15 -25 36 -25 59s9 44 25 60c15 15 36 24 60 24c48 0 86 -36 86 -83s-38 -84 -86 -84zM514 758c-48 0 -85 36 -85 83c0 23 9 44 25 60
c15 15 36 24 60 24c48 0 86 -36 86 -83s-38 -84 -86 -84z" />
    <glyph glyph-name="Igrave" unicode="&#xcc;" horiz-adv-x="361" 
d="M148 715h207l-113 -715h-207zM112 905h185l33 -146h-132z" />
    <glyph glyph-name="Iacute" unicode="&#xcd;" horiz-adv-x="361" 
d="M148 715h207l-113 -715h-207zM240 905h188l-115 -146h-137z" />
    <glyph glyph-name="Icircumflex" unicode="&#xce;" horiz-adv-x="361" 
d="M148 715h207l-113 -715h-207zM198 905h150l93 -146h-125l-53 49l-64 -49h-132z" />
    <glyph glyph-name="Idieresis" unicode="&#xcf;" horiz-adv-x="361" 
d="M148 715h207l-113 -715h-207zM157 758c-24 0 -45 9 -60 24c-16 15 -25 36 -25 59s9 44 25 60c15 15 36 24 60 24c48 0 86 -36 86 -83s-38 -84 -86 -84zM380 758c-48 0 -85 36 -85 83c0 23 9 44 25 60c15 15 36 24 60 24c48 0 86 -36 86 -83s-38 -84 -86 -84z" />
    <glyph glyph-name="Eth" unicode="&#xd0;" horiz-adv-x="774" 
d="M59 428h59l45 287h231c243 0 363 -115 364 -304c0 -131 -42 -234 -115 -303c-73 -71 -178 -108 -303 -108h-290l46 290h-59zM341 157c132 0 204 88 204 245c0 100 -48 157 -156 157h-49l-21 -131h120l-22 -138h-120l-21 -133h65z" />
    <glyph glyph-name="Ntilde" unicode="&#xd1;" horiz-adv-x="785" 
d="M144 715h234l159 -402l64 402h182l-113 -715h-200l-186 449l-70 -449h-183zM550 758c-29 0 -51 9 -70 17s-34 17 -49 17c-17 0 -31 -13 -36 -33h-101c17 107 71 153 134 153c28 0 49 -8 69 -16c19 -9 36 -17 52 -17c17 0 29 11 36 32h101c-19 -105 -76 -153 -136 -153z
" />
    <glyph glyph-name="Ograve" unicode="&#xd2;" horiz-adv-x="827" 
d="M808 409c0 -124 -42 -230 -114 -303c-73 -75 -177 -118 -300 -118c-95 0 -181 29 -244 82c-63 52 -102 131 -102 231c0 124 42 230 115 305c72 75 174 119 294 119c99 0 186 -28 250 -81c63 -55 101 -134 101 -235zM595 402c0 45 -11 86 -34 115c-24 29 -61 48 -110 48
c-63 0 -110 -30 -142 -77c-32 -48 -48 -112 -48 -179c0 -96 50 -160 147 -160c61 0 109 30 140 78c31 47 47 110 47 175zM325 905h185l33 -146h-132z" />
    <glyph glyph-name="Oacute" unicode="&#xd3;" horiz-adv-x="827" 
d="M808 409c0 -124 -42 -230 -114 -303c-73 -75 -177 -118 -300 -118c-95 0 -181 29 -244 82c-63 52 -102 131 -102 231c0 124 42 230 115 305c72 75 174 119 294 119c99 0 186 -28 250 -81c63 -55 101 -134 101 -235zM595 402c0 45 -11 86 -34 115c-24 29 -61 48 -110 48
c-63 0 -110 -30 -142 -77c-32 -48 -48 -112 -48 -179c0 -96 50 -160 147 -160c61 0 109 30 140 78c31 47 47 110 47 175zM454 905h188l-115 -146h-137z" />
    <glyph glyph-name="Ocircumflex" unicode="&#xd4;" horiz-adv-x="827" 
d="M808 409c0 -124 -42 -230 -114 -303c-73 -75 -177 -118 -300 -118c-95 0 -181 29 -244 82c-63 52 -102 131 -102 231c0 124 42 230 115 305c72 75 174 119 294 119c99 0 186 -28 250 -81c63 -55 101 -134 101 -235zM595 402c0 45 -11 86 -34 115c-24 29 -61 48 -110 48
c-63 0 -110 -30 -142 -77c-32 -48 -48 -112 -48 -179c0 -96 50 -160 147 -160c61 0 109 30 140 78c31 47 47 110 47 175zM411 905h150l93 -146h-125l-53 49l-64 -49h-132z" />
    <glyph glyph-name="Otilde" unicode="&#xd5;" horiz-adv-x="827" 
d="M808 409c0 -124 -42 -230 -114 -303c-73 -75 -177 -118 -300 -118c-95 0 -181 29 -244 82c-63 52 -102 131 -102 231c0 124 42 230 115 305c72 75 174 119 294 119c99 0 186 -28 250 -81c63 -55 101 -134 101 -235zM595 402c0 45 -11 86 -34 115c-24 29 -61 48 -110 48
c-63 0 -110 -30 -142 -77c-32 -48 -48 -112 -48 -179c0 -96 50 -160 147 -160c61 0 109 30 140 78c31 47 47 110 47 175zM536 758c-29 0 -51 9 -70 17s-34 17 -49 17c-17 0 -31 -13 -36 -33h-101c17 107 71 153 134 153c28 0 49 -8 69 -16c19 -9 36 -17 52 -17
c17 0 29 11 36 32h101c-19 -105 -76 -153 -136 -153z" />
    <glyph glyph-name="Odieresis" unicode="&#xd6;" horiz-adv-x="827" 
d="M808 409c0 -124 -42 -230 -114 -303c-73 -75 -177 -118 -300 -118c-95 0 -181 29 -244 82c-63 52 -102 131 -102 231c0 124 42 230 115 305c72 75 174 119 294 119c99 0 186 -28 250 -81c63 -55 101 -134 101 -235zM595 402c0 45 -11 86 -34 115c-24 29 -61 48 -110 48
c-63 0 -110 -30 -142 -77c-32 -48 -48 -112 -48 -179c0 -96 50 -160 147 -160c61 0 109 30 140 78c31 47 47 110 47 175zM370 758c-24 0 -45 9 -60 24c-16 15 -25 36 -25 59s9 44 25 60c15 15 36 24 60 24c48 0 86 -36 86 -83s-38 -84 -86 -84zM593 758c-48 0 -85 36 -85 83
c0 23 9 44 25 60c15 15 36 24 60 24c48 0 86 -36 86 -83s-38 -84 -86 -84z" />
    <glyph glyph-name="multiply" unicode="&#xd7;" horiz-adv-x="579" 
d="M31 186l173 152l-130 153l105 95l132 -155l174 152l84 -96l-175 -153l132 -153l-107 -94l-132 154l-173 -151z" />
    <glyph glyph-name="Oslash" unicode="&#xd8;" horiz-adv-x="827" 
d="M39 26l77 78c-43 51 -68 117 -68 197c0 124 42 230 115 305c72 75 174 119 294 119c81 0 154 -20 214 -57l70 72l57 -58l-65 -66c47 -52 75 -122 75 -207c0 -124 -42 -230 -114 -303c-73 -75 -177 -118 -300 -118c-83 0 -158 21 -218 62l-80 -82zM601 401
c0 28 -3 51 -10 70l-285 -290c25 -21 59 -32 102 -32c63 0 111 28 144 75c32 45 49 109 49 177zM256 310c0 -21 2 -40 6 -57l281 286c-24 17 -55 26 -92 26c-63 0 -112 -29 -145 -76s-50 -111 -50 -179z" />
    <glyph glyph-name="Ugrave" unicode="&#xd9;" horiz-adv-x="772" 
d="M373 -12c-108 0 -192 27 -244 80s-72 133 -55 240l65 407h205l-65 -413c-17 -104 12 -153 97 -153c40 0 68 11 88 35c19 23 29 58 37 105l67 426h207l-70 -444c-31 -193 -135 -283 -332 -283zM309 905h185l33 -146h-132z" />
    <glyph glyph-name="Uacute" unicode="&#xda;" horiz-adv-x="772" 
d="M373 -12c-108 0 -192 27 -244 80s-72 133 -55 240l65 407h205l-65 -413c-17 -104 12 -153 97 -153c40 0 68 11 88 35c19 23 29 58 37 105l67 426h207l-70 -444c-31 -193 -135 -283 -332 -283zM449 905h188l-115 -146h-137z" />
    <glyph glyph-name="Ucircumflex" unicode="&#xdb;" horiz-adv-x="772" 
d="M373 -12c-108 0 -192 27 -244 80s-72 133 -55 240l65 407h205l-65 -413c-17 -104 12 -153 97 -153c40 0 68 11 88 35c19 23 29 58 37 105l67 426h207l-70 -444c-31 -193 -135 -283 -332 -283zM397 905h150l93 -146h-125l-53 49l-64 -49h-132z" />
    <glyph glyph-name="Udieresis" unicode="&#xdc;" horiz-adv-x="772" 
d="M373 -12c-108 0 -192 27 -244 80s-72 133 -55 240l65 407h205l-65 -413c-17 -104 12 -153 97 -153c40 0 68 11 88 35c19 23 29 58 37 105l67 426h207l-70 -444c-31 -193 -135 -283 -332 -283zM353 758c-24 0 -45 9 -60 24c-16 15 -25 36 -25 59s9 44 25 60
c15 15 36 24 60 24c48 0 86 -36 86 -83s-38 -84 -86 -84zM576 758c-48 0 -85 36 -85 83c0 23 9 44 25 60c15 15 36 24 60 24c48 0 86 -36 86 -83s-38 -84 -86 -84z" />
    <glyph glyph-name="Yacute" unicode="&#xdd;" horiz-adv-x="686" 
d="M249 307l-168 408h214l86 -238l157 238h205l-289 -419l-46 -296h-207zM413 905h188l-115 -146h-137z" />
    <glyph glyph-name="Thorn" unicode="&#xde;" horiz-adv-x="660" 
d="M329 597h56c172 0 265 -71 264 -202c0 -84 -30 -149 -82 -193s-127 -67 -216 -67h-93l-21 -135h-206l113 715h204zM307 452l-28 -177h65c71 0 110 37 110 105c0 48 -31 72 -92 72h-55z" />
    <glyph glyph-name="germandbls" unicode="&#xdf;" horiz-adv-x="641" 
d="M355 -10c-45 0 -81 7 -109 18l22 132c16 -8 35 -13 56 -13c76 0 107 54 107 131c0 73 -45 112 -121 109l21 133c60 1 107 26 107 86c0 43 -26 67 -70 67c-47 0 -76 -31 -85 -92l-89 -561h-179l88 554c12 77 44 131 92 166c47 35 108 51 179 51c68 0 126 -15 167 -44
c40 -29 65 -74 65 -133c0 -81 -55 -135 -138 -158c84 -24 143 -92 143 -193c0 -76 -23 -140 -67 -184s-108 -69 -189 -69z" />
    <glyph glyph-name="agrave" unicode="&#xe0;" horiz-adv-x="586" 
d="M177 -12c-48 0 -89 13 -118 38c-31 25 -48 60 -48 107c0 68 26 114 74 143c48 28 117 40 201 40h77l2 14c8 49 -3 81 -60 81c-48 0 -68 -27 -76 -62h-168c27 129 119 188 252 188c168 0 251 -73 226 -229l-23 -145c-11 -68 -15 -119 -8 -163h-173c-4 23 -4 44 -3 65
c-32 -43 -78 -77 -155 -77zM248 108c49 0 87 28 94 75l5 32h-56c-72 0 -102 -15 -102 -58c0 -27 20 -49 59 -49zM171 749h178l40 -166h-125z" />
    <glyph glyph-name="aacute" unicode="&#xe1;" horiz-adv-x="586" 
d="M177 -12c-48 0 -89 13 -118 38c-31 25 -48 60 -48 107c0 68 26 114 74 143c48 28 117 40 201 40h77l2 14c8 49 -3 81 -60 81c-48 0 -68 -27 -76 -62h-168c27 129 119 188 252 188c168 0 251 -73 226 -229l-23 -145c-11 -68 -15 -119 -8 -163h-173c-4 23 -4 44 -3 65
c-32 -43 -78 -77 -155 -77zM248 108c49 0 87 28 94 75l5 32h-56c-72 0 -102 -15 -102 -58c0 -27 20 -49 59 -49zM337 749h182l-125 -166h-130z" />
    <glyph glyph-name="acircumflex" unicode="&#xe2;" horiz-adv-x="586" 
d="M177 -12c-48 0 -89 13 -118 38c-31 25 -48 60 -48 107c0 68 26 114 74 143c48 28 117 40 201 40h77l2 14c8 49 -3 81 -60 81c-48 0 -68 -27 -76 -62h-168c27 129 119 188 252 188c168 0 251 -73 226 -229l-23 -145c-11 -68 -15 -119 -8 -163h-173c-4 23 -4 44 -3 65
c-32 -43 -78 -77 -155 -77zM248 108c49 0 87 28 94 75l5 32h-56c-72 0 -102 -15 -102 -58c0 -27 20 -49 59 -49zM284 748h128l96 -163h-120l-53 56l-68 -56h-127z" />
    <glyph glyph-name="atilde" unicode="&#xe3;" horiz-adv-x="586" 
d="M177 -12c-48 0 -89 13 -118 38c-31 25 -48 60 -48 107c0 68 26 114 74 143c48 28 117 40 201 40h77l2 14c8 49 -3 81 -60 81c-48 0 -68 -27 -76 -62h-168c27 129 119 188 252 188c168 0 251 -73 226 -229l-23 -145c-11 -68 -15 -119 -8 -163h-173c-4 23 -4 44 -3 65
c-32 -43 -78 -77 -155 -77zM248 108c49 0 87 28 94 75l5 32h-56c-72 0 -102 -15 -102 -58c0 -27 20 -49 59 -49zM398 587c-29 0 -50 8 -69 17c-19 8 -33 16 -48 16c-17 0 -30 -13 -35 -32h-97c17 105 65 156 128 156c28 0 49 -9 68 -17s35 -17 51 -17c17 0 28 11 35 32h97
c-19 -105 -70 -155 -130 -155z" />
    <glyph glyph-name="adieresis" unicode="&#xe4;" horiz-adv-x="586" 
d="M177 -12c-48 0 -89 13 -118 38c-31 25 -48 60 -48 107c0 68 26 114 74 143c48 28 117 40 201 40h77l2 14c8 49 -3 81 -60 81c-48 0 -68 -27 -76 -62h-168c27 129 119 188 252 188c168 0 251 -73 226 -229l-23 -145c-11 -68 -15 -119 -8 -163h-173c-4 23 -4 44 -3 65
c-32 -43 -78 -77 -155 -77zM248 108c49 0 87 28 94 75l5 32h-56c-72 0 -102 -15 -102 -58c0 -27 20 -49 59 -49zM228 580c-24 0 -45 9 -60 24c-16 15 -25 36 -25 59c0 47 38 84 86 84c24 0 45 -9 61 -24c15 -16 24 -36 24 -59c0 -47 -38 -84 -86 -84zM441 580
c-48 0 -85 36 -85 83s37 84 85 84s86 -36 86 -83s-38 -84 -86 -84z" />
    <glyph glyph-name="aring" unicode="&#xe5;" horiz-adv-x="586" 
d="M177 -12c-48 0 -89 13 -118 38c-31 25 -48 60 -48 107c0 68 26 114 74 143c48 28 117 40 201 40h77l2 14c8 49 -3 81 -60 81c-48 0 -68 -27 -76 -62h-168c27 129 119 188 252 188c168 0 251 -73 226 -229l-23 -145c-11 -68 -15 -119 -8 -163h-173c-4 23 -4 44 -3 65
c-32 -43 -78 -77 -155 -77zM248 108c49 0 87 28 94 75l5 32h-56c-72 0 -102 -15 -102 -58c0 -27 20 -49 59 -49zM332 642c27 0 47 20 47 51c0 29 -18 50 -45 50s-47 -21 -47 -52c0 -29 18 -49 45 -49zM332 578c-32 0 -62 13 -83 33s-34 48 -34 80s14 61 35 82s52 34 84 34
s62 -13 83 -33c21 -21 34 -49 34 -81s-14 -61 -35 -81c-21 -21 -52 -34 -84 -34z" />
    <glyph glyph-name="ae" unicode="&#xe6;" horiz-adv-x="914" 
d="M519 216c0 -60 24 -105 96 -105c52 0 78 23 90 62h169c-27 -121 -123 -185 -264 -185c-100 0 -173 32 -213 97c-16 -27 -38 -51 -69 -68c-32 -17 -72 -29 -127 -29c-113 0 -190 53 -190 149c0 68 28 114 76 142s118 40 202 40h75l2 13c7 47 -5 79 -62 79
c-48 0 -71 -27 -79 -62h-168c12 65 44 112 89 143s102 45 166 45c80 0 133 -20 164 -60c47 39 104 60 168 60c84 0 150 -25 193 -76c41 -49 58 -122 45 -215l-4 -25h-359v-5zM639 419c-47 0 -89 -28 -109 -100h185c4 59 -16 100 -76 100zM248 108c49 0 87 27 95 79l5 31h-58
c-72 0 -101 -16 -101 -61c0 -29 20 -49 59 -49z" />
    <glyph glyph-name="ccedilla" unicode="&#xe7;" horiz-adv-x="587" 
d="M230 -226c-32 0 -62 7 -85 22s-38 39 -41 71h85c3 -15 11 -28 35 -28c15 0 33 9 33 33c0 19 -11 28 -32 28c-15 0 -22 -5 -29 -10l-34 38l55 69c-113 23 -189 101 -189 232c0 93 30 170 82 223s125 84 212 84c68 0 128 -16 172 -51c43 -35 70 -88 73 -164h-168
c-7 56 -32 76 -81 76c-39 0 -65 -19 -84 -50c-19 -32 -27 -75 -27 -120c0 -68 26 -108 93 -108c49 0 85 29 96 86h161c-19 -140 -112 -216 -263 -216h-11l-28 -34c53 4 98 -24 98 -79c0 -69 -55 -102 -123 -102z" />
    <glyph glyph-name="egrave" unicode="&#xe8;" horiz-adv-x="603" 
d="M203 216c0 -60 26 -105 98 -105c52 0 81 23 93 62h169c-27 -121 -126 -185 -267 -185c-76 0 -143 19 -191 58s-78 99 -78 179c0 93 32 171 85 226c52 55 126 86 213 86c85 0 154 -28 198 -77c44 -51 63 -123 48 -215l-4 -25h-364v-4zM325 419c-47 0 -89 -26 -110 -98h188
c5 59 -15 98 -78 98zM187 749h178l40 -166h-125z" />
    <glyph glyph-name="eacute" unicode="&#xe9;" horiz-adv-x="603" 
d="M203 216c0 -60 26 -105 98 -105c52 0 81 23 93 62h169c-27 -121 -126 -185 -267 -185c-76 0 -143 19 -191 58s-78 99 -78 179c0 93 32 171 85 226c52 55 126 86 213 86c85 0 154 -28 198 -77c44 -51 63 -123 48 -215l-4 -25h-364v-4zM325 419c-47 0 -89 -26 -110 -98h188
c5 59 -15 98 -78 98zM342 749h182l-125 -166h-130z" />
    <glyph glyph-name="ecircumflex" unicode="&#xea;" horiz-adv-x="603" 
d="M203 216c0 -60 26 -105 98 -105c52 0 81 23 93 62h169c-27 -121 -126 -185 -267 -185c-76 0 -143 19 -191 58s-78 99 -78 179c0 93 32 171 85 226c52 55 126 86 213 86c85 0 154 -28 198 -77c44 -51 63 -123 48 -215l-4 -25h-364v-4zM325 419c-47 0 -89 -26 -110 -98h188
c5 59 -15 98 -78 98zM294 748h128l96 -163h-120l-53 56l-68 -56h-127z" />
    <glyph glyph-name="edieresis" unicode="&#xeb;" horiz-adv-x="603" 
d="M203 216c0 -60 26 -105 98 -105c52 0 81 23 93 62h169c-27 -121 -126 -185 -267 -185c-76 0 -143 19 -191 58s-78 99 -78 179c0 93 32 171 85 226c52 55 126 86 213 86c85 0 154 -28 198 -77c44 -51 63 -123 48 -215l-4 -25h-364v-4zM325 419c-47 0 -89 -26 -110 -98h188
c5 59 -15 98 -78 98zM241 580c-24 0 -45 9 -60 24c-16 15 -25 36 -25 59c0 47 38 84 86 84c24 0 45 -9 61 -24c15 -16 24 -36 24 -59c0 -47 -38 -84 -86 -84zM454 580c-48 0 -85 36 -85 83s37 84 85 84s86 -36 86 -83s-38 -84 -86 -84z" />
    <glyph glyph-name="igrave" unicode="&#xec;" horiz-adv-x="303" 
d="M103 523h178l-82 -523h-179zM51 749h178l40 -166h-125z" />
    <glyph glyph-name="iacute" unicode="&#xed;" horiz-adv-x="303" 
d="M103 523h178l-82 -523h-179zM202 749h182l-125 -166h-130z" />
    <glyph glyph-name="icircumflex" unicode="&#xee;" horiz-adv-x="303" 
d="M103 523h178l-82 -523h-179zM160 748h128l96 -163h-120l-53 56l-68 -56h-127z" />
    <glyph glyph-name="idieresis" unicode="&#xef;" horiz-adv-x="303" 
d="M111 580c-24 0 -45 9 -60 24c-16 15 -25 36 -25 59s9 44 25 60c15 15 36 24 60 24c48 0 86 -36 86 -83s-39 -84 -86 -84zM320 580c-24 0 -45 9 -60 24c-16 15 -25 36 -25 59s9 44 25 60c15 15 36 24 60 24c48 0 86 -36 86 -83s-38 -84 -86 -84zM103 523h178l-82 -523
h-179z" />
    <glyph glyph-name="eth" unicode="&#xf0;" horiz-adv-x="628" 
d="M152 619l118 41c-37 35 -76 65 -113 93h211c17 -11 35 -24 54 -39l111 39l21 -64l-79 -28c69 -77 125 -187 125 -322c0 -97 -24 -185 -75 -248c-51 -64 -127 -103 -231 -103c-76 0 -143 21 -190 62c-48 40 -77 101 -77 182c0 80 25 153 70 208c44 55 109 89 189 89
c51 0 85 -13 117 -48c-21 48 -49 88 -82 127l-148 -52zM207 223c0 -56 24 -102 91 -102c41 0 72 23 92 58c19 35 28 79 28 123c0 28 -6 52 -21 71s-38 30 -71 30c-40 0 -70 -21 -90 -53c-20 -33 -29 -79 -29 -127z" />
    <glyph glyph-name="ntilde" unicode="&#xf1;" horiz-adv-x="630" 
d="M70 352c12 76 16 124 19 171h175c0 -27 -1 -58 -5 -89c37 60 93 103 178 103c49 0 93 -16 121 -52c27 -36 39 -91 27 -170l-50 -315h-179l47 302c11 60 -10 90 -59 90c-56 0 -93 -35 -104 -103l-46 -289h-179zM423 587c-29 0 -50 8 -69 17c-19 8 -33 16 -48 16
c-17 0 -30 -13 -35 -32h-97c17 105 65 156 128 156c28 0 49 -9 68 -17s35 -17 51 -17c17 0 28 11 35 32h97c-19 -105 -70 -155 -130 -155z" />
    <glyph glyph-name="ograve" unicode="&#xf2;" horiz-adv-x="623" 
d="M294 -12c-71 0 -137 19 -185 59c-49 40 -81 100 -81 180c0 89 31 166 84 221s129 88 218 88c71 0 138 -19 187 -59c48 -40 79 -101 79 -182c0 -91 -31 -168 -84 -221c-53 -55 -129 -86 -218 -86zM297 121c40 0 70 20 90 52c19 32 29 77 29 129c0 57 -28 101 -89 101
c-39 0 -69 -19 -89 -51s-31 -76 -31 -127c0 -27 5 -53 20 -72c13 -20 35 -32 70 -32zM190 749h178l40 -166h-125z" />
    <glyph glyph-name="oacute" unicode="&#xf3;" horiz-adv-x="623" 
d="M294 -12c-71 0 -137 19 -185 59c-49 40 -81 100 -81 180c0 89 31 166 84 221s129 88 218 88c71 0 138 -19 187 -59c48 -40 79 -101 79 -182c0 -91 -31 -168 -84 -221c-53 -55 -129 -86 -218 -86zM297 121c40 0 70 20 90 52c19 32 29 77 29 129c0 57 -28 101 -89 101
c-39 0 -69 -19 -89 -51s-31 -76 -31 -127c0 -27 5 -53 20 -72c13 -20 35 -32 70 -32zM342 749h182l-125 -166h-130z" />
    <glyph glyph-name="ocircumflex" unicode="&#xf4;" horiz-adv-x="623" 
d="M294 -12c-71 0 -137 19 -185 59c-49 40 -81 100 -81 180c0 89 31 166 84 221s129 88 218 88c71 0 138 -19 187 -59c48 -40 79 -101 79 -182c0 -91 -31 -168 -84 -221c-53 -55 -129 -86 -218 -86zM297 121c40 0 70 20 90 52c19 32 29 77 29 129c0 57 -28 101 -89 101
c-39 0 -69 -19 -89 -51s-31 -76 -31 -127c0 -27 5 -53 20 -72c13 -20 35 -32 70 -32zM299 748h128l96 -163h-120l-53 56l-68 -56h-127z" />
    <glyph glyph-name="otilde" unicode="&#xf5;" horiz-adv-x="623" 
d="M294 -12c-71 0 -137 19 -185 59c-49 40 -81 100 -81 180c0 89 31 166 84 221s129 88 218 88c71 0 138 -19 187 -59c48 -40 79 -101 79 -182c0 -91 -31 -168 -84 -221c-53 -55 -129 -86 -218 -86zM297 121c40 0 70 20 90 52c19 32 29 77 29 129c0 57 -28 101 -89 101
c-39 0 -69 -19 -89 -51s-31 -76 -31 -127c0 -27 5 -53 20 -72c13 -20 35 -32 70 -32zM412 587c-29 0 -50 8 -69 17c-19 8 -33 16 -48 16c-17 0 -30 -13 -35 -32h-97c17 105 65 156 128 156c28 0 49 -9 68 -17s35 -17 51 -17c17 0 28 11 35 32h97
c-19 -105 -70 -155 -130 -155z" />
    <glyph glyph-name="odieresis" unicode="&#xf6;" horiz-adv-x="623" 
d="M294 -12c-71 0 -137 19 -185 59c-49 40 -81 100 -81 180c0 89 31 166 84 221s129 88 218 88c71 0 138 -19 187 -59c48 -40 79 -101 79 -182c0 -91 -31 -168 -84 -221c-53 -55 -129 -86 -218 -86zM297 121c40 0 70 20 90 52c19 32 29 77 29 129c0 57 -28 101 -89 101
c-39 0 -69 -19 -89 -51s-31 -76 -31 -127c0 -27 5 -53 20 -72c13 -20 35 -32 70 -32zM247 580c-24 0 -45 9 -60 24c-16 15 -25 36 -25 59c0 47 38 84 86 84c24 0 45 -9 61 -24c15 -16 24 -36 24 -59c0 -47 -38 -84 -86 -84zM460 580c-48 0 -85 36 -85 83s37 84 85 84
s86 -36 86 -83s-38 -84 -86 -84z" />
    <glyph glyph-name="divide" unicode="&#xf7;" horiz-adv-x="580" 
d="M62 402h498l-19 -124h-498zM277 43c-55 0 -94 40 -94 92c0 25 10 49 27 66c16 16 39 27 66 27c28 0 52 -11 69 -27c16 -17 27 -41 27 -66c0 -52 -39 -92 -95 -92zM325 452c-55 0 -94 41 -94 93c0 25 10 49 27 66c16 16 39 26 66 26c55 0 96 -41 96 -92
c0 -52 -39 -93 -95 -93z" />
    <glyph glyph-name="oslash" unicode="&#xf8;" horiz-adv-x="623" 
d="M15 9l65 67c-32 39 -52 88 -52 152c0 89 31 166 84 221s129 88 218 88c59 0 113 -14 158 -41l65 67l50 -48l-62 -64c35 -39 55 -90 55 -157c0 -91 -31 -168 -84 -221c-53 -55 -129 -85 -218 -85c-60 0 -115 14 -162 42l-67 -69zM298 119c40 0 72 20 93 52
c20 32 31 77 31 129c0 9 -1 18 -2 26l-185 -190c16 -11 36 -17 63 -17zM201 228c0 -9 0 -18 1 -26l182 187c-15 9 -33 15 -56 15c-40 0 -73 -18 -94 -49c-21 -32 -33 -75 -33 -127z" />
    <glyph glyph-name="ugrave" unicode="&#xf9;" horiz-adv-x="629" 
d="M554 163c-11 -69 -16 -119 -13 -163h-175c-3 24 -2 48 1 79c-39 -53 -87 -91 -166 -91c-55 0 -101 16 -129 52c-29 35 -41 89 -29 168l50 315h179l-49 -312c-9 -59 10 -90 57 -90c56 0 93 35 104 104l47 298h179zM202 749h178l40 -166h-125z" />
    <glyph glyph-name="uacute" unicode="&#xfa;" horiz-adv-x="629" 
d="M554 163c-11 -69 -16 -119 -13 -163h-175c-3 24 -2 48 1 79c-39 -53 -87 -91 -166 -91c-55 0 -101 16 -129 52c-29 35 -41 89 -29 168l50 315h179l-49 -312c-9 -59 10 -90 57 -90c56 0 93 35 104 104l47 298h179zM362 749h182l-125 -166h-130z" />
    <glyph glyph-name="ucircumflex" unicode="&#xfb;" horiz-adv-x="629" 
d="M554 163c-11 -69 -16 -119 -13 -163h-175c-3 24 -2 48 1 79c-39 -53 -87 -91 -166 -91c-55 0 -101 16 -129 52c-29 35 -41 89 -29 168l50 315h179l-49 -312c-9 -59 10 -90 57 -90c56 0 93 35 104 104l47 298h179zM311 748h128l96 -163h-120l-53 56l-68 -56h-127z" />
    <glyph glyph-name="udieresis" unicode="&#xfc;" horiz-adv-x="629" 
d="M554 163c-11 -69 -16 -119 -13 -163h-175c-3 24 -2 48 1 79c-39 -53 -87 -91 -166 -91c-55 0 -101 16 -129 52c-29 35 -41 89 -29 168l50 315h179l-49 -312c-9 -59 10 -90 57 -90c56 0 93 35 104 104l47 298h179zM255 580c-24 0 -45 9 -60 24c-16 15 -25 36 -25 59
c0 47 38 84 86 84c24 0 45 -9 61 -24c15 -16 24 -36 24 -59c0 -47 -38 -84 -86 -84zM468 580c-48 0 -85 36 -85 83s37 84 85 84s86 -36 86 -83s-38 -84 -86 -84z" />
    <glyph glyph-name="yacute" unicode="&#xfd;" horiz-adv-x="585" 
d="M177 59l-127 464h186l60 -281l141 281h178l-386 -698h-179zM348 749h182l-125 -166h-130z" />
    <glyph glyph-name="thorn" unicode="&#xfe;" horiz-adv-x="652" 
d="M134 753h179l-49 -313c35 59 94 97 175 97c52 0 98 -20 131 -57c33 -39 54 -96 54 -169c0 -100 -27 -181 -71 -237c-45 -56 -109 -86 -182 -86c-84 0 -144 42 -163 99l-42 -262h-179zM321 123c36 0 65 17 86 49c20 31 32 74 32 126c0 68 -30 106 -86 106
c-36 0 -68 -18 -89 -49c-23 -32 -36 -75 -36 -126c0 -68 33 -106 93 -106z" />
    <glyph glyph-name="ydieresis" unicode="&#xff;" horiz-adv-x="585" 
d="M177 59l-127 464h186l60 -281l141 281h178l-386 -698h-179zM247 580c-24 0 -45 9 -60 24c-16 15 -25 36 -25 59c0 47 38 84 86 84c24 0 45 -9 61 -24c15 -16 24 -36 24 -59c0 -47 -38 -84 -86 -84zM460 580c-48 0 -85 36 -85 83s37 84 85 84s86 -36 86 -83
s-38 -84 -86 -84z" />
    <glyph glyph-name="Amacron" unicode="&#x100;" horiz-adv-x="746" 
d="M463 133h-237l-59 -133h-196l342 715h265l114 -715h-212zM288 274h157l-35 275zM305 878h322l-16 -107h-322z" />
    <glyph glyph-name="amacron" unicode="&#x101;" horiz-adv-x="586" 
d="M177 -12c-48 0 -89 13 -118 38c-31 25 -48 60 -48 107c0 68 26 114 74 143c48 28 117 40 201 40h77l2 14c8 49 -3 81 -60 81c-48 0 -68 -27 -76 -62h-168c27 129 119 188 252 188c168 0 251 -73 226 -229l-23 -145c-11 -68 -15 -119 -8 -163h-173c-4 23 -4 44 -3 65
c-32 -43 -78 -77 -155 -77zM248 108c49 0 87 28 94 75l5 32h-56c-72 0 -102 -15 -102 -58c0 -27 20 -49 59 -49zM194 712h307l-15 -100h-308z" />
    <glyph glyph-name="Abreve" unicode="&#x102;" horiz-adv-x="746" 
d="M463 133h-237l-59 -133h-196l342 715h265l114 -715h-212zM288 274h157l-35 275zM455 752c-104 0 -161 58 -162 153h115c3 -28 17 -46 48 -46s48 15 53 46h115c-15 -97 -80 -153 -169 -153z" />
    <glyph glyph-name="abreve" unicode="&#x103;" horiz-adv-x="586" 
d="M177 -12c-48 0 -89 13 -118 38c-31 25 -48 60 -48 107c0 68 26 114 74 143c48 28 117 40 201 40h77l2 14c8 49 -3 81 -60 81c-48 0 -68 -27 -76 -62h-168c27 129 119 188 252 188c168 0 251 -73 226 -229l-23 -145c-11 -68 -15 -119 -8 -163h-173c-4 23 -4 44 -3 65
c-32 -43 -78 -77 -155 -77zM248 108c49 0 87 28 94 75l5 32h-56c-72 0 -102 -15 -102 -58c0 -27 20 -49 59 -49zM341 588c-100 0 -162 58 -159 158h111c3 -32 19 -48 50 -48c32 0 51 16 56 48h111c-13 -103 -77 -158 -169 -158z" />
    <glyph glyph-name="Aogonek" unicode="&#x104;" horiz-adv-x="746" 
d="M463 133h-237l-59 -133h-196l342 715h265l112 -706c-35 -23 -65 -47 -65 -76c0 -16 10 -24 29 -24c11 0 20 1 28 5l-13 -82c-16 -7 -40 -14 -77 -14c-28 0 -57 5 -78 17s-35 31 -35 62c0 27 13 49 32 65c19 17 43 30 64 38h-95zM288 274h157l-35 275z" />
    <glyph glyph-name="aogonek" unicode="&#x105;" horiz-adv-x="586" 
d="M421 -182c-29 0 -58 5 -78 17c-21 12 -35 31 -35 62c0 27 13 49 32 65c17 17 42 30 63 38h-68c-4 23 -4 44 -3 65c-32 -43 -78 -77 -155 -77c-48 0 -89 13 -118 38c-31 25 -48 60 -48 107c0 68 26 114 74 143c48 28 117 40 201 40h77l2 14c8 49 -3 81 -60 81
c-48 0 -68 -27 -76 -62h-168c27 129 119 188 252 188c168 0 251 -73 226 -229l-23 -145c-11 -67 -14 -114 -9 -158c-24 -19 -53 -43 -53 -72c0 -16 10 -24 29 -24c11 0 20 1 28 5l-13 -82c-16 -7 -41 -14 -77 -14zM248 108c49 0 87 28 94 75l5 32h-56
c-72 0 -102 -15 -102 -58c0 -27 20 -49 59 -49z" />
    <glyph glyph-name="Cacute" unicode="&#x106;" horiz-adv-x="770" 
d="M397 -12c-105 0 -193 27 -253 80c-61 53 -96 131 -96 235c0 121 38 228 107 303s169 120 293 120c93 0 169 -23 224 -68c55 -47 86 -115 90 -207h-206c-7 75 -41 115 -114 115c-60 0 -104 -29 -133 -76c-31 -47 -46 -111 -47 -179c0 -47 9 -86 32 -115
c21 -29 56 -46 105 -46c72 0 122 40 142 119h203c-15 -93 -58 -163 -119 -210c-61 -48 -141 -71 -228 -71zM439 905h188l-115 -146h-137z" />
    <glyph glyph-name="cacute" unicode="&#x107;" horiz-adv-x="587" 
d="M294 -11c-77 0 -143 21 -190 61c-48 40 -76 100 -76 179c0 93 30 170 82 223s125 84 212 84c68 0 128 -16 172 -51c43 -35 70 -88 73 -164h-168c-7 56 -32 76 -81 76c-39 0 -65 -19 -84 -50c-19 -32 -27 -75 -27 -120c0 -68 26 -108 93 -108c49 0 85 29 96 86h161
c-19 -140 -112 -216 -263 -216zM331 749h182l-125 -166h-130z" />
    <glyph glyph-name="Ccircumflex" unicode="&#x108;" horiz-adv-x="770" 
d="M397 -12c-105 0 -193 27 -253 80c-61 53 -96 131 -96 235c0 121 38 228 107 303s169 120 293 120c93 0 169 -23 224 -68c55 -47 86 -115 90 -207h-206c-7 75 -41 115 -114 115c-60 0 -104 -29 -133 -76c-31 -47 -46 -111 -47 -179c0 -47 9 -86 32 -115
c21 -29 56 -46 105 -46c72 0 122 40 142 119h203c-15 -93 -58 -163 -119 -210c-61 -48 -141 -71 -228 -71zM398 905h150l93 -146h-125l-53 49l-64 -49h-132z" />
    <glyph glyph-name="ccircumflex" unicode="&#x109;" horiz-adv-x="587" 
d="M294 -11c-77 0 -143 21 -190 61c-48 40 -76 100 -76 179c0 93 30 170 82 223s125 84 212 84c68 0 128 -16 172 -51c43 -35 70 -88 73 -164h-168c-7 56 -32 76 -81 76c-39 0 -65 -19 -84 -50c-19 -32 -27 -75 -27 -120c0 -68 26 -108 93 -108c49 0 85 29 96 86h161
c-19 -140 -112 -216 -263 -216zM286 748h128l96 -163h-120l-53 56l-68 -56h-127z" />
    <glyph glyph-name="Cdotaccent" unicode="&#x10a;" horiz-adv-x="770" 
d="M397 -12c-105 0 -193 27 -253 80c-61 53 -96 131 -96 235c0 121 38 228 107 303s169 120 293 120c93 0 169 -23 224 -68c55 -47 86 -115 90 -207h-206c-7 75 -41 115 -114 115c-60 0 -104 -29 -133 -76c-31 -47 -46 -111 -47 -179c0 -47 9 -86 32 -115
c21 -29 56 -46 105 -46c72 0 122 40 142 119h203c-15 -93 -58 -163 -119 -210c-61 -48 -141 -71 -228 -71zM460 757c-55 0 -95 38 -95 89c0 25 11 48 28 64s41 25 68 25s51 -9 68 -25c16 -16 27 -39 27 -64s-11 -48 -28 -64s-41 -25 -68 -25z" />
    <glyph glyph-name="cdotaccent" unicode="&#x10b;" horiz-adv-x="587" 
d="M294 -11c-77 0 -143 21 -190 61c-48 40 -76 100 -76 179c0 93 30 170 82 223s125 84 212 84c68 0 128 -16 172 -51c43 -35 70 -88 73 -164h-168c-7 56 -32 76 -81 76c-39 0 -65 -19 -84 -50c-19 -32 -27 -75 -27 -120c0 -68 26 -108 93 -108c49 0 85 29 96 86h161
c-19 -140 -112 -216 -263 -216zM339 579c-55 0 -95 37 -95 88c0 25 11 48 28 64s41 26 68 26s51 -9 68 -25c16 -16 27 -39 27 -64c0 -52 -41 -89 -96 -89z" />
    <glyph glyph-name="Ccaron" unicode="&#x10c;" horiz-adv-x="770" 
d="M397 -12c-105 0 -193 27 -253 80c-61 53 -96 131 -96 235c0 121 38 228 107 303s169 120 293 120c93 0 169 -23 224 -68c55 -47 86 -115 90 -207h-206c-7 75 -41 115 -114 115c-60 0 -104 -29 -133 -76c-31 -47 -46 -111 -47 -179c0 -47 9 -86 32 -115
c21 -29 56 -46 105 -46c72 0 122 40 142 119h203c-15 -93 -58 -163 -119 -210c-61 -48 -141 -71 -228 -71zM525 759h-150l-92 146h124l53 -49l65 49h132z" />
    <glyph glyph-name="ccaron" unicode="&#x10d;" horiz-adv-x="587" 
d="M294 -11c-77 0 -143 21 -190 61c-48 40 -76 100 -76 179c0 93 30 170 82 223s125 84 212 84c68 0 128 -16 172 -51c43 -35 70 -88 73 -164h-168c-7 56 -32 76 -81 76c-39 0 -65 -19 -84 -50c-19 -32 -27 -75 -27 -120c0 -68 26 -108 93 -108c49 0 85 29 96 86h161
c-19 -140 -112 -216 -263 -216zM387 585h-127l-97 163h120l53 -56l68 56h128z" />
    <glyph glyph-name="Dcaron" unicode="&#x10e;" horiz-adv-x="756" 
d="M144 715h231c243 0 364 -115 364 -304c0 -131 -42 -234 -114 -303c-73 -71 -178 -108 -303 -108h-291zM323 157c131 0 204 88 204 245c0 100 -48 157 -156 157h-46l-64 -402h62zM483 759h-150l-92 146h124l53 -49l65 49h132z" />
    <glyph glyph-name="dcaron" unicode="&#x10f;" horiz-adv-x="649" 
d="M220 -12c-56 0 -104 19 -139 58s-55 95 -55 170c0 100 27 180 74 236c47 55 111 85 187 85c81 0 131 -31 156 -86l48 302h180l-93 -590c-11 -69 -15 -119 -11 -163h-177c-4 23 -3 50 -2 79c-39 -61 -89 -91 -168 -91zM297 122c36 0 66 17 89 49c21 31 35 75 35 128
c0 68 -34 105 -90 105c-36 0 -67 -17 -88 -48c-21 -32 -33 -75 -33 -127c0 -68 30 -107 87 -107zM715 753h132l-75 -174h-93z" />
    <glyph glyph-name="Dcroat" unicode="&#x110;" horiz-adv-x="774" 
d="M59 428h59l45 287h231c243 0 363 -115 364 -304c0 -131 -42 -234 -115 -303c-73 -71 -178 -108 -303 -108h-290l46 290h-59zM341 157c132 0 204 88 204 245c0 100 -48 157 -156 157h-49l-21 -131h120l-22 -138h-120l-21 -133h65z" />
    <glyph glyph-name="dcroat" unicode="&#x111;" horiz-adv-x="649" 
d="M325 683h155l11 70h180l-11 -70h56l-15 -96h-56l-67 -424c-11 -69 -15 -119 -11 -163h-177c-4 23 -3 50 -2 79c-39 -61 -89 -91 -168 -91c-56 0 -104 19 -139 58s-55 95 -55 170c0 100 27 180 74 236c47 55 111 85 187 85c81 0 131 -31 156 -86l21 136h-154zM331 404
c-36 0 -67 -17 -88 -48c-21 -32 -33 -75 -33 -127c0 -68 30 -107 87 -107c36 0 66 17 89 49c21 31 35 75 35 128c0 68 -34 105 -90 105z" />
    <glyph glyph-name="Emacron" unicode="&#x112;" horiz-adv-x="622" 
d="M144 715h493l-25 -158h-289l-19 -123h230l-22 -144h-231l-21 -132h306l-25 -158h-510zM250 878h322l-16 -107h-322z" />
    <glyph glyph-name="emacron" unicode="&#x113;" horiz-adv-x="603" 
d="M203 216c0 -60 26 -105 98 -105c52 0 81 23 93 62h169c-27 -121 -126 -185 -267 -185c-76 0 -143 19 -191 58s-78 99 -78 179c0 93 32 171 85 226c52 55 126 86 213 86c85 0 154 -28 198 -77c44 -51 63 -123 48 -215l-4 -25h-364v-4zM325 419c-47 0 -89 -26 -110 -98h188
c5 59 -15 98 -78 98zM205 712h307l-15 -100h-308z" />
    <glyph glyph-name="Ebreve" unicode="&#x114;" horiz-adv-x="622" 
d="M144 715h493l-25 -158h-289l-19 -123h230l-22 -144h-231l-21 -132h306l-25 -158h-510zM400 752c-104 0 -161 58 -162 153h115c3 -28 17 -46 48 -46s48 15 53 46h115c-15 -97 -80 -153 -169 -153z" />
    <glyph glyph-name="ebreve" unicode="&#x115;" horiz-adv-x="603" 
d="M203 216c0 -60 26 -105 98 -105c52 0 81 23 93 62h169c-27 -121 -126 -185 -267 -185c-76 0 -143 19 -191 58s-78 99 -78 179c0 93 32 171 85 226c52 55 126 86 213 86c85 0 154 -28 198 -77c44 -51 63 -123 48 -215l-4 -25h-364v-4zM325 419c-47 0 -89 -26 -110 -98h188
c5 59 -15 98 -78 98zM346 587c-100 0 -162 58 -159 158h111c3 -32 19 -48 50 -48c32 0 51 16 56 48h111c-13 -103 -77 -158 -169 -158z" />
    <glyph glyph-name="Edotaccent" unicode="&#x116;" horiz-adv-x="622" 
d="M144 715h493l-25 -158h-289l-19 -123h230l-22 -144h-231l-21 -132h306l-25 -158h-510zM397 757c-55 0 -95 38 -95 89c0 25 11 48 28 64s41 25 68 25s51 -9 68 -25c16 -16 27 -39 27 -64s-11 -48 -28 -64s-41 -25 -68 -25z" />
    <glyph glyph-name="edotaccent" unicode="&#x117;" horiz-adv-x="603" 
d="M203 216c0 -60 26 -105 98 -105c52 0 81 23 93 62h169c-27 -121 -126 -185 -267 -185c-76 0 -143 19 -191 58s-78 99 -78 179c0 93 32 171 85 226c52 55 126 86 213 86c85 0 154 -28 198 -77c44 -51 63 -123 48 -215l-4 -25h-364v-4zM325 419c-47 0 -89 -26 -110 -98h188
c5 59 -15 98 -78 98zM343 579c-55 0 -95 37 -95 88c0 25 11 48 28 64s41 26 68 26s51 -9 68 -25c16 -16 27 -39 27 -64c0 -52 -41 -89 -96 -89z" />
    <glyph glyph-name="Eogonek" unicode="&#x118;" horiz-adv-x="622" 
d="M144 715h493l-25 -158h-289l-19 -123h230l-22 -144h-231l-21 -132h306l-25 -158h-37c-11 -7 -23 -16 -34 -28s-19 -25 -19 -40c0 -16 10 -23 29 -23c11 0 20 1 28 5l-12 -82c-17 -7 -41 -14 -78 -14c-28 0 -57 5 -78 17s-34 31 -34 60c0 27 12 50 31 67
c17 17 41 30 62 38h-368z" />
    <glyph glyph-name="eogonek" unicode="&#x119;" horiz-adv-x="603" 
d="M296 -12c-76 0 -143 19 -191 58s-78 99 -78 179c0 93 32 171 85 226c52 55 126 86 213 86c85 0 154 -28 198 -77c44 -51 63 -123 48 -215l-4 -25h-364v-4c0 -60 26 -105 98 -105c52 0 81 23 93 62h169c-12 -56 -36 -95 -79 -130c-16 -15 -44 -30 -67 -49
c-23 -17 -42 -38 -42 -61c0 -16 10 -24 29 -24c9 0 20 1 29 5l-13 -82c-17 -7 -41 -14 -78 -14c-28 0 -57 5 -78 17s-34 31 -34 59c0 25 11 44 27 59c16 16 36 27 56 35h-17zM325 419c-47 0 -89 -26 -110 -98h188c5 59 -15 98 -78 98z" />
    <glyph glyph-name="Ecaron" unicode="&#x11a;" horiz-adv-x="622" 
d="M144 715h493l-25 -158h-289l-19 -123h230l-22 -144h-231l-21 -132h306l-25 -158h-510zM462 759h-150l-92 146h124l53 -49l65 49h132z" />
    <glyph glyph-name="ecaron" unicode="&#x11b;" horiz-adv-x="603" 
d="M203 216c0 -60 26 -105 98 -105c52 0 81 23 93 62h169c-27 -121 -126 -185 -267 -185c-76 0 -143 19 -191 58s-78 99 -78 179c0 93 32 171 85 226c52 55 126 86 213 86c85 0 154 -28 198 -77c44 -51 63 -123 48 -215l-4 -25h-364v-4zM325 419c-47 0 -89 -26 -110 -98h188
c5 59 -15 98 -78 98zM394 585h-127l-97 163h120l53 -56l68 56h128z" />
    <glyph glyph-name="Gcircumflex" unicode="&#x11c;" horiz-adv-x="796" 
d="M405 -12c-109 0 -198 28 -259 83c-63 53 -97 133 -97 236c0 120 42 224 114 299c71 75 172 119 291 119c84 0 162 -19 219 -60c57 -43 96 -109 100 -202h-204c-7 67 -44 101 -123 101c-60 0 -106 -30 -137 -77c-32 -47 -48 -110 -48 -178c0 -103 48 -165 148 -165
c91 0 134 45 147 108h-132l23 143h335c-15 -273 -136 -407 -377 -407zM393 905h150l93 -146h-125l-53 49l-64 -49h-132z" />
    <glyph glyph-name="gcircumflex" unicode="&#x11d;" horiz-adv-x="648" 
d="M298 156c37 0 68 16 89 44c21 27 33 65 33 109c0 57 -33 96 -89 96c-39 0 -67 -18 -86 -45c-20 -28 -30 -65 -30 -102c0 -60 27 -102 83 -102zM554 30c-12 -76 -38 -132 -83 -169c-47 -36 -111 -55 -203 -55c-96 0 -164 22 -208 58s-64 84 -67 136h178
c5 -33 29 -68 92 -68c39 0 65 11 82 28c16 17 26 43 30 71l12 75c-33 -53 -86 -80 -157 -80c-59 0 -108 19 -143 56c-36 37 -57 92 -57 164c0 85 27 158 72 210c44 51 108 81 183 81c81 0 131 -31 156 -86l12 72h179zM317 748h128l96 -163h-120l-53 56l-68 -56h-127z" />
    <glyph glyph-name="Gbreve" unicode="&#x11e;" horiz-adv-x="796" 
d="M405 -12c-109 0 -198 28 -259 83c-63 53 -97 133 -97 236c0 120 42 224 114 299c71 75 172 119 291 119c84 0 162 -19 219 -60c57 -43 96 -109 100 -202h-204c-7 67 -44 101 -123 101c-60 0 -106 -30 -137 -77c-32 -47 -48 -110 -48 -178c0 -103 48 -165 148 -165
c91 0 134 45 147 108h-132l23 143h335c-15 -273 -136 -407 -377 -407zM459 752c-104 0 -161 58 -162 153h115c3 -28 17 -46 48 -46s48 15 53 46h115c-15 -97 -80 -153 -169 -153z" />
    <glyph glyph-name="gbreve" unicode="&#x11f;" horiz-adv-x="648" 
d="M298 156c37 0 68 16 89 44c21 27 33 65 33 109c0 57 -33 96 -89 96c-39 0 -67 -18 -86 -45c-20 -28 -30 -65 -30 -102c0 -60 27 -102 83 -102zM554 30c-12 -76 -38 -132 -83 -169c-47 -36 -111 -55 -203 -55c-96 0 -164 22 -208 58s-64 84 -67 136h178
c5 -33 29 -68 92 -68c39 0 65 11 82 28c16 17 26 43 30 71l12 75c-33 -53 -86 -80 -157 -80c-59 0 -108 19 -143 56c-36 37 -57 92 -57 164c0 85 27 158 72 210c44 51 108 81 183 81c81 0 131 -31 156 -86l12 72h179zM365 587c-100 0 -162 58 -159 158h111
c3 -32 19 -48 50 -48c32 0 51 16 56 48h111c-13 -103 -77 -158 -169 -158z" />
    <glyph glyph-name="Gdotaccent" unicode="&#x120;" horiz-adv-x="796" 
d="M405 -12c-109 0 -198 28 -259 83c-63 53 -97 133 -97 236c0 120 42 224 114 299c71 75 172 119 291 119c84 0 162 -19 219 -60c57 -43 96 -109 100 -202h-204c-7 67 -44 101 -123 101c-60 0 -106 -30 -137 -77c-32 -47 -48 -110 -48 -178c0 -103 48 -165 148 -165
c91 0 134 45 147 108h-132l23 143h335c-15 -273 -136 -407 -377 -407zM455 757c-55 0 -95 38 -95 89c0 25 11 48 28 64s41 25 68 25s51 -9 68 -25c16 -16 27 -39 27 -64s-11 -48 -28 -64s-41 -25 -68 -25z" />
    <glyph glyph-name="gdotaccent" unicode="&#x121;" horiz-adv-x="648" 
d="M298 156c37 0 68 16 89 44c21 27 33 65 33 109c0 57 -33 96 -89 96c-39 0 -67 -18 -86 -45c-20 -28 -30 -65 -30 -102c0 -60 27 -102 83 -102zM554 30c-12 -76 -38 -132 -83 -169c-47 -36 -111 -55 -203 -55c-96 0 -164 22 -208 58s-64 84 -67 136h178
c5 -33 29 -68 92 -68c39 0 65 11 82 28c16 17 26 43 30 71l12 75c-33 -53 -86 -80 -157 -80c-59 0 -108 19 -143 56c-36 37 -57 92 -57 164c0 85 27 158 72 210c44 51 108 81 183 81c81 0 131 -31 156 -86l12 72h179zM361 579c-55 0 -95 37 -95 88c0 25 11 48 28 64
s41 26 68 26s51 -9 68 -25c16 -16 27 -39 27 -64c0 -52 -41 -89 -96 -89z" />
    <glyph glyph-name="uni0122" unicode="&#x122;" horiz-adv-x="788" 
d="M405 -12c-109 0 -198 28 -259 83c-63 53 -97 133 -97 236c0 120 42 224 114 299c71 75 172 119 291 119c84 0 162 -19 219 -60c57 -43 96 -109 100 -202h-204c-7 67 -44 101 -123 101c-60 0 -106 -30 -137 -77c-32 -47 -48 -110 -48 -178c0 -103 48 -165 148 -165
c91 0 134 45 147 108h-132l23 143h335c-15 -273 -136 -407 -377 -407zM232 -205l51 177l157 -19l-109 -185z" />
    <glyph glyph-name="uni0123" unicode="&#x123;" horiz-adv-x="640" 
d="M298 156c37 0 68 16 89 44c21 27 33 65 33 109c0 57 -33 96 -89 96c-39 0 -67 -18 -86 -45c-20 -28 -30 -65 -30 -102c0 -60 27 -102 83 -102zM554 30c-12 -76 -38 -132 -83 -169c-47 -36 -111 -55 -203 -55c-96 0 -164 22 -208 58s-64 84 -67 136h178
c5 -33 29 -68 92 -68c39 0 65 11 82 28c16 17 26 43 30 71l12 75c-33 -53 -86 -80 -157 -80c-59 0 -108 19 -143 56c-36 37 -57 92 -57 164c0 85 27 158 72 210c44 51 108 81 183 81c81 0 131 -31 156 -86l12 72h179zM477 743l-51 -177l-157 19l109 185z" />
    <glyph glyph-name="Hcircumflex" unicode="&#x124;" horiz-adv-x="792" 
d="M144 715h206l-44 -273h236l43 273h205l-113 -715h-205l44 282h-235l-44 -282h-206zM411 905h150l93 -146h-125l-53 49l-64 -49h-132z" />
    <glyph glyph-name="hcircumflex" unicode="&#x125;" horiz-adv-x="630" 
d="M134 753h179l-49 -313c36 56 88 97 173 97c49 0 93 -16 121 -52c27 -36 39 -91 27 -170l-50 -315h-179l47 302c11 60 -10 90 -59 90c-56 0 -93 -35 -104 -103l-46 -289h-179zM337 938h150l93 -146h-125l-53 49l-64 -49h-132z" />
    <glyph glyph-name="Hbar" unicode="&#x126;" horiz-adv-x="792" 
d="M68 617h60l16 98h206l-16 -98h235l16 98h205l-16 -98h61l-16 -96h-60l-82 -521h-205l44 282h-235l-44 -282h-206l82 521h-60zM542 442l12 79h-236l-12 -79h236z" />
    <glyph glyph-name="hbar" unicode="&#x127;" horiz-adv-x="630" 
d="M66 683h57l11 70h179l-11 -70h155l-15 -96h-155l-23 -147c36 56 88 97 173 97c49 0 93 -16 121 -52c27 -36 39 -91 27 -170l-50 -315h-179l47 302c11 64 -10 90 -59 90c-56 0 -93 -35 -104 -103l-46 -289h-179l93 587h-57z" />
    <glyph glyph-name="Itilde" unicode="&#x128;" horiz-adv-x="361" 
d="M148 715h207l-113 -715h-207zM331 758c-29 0 -51 9 -70 17s-34 17 -49 17c-17 0 -31 -13 -36 -33h-101c17 107 71 153 134 153c28 0 49 -8 69 -16c19 -9 36 -17 52 -17c17 0 29 11 36 32h101c-19 -105 -76 -153 -136 -153z" />
    <glyph glyph-name="itilde" unicode="&#x129;" horiz-adv-x="303" 
d="M103 523h178l-82 -523h-179zM274 587c-29 0 -50 8 -69 17c-19 8 -33 16 -48 16c-17 0 -30 -13 -35 -32h-97c17 105 65 156 128 156c28 0 49 -9 68 -17s35 -17 51 -17c17 0 28 11 35 32h97c-19 -105 -70 -155 -130 -155z" />
    <glyph glyph-name="Imacron" unicode="&#x12a;" horiz-adv-x="361" 
d="M148 715h207l-113 -715h-207zM113 878h322l-16 -107h-322z" />
    <glyph glyph-name="imacron" unicode="&#x12b;" horiz-adv-x="303" 
d="M100 712h245l-16 -100h-245zM103 523h178l-82 -523h-179z" />
    <glyph glyph-name="Ibreve" unicode="&#x12c;" horiz-adv-x="361" 
d="M148 715h207l-113 -715h-207zM265 752c-104 0 -161 58 -162 153h115c3 -28 17 -46 48 -46s48 15 53 46h115c-15 -97 -80 -153 -169 -153z" />
    <glyph glyph-name="ibreve" unicode="&#x12d;" horiz-adv-x="303" 
d="M103 523h178l-82 -523h-179zM208 587c-100 0 -162 58 -159 158h111c3 -32 19 -48 50 -48c32 0 51 16 56 48h111c-13 -103 -77 -158 -169 -158z" />
    <glyph glyph-name="Iogonek" unicode="&#x12e;" horiz-adv-x="361" 
d="M143 -182c-29 0 -58 5 -78 17c-21 12 -35 31 -35 62c0 27 13 49 32 65c19 17 43 30 64 38h-91l113 715h207l-111 -701c-37 -27 -68 -53 -68 -81c0 -16 10 -24 29 -24c11 0 20 1 28 5l-13 -82c-16 -7 -41 -14 -77 -14z" />
    <glyph glyph-name="iogonek" unicode="&#x12f;" horiz-adv-x="303" 
d="M103 523h178l-80 -510c-36 -25 -67 -51 -67 -80c0 -16 9 -24 28 -24c11 0 20 1 28 5l-13 -82c-16 -7 -40 -14 -77 -14c-28 0 -56 5 -77 17s-35 31 -35 62c0 27 13 49 32 65c17 17 42 30 63 38h-63zM212 574c-56 0 -96 38 -96 91c0 52 41 92 97 92s96 -39 96 -91
c0 -53 -41 -92 -97 -92z" />
    <glyph glyph-name="Idotaccent" unicode="&#x130;" horiz-adv-x="361" 
d="M148 715h207l-113 -715h-207zM262 757c-55 0 -95 38 -95 89c0 25 11 48 28 64s41 25 68 25s51 -9 68 -25c16 -16 27 -39 27 -64s-11 -48 -28 -64s-41 -25 -68 -25z" />
    <glyph glyph-name="dotlessi" unicode="&#x131;" horiz-adv-x="303" 
d="M103 523h178l-82 -523h-179z" />
    <glyph glyph-name="IJ" unicode="&#x132;" horiz-adv-x="812" 
d="M134 715h207l-113 -715h-207zM460 -9c-81 0 -125 17 -152 30l25 152c23 -11 52 -19 92 -19c52 0 88 23 99 88l75 473h206l-76 -482c-27 -168 -120 -242 -269 -242z" />
    <glyph glyph-name="ij" unicode="&#x133;" horiz-adv-x="303" 
d="M212 574c-56 0 -96 38 -96 91c0 52 41 92 97 92s96 -39 96 -91c0 -53 -41 -92 -97 -92zM103 523h178l-82 -523h-179zM242 -54c45 3 66 19 73 59l82 518h179l-85 -535c-8 -51 -27 -95 -67 -127c-41 -31 -105 -48 -201 -44zM506 574c-56 0 -96 38 -96 91c0 52 41 92 97 92
s96 -39 96 -91c0 -53 -41 -92 -97 -92z" />
    <glyph glyph-name="Jcircumflex" unicode="&#x134;" horiz-adv-x="486" 
d="M149 -9c-81 0 -125 17 -152 30l25 152c23 -11 52 -19 92 -19c52 0 88 23 99 88l75 473h206l-76 -482c-27 -168 -120 -242 -269 -242zM336 905h150l93 -146h-125l-53 49l-64 -49h-132z" />
    <glyph glyph-name="jcircumflex" unicode="&#x135;" horiz-adv-x="303" 
d="M-53 -54c45 3 66 19 73 59l82 518h179l-85 -535c-8 -51 -27 -95 -67 -127c-41 -31 -105 -48 -201 -44zM154 748h128l96 -163h-120l-53 56l-68 -56h-127z" />
    <glyph glyph-name="uni0136" unicode="&#x136;" horiz-adv-x="726" 
d="M144 715h206l-45 -284l264 284h220l-324 -342l213 -373h-221l-171 311l-49 -311h-206zM204 -205l51 177l157 -19l-109 -185z" />
    <glyph glyph-name="uni0137" unicode="&#x137;" horiz-adv-x="576" 
d="M134 753h179l-70 -439l175 209h194l-216 -242l140 -281h-193l-111 240l-38 -240h-179zM141 -205l51 177l157 -19l-109 -185z" />
    <glyph glyph-name="Lacute" unicode="&#x139;" horiz-adv-x="583" 
d="M144 715h206l-88 -556h270l-25 -159h-476zM236 905h188l-115 -146h-137z" />
    <glyph glyph-name="lacute" unicode="&#x13a;" horiz-adv-x="301" 
d="M138 753h179l-119 -753h-178zM219 938h188l-115 -146h-137z" />
    <glyph glyph-name="uni013B" unicode="&#x13b;" horiz-adv-x="575" 
d="M144 715h206l-88 -556h270l-25 -159h-476zM135 -205l51 177l157 -19l-109 -185z" />
    <glyph glyph-name="uni013C" unicode="&#x13c;" horiz-adv-x="293" 
d="M138 753h179l-119 -753h-178zM-25 -205l51 177l157 -19l-109 -185z" />
    <glyph glyph-name="Lcaron" unicode="&#x13d;" horiz-adv-x="583" 
d="M451 715h148l-87 -176h-104zM144 715h206l-88 -556h270l-25 -159h-476z" />
    <glyph glyph-name="lcaron" unicode="&#x13e;" horiz-adv-x="301" 
d="M138 753h179l-119 -753h-178zM362 753h132l-75 -174h-93z" />
    <glyph glyph-name="Ldot" unicode="&#x13f;" horiz-adv-x="609" 
d="M144 715h206l-88 -556h270l-25 -159h-476zM509 299c-29 0 -55 11 -72 30c-19 17 -30 43 -30 71s10 53 29 72c17 17 43 29 72 29s56 -12 76 -29c19 -19 30 -44 30 -72s-11 -54 -30 -71c-19 -19 -46 -30 -75 -30z" />
    <glyph glyph-name="ldot" unicode="&#x140;" horiz-adv-x="463" 
d="M138 753h179l-119 -753h-178zM390 258c-29 0 -55 11 -72 30c-19 17 -30 43 -30 71s10 53 29 72c17 17 43 29 72 29s56 -12 76 -29c19 -19 30 -44 30 -72s-11 -54 -30 -71c-19 -19 -46 -30 -75 -30z" />
    <glyph glyph-name="Lslash" unicode="&#x141;" horiz-adv-x="601" 
d="M39 339l68 22l56 354h205l-45 -284l190 62l-18 -112l-190 -62l-25 -160h270l-24 -159h-476l39 248l-66 -21z" />
    <glyph glyph-name="lslash" unicode="&#x142;" horiz-adv-x="341" 
d="M38 379l66 29l54 345h179l-41 -261l69 31l-19 -119l-69 -31l-59 -373h-178l45 289l-65 -28z" />
    <glyph glyph-name="Nacute" unicode="&#x143;" horiz-adv-x="785" 
d="M144 715h234l159 -402l64 402h182l-113 -715h-200l-186 449l-70 -449h-183zM465 905h188l-115 -146h-137z" />
    <glyph glyph-name="nacute" unicode="&#x144;" horiz-adv-x="630" 
d="M70 352c12 76 16 124 19 171h175c0 -27 -1 -58 -5 -89c37 60 93 103 178 103c49 0 93 -16 121 -52c27 -36 39 -91 27 -170l-50 -315h-179l47 302c11 60 -10 90 -59 90c-56 0 -93 -35 -104 -103l-46 -289h-179zM357 749h182l-125 -166h-130z" />
    <glyph glyph-name="uni0145" unicode="&#x145;" horiz-adv-x="777" 
d="M144 715h234l159 -402l64 402h182l-113 -715h-200l-186 449l-70 -449h-183zM219 -205l51 177l157 -19l-109 -185z" />
    <glyph glyph-name="uni0146" unicode="&#x146;" horiz-adv-x="620" 
d="M70 352c12 76 16 124 19 171h175c0 -27 -1 -58 -5 -89c37 60 93 103 178 103c49 0 93 -16 121 -52c27 -36 39 -91 27 -170l-50 -315h-179l47 302c11 60 -10 90 -59 90c-56 0 -93 -35 -104 -103l-46 -289h-179zM142 -205l51 177l157 -19l-109 -185z" />
    <glyph glyph-name="Ncaron" unicode="&#x147;" horiz-adv-x="785" 
d="M144 715h234l159 -402l64 402h182l-113 -715h-200l-186 449l-70 -449h-183zM552 759h-150l-92 146h124l53 -49l65 49h132z" />
    <glyph glyph-name="ncaron" unicode="&#x148;" horiz-adv-x="630" 
d="M70 352c12 76 16 124 19 171h175c0 -27 -1 -58 -5 -89c37 60 93 103 178 103c49 0 93 -16 121 -52c27 -36 39 -91 27 -170l-50 -315h-179l47 302c11 60 -10 90 -59 90c-56 0 -93 -35 -104 -103l-46 -289h-179zM412 585h-127l-97 163h120l53 -56l68 56h128z" />
    <glyph glyph-name="napostrophe" unicode="&#x149;" horiz-adv-x="749" 
d="M190 352c12 76 16 124 19 171h175c0 -27 -1 -58 -5 -89c37 60 93 103 178 103c49 0 93 -16 121 -52c27 -36 39 -91 27 -170l-50 -315h-179l47 302c11 60 -10 90 -59 90c-56 0 -93 -35 -104 -103l-46 -289h-179zM4 466l100 262l155 -53l-157 -247z" />
    <glyph glyph-name="Eng" unicode="&#x14a;" horiz-adv-x="785" 
d="M381 -38c45 0 74 17 87 53l-181 441l-71 -456h-185l113 715h233l158 -404l64 404h184l-111 -698c-21 -133 -102 -209 -257 -209c-69 0 -107 12 -134 24l23 145c21 -8 40 -15 77 -15z" />
    <glyph glyph-name="eng" unicode="&#x14b;" horiz-adv-x="630" 
d="M70 352c12 76 16 124 19 171h175c0 -27 -1 -58 -5 -89c37 60 93 103 178 103c49 0 93 -16 121 -52c27 -36 39 -91 27 -170l-52 -327c-8 -51 -26 -95 -67 -126s-104 -49 -201 -45l19 129c44 3 66 18 73 59l46 297c11 60 -10 90 -59 90c-56 0 -93 -35 -104 -103l-46 -289
h-179z" />
    <glyph glyph-name="Omacron" unicode="&#x14c;" horiz-adv-x="827" 
d="M808 409c0 -124 -42 -230 -114 -303c-73 -75 -177 -118 -300 -118c-95 0 -181 29 -244 82c-63 52 -102 131 -102 231c0 124 42 230 115 305c72 75 174 119 294 119c99 0 186 -28 250 -81c63 -55 101 -134 101 -235zM595 402c0 45 -11 86 -34 115c-24 29 -61 48 -110 48
c-63 0 -110 -30 -142 -77c-32 -48 -48 -112 -48 -179c0 -96 50 -160 147 -160c61 0 109 30 140 78c31 47 47 110 47 175zM329 878h322l-16 -107h-322z" />
    <glyph glyph-name="omacron" unicode="&#x14d;" horiz-adv-x="623" 
d="M294 -12c-71 0 -137 19 -185 59c-49 40 -81 100 -81 180c0 89 31 166 84 221s129 88 218 88c71 0 138 -19 187 -59c48 -40 79 -101 79 -182c0 -91 -31 -168 -84 -221c-53 -55 -129 -86 -218 -86zM297 121c40 0 70 20 90 52c19 32 29 77 29 129c0 57 -28 101 -89 101
c-39 0 -69 -19 -89 -51s-31 -76 -31 -127c0 -27 5 -53 20 -72c13 -20 35 -32 70 -32zM209 712h307l-15 -100h-308z" />
    <glyph glyph-name="Obreve" unicode="&#x14e;" horiz-adv-x="827" 
d="M808 409c0 -124 -42 -230 -114 -303c-73 -75 -177 -118 -300 -118c-95 0 -181 29 -244 82c-63 52 -102 131 -102 231c0 124 42 230 115 305c72 75 174 119 294 119c99 0 186 -28 250 -81c63 -55 101 -134 101 -235zM595 402c0 45 -11 86 -34 115c-24 29 -61 48 -110 48
c-63 0 -110 -30 -142 -77c-32 -48 -48 -112 -48 -179c0 -96 50 -160 147 -160c61 0 109 30 140 78c31 47 47 110 47 175zM481 752c-104 0 -161 58 -162 153h115c3 -28 17 -46 48 -46s48 15 53 46h115c-15 -97 -80 -153 -169 -153z" />
    <glyph glyph-name="obreve" unicode="&#x14f;" horiz-adv-x="623" 
d="M294 -12c-71 0 -137 19 -185 59c-49 40 -81 100 -81 180c0 89 31 166 84 221s129 88 218 88c71 0 138 -19 187 -59c48 -40 79 -101 79 -182c0 -91 -31 -168 -84 -221c-53 -55 -129 -86 -218 -86zM297 121c40 0 70 20 90 52c19 32 29 77 29 129c0 57 -28 101 -89 101
c-39 0 -69 -19 -89 -51s-31 -76 -31 -127c0 -27 5 -53 20 -72c13 -20 35 -32 70 -32zM347 587c-100 0 -162 58 -159 158h111c3 -32 19 -48 50 -48c32 0 51 16 56 48h111c-13 -103 -77 -158 -169 -158z" />
    <glyph glyph-name="Ohungarumlaut" unicode="&#x150;" horiz-adv-x="827" 
d="M808 409c0 -124 -42 -230 -114 -303c-73 -75 -177 -118 -300 -118c-95 0 -181 29 -244 82c-63 52 -102 131 -102 231c0 124 42 230 115 305c72 75 174 119 294 119c99 0 186 -28 250 -81c63 -55 101 -134 101 -235zM595 402c0 45 -11 86 -34 115c-24 29 -61 48 -110 48
c-63 0 -110 -30 -142 -77c-32 -48 -48 -112 -48 -179c0 -96 50 -160 147 -160c61 0 109 30 140 78c31 47 47 110 47 175zM369 905h153l-89 -146h-119zM563 905h154l-89 -146h-120z" />
    <glyph glyph-name="ohungarumlaut" unicode="&#x151;" horiz-adv-x="623" 
d="M294 -12c-71 0 -137 19 -185 59c-49 40 -81 100 -81 180c0 89 31 166 84 221s129 88 218 88c71 0 138 -19 187 -59c48 -40 79 -101 79 -182c0 -91 -31 -168 -84 -221c-53 -55 -129 -86 -218 -86zM297 121c40 0 70 20 90 52c19 32 29 77 29 129c0 57 -28 101 -89 101
c-39 0 -69 -19 -89 -51s-31 -76 -31 -127c0 -27 5 -53 20 -72c13 -20 35 -32 70 -32zM260 749h141l-97 -166h-107zM437 749h141l-97 -166h-106z" />
    <glyph glyph-name="OE" unicode="&#x152;" horiz-adv-x="992" 
d="M407 0c-239 0 -358 111 -359 300c0 131 42 234 115 306c73 71 178 109 303 109h543l-25 -158h-274l-19 -123h215l-22 -144h-216l-21 -132h291l-25 -158h-506zM465 558c-132 0 -204 -93 -204 -250c0 -100 49 -152 157 -152h26l64 402h-43z" />
    <glyph glyph-name="oe" unicode="&#x153;" horiz-adv-x="987" 
d="M587 216c0 -60 26 -105 98 -105c52 0 81 23 93 62h169c-27 -121 -126 -185 -267 -185c-81 0 -150 25 -193 77c-49 -49 -114 -77 -193 -77c-71 0 -137 20 -185 60c-49 40 -81 100 -81 180c0 89 31 166 84 221s129 87 218 87c76 0 144 -27 189 -80c48 51 114 81 190 81
c85 0 154 -28 198 -77c44 -51 63 -123 48 -215l-4 -25h-364v-4zM297 121c40 0 70 20 90 52c19 32 29 77 29 129c0 57 -28 101 -89 101c-39 0 -69 -19 -89 -51s-31 -76 -31 -127c0 -27 5 -53 20 -72c13 -20 35 -32 70 -32zM709 419c-47 0 -89 -26 -110 -98h188
c5 59 -15 98 -78 98z" />
    <glyph glyph-name="Racute" unicode="&#x154;" horiz-adv-x="705" 
d="M144 715h272c175 0 263 -76 262 -203c0 -120 -69 -192 -165 -217l135 -295h-208l-117 256h-48l-40 -256h-204zM369 389c69 0 109 30 109 98c1 49 -29 74 -89 74h-65l-27 -172h72zM382 905h188l-115 -146h-137z" />
    <glyph glyph-name="racute" unicode="&#x155;" horiz-adv-x="437" 
d="M70 352c12 76 17 124 18 171h175c0 -27 -2 -68 -7 -111c43 83 98 119 190 118l-26 -167c-111 4 -173 -29 -189 -132l-37 -231h-179zM295 749h182l-125 -166h-130z" />
    <glyph glyph-name="uni0156" unicode="&#x156;" horiz-adv-x="697" 
d="M144 715h272c175 0 263 -76 262 -203c0 -120 -69 -192 -165 -217l135 -295h-208l-117 256h-48l-40 -256h-204zM369 389c69 0 109 30 109 98c1 49 -29 74 -89 74h-65l-27 -172h72zM194 -205l51 177l157 -19l-109 -185z" />
    <glyph glyph-name="uni0157" unicode="&#x157;" horiz-adv-x="429" 
d="M70 352c12 76 17 124 18 171h175c0 -27 -2 -68 -7 -111c43 83 98 119 190 118l-26 -167c-111 4 -173 -29 -189 -132l-37 -231h-179zM-31 -205l51 177l157 -19l-109 -185z" />
    <glyph glyph-name="Rcaron" unicode="&#x158;" horiz-adv-x="705" 
d="M144 715h272c175 0 263 -76 262 -203c0 -120 -69 -192 -165 -217l135 -295h-208l-117 256h-48l-40 -256h-204zM369 389c69 0 109 30 109 98c1 49 -29 74 -89 74h-65l-27 -172h72zM466 759h-150l-92 146h124l53 -49l65 49h132z" />
    <glyph glyph-name="rcaron" unicode="&#x159;" horiz-adv-x="437" 
d="M70 352c12 76 17 124 18 171h175c0 -27 -2 -68 -7 -111c43 83 98 119 190 118l-26 -167c-111 4 -173 -29 -189 -132l-37 -231h-179zM347 585h-127l-97 163h120l53 -56l68 56h128z" />
    <glyph glyph-name="Sacute" unicode="&#x15a;" horiz-adv-x="655" 
d="M318 -12c-195 0 -302 90 -301 239h193c1 -24 8 -48 27 -65c17 -17 45 -28 86 -28c63 -1 94 26 94 73c0 35 -25 53 -101 69c-87 19 -147 42 -184 75s-53 77 -53 137c0 67 26 126 75 169s121 68 212 68c84 0 152 -18 199 -54c47 -37 72 -93 72 -169h-187
c-4 55 -35 77 -90 77c-56 0 -83 -26 -83 -65c0 -33 22 -48 101 -65c80 -17 140 -40 180 -73s60 -78 60 -139c0 -73 -26 -135 -77 -179s-126 -70 -223 -70zM372 905h188l-115 -146h-137z" />
    <glyph glyph-name="sacute" unicode="&#x15b;" horiz-adv-x="521" 
d="M235 -13c-72 0 -130 14 -170 45c-41 29 -65 74 -65 134h166c3 -35 21 -59 74 -59c41 0 61 14 61 42c0 13 -5 22 -17 30c-13 7 -36 13 -72 20c-119 23 -171 68 -171 157c0 60 25 106 68 137c41 29 99 44 166 44c64 0 118 -12 157 -39s62 -70 66 -130h-163
c-3 29 -24 52 -65 52c-40 0 -60 -12 -60 -39s25 -35 82 -48c65 -13 112 -30 143 -55c29 -25 43 -61 43 -110c0 -61 -25 -107 -68 -136c-44 -31 -104 -45 -175 -45zM293 749h182l-125 -166h-130z" />
    <glyph glyph-name="Scircumflex" unicode="&#x15c;" horiz-adv-x="655" 
d="M318 -12c-195 0 -302 90 -301 239h193c1 -24 8 -48 27 -65c17 -17 45 -28 86 -28c63 -1 94 26 94 73c0 35 -25 53 -101 69c-87 19 -147 42 -184 75s-53 77 -53 137c0 67 26 126 75 169s121 68 212 68c84 0 152 -18 199 -54c47 -37 72 -93 72 -169h-187
c-4 55 -35 77 -90 77c-56 0 -83 -26 -83 -65c0 -33 22 -48 101 -65c80 -17 140 -40 180 -73s60 -78 60 -139c0 -73 -26 -135 -77 -179s-126 -70 -223 -70zM331 905h150l93 -146h-125l-53 49l-64 -49h-132z" />
    <glyph glyph-name="scircumflex" unicode="&#x15d;" horiz-adv-x="521" 
d="M235 -13c-72 0 -130 14 -170 45c-41 29 -65 74 -65 134h166c3 -35 21 -59 74 -59c41 0 61 14 61 42c0 13 -5 22 -17 30c-13 7 -36 13 -72 20c-119 23 -171 68 -171 157c0 60 25 106 68 137c41 29 99 44 166 44c64 0 118 -12 157 -39s62 -70 66 -130h-163
c-3 29 -24 52 -65 52c-40 0 -60 -12 -60 -39s25 -35 82 -48c65 -13 112 -30 143 -55c29 -25 43 -61 43 -110c0 -61 -25 -107 -68 -136c-44 -31 -104 -45 -175 -45zM249 748h128l96 -163h-120l-53 56l-68 -56h-127z" />
    <glyph glyph-name="uni015E" unicode="&#x15e;" horiz-adv-x="647" 
d="M255 -226c-64 0 -121 28 -126 93h85c3 -15 11 -28 35 -28c15 0 33 9 33 33c0 19 -11 28 -32 28c-15 0 -22 -5 -29 -10l-34 38l52 65c-148 20 -227 105 -226 234h193c3 -49 30 -93 113 -93c63 -1 94 26 94 73c0 35 -25 53 -101 69c-174 38 -237 92 -237 212
c0 134 105 237 287 237c169 0 271 -71 271 -223h-187c-4 55 -35 77 -90 77c-56 0 -83 -26 -83 -65c0 -33 22 -48 101 -65c160 -35 240 -89 240 -212c0 -146 -105 -249 -300 -249h-7l-27 -33c53 4 98 -24 98 -79c0 -69 -55 -102 -123 -102z" />
    <glyph glyph-name="uni015F" unicode="&#x15f;" horiz-adv-x="513" 
d="M194 -226c-64 0 -121 28 -126 93h85c3 -15 11 -28 35 -28c15 0 33 9 33 33c0 19 -11 28 -32 28c-15 0 -22 -5 -29 -10l-34 38l50 63c-112 13 -179 71 -180 175h166c3 -35 21 -59 74 -59c41 0 61 14 61 42c0 26 -17 37 -89 50c-119 23 -171 68 -171 157
c0 122 102 181 234 181c129 0 215 -48 223 -169h-163c-3 29 -24 52 -65 52c-40 0 -60 -13 -60 -39c0 -27 25 -35 82 -48c132 -27 186 -65 186 -165c0 -117 -96 -178 -229 -181l-26 -32c53 4 98 -24 98 -79c0 -69 -55 -102 -123 -102z" />
    <glyph glyph-name="Scaron" unicode="&#x160;" horiz-adv-x="655" 
d="M318 -12c-195 0 -302 90 -301 239h193c1 -24 8 -48 27 -65c17 -17 45 -28 86 -28c63 -1 94 26 94 73c0 35 -25 53 -101 69c-87 19 -147 42 -184 75s-53 77 -53 137c0 67 26 126 75 169s121 68 212 68c84 0 152 -18 199 -54c47 -37 72 -93 72 -169h-187
c-4 55 -35 77 -90 77c-56 0 -83 -26 -83 -65c0 -33 22 -48 101 -65c80 -17 140 -40 180 -73s60 -78 60 -139c0 -73 -26 -135 -77 -179s-126 -70 -223 -70zM446 759h-150l-92 146h124l53 -49l65 49h132z" />
    <glyph glyph-name="scaron" unicode="&#x161;" horiz-adv-x="521" 
d="M235 -13c-72 0 -130 14 -170 45c-41 29 -65 74 -65 134h166c3 -35 21 -59 74 -59c41 0 61 14 61 42c0 13 -5 22 -17 30c-13 7 -36 13 -72 20c-119 23 -171 68 -171 157c0 60 25 106 68 137c41 29 99 44 166 44c64 0 118 -12 157 -39s62 -70 66 -130h-163
c-3 29 -24 52 -65 52c-40 0 -60 -12 -60 -39s25 -35 82 -48c65 -13 112 -30 143 -55c29 -25 43 -61 43 -110c0 -61 -25 -107 -68 -136c-44 -31 -104 -45 -175 -45zM346 585h-127l-97 163h120l53 -56l68 56h128z" />
    <glyph glyph-name="Tcommaaccent" unicode="&#x162;" horiz-adv-x="626" 
d="M255 557h-185l26 158h576l-26 -158h-185l-87 -557h-206zM144 -205l51 177l157 -19l-109 -185z" />
    <glyph glyph-name="tcommaaccent" unicode="&#x163;" horiz-adv-x="393" 
d="M228 -12c-61 0 -107 15 -135 47s-38 81 -27 150l34 216h-63l19 122h63l18 109h179l-17 -109h101l-18 -122h-102l-34 -211c-7 -45 10 -60 46 -60c15 0 33 2 50 9l-21 -135c-23 -9 -53 -16 -93 -16zM50 -205l51 177l157 -19l-109 -185z" />
    <glyph glyph-name="Tcaron" unicode="&#x164;" horiz-adv-x="626" 
d="M255 557h-185l26 158h576l-26 -158h-185l-87 -557h-206zM457 759h-150l-92 146h124l53 -49l65 49h132z" />
    <glyph glyph-name="tcaron" unicode="&#x165;" horiz-adv-x="393" 
d="M228 -12c-61 0 -107 15 -135 47s-38 81 -27 150l34 216h-63l19 122h63l18 109h179l-17 -109h101l-18 -122h-102l-34 -211c-7 -45 10 -60 46 -60c15 0 33 2 50 9l-21 -135c-23 -9 -53 -16 -93 -16zM391 753h132l-75 -174h-93z" />
    <glyph glyph-name="Tbar" unicode="&#x166;" horiz-adv-x="626" 
d="M106 407h125l24 150h-185l26 158h576l-26 -158h-185l-24 -150h127l-20 -128h-127l-43 -279h-206l43 279h-125z" />
    <glyph glyph-name="tbar" unicode="&#x167;" horiz-adv-x="393" 
d="M26 332h63l11 69h-63l19 122h63l18 109h179l-17 -109h101l-18 -122h-102l-11 -69h102l-17 -99h-101l-7 -43c-7 -45 10 -60 46 -60c15 0 33 2 50 9l-21 -135c-23 -9 -53 -16 -93 -16c-61 0 -107 15 -135 47s-38 81 -27 150l7 48h-63z" />
    <glyph glyph-name="Utilde" unicode="&#x168;" horiz-adv-x="772" 
d="M373 -12c-108 0 -192 27 -244 80s-72 133 -55 240l65 407h205l-65 -413c-17 -104 12 -153 97 -153c40 0 68 11 88 35c19 23 29 58 37 105l67 426h207l-70 -444c-31 -193 -135 -283 -332 -283zM524 758c-29 0 -51 9 -70 17s-34 17 -49 17c-17 0 -31 -13 -36 -33h-101
c17 107 71 153 134 153c28 0 49 -8 69 -16c19 -9 36 -17 52 -17c17 0 29 11 36 32h101c-19 -105 -76 -153 -136 -153z" />
    <glyph glyph-name="utilde" unicode="&#x169;" horiz-adv-x="629" 
d="M554 163c-11 -69 -16 -119 -13 -163h-175c-3 24 -2 48 1 79c-39 -53 -87 -91 -166 -91c-55 0 -101 16 -129 52c-29 35 -41 89 -29 168l50 315h179l-49 -312c-9 -59 10 -90 57 -90c56 0 93 35 104 104l47 298h179zM422 587c-29 0 -50 8 -69 17c-19 8 -33 16 -48 16
c-17 0 -30 -13 -35 -32h-97c17 105 65 156 128 156c28 0 49 -9 68 -17s35 -17 51 -17c17 0 28 11 35 32h97c-19 -105 -70 -155 -130 -155z" />
    <glyph glyph-name="Umacron" unicode="&#x16a;" horiz-adv-x="772" 
d="M373 -12c-108 0 -192 27 -244 80s-72 133 -55 240l65 407h205l-65 -413c-17 -104 12 -153 97 -153c40 0 68 11 88 35c19 23 29 58 37 105l67 426h207l-70 -444c-31 -193 -135 -283 -332 -283zM319 878h322l-16 -107h-322z" />
    <glyph glyph-name="umacron" unicode="&#x16b;" horiz-adv-x="629" 
d="M554 163c-11 -69 -16 -119 -13 -163h-175c-3 24 -2 48 1 79c-39 -53 -87 -91 -166 -91c-55 0 -101 16 -129 52c-29 35 -41 89 -29 168l50 315h179l-49 -312c-9 -59 10 -90 57 -90c56 0 93 35 104 104l47 298h179zM217 712h307l-15 -100h-308z" />
    <glyph glyph-name="Ubreve" unicode="&#x16c;" horiz-adv-x="772" 
d="M373 -12c-108 0 -192 27 -244 80s-72 133 -55 240l65 407h205l-65 -413c-17 -104 12 -153 97 -153c40 0 68 11 88 35c19 23 29 58 37 105l67 426h207l-70 -444c-31 -193 -135 -283 -332 -283zM464 752c-104 0 -161 58 -162 153h115c3 -28 17 -46 48 -46s48 15 53 46h115
c-15 -97 -80 -153 -169 -153z" />
    <glyph glyph-name="ubreve" unicode="&#x16d;" horiz-adv-x="629" 
d="M554 163c-11 -69 -16 -119 -13 -163h-175c-3 24 -2 48 1 79c-39 -53 -87 -91 -166 -91c-55 0 -101 16 -129 52c-29 35 -41 89 -29 168l50 315h179l-49 -312c-9 -59 10 -90 57 -90c56 0 93 35 104 104l47 298h179zM365 587c-100 0 -162 58 -159 158h111
c3 -32 19 -48 50 -48c32 0 51 16 56 48h111c-13 -103 -77 -158 -169 -158z" />
    <glyph glyph-name="Uring" unicode="&#x16e;" horiz-adv-x="772" 
d="M373 -12c-108 0 -192 27 -244 80s-72 133 -55 240l65 407h205l-65 -413c-17 -104 12 -153 97 -153c40 0 68 11 88 35c19 23 29 58 37 105l67 426h207l-70 -444c-31 -193 -135 -283 -332 -283zM464 790c27 0 47 20 47 51s-18 49 -45 49c-28 0 -47 -19 -47 -50
s18 -50 45 -50zM464 724c-32 0 -63 13 -84 34s-35 50 -35 82s13 61 36 82c21 21 52 34 85 34c32 0 63 -13 84 -33c21 -21 35 -50 35 -82s-14 -62 -35 -82c-23 -21 -53 -35 -86 -35z" />
    <glyph glyph-name="uring" unicode="&#x16f;" horiz-adv-x="629" 
d="M554 163c-11 -69 -16 -119 -13 -163h-175c-3 24 -2 48 1 79c-39 -53 -87 -91 -166 -91c-55 0 -101 16 -129 52c-29 35 -41 89 -29 168l50 315h179l-49 -312c-9 -59 10 -90 57 -90c56 0 93 35 104 104l47 298h179zM357 642c27 0 47 20 47 51c0 29 -18 50 -45 50
s-47 -21 -47 -52c0 -29 18 -49 45 -49zM357 578c-32 0 -62 13 -83 33s-34 48 -34 80s14 61 35 82s52 34 84 34s62 -13 83 -33c21 -21 34 -49 34 -81s-14 -61 -35 -81c-21 -21 -52 -34 -84 -34z" />
    <glyph glyph-name="Uhungarumlaut" unicode="&#x170;" horiz-adv-x="772" 
d="M373 -12c-108 0 -192 27 -244 80s-72 133 -55 240l65 407h205l-65 -413c-17 -104 12 -153 97 -153c40 0 68 11 88 35c19 23 29 58 37 105l67 426h207l-70 -444c-31 -193 -135 -283 -332 -283zM358 905h153l-89 -146h-119zM552 905h154l-89 -146h-120z" />
    <glyph glyph-name="uhungarumlaut" unicode="&#x171;" horiz-adv-x="629" 
d="M554 163c-11 -69 -16 -119 -13 -163h-175c-3 24 -2 48 1 79c-39 -53 -87 -91 -166 -91c-55 0 -101 16 -129 52c-29 35 -41 89 -29 168l50 315h179l-49 -312c-9 -59 10 -90 57 -90c56 0 93 35 104 104l47 298h179zM272 749h141l-97 -166h-107zM449 749h141l-97 -166h-106z
" />
    <glyph glyph-name="Uogonek" unicode="&#x172;" horiz-adv-x="772" 
d="M374 -182c-29 0 -58 5 -78 17c-21 12 -35 31 -35 62c0 44 35 74 72 93c-96 5 -168 36 -213 89c-45 52 -62 129 -46 229l65 407h205l-65 -413c-17 -104 10 -153 97 -153c80 0 110 45 125 140l67 426h207l-70 -444c-11 -67 -29 -121 -60 -164c-32 -43 -74 -75 -134 -99
c-20 -8 -47 -16 -67 -27c-21 -11 -37 -27 -37 -48c0 -16 10 -24 29 -24c11 0 20 1 28 5l-13 -82c-16 -7 -41 -14 -77 -14z" />
    <glyph glyph-name="uogonek" unicode="&#x173;" horiz-adv-x="629" 
d="M554 163c-11 -69 -15 -119 -12 -156c-27 -21 -57 -45 -57 -74c0 -16 10 -24 29 -24c11 0 20 1 28 5l-13 -82c-16 -7 -41 -14 -77 -14c-29 0 -58 5 -78 17c-21 12 -35 31 -35 62c0 27 13 49 32 65c17 17 41 30 64 38h-69c-3 24 -1 66 2 97c-39 -64 -96 -109 -180 -109
c-49 0 -92 16 -119 52c-27 35 -38 89 -26 168l50 315h179l-49 -312c-9 -59 10 -90 57 -90c56 0 93 35 104 104l47 298h179z" />
    <glyph glyph-name="Wcircumflex" unicode="&#x174;" horiz-adv-x="994" 
d="M83 715h208l20 -454l172 454h173l40 -458l168 458h189l-285 -715h-201l-41 436l-176 -436h-207zM512 905h150l93 -146h-125l-53 49l-64 -49h-132z" />
    <glyph glyph-name="wcircumflex" unicode="&#x175;" horiz-adv-x="838" 
d="M52 523h182l27 -314l131 314h145l29 -314l128 314h174l-244 -523h-172l-29 293l-125 -293h-175zM420 748h128l96 -163h-120l-53 56l-68 -56h-127z" />
    <glyph glyph-name="Ycircumflex" unicode="&#x176;" horiz-adv-x="686" 
d="M249 307l-168 408h214l86 -238l157 238h205l-289 -419l-46 -296h-207zM358 905h150l93 -146h-125l-53 49l-64 -49h-132z" />
    <glyph glyph-name="ycircumflex" unicode="&#x177;" horiz-adv-x="585" 
d="M177 59l-127 464h186l60 -281l141 281h178l-386 -698h-179zM297 748h128l96 -163h-120l-53 56l-68 -56h-127z" />
    <glyph glyph-name="Ydieresis" unicode="&#x178;" horiz-adv-x="686" 
d="M249 307l-168 408h214l86 -238l157 238h205l-289 -419l-46 -296h-207zM317 758c-24 0 -45 9 -60 24c-16 15 -25 36 -25 59s9 44 25 60c15 15 36 24 60 24c48 0 86 -36 86 -83s-38 -84 -86 -84zM540 758c-48 0 -85 36 -85 83c0 23 9 44 25 60c15 15 36 24 60 24
c48 0 86 -36 86 -83s-38 -84 -86 -84z" />
    <glyph glyph-name="Zacute" unicode="&#x179;" horiz-adv-x="633" 
d="M-22 23l386 535h-264l25 157h560l-4 -22l-384 -535h280l-25 -158h-577zM380 905h188l-115 -146h-137z" />
    <glyph glyph-name="zacute" unicode="&#x17a;" horiz-adv-x="513" 
d="M-26 18l281 371h-199l20 134h460l-3 -19l-286 -370h216l-21 -134h-470zM311 749h182l-125 -166h-130z" />
    <glyph glyph-name="Zdotaccent" unicode="&#x17b;" horiz-adv-x="633" 
d="M-22 23l386 535h-264l25 157h560l-4 -22l-384 -535h280l-25 -158h-577zM402 757c-55 0 -95 38 -95 89c0 25 11 48 28 64s41 25 68 25s51 -9 68 -25c16 -16 27 -39 27 -64s-11 -48 -28 -64s-41 -25 -68 -25z" />
    <glyph glyph-name="zdotaccent" unicode="&#x17c;" horiz-adv-x="513" 
d="M-26 18l281 371h-199l20 134h460l-3 -19l-286 -370h216l-21 -134h-470zM311 579c-55 0 -95 37 -95 88c0 25 11 48 28 64s41 26 68 26s51 -9 68 -25c16 -16 27 -39 27 -64c0 -52 -41 -89 -96 -89z" />
    <glyph glyph-name="Zcaron" unicode="&#x17d;" horiz-adv-x="633" 
d="M-22 23l386 535h-264l25 157h560l-4 -22l-384 -535h280l-25 -158h-577zM469 759h-150l-92 146h124l53 -49l65 49h132z" />
    <glyph glyph-name="zcaron" unicode="&#x17e;" horiz-adv-x="513" 
d="M-26 18l281 371h-199l20 134h460l-3 -19l-286 -370h216l-21 -134h-470zM365 585h-127l-97 163h120l53 -56l68 56h128z" />
    <glyph glyph-name="uni0192" unicode="&#x192;" horiz-adv-x="447" 
d="M51 414h86l24 125c24 134 121 186 233 186c44 0 65 -5 89 -13l-22 -132c-15 5 -27 7 -51 7c-39 0 -67 -21 -75 -66l-20 -107h116l-19 -121h-120l-89 -475h-177l89 475h-83z" />
    <glyph glyph-name="Aringacute" unicode="&#x1fa;" horiz-adv-x="746" 
d="M463 133h-237l-59 -133h-196l342 715h265l114 -715h-212zM288 274h157l-35 275zM449 807c27 0 47 20 47 51s-18 49 -45 49c-28 0 -47 -19 -47 -50s18 -50 45 -50zM449 741c-32 0 -63 13 -84 34s-35 50 -35 82s13 61 36 82c21 21 52 34 85 34c32 0 63 -13 84 -33
c21 -21 35 -50 35 -82s-14 -62 -35 -82c-23 -21 -53 -35 -86 -35zM459 1137h188l-115 -146h-137z" />
    <glyph glyph-name="aringacute" unicode="&#x1fb;" horiz-adv-x="586" 
d="M177 -12c-48 0 -89 13 -118 38c-31 25 -48 60 -48 107c0 68 26 114 74 143c48 28 117 40 201 40h77l2 14c8 49 -3 81 -60 81c-48 0 -68 -27 -76 -62h-168c27 129 119 188 252 188c168 0 251 -73 226 -229l-23 -145c-11 -68 -15 -119 -8 -163h-173c-4 23 -4 44 -3 65
c-32 -43 -78 -77 -155 -77zM248 108c49 0 87 28 94 75l5 32h-56c-72 0 -102 -15 -102 -58c0 -27 20 -49 59 -49zM347 636c27 0 47 20 47 51c0 29 -18 50 -45 50s-47 -21 -47 -52c0 -29 18 -49 45 -49zM347 572c-32 0 -62 13 -83 33s-34 48 -34 80s14 61 35 82s52 34 84 34
s62 -13 83 -33c21 -21 34 -49 34 -81s-14 -61 -35 -81c-21 -21 -52 -34 -84 -34zM359 975h188l-115 -146h-137z" />
    <glyph glyph-name="AEacute" unicode="&#x1fc;" horiz-adv-x="1010" 
d="M398 715h629l-25 -158h-282l-20 -123h225l-23 -144h-224l-21 -132h300l-25 -158h-504l23 146h-195l-84 -146h-199zM335 284h138l43 273h-23zM687 905h188l-115 -146h-137z" />
    <glyph glyph-name="aeacute" unicode="&#x1fd;" horiz-adv-x="914" 
d="M519 216c0 -60 24 -105 96 -105c52 0 78 23 90 62h169c-27 -121 -123 -185 -264 -185c-100 0 -173 32 -213 97c-16 -27 -38 -51 -69 -68c-32 -17 -72 -29 -127 -29c-113 0 -190 53 -190 149c0 68 28 114 76 142s118 40 202 40h75l2 13c7 47 -5 79 -62 79
c-48 0 -71 -27 -79 -62h-168c12 65 44 112 89 143s102 45 166 45c80 0 133 -20 164 -60c47 39 104 60 168 60c84 0 150 -25 193 -76c41 -49 58 -122 45 -215l-4 -25h-359v-5zM639 419c-47 0 -89 -28 -109 -100h185c4 59 -16 100 -76 100zM248 108c49 0 87 27 95 79l5 31h-58
c-72 0 -101 -16 -101 -61c0 -29 20 -49 59 -49zM500 749h182l-125 -166h-130z" />
    <glyph glyph-name="Oslashacute" unicode="&#x1fe;" horiz-adv-x="827" 
d="M39 26l77 78c-43 51 -68 117 -68 197c0 124 42 230 115 305c72 75 174 119 294 119c81 0 154 -20 214 -57l70 72l57 -58l-65 -66c47 -52 75 -122 75 -207c0 -124 -42 -230 -114 -303c-73 -75 -177 -118 -300 -118c-83 0 -158 21 -218 62l-80 -82zM601 401
c0 28 -3 51 -10 70l-285 -290c25 -21 59 -32 102 -32c63 0 111 28 144 75c32 45 49 109 49 177zM256 310c0 -21 2 -40 6 -57l281 286c-24 17 -55 26 -92 26c-63 0 -112 -29 -145 -76s-50 -111 -50 -179zM456 905h188l-115 -146h-137z" />
    <glyph glyph-name="oslashacute" unicode="&#x1ff;" horiz-adv-x="623" 
d="M15 9l65 67c-32 39 -52 88 -52 152c0 89 31 166 84 221s129 88 218 88c59 0 113 -14 158 -41l65 67l50 -48l-62 -64c35 -39 55 -90 55 -157c0 -91 -31 -168 -84 -221c-53 -55 -129 -85 -218 -85c-60 0 -115 14 -162 42l-67 -69zM298 119c40 0 72 20 93 52
c20 32 31 77 31 129c0 9 -1 18 -2 26l-185 -190c16 -11 36 -17 63 -17zM201 228c0 -9 0 -18 1 -26l182 187c-15 9 -33 15 -56 15c-40 0 -73 -18 -94 -49c-21 -32 -33 -75 -33 -127zM342 749h182l-125 -166h-130z" />
    <glyph glyph-name="uni0218" unicode="&#x218;" horiz-adv-x="647" 
d="M318 -12c-195 0 -302 90 -301 239h193c1 -24 8 -48 27 -65c17 -17 45 -28 86 -28c63 -1 94 26 94 73c0 35 -25 53 -101 69c-87 19 -147 42 -184 75s-53 77 -53 137c0 67 26 126 75 169s121 68 212 68c84 0 152 -18 199 -54c47 -37 72 -93 72 -169h-187
c-4 55 -35 77 -90 77c-56 0 -83 -26 -83 -65c0 -33 22 -48 101 -65c80 -17 140 -40 180 -73s60 -78 60 -139c0 -73 -26 -135 -77 -179s-126 -70 -223 -70zM155 -205l51 177l157 -19l-109 -185z" />
    <glyph glyph-name="uni0219" unicode="&#x219;" horiz-adv-x="513" 
d="M235 -13c-72 0 -130 14 -170 45c-41 29 -65 74 -65 134h166c3 -35 21 -59 74 -59c41 0 61 14 61 42c0 13 -5 22 -17 30c-13 7 -36 13 -72 20c-119 23 -171 68 -171 157c0 60 25 106 68 137c41 29 99 44 166 44c64 0 118 -12 157 -39s62 -70 66 -130h-163
c-3 29 -24 52 -65 52c-40 0 -60 -12 -60 -39s25 -35 82 -48c65 -13 112 -30 143 -55c29 -25 43 -61 43 -110c0 -61 -25 -107 -68 -136c-44 -31 -104 -45 -175 -45zM89 -205l51 177l157 -19l-109 -185z" />
    <glyph glyph-name="uni021A" unicode="&#x21a;" horiz-adv-x="618" 
d="M255 557h-185l26 158h576l-26 -158h-185l-87 -557h-206zM144 -205l51 177l157 -19l-109 -185z" />
    <glyph glyph-name="uni021B" unicode="&#x21b;" horiz-adv-x="385" 
d="M228 -12c-61 0 -107 15 -135 47s-38 81 -27 150l34 216h-63l19 122h63l18 109h179l-17 -109h101l-18 -122h-102l-34 -211c-7 -45 10 -60 46 -60c15 0 33 2 50 9l-21 -135c-23 -9 -53 -16 -93 -16zM50 -205l51 177l157 -19l-109 -185z" />
    <glyph glyph-name="uni0237" unicode="&#x237;" horiz-adv-x="303" 
d="M-53 -54c45 3 66 19 73 59l82 518h179l-85 -535c-8 -51 -27 -95 -67 -127c-41 -31 -105 -48 -201 -44z" />
    <glyph glyph-name="circumflex" unicode="&#x2c6;" horiz-adv-x="408" 
d="M214 748h128l96 -163h-120l-53 56l-68 -56h-127z" />
    <glyph glyph-name="caron" unicode="&#x2c7;" horiz-adv-x="408" 
d="M319 585h-127l-97 163h120l53 -56l68 56h128z" />
    <glyph glyph-name="breve" unicode="&#x2d8;" horiz-adv-x="408" 
d="M269 587c-100 0 -162 58 -159 158h111c3 -32 19 -48 50 -48c32 0 51 16 56 48h111c-13 -103 -77 -158 -169 -158z" />
    <glyph glyph-name="dotaccent" unicode="&#x2d9;" horiz-adv-x="408" 
d="M267 579c-55 0 -95 37 -95 88c0 25 11 48 28 64s41 26 68 26s51 -9 68 -25c16 -16 27 -39 27 -64c0 -52 -41 -89 -96 -89z" />
    <glyph glyph-name="ring" unicode="&#x2da;" horiz-adv-x="408" 
d="M270 642c27 0 47 20 47 51c0 29 -18 50 -45 50s-47 -21 -47 -52c0 -29 18 -49 45 -49zM270 578c-32 0 -62 13 -83 33s-34 48 -34 80s14 61 35 82s52 34 84 34s62 -13 83 -33c21 -21 34 -49 34 -81s-14 -61 -35 -81c-21 -21 -52 -34 -84 -34z" />
    <glyph glyph-name="ogonek" unicode="&#x2db;" horiz-adv-x="408" 
d="M145 -182c-28 0 -57 5 -78 17s-35 31 -35 62c0 27 13 49 32 65c19 17 42 30 65 38h102c-11 -7 -23 -16 -34 -28c-11 -11 -19 -24 -19 -39c0 -16 10 -24 29 -24c11 0 20 1 28 5l-13 -82c-16 -7 -41 -14 -77 -14z" />
    <glyph glyph-name="tilde" unicode="&#x2dc;" horiz-adv-x="408" 
d="M326 587c-29 0 -50 8 -69 17c-19 8 -33 16 -48 16c-17 0 -30 -13 -35 -32h-97c17 105 65 156 128 156c28 0 49 -9 68 -17s35 -17 51 -17c17 0 28 11 35 32h97c-19 -105 -70 -155 -130 -155z" />
    <glyph glyph-name="hungarumlaut" unicode="&#x2dd;" horiz-adv-x="408" 
d="M169 749h141l-97 -166h-107zM346 749h141l-97 -166h-106z" />
    <glyph glyph-name="uni037E" unicode="&#x37e;" horiz-adv-x="321" 
d="M-23 -80l106 262l158 -59l-165 -247zM195 275c-60 0 -102 44 -102 101c0 28 10 53 29 72c17 17 43 29 72 29s56 -12 76 -29c19 -19 30 -44 30 -72c0 -57 -45 -101 -105 -101z" />
    <glyph glyph-name="tonos" unicode="&#x384;" horiz-adv-x="400" 
d="M255 749h182l-125 -166h-130z" />
    <glyph glyph-name="dieresistonos" unicode="&#x385;" horiz-adv-x="400" 
d="M235 770h135l-102 -178h-98zM424 587c-43 0 -75 33 -75 74c0 40 32 74 75 74s76 -34 76 -74c0 -41 -33 -74 -76 -74zM86 587c-43 0 -77 33 -77 74c0 40 34 74 77 74s76 -34 76 -74c0 -41 -33 -74 -76 -74z" />
    <glyph glyph-name="Alphatonos" unicode="&#x386;" horiz-adv-x="738" 
d="M463 133h-237l-59 -133h-196l342 715h265l114 -715h-212zM288 274h157l-35 275zM62 716h182l-125 -166h-130z" />
    <glyph glyph-name="anoteleia" unicode="&#x387;" horiz-adv-x="299" 
d="M161 225c-29 0 -55 11 -72 30c-19 17 -30 43 -30 71s10 53 29 72c17 17 43 29 72 29s56 -12 76 -29c19 -19 30 -44 30 -72s-11 -54 -30 -71c-19 -19 -46 -30 -75 -30z" />
    <glyph glyph-name="Epsilontonos" unicode="&#x388;" horiz-adv-x="614" 
d="M144 715h493l-25 -158h-289l-19 -123h230l-22 -144h-231l-21 -132h306l-25 -158h-510zM-74 716h182l-125 -166h-130z" />
    <glyph glyph-name="Etatonos" unicode="&#x389;" horiz-adv-x="784" 
d="M144 715h206l-44 -273h236l43 273h205l-113 -715h-205l44 282h-235l-44 -282h-206zM-74 716h182l-125 -166h-130z" />
    <glyph glyph-name="Iotatonos" unicode="&#x38a;" horiz-adv-x="353" 
d="M148 715h207l-113 -715h-207zM-74 716h182l-125 -166h-130z" />
    <glyph glyph-name="Omicrontonos" unicode="&#x38c;" horiz-adv-x="819" 
d="M808 409c0 -124 -42 -230 -114 -303c-73 -75 -177 -118 -300 -118c-95 0 -181 29 -244 82c-63 52 -102 131 -102 231c0 124 42 230 115 305c72 75 174 119 294 119c99 0 186 -28 250 -81c63 -55 101 -134 101 -235zM595 402c0 45 -11 86 -34 115c-24 29 -61 48 -110 48
c-63 0 -110 -30 -142 -77c-32 -48 -48 -112 -48 -179c0 -96 50 -160 147 -160c61 0 109 30 140 78c31 47 47 110 47 175zM-18 716h182l-125 -166h-130z" />
    <glyph glyph-name="Upsilontonos" unicode="&#x38e;" horiz-adv-x="678" 
d="M249 307l-168 408h214l86 -238l157 238h205l-289 -419l-46 -296h-207zM-121 716h182l-125 -166h-130z" />
    <glyph glyph-name="Omegatonos" unicode="&#x38f;" horiz-adv-x="827" 
d="M448 565c-136 0 -190 -122 -190 -245c0 -93 40 -166 105 -219l-16 -101h-335l22 152h99c-43 39 -83 107 -83 195c0 225 186 378 402 378c212 0 356 -129 356 -314c0 -100 -43 -199 -124 -259h101l-23 -152h-326l16 101c88 63 144 171 144 290c0 103 -51 174 -148 174z
M-21 716h182l-125 -166h-130z" />
    <glyph glyph-name="iotadieresistonos" unicode="&#x390;" horiz-adv-x="295" 
d="M99 523h178l-82 -523h-179zM205 770h135l-102 -178h-98zM394 587c-43 0 -75 33 -75 74c0 40 32 74 75 74s76 -34 76 -74c0 -41 -33 -74 -76 -74zM56 587c-43 0 -77 33 -77 74c0 40 34 74 77 74s76 -34 76 -74c0 -41 -33 -74 -76 -74z" />
    <glyph glyph-name="Alpha" unicode="&#x391;" horiz-adv-x="738" 
d="M463 133h-237l-59 -133h-196l342 715h265l114 -715h-212zM288 274h157l-35 275z" />
    <glyph glyph-name="Beta" unicode="&#x392;" horiz-adv-x="679" 
d="M144 715h289c81 0 139 -18 176 -49c37 -32 53 -75 53 -126c0 -93 -56 -151 -139 -171c72 -16 123 -62 123 -150c0 -65 -27 -121 -74 -158c-48 -39 -116 -61 -200 -61h-341zM342 137c68 0 106 38 106 94c0 51 -28 75 -96 75h-73l-27 -169h90zM378 431c65 0 97 28 97 83
c0 47 -25 65 -81 65h-72l-24 -148h80z" />
    <glyph glyph-name="Gamma" unicode="&#x393;" horiz-adv-x="564" 
d="M140 715h474l-25 -159h-269l-87 -556h-206z" />
    <glyph glyph-name="uni0394" unicode="&#x394;" horiz-adv-x="750" 
d="M-23 23l330 692h281l107 -692l-3 -23h-718zM230 158h243l-55 413z" />
    <glyph glyph-name="Epsilon" unicode="&#x395;" horiz-adv-x="614" 
d="M144 715h493l-25 -158h-289l-19 -123h230l-22 -144h-231l-21 -132h306l-25 -158h-510z" />
    <glyph glyph-name="Zeta" unicode="&#x396;" horiz-adv-x="625" 
d="M-22 23l386 535h-264l25 157h560l-4 -22l-384 -535h280l-25 -158h-577z" />
    <glyph glyph-name="Eta" unicode="&#x397;" horiz-adv-x="784" 
d="M144 715h206l-44 -273h236l43 273h205l-113 -715h-205l44 282h-235l-44 -282h-206z" />
    <glyph glyph-name="Theta" unicode="&#x398;" horiz-adv-x="835" 
d="M820 411c0 -258 -170 -423 -420 -423c-223 0 -355 126 -355 313c0 259 175 424 416 424c213 0 359 -115 359 -314zM609 400c0 101 -54 169 -153 169c-128 0 -201 -127 -201 -254c0 -107 59 -170 156 -170c126 0 198 118 198 255zM346 424h190l-20 -128h-190z" />
    <glyph glyph-name="Iota" unicode="&#x399;" horiz-adv-x="353" 
d="M148 715h207l-113 -715h-207z" />
    <glyph glyph-name="Kappa" unicode="&#x39a;" horiz-adv-x="726" 
d="M144 715h206l-45 -284l264 284h220l-324 -342l213 -373h-221l-171 311l-49 -311h-206z" />
    <glyph glyph-name="Lambda" unicode="&#x39b;" horiz-adv-x="722" 
d="M670 0h-215l-68 496l-223 -496h-197l344 715h239z" />
    <glyph glyph-name="Mu" unicode="&#x39c;" horiz-adv-x="941" 
d="M144 715h259l77 -379l197 379h270l-113 -715h-204l71 448l-246 -448h-68l-102 448l-71 -448h-183z" />
    <glyph glyph-name="Nu" unicode="&#x39d;" horiz-adv-x="777" 
d="M144 715h234l159 -402l64 402h182l-113 -715h-200l-186 449l-70 -449h-183z" />
    <glyph glyph-name="Xi" unicode="&#x39e;" horiz-adv-x="628" 
d="M648 715l-26 -163h-539l26 163h539zM558 435l-25 -152h-443l24 152h444zM20 164h552l-26 -164h-552z" />
    <glyph glyph-name="Omicron" unicode="&#x39f;" horiz-adv-x="819" 
d="M808 409c0 -124 -42 -230 -114 -303c-73 -75 -177 -118 -300 -118c-95 0 -181 29 -244 82c-63 52 -102 131 -102 231c0 124 42 230 115 305c72 75 174 119 294 119c99 0 186 -28 250 -81c63 -55 101 -134 101 -235zM595 402c0 45 -11 86 -34 115c-24 29 -61 48 -110 48
c-63 0 -110 -30 -142 -77c-32 -48 -48 -112 -48 -179c0 -96 50 -160 147 -160c61 0 109 30 140 78c31 47 47 110 47 175z" />
    <glyph glyph-name="Pi" unicode="&#x3a0;" horiz-adv-x="777" 
d="M140 715h639l-113 -715h-205l87 550h-229l-86 -550h-206z" />
    <glyph glyph-name="Rho" unicode="&#x3a1;" horiz-adv-x="652" 
d="M144 715h257c172 0 264 -77 265 -204c0 -89 -30 -157 -82 -201c-53 -45 -129 -68 -218 -68h-91l-38 -242h-206zM358 381c73 0 113 36 113 107c0 51 -31 75 -92 75h-55l-28 -182h62z" />
    <glyph glyph-name="Sigma" unicode="&#x3a3;" horiz-adv-x="612" 
d="M271 162h291l-26 -162h-533l20 131l209 233l-137 197l24 154h514l-24 -154h-285l133 -192z" />
    <glyph glyph-name="Tau" unicode="&#x3a4;" horiz-adv-x="618" 
d="M255 557h-185l26 158h576l-26 -158h-185l-87 -557h-206z" />
    <glyph glyph-name="Upsilon" unicode="&#x3a5;" horiz-adv-x="678" 
d="M249 307l-168 408h214l86 -238l157 238h205l-289 -419l-46 -296h-207z" />
    <glyph glyph-name="Phi" unicode="&#x3a6;" horiz-adv-x="954" 
d="M533 41l-10 -68h-186l11 71c-197 16 -302 130 -302 281c0 222 179 352 403 357l9 60h186l-10 -63c189 -16 307 -121 307 -276c0 -227 -178 -359 -406 -362h-2zM244 338c0 -80 43 -131 127 -146l54 341c-100 -13 -181 -75 -181 -195zM742 389c0 76 -43 127 -131 142
l-54 -341c102 11 185 80 185 199z" />
    <glyph glyph-name="Chi" unicode="&#x3a7;" horiz-adv-x="723" 
d="M255 376l-149 339h220l81 -215l142 215h213l-245 -348l160 -367h-220l-97 247l-169 -247h-215z" />
    <glyph glyph-name="Psi" unicode="&#x3a8;" horiz-adv-x="899" 
d="M879 459c-29 -183 -132 -288 -354 -296l-7 -44c-5 -28 -11 -68 -19 -119h-185l25 166c-159 19 -265 112 -265 263c0 19 0 39 3 58l36 228h195l-37 -229c-3 -13 -4 -30 -4 -43c0 -60 25 -106 97 -121l62 393h186l-45 -287c-7 -40 -12 -76 -17 -107c81 11 130 51 145 147
l39 247h185z" />
    <glyph glyph-name="uni03A9" unicode="&#x3a9;" horiz-adv-x="827" 
d="M448 565c-136 0 -190 -122 -190 -245c0 -93 40 -166 105 -219l-16 -101h-335l22 152h99c-43 39 -83 107 -83 195c0 225 186 378 402 378c212 0 356 -129 356 -314c0 -100 -43 -199 -124 -259h101l-23 -152h-326l16 101c88 63 144 171 144 290c0 103 -51 174 -148 174z
" />
    <glyph glyph-name="Iotadieresis" unicode="&#x3aa;" horiz-adv-x="353" 
d="M148 715h207l-113 -715h-207zM157 758c-24 0 -45 9 -60 24c-16 15 -25 36 -25 59s9 44 25 60c15 15 36 24 60 24c48 0 86 -36 86 -83s-38 -84 -86 -84zM380 758c-48 0 -85 36 -85 83c0 23 9 44 25 60c15 15 36 24 60 24c48 0 86 -36 86 -83s-38 -84 -86 -84z" />
    <glyph glyph-name="Upsilondieresis" unicode="&#x3ab;" horiz-adv-x="678" 
d="M249 307l-168 408h214l86 -238l157 238h205l-289 -419l-46 -296h-207zM317 758c-24 0 -45 9 -60 24c-16 15 -25 36 -25 59s9 44 25 60c15 15 36 24 60 24c48 0 86 -36 86 -83s-38 -84 -86 -84zM540 758c-48 0 -85 36 -85 83c0 23 9 44 25 60c15 15 36 24 60 24
c48 0 86 -36 86 -83s-38 -84 -86 -84z" />
    <glyph glyph-name="alphatonos" unicode="&#x3ac;" horiz-adv-x="632" 
d="M324 404c-35 0 -63 -17 -83 -48s-31 -74 -31 -126c0 -68 27 -108 84 -108c33 0 63 19 84 51c20 31 32 74 32 125c0 67 -31 106 -86 106zM215 -12c-56 0 -104 20 -137 59c-33 37 -53 94 -53 165c0 100 28 182 73 238s108 87 179 87c84 0 134 -41 154 -96l13 82h179
l-56 -360c-11 -69 -15 -119 -11 -163h-177c-4 23 -3 59 -2 88c-37 -64 -87 -100 -162 -100zM384 749h182l-125 -166h-130z" />
    <glyph glyph-name="epsilontonos" unicode="&#x3ad;" horiz-adv-x="573" 
d="M391 361c-3 31 -25 57 -82 57c-32 0 -80 -9 -80 -55c0 -21 10 -44 53 -44h97l-15 -101h-92c-32 0 -75 -11 -75 -56c0 -35 33 -51 86 -51c64 0 92 27 99 63h162c-21 -120 -112 -186 -281 -186c-168 0 -248 61 -248 146c0 72 53 126 125 141c-48 11 -86 50 -86 102
c0 120 127 159 254 159c143 0 235 -64 250 -175h-167zM361 749h182l-125 -166h-130z" />
    <glyph glyph-name="etatonos" unicode="&#x3ae;" horiz-adv-x="622" 
d="M66 352c12 76 16 124 19 171h175c0 -27 -1 -58 -5 -89c39 64 96 103 181 103c100 0 169 -65 145 -222l-78 -490h-179l75 477c10 60 -10 90 -59 90c-56 0 -93 -35 -104 -103l-46 -289h-179zM368 749h182l-125 -166h-130z" />
    <glyph glyph-name="iotatonos" unicode="&#x3af;" horiz-adv-x="295" 
d="M99 523h178l-82 -523h-179zM212 749h182l-125 -166h-130z" />
    <glyph glyph-name="upsilondieresistonos" unicode="&#x3b0;" horiz-adv-x="609" 
d="M217 228c-1 -11 -3 -22 -3 -30c0 -45 21 -77 70 -77c56 0 80 31 89 91l50 311h179l-49 -310c-25 -156 -116 -225 -279 -225c-159 0 -236 93 -236 213c0 19 1 36 4 51l43 271h179zM350 770h135l-102 -178h-98zM539 587c-43 0 -75 33 -75 74c0 40 32 74 75 74
s76 -34 76 -74c0 -41 -33 -74 -76 -74zM201 587c-43 0 -77 33 -77 74c0 40 34 74 77 74s76 -34 76 -74c0 -41 -33 -74 -76 -74z" />
    <glyph glyph-name="alpha" unicode="&#x3b1;" horiz-adv-x="632" 
d="M324 404c-35 0 -63 -17 -83 -48s-31 -74 -31 -126c0 -68 27 -108 84 -108c33 0 63 19 84 51c20 31 32 74 32 125c0 67 -31 106 -86 106zM215 -12c-56 0 -104 20 -137 59c-33 37 -53 94 -53 165c0 100 28 182 73 238s108 87 179 87c84 0 134 -41 154 -96l13 82h179
l-56 -360c-11 -69 -15 -119 -11 -163h-177c-4 23 -3 59 -2 88c-37 -64 -87 -100 -162 -100z" />
    <glyph glyph-name="beta" unicode="&#x3b2;" horiz-adv-x="636" 
d="M228 240c-11 -67 29 -117 89 -117c66 0 109 59 109 131c0 61 -38 89 -113 85l19 124c64 0 125 27 125 101c0 43 -28 73 -80 73c-55 0 -92 -38 -103 -107zM162 -175h-179l110 700c24 155 137 239 287 239c116 0 236 -49 236 -182c0 -80 -55 -156 -138 -177
c80 -23 129 -89 129 -170c0 -137 -90 -248 -243 -248c-67 0 -135 34 -159 101z" />
    <glyph glyph-name="gamma" unicode="&#x3b3;" horiz-adv-x="595" 
d="M454 523h179l-289 -516l-30 -182h-178l29 182l-123 516h186l59 -325z" />
    <glyph glyph-name="delta" unicode="&#x3b4;" horiz-adv-x="615" 
d="M580 618h-210l120 -133c56 -61 98 -120 98 -207c0 -167 -126 -290 -298 -290c-152 0 -266 88 -266 236c0 137 86 261 240 261c8 0 19 -1 26 -4l-144 159l18 113h438zM203 221c0 -60 27 -100 91 -100c80 0 115 86 115 159c0 60 -35 102 -91 102c-79 0 -115 -83 -115 -161z
" />
    <glyph glyph-name="epsilon" unicode="&#x3b5;" horiz-adv-x="573" 
d="M391 361c-3 31 -25 57 -82 57c-32 0 -80 -9 -80 -55c0 -21 10 -44 53 -44h97l-15 -101h-92c-32 0 -75 -11 -75 -56c0 -35 33 -51 86 -51c64 0 92 27 99 63h162c-21 -120 -112 -186 -281 -186c-168 0 -248 61 -248 146c0 72 53 126 125 141c-48 11 -86 50 -86 102
c0 120 127 159 254 159c143 0 235 -64 250 -175h-167z" />
    <glyph glyph-name="zeta" unicode="&#x3b6;" horiz-adv-x="514" 
d="M471 25c0 -55 -28 -119 -53 -172h-134c13 31 33 85 33 109c0 25 -16 38 -48 38h-45c-132 0 -201 73 -201 180c0 171 138 323 260 423h-170l24 150h457l-7 -38c-205 -181 -383 -362 -383 -500c0 -47 31 -70 82 -70h47c97 0 138 -52 138 -120z" />
    <glyph glyph-name="eta" unicode="&#x3b7;" horiz-adv-x="622" 
d="M66 352c12 76 16 124 19 171h175c0 -27 -1 -58 -5 -89c39 64 96 103 181 103c100 0 169 -65 145 -222l-78 -490h-179l75 477c10 60 -10 90 -59 90c-56 0 -93 -35 -104 -103l-46 -289h-179z" />
    <glyph glyph-name="theta" unicode="&#x3b8;" horiz-adv-x="632" 
d="M615 503c0 -109 -21 -246 -73 -346c-53 -104 -136 -169 -267 -169c-159 0 -234 99 -234 260c0 123 29 281 101 390c51 77 130 126 242 126c151 0 231 -93 231 -261zM371 632c-37 0 -68 -17 -91 -52c-23 -33 -40 -80 -50 -140h213c4 26 6 50 6 72c0 77 -19 120 -78 120z
M286 117c37 0 66 18 89 53s37 82 48 143h-214c-3 -28 -5 -56 -5 -77c0 -76 22 -119 82 -119z" />
    <glyph glyph-name="iota" unicode="&#x3b9;" horiz-adv-x="295" 
d="M99 523h178l-82 -523h-179z" />
    <glyph glyph-name="kappa" unicode="&#x3ba;" horiz-adv-x="583" 
d="M227 235l-37 -235h-179l82 523h180l-35 -220l186 220h193l-222 -250l141 -273h-192z" />
    <glyph glyph-name="lambda" unicode="&#x3bb;" horiz-adv-x="594" 
d="M147 0h-187l285 519l-12 55c-9 35 -31 53 -66 53c-21 0 -49 -4 -68 -11l22 128c31 12 75 20 118 20c74 0 132 -31 159 -153l93 -438c5 -23 16 -38 40 -38c13 0 29 1 40 4l-22 -135c-20 -7 -50 -12 -81 -12c-69 0 -119 30 -135 115l-38 205z" />
    <glyph glyph-name="uni03BC" unicode="&#x3bc;" horiz-adv-x="625" 
d="M554 163c-11 -69 -16 -120 -13 -163h-175c-3 23 -2 53 1 81c-27 -59 -62 -81 -109 -81c-23 0 -48 7 -63 30l-34 -205h-178l110 698h180l-51 -317c-9 -57 12 -86 55 -86c55 0 96 36 107 104l47 299h179z" />
    <glyph glyph-name="nu" unicode="&#x3bd;" horiz-adv-x="580" 
d="M50 523h185l48 -339l158 339h178l-273 -523h-194z" />
    <glyph glyph-name="xi" unicode="&#x3be;" horiz-adv-x="534" 
d="M98 628l20 125h457l-23 -141h-139c-65 0 -127 -25 -127 -88c0 -37 30 -63 86 -63h120l-23 -145h-143c-69 0 -127 -34 -127 -102c0 -52 44 -69 90 -69h56c96 0 138 -52 138 -120c0 -55 -27 -119 -54 -172h-133c13 31 33 85 33 109c0 25 -16 38 -48 38h-33
c-135 0 -229 62 -229 179c0 109 68 186 172 215c-53 20 -79 64 -79 107c0 65 38 107 101 127h-115z" />
    <glyph glyph-name="omicron" unicode="&#x3bf;" horiz-adv-x="615" 
d="M294 -12c-71 0 -137 19 -185 59c-49 40 -81 100 -81 180c0 89 31 166 84 221s129 88 218 88c71 0 138 -19 187 -59c48 -40 79 -101 79 -182c0 -91 -31 -168 -84 -221c-53 -55 -129 -86 -218 -86zM297 121c40 0 70 20 90 52c19 32 29 77 29 129c0 57 -28 101 -89 101
c-39 0 -69 -19 -89 -51s-31 -76 -31 -127c0 -27 5 -53 20 -72c13 -20 35 -32 70 -32z" />
    <glyph glyph-name="pi" unicode="&#x3c0;" horiz-adv-x="657" 
d="M552 163c-11 -69 -15 -119 -12 -163h-176c-3 28 -2 85 6 140l40 253h-136l-62 -393h-179l62 393h-66l21 130h626l-21 -130h-66z" />
    <glyph glyph-name="rho" unicode="&#x3c1;" horiz-adv-x="637" 
d="M311 120c81 0 117 68 117 181c0 59 -24 102 -84 102c-82 0 -124 -77 -124 -177c0 -59 28 -106 91 -106zM154 -175h-178l73 466c24 145 138 246 295 246c143 0 265 -79 265 -242c0 -177 -103 -304 -282 -304c-47 0 -104 25 -135 69z" />
    <glyph glyph-name="uni03C2" unicode="&#x3c2;" horiz-adv-x="578" 
d="M342 140c96 0 148 -48 148 -116c0 -55 -28 -118 -53 -171h-134c13 31 33 85 33 109c0 25 -16 38 -48 38h-17c-148 0 -247 88 -247 229c0 188 121 307 294 307c136 0 240 -64 245 -215h-168c-7 56 -32 76 -81 76c-74 0 -110 -72 -110 -156c0 -61 31 -101 104 -101h34z" />
    <glyph glyph-name="sigma" unicode="&#x3c3;" horiz-adv-x="648" 
d="M288 -12c-144 0 -265 83 -265 240c0 171 112 295 303 295h336l-21 -130h-114c39 -29 60 -77 60 -126c0 -161 -127 -279 -299 -279zM292 121c83 0 120 80 120 179c0 59 -34 99 -90 99c-83 0 -119 -75 -119 -174c0 -55 22 -104 89 -104z" />
    <glyph glyph-name="tau" unicode="&#x3c4;" horiz-adv-x="493" 
d="M286 -8c-105 0 -156 54 -156 147c0 15 2 32 5 51l31 203h-136l21 130h458l-21 -130h-142l-30 -190c-2 -10 -3 -19 -3 -26c0 -35 16 -47 55 -47c17 0 43 3 59 7l-21 -134c-29 -7 -63 -11 -120 -11z" />
    <glyph glyph-name="upsilon" unicode="&#x3c5;" horiz-adv-x="609" 
d="M217 228c-1 -11 -3 -22 -3 -30c0 -45 21 -77 70 -77c56 0 80 31 89 91l50 311h179l-49 -310c-25 -156 -116 -225 -279 -225c-159 0 -236 93 -236 213c0 19 1 36 4 51l43 271h179z" />
    <glyph glyph-name="phi" unicode="&#x3c6;" horiz-adv-x="817" 
d="M462 537c200 0 334 -98 334 -242c0 -187 -133 -295 -336 -303l-27 -167h-176l26 168c-144 11 -260 94 -260 238c0 166 106 282 275 301l-12 -132c-58 -21 -87 -99 -87 -162c0 -68 33 -108 105 -119l64 411c24 4 50 7 94 7zM480 119c101 3 140 84 140 184
c0 53 -35 94 -95 102z" />
    <glyph glyph-name="chi" unicode="&#x3c7;" horiz-adv-x="593" 
d="M256 49l-130 -224h-186l249 374l-61 156c-11 27 -29 36 -54 36c-11 0 -25 -2 -38 -7l21 130c31 13 62 20 92 20c64 0 105 -18 130 -89l42 -120l109 198h192l-234 -349l71 -176c11 -28 27 -37 50 -37c11 0 22 1 33 4l-21 -132c-35 -12 -67 -14 -90 -14
c-60 0 -102 29 -130 104z" />
    <glyph glyph-name="psi" unicode="&#x3c8;" horiz-adv-x="823" 
d="M218 258c-11 -67 11 -123 83 -134l63 399h177l-64 -401c77 7 112 57 124 128l44 273h178l-45 -279c-29 -181 -155 -240 -321 -248l-27 -171h-177l28 172c-160 13 -266 108 -239 274l41 252h178z" />
    <glyph glyph-name="omega" unicode="&#x3c9;" horiz-adv-x="824" 
d="M489 202c-9 -57 10 -82 49 -82c68 0 81 124 81 173c0 54 -6 96 -74 115l20 128c155 -16 235 -111 235 -243c0 -156 -82 -305 -249 -305c-96 0 -141 49 -157 101c-30 -54 -75 -101 -172 -101c-134 0 -199 98 -199 215c0 190 101 322 314 333l-21 -130
c-89 -16 -113 -120 -113 -201c0 -47 15 -85 51 -85c35 0 53 33 61 84l22 145h175z" />
    <glyph glyph-name="iotadieresis" unicode="&#x3ca;" horiz-adv-x="295" 
d="M99 523h178l-82 -523h-179zM104 580c-24 0 -45 9 -60 24c-16 15 -25 36 -25 59c0 47 38 84 86 84c24 0 45 -9 61 -24c15 -16 24 -36 24 -59c0 -47 -38 -84 -86 -84zM317 580c-48 0 -85 36 -85 83s37 84 85 84s86 -36 86 -83s-38 -84 -86 -84z" />
    <glyph glyph-name="upsilondieresis" unicode="&#x3cb;" horiz-adv-x="609" 
d="M217 228c-1 -11 -3 -22 -3 -30c0 -45 21 -77 70 -77c56 0 80 31 89 91l50 311h179l-49 -310c-25 -156 -116 -225 -279 -225c-159 0 -236 93 -236 213c0 19 1 36 4 51l43 271h179zM254 580c-24 0 -45 9 -60 24c-16 15 -25 36 -25 59c0 47 38 84 86 84c24 0 45 -9 61 -24
c15 -16 24 -36 24 -59c0 -47 -38 -84 -86 -84zM467 580c-48 0 -85 36 -85 83s37 84 85 84s86 -36 86 -83s-38 -84 -86 -84z" />
    <glyph glyph-name="omicrontonos" unicode="&#x3cc;" horiz-adv-x="617" 
d="M294 -12c-71 0 -137 19 -185 59c-49 40 -81 100 -81 180c0 89 31 166 84 221s129 88 218 88c71 0 138 -19 187 -59c48 -40 79 -101 79 -182c0 -91 -31 -168 -84 -221c-53 -55 -129 -86 -218 -86zM297 121c40 0 70 20 90 52c19 32 29 77 29 129c0 57 -28 101 -89 101
c-39 0 -69 -19 -89 -51s-31 -76 -31 -127c0 -27 5 -53 20 -72c13 -20 35 -32 70 -32zM369 749h182l-125 -166h-130z" />
    <glyph glyph-name="upsilontonos" unicode="&#x3cd;" horiz-adv-x="609" 
d="M217 228c-1 -11 -3 -22 -3 -30c0 -45 21 -77 70 -77c56 0 80 31 89 91l50 311h179l-49 -310c-25 -156 -116 -225 -279 -225c-159 0 -236 93 -236 213c0 19 1 36 4 51l43 271h179zM364 749h182l-125 -166h-130z" />
    <glyph glyph-name="omegatonos" unicode="&#x3ce;" horiz-adv-x="824" 
d="M489 202c-9 -57 10 -82 49 -82c68 0 81 124 81 173c0 54 -6 96 -74 115l20 128c155 -16 235 -111 235 -243c0 -156 -82 -305 -249 -305c-96 0 -141 49 -157 101c-30 -54 -75 -101 -172 -101c-134 0 -199 98 -199 215c0 190 101 322 314 333l-21 -130
c-89 -16 -113 -120 -113 -201c0 -47 15 -85 51 -85c35 0 53 33 61 84l22 145h175zM474 749h182l-125 -166h-130z" />
    <glyph glyph-name="uni0401" unicode="&#x401;" horiz-adv-x="614" 
d="M144 715h493l-25 -158h-289l-19 -123h230l-22 -144h-231l-21 -132h306l-25 -158h-510zM291 758c-24 0 -45 9 -60 24c-16 15 -25 36 -25 59s9 44 25 60c15 15 36 24 60 24c48 0 86 -36 86 -83s-38 -84 -86 -84zM514 758c-48 0 -85 36 -85 83c0 23 9 44 25 60
c15 15 36 24 60 24c48 0 86 -36 86 -83s-38 -84 -86 -84z" />
    <glyph glyph-name="uni0402" unicode="&#x402;" horiz-adv-x="821" 
d="M570 -16c-56 0 -80 10 -105 21l22 139c11 -3 22 -7 41 -7c39 0 65 28 65 81c0 44 -17 76 -82 76c-62 0 -94 -30 -101 -37l-40 -257h-206l87 557h-185l26 158h576l-26 -158h-185l-22 -139c35 19 79 33 136 33c155 0 225 -83 225 -220c0 -175 -114 -247 -226 -247z" />
    <glyph glyph-name="uni0403" unicode="&#x403;" horiz-adv-x="582" 
d="M367 905h188l-115 -146h-137zM140 715h483l-26 -159h-277l-87 -556h-206z" />
    <glyph glyph-name="uni0404" unicode="&#x404;" horiz-adv-x="762" 
d="M740 269c-29 -187 -173 -281 -347 -281c-211 0 -349 109 -349 325c0 235 152 413 400 413c187 0 306 -91 314 -275h-206c-7 75 -41 115 -114 115c-81 0 -136 -52 -163 -129h251l-23 -150h-245l3 -24c15 -69 54 -113 134 -113c72 0 122 40 142 119h203z" />
    <glyph glyph-name="uni0405" unicode="&#x405;" horiz-adv-x="647" 
d="M318 -12c-195 0 -302 90 -301 239h193c1 -24 8 -48 27 -65c17 -17 45 -28 86 -28c63 -1 94 26 94 73c0 35 -25 53 -101 69c-87 19 -147 42 -184 75s-53 77 -53 137c0 67 26 126 75 169s121 68 212 68c84 0 152 -18 199 -54c47 -37 72 -93 72 -169h-187
c-4 55 -35 77 -90 77c-56 0 -83 -26 -83 -65c0 -33 22 -48 101 -65c80 -17 140 -40 180 -73s60 -78 60 -139c0 -73 -26 -135 -77 -179s-126 -70 -223 -70z" />
    <glyph glyph-name="uni0406" unicode="&#x406;" horiz-adv-x="353" 
d="M148 715h207l-113 -715h-207z" />
    <glyph glyph-name="uni0407" unicode="&#x407;" horiz-adv-x="353" 
d="M148 715h207l-113 -715h-207zM157 758c-24 0 -45 9 -60 24c-16 15 -25 36 -25 59s9 44 25 60c15 15 36 24 60 24c48 0 86 -36 86 -83s-38 -84 -86 -84zM380 758c-48 0 -85 36 -85 83c0 23 9 44 25 60c15 15 36 24 60 24c48 0 86 -36 86 -83s-38 -84 -86 -84z" />
    <glyph glyph-name="uni0408" unicode="&#x408;" horiz-adv-x="478" 
d="M149 -9c-81 0 -125 17 -152 30l25 152c23 -11 52 -19 92 -19c52 0 88 23 99 88l75 473h206l-76 -482c-27 -168 -120 -242 -269 -242z" />
    <glyph glyph-name="uni0409" unicode="&#x409;" horiz-adv-x="1038" 
d="M376 555l-13 -66c-8 -40 -19 -94 -34 -153c-45 -189 -103 -346 -276 -346c-49 0 -70 9 -73 10l24 153l6 -3c5 -1 13 -2 23 -2c66 0 93 100 127 238c19 77 36 158 49 222c7 37 14 72 20 107h501l-42 -269h57c159 0 268 -54 268 -216c0 -137 -107 -230 -274 -230h-321
l88 555h-130zM709 137c68 0 106 43 106 99c0 51 -28 75 -96 75h-53l-27 -174h70z" />
    <glyph glyph-name="uni040A" unicode="&#x40a;" horiz-adv-x="1076" 
d="M747 137c68 0 106 43 106 99c0 51 -28 75 -96 75h-53l-27 -174h70zM27 0l113 715h206l-44 -273h224l43 273h199l-42 -269h57c159 0 268 -54 268 -216c0 -137 -107 -230 -274 -230h-321l45 282h-224l-44 -282h-206z" />
    <glyph glyph-name="uni040B" unicode="&#x40b;" horiz-adv-x="828" 
d="M502 290c-55 0 -86 -30 -93 -37l-39 -253h-206l87 557h-185l26 158h576l-26 -158h-185l-22 -139c35 19 79 33 136 33c171 0 249 -112 219 -292l-24 -159h-205l26 164c11 76 -1 126 -85 126z" />
    <glyph glyph-name="uni040C" unicode="&#x40c;" horiz-adv-x="726" 
d="M434 905h188l-115 -146h-137zM144 715h206l-45 -284l264 284h220l-324 -342l213 -373h-221l-171 311l-49 -311h-206z" />
    <glyph glyph-name="uni040D" unicode="&#x40d;" horiz-adv-x="794" 
d="M27 0l113 715h206l-66 -420l311 420h205l-113 -715h-205l66 420l-311 -420h-206zM333 905h185l33 -146h-132z" />
    <glyph glyph-name="uni040E" unicode="&#x40e;" horiz-adv-x="636" 
d="M395 752c-104 0 -164 58 -165 153h121c-1 -29 12 -61 45 -61c32 0 49 30 50 61h121c-15 -97 -83 -153 -172 -153zM172 -9c-27 0 -51 1 -67 4c-10 1 -19 3 -26 5l23 152c19 -4 34 -7 49 -7c41 0 71 18 98 55l-189 515h209l95 -303l146 302l206 1l-270 -496
c-78 -142 -147 -228 -274 -228z" />
    <glyph glyph-name="uni040F" unicode="&#x40f;" horiz-adv-x="774" 
d="M27 0l113 715h205l-88 -555h225l88 555h206l-113 -715h-231l-25 -130h-165l15 130h-230z" />
    <glyph glyph-name="uni0410" unicode="&#x410;" horiz-adv-x="738" 
d="M463 133h-237l-59 -133h-196l342 715h265l114 -715h-212zM288 274h157l-35 275z" />
    <glyph glyph-name="uni0411" unicode="&#x411;" horiz-adv-x="663" 
d="M632 237c0 -149 -107 -237 -274 -237h-331l113 715h503l-26 -159h-303l-19 -120h69c159 0 268 -55 268 -199zM328 137c68 0 106 31 106 90c0 55 -28 74 -96 74h-64l-26 -164h80z" />
    <glyph glyph-name="uni0412" unicode="&#x412;" horiz-adv-x="679" 
d="M144 715h289c81 0 139 -18 176 -49c37 -32 53 -75 53 -126c0 -93 -56 -151 -139 -171c72 -16 123 -62 123 -150c0 -65 -27 -121 -74 -158c-48 -39 -116 -61 -200 -61h-341zM342 137c68 0 106 38 106 94c0 51 -28 75 -96 75h-73l-27 -169h90zM378 431c65 0 97 28 97 83
c0 47 -25 65 -81 65h-72l-24 -148h80z" />
    <glyph glyph-name="uni0413" unicode="&#x413;" horiz-adv-x="582" 
d="M140 715h483l-26 -159h-277l-87 -556h-206z" />
    <glyph glyph-name="uni0414" unicode="&#x414;" horiz-adv-x="788" 
d="M335 412c-27 -113 -55 -195 -91 -252h213l63 395h-151l-12 -51c-7 -29 -15 -65 -22 -92zM113 -130h-178l44 290h41c73 30 104 128 136 263c13 56 29 127 44 187l24 105h526l-88 -555h113l-46 -290h-180l16 130h-426z" />
    <glyph glyph-name="uni0415" unicode="&#x415;" horiz-adv-x="614" 
d="M144 715h493l-25 -158h-289l-19 -123h230l-22 -144h-231l-21 -132h306l-25 -158h-510z" />
    <glyph glyph-name="uni0416" unicode="&#x416;" horiz-adv-x="988" 
d="M400 315l-243 -315h-217l312 398l-154 317h196l124 -288l45 288h204l-45 -286l224 286h215l-286 -345l173 -370h-205l-140 311l-49 -311h-204z" />
    <glyph glyph-name="uni0417" unicode="&#x417;" horiz-adv-x="655" 
d="M305 -12c-164 0 -280 95 -277 255h189c5 -60 35 -103 98 -103s92 32 97 77c7 52 -29 76 -85 76h-65l25 142h75c52 0 78 25 81 62c3 41 -19 78 -80 78c-63 0 -87 -40 -95 -85h-183c11 132 109 235 296 235c170 0 259 -95 251 -203c-5 -76 -49 -134 -137 -153
c71 -18 125 -72 114 -170c-13 -120 -128 -211 -304 -211z" />
    <glyph glyph-name="uni0418" unicode="&#x418;" horiz-adv-x="794" 
d="M27 0l113 715h206l-66 -420l311 420h205l-113 -715h-205l66 420l-311 -420h-206z" />
    <glyph glyph-name="uni0419" unicode="&#x419;" horiz-adv-x="794" 
d="M477 752c-104 0 -164 58 -165 153h121c-1 -29 12 -61 45 -61c32 0 49 30 50 61h121c-15 -97 -83 -153 -172 -153zM27 0l113 715h206l-66 -420l311 420h205l-113 -715h-205l66 420l-311 -420h-206z" />
    <glyph glyph-name="uni041A" unicode="&#x41a;" horiz-adv-x="726" 
d="M144 715h206l-45 -284l264 284h220l-324 -342l213 -373h-221l-171 311l-49 -311h-206z" />
    <glyph glyph-name="uni041B" unicode="&#x41b;" horiz-adv-x="747" 
d="M329 336c-45 -189 -103 -346 -276 -346c-49 0 -70 9 -73 10l24 153l6 -3c5 -1 13 -2 23 -2c66 0 93 100 127 238c19 77 36 158 49 222c7 37 14 72 20 107h520l-113 -715h-205l88 555h-143l-13 -66c-8 -40 -19 -94 -34 -153z" />
    <glyph glyph-name="uni041C" unicode="&#x41c;" horiz-adv-x="941" 
d="M144 715h259l77 -379l197 379h270l-113 -715h-204l71 448l-246 -448h-68l-102 448l-71 -448h-183z" />
    <glyph glyph-name="uni041D" unicode="&#x41d;" horiz-adv-x="784" 
d="M144 715h206l-44 -273h236l43 273h205l-113 -715h-205l44 282h-235l-44 -282h-206z" />
    <glyph glyph-name="uni041E" unicode="&#x41e;" horiz-adv-x="819" 
d="M808 409c0 -124 -42 -230 -114 -303c-73 -75 -177 -118 -300 -118c-95 0 -181 29 -244 82c-63 52 -102 131 -102 231c0 124 42 230 115 305c72 75 174 119 294 119c99 0 186 -28 250 -81c63 -55 101 -134 101 -235zM595 402c0 45 -11 86 -34 115c-24 29 -61 48 -110 48
c-63 0 -110 -30 -142 -77c-32 -48 -48 -112 -48 -179c0 -96 50 -160 147 -160c61 0 109 30 140 78c31 47 47 110 47 175z" />
    <glyph glyph-name="uni041F" unicode="&#x41f;" horiz-adv-x="774" 
d="M546 555h-225l-88 -555h-206l113 715h636l-113 -715h-205z" />
    <glyph glyph-name="uni0420" unicode="&#x420;" horiz-adv-x="652" 
d="M144 715h257c172 0 264 -77 265 -204c0 -89 -30 -157 -82 -201c-53 -45 -129 -68 -218 -68h-91l-38 -242h-206zM358 381c73 0 113 36 113 107c0 51 -31 75 -92 75h-55l-28 -182h62z" />
    <glyph glyph-name="uni0421" unicode="&#x421;" horiz-adv-x="762" 
d="M397 -12c-105 0 -193 27 -253 80c-61 53 -96 131 -96 235c0 121 38 228 107 303s169 120 293 120c93 0 169 -23 224 -68c55 -47 86 -115 90 -207h-206c-7 75 -41 115 -114 115c-60 0 -104 -29 -133 -76c-31 -47 -46 -111 -47 -179c0 -47 9 -86 32 -115
c21 -29 56 -46 105 -46c72 0 122 40 142 119h203c-15 -93 -58 -163 -119 -210c-61 -48 -141 -71 -228 -71z" />
    <glyph glyph-name="uni0422" unicode="&#x422;" horiz-adv-x="618" 
d="M255 557h-185l26 158h576l-26 -158h-185l-87 -557h-206z" />
    <glyph glyph-name="uni0423" unicode="&#x423;" horiz-adv-x="636" 
d="M172 -9c-27 0 -51 1 -67 4c-10 1 -19 3 -26 5l23 152c19 -4 34 -7 49 -7c41 0 71 18 98 55l-189 515h209l95 -303l146 302l206 1l-270 -496c-78 -142 -147 -228 -274 -228z" />
    <glyph glyph-name="uni0424" unicode="&#x424;" horiz-adv-x="894" 
d="M303 -10l15 100c-172 11 -277 98 -277 242v8c0 161 126 289 361 292l14 93h204l-15 -93c172 -11 277 -98 277 -242v-8c0 -161 -124 -289 -361 -292l-16 -100h-202zM234 347c0 -62 33 -110 107 -113l39 259c-104 -3 -146 -77 -146 -140v-6zM689 375c1 61 -33 110 -106 113
l-40 -259c105 3 146 77 146 140v6z" />
    <glyph glyph-name="uni0425" unicode="&#x425;" horiz-adv-x="723" 
d="M255 376l-149 339h220l81 -215l142 215h213l-245 -348l160 -367h-220l-97 247l-169 -247h-215z" />
    <glyph glyph-name="uni0426" unicode="&#x426;" horiz-adv-x="814" 
d="M575 -130l16 130h-564l113 715h205l-88 -555h225l88 555h206l-88 -555h113l-46 -290h-180z" />
    <glyph glyph-name="uni0427" unicode="&#x427;" horiz-adv-x="740" 
d="M424 0l42 268c-33 -12 -72 -20 -119 -20c-179 0 -281 112 -252 292l26 175h205l-28 -180c-12 -77 7 -126 95 -126c65 0 92 26 101 35l43 271h205l-113 -715h-205z" />
    <glyph glyph-name="uni0428" unicode="&#x428;" horiz-adv-x="1065" 
d="M140 715h205l-88 -555h156l88 555h205l-88 -555h155l88 555h206l-113 -715h-927z" />
    <glyph glyph-name="uni0429" unicode="&#x429;" horiz-adv-x="1104" 
d="M865 -130l16 130h-854l113 715h205l-88 -555h156l88 555h205l-88 -555h155l88 555h206l-88 -555h112l-46 -290h-180z" />
    <glyph glyph-name="uni042A" unicode="&#x42a;" horiz-adv-x="758" 
d="M133 0l88 557h-155l26 158h353l-42 -269h62c159 0 268 -54 268 -216c0 -137 -107 -230 -274 -230h-326zM429 137c68 0 106 43 106 99c0 51 -28 75 -96 75h-58l-27 -174h75z" />
    <glyph glyph-name="uni042B" unicode="&#x42b;" horiz-adv-x="944" 
d="M27 0l113 715h199l-42 -269h62c159 0 268 -54 268 -216c0 -137 -107 -230 -274 -230h-326zM741 715h205l-113 -715h-205zM323 137c68 0 106 43 106 99c0 51 -28 75 -96 75h-58l-27 -174h75z" />
    <glyph glyph-name="uni042C" unicode="&#x42c;" horiz-adv-x="652" 
d="M27 0l113 715h199l-42 -269h62c159 0 268 -54 268 -216c0 -137 -107 -230 -274 -230h-326zM323 137c68 0 106 43 106 99c0 51 -28 75 -96 75h-58l-27 -174h75z" />
    <glyph glyph-name="uni042D" unicode="&#x42d;" horiz-adv-x="762" 
d="M358 -12c-187 0 -306 91 -314 275h206c7 -75 41 -115 114 -115c81 0 135 53 162 129h-250l23 150h245v5c0 3 -1 5 -1 8c-11 80 -52 124 -136 124c-72 0 -122 -40 -142 -119h-203c29 186 173 281 347 281c211 0 349 -109 349 -325c0 -235 -152 -413 -400 -413z" />
    <glyph glyph-name="uni042E" unicode="&#x42e;" horiz-adv-x="1098" 
d="M679 -14c-168 0 -315 99 -334 276c-1 3 -1 8 -1 12c0 3 0 5 -1 8h-67l-44 -282h-206l113 715h206l-44 -273h63c50 170 195 281 378 281c188 0 341 -112 341 -316c0 -248 -168 -421 -404 -421zM870 400c0 90 -44 163 -134 163c-115 0 -180 -122 -180 -256
c0 -96 50 -160 137 -160c115 0 177 122 177 253z" />
    <glyph glyph-name="uni042F" unicode="&#x42f;" horiz-adv-x="685" 
d="M439 404l27 174h-75c-68 0 -106 -36 -106 -92c0 -51 28 -82 96 -82h58zM188 0h-221l226 315c-63 29 -106 81 -106 170c0 137 91 230 274 230h326l-113 -715h-199l42 269h-46z" />
    <glyph glyph-name="uni0430" unicode="&#x430;" horiz-adv-x="578" 
d="M177 -12c-48 0 -89 13 -118 38c-31 25 -48 60 -48 107c0 68 26 114 74 143c48 28 117 40 201 40h77l2 14c8 49 -3 81 -60 81c-48 0 -68 -27 -76 -62h-168c27 129 119 188 252 188c168 0 251 -73 226 -229l-23 -145c-11 -68 -15 -119 -8 -163h-173c-4 23 -4 44 -3 65
c-32 -43 -78 -77 -155 -77zM248 108c49 0 87 28 94 75l5 32h-56c-72 0 -102 -15 -102 -58c0 -27 20 -49 59 -49z" />
    <glyph glyph-name="uni0431" unicode="&#x431;" horiz-adv-x="609" 
d="M289 -13c-137 0 -254 81 -254 269c0 56 3 85 8 121c27 197 99 363 366 371c89 3 149 11 174 20l-21 -139c-19 -12 -70 -18 -158 -25c-152 -11 -201 -58 -228 -181h3c35 48 92 94 191 94c120 0 218 -80 218 -235c0 -175 -120 -295 -299 -295zM292 120c80 0 116 72 116 161
c0 57 -28 102 -89 102c-77 0 -117 -71 -117 -154c0 -60 22 -109 90 -109z" />
    <glyph glyph-name="uni0432" unicode="&#x432;" horiz-adv-x="563" 
d="M94 523h253c136 0 189 -54 189 -129c0 -68 -42 -109 -102 -124c51 -11 90 -46 90 -110c0 -96 -73 -160 -214 -160h-299zM255 414l-15 -95h53c47 0 71 17 71 52c0 29 -20 43 -59 43h-50zM224 216l-17 -106h61c49 0 77 19 77 56s-26 50 -71 50h-50z" />
    <glyph glyph-name="uni0433" unicode="&#x433;" horiz-adv-x="433" 
d="M253 401l-63 -401h-179l83 523h365l-20 -122h-186z" />
    <glyph glyph-name="uni0434" unicode="&#x434;" horiz-adv-x="609" 
d="M386 403h-111c-11 -49 -18 -91 -26 -126c-17 -76 -32 -124 -56 -155h148zM-63 -127l39 249h31c65 16 89 144 118 301l18 100h435l-63 -401h69l-39 -249h-146l10 127h-296l-30 -127h-146z" />
    <glyph glyph-name="uni0435" unicode="&#x435;" horiz-adv-x="595" 
d="M203 216c0 -60 26 -105 98 -105c52 0 81 23 93 62h169c-27 -121 -126 -185 -267 -185c-76 0 -143 19 -191 58s-78 99 -78 179c0 93 32 171 85 226c52 55 126 86 213 86c85 0 154 -28 198 -77c44 -51 63 -123 48 -215l-4 -25h-364v-4zM325 419c-47 0 -89 -26 -110 -98h188
c5 59 -15 98 -78 98z" />
    <glyph glyph-name="uni0436" unicode="&#x436;" horiz-adv-x="822" 
d="M322 247l-168 -247h-194l214 298l-104 225h175l87 -214l34 214h176l-34 -216l155 216h189l-195 -241l120 -282h-189l-90 243l-38 -243h-177z" />
    <glyph glyph-name="uni0437" unicode="&#x437;" horiz-adv-x="509" 
d="M245 -11c-131 0 -228 61 -236 184h165c5 -31 27 -48 62 -48s51 21 51 44c1 28 -15 46 -48 46h-54l19 111h57c39 0 56 15 57 42c0 19 -12 41 -49 41c-39 0 -67 -20 -75 -57h-158c27 119 114 184 259 184c154 0 203 -73 200 -149c-3 -60 -48 -102 -109 -117
c49 -11 85 -47 84 -110c-3 -96 -96 -171 -225 -171z" />
    <glyph glyph-name="uni0438" unicode="&#x438;" horiz-adv-x="627" 
d="M11 0l83 523h178l-46 -295l211 295h175l-82 -523h-179l47 295l-211 -295h-176z" />
    <glyph glyph-name="uni0439" unicode="&#x439;" horiz-adv-x="627" 
d="M360 587c-104 0 -164 58 -165 153h121c-1 -36 12 -61 45 -61c32 0 49 24 50 61h121c-15 -97 -83 -153 -172 -153zM11 0l83 523h178l-46 -295l211 295h175l-82 -523h-179l47 295l-211 -295h-176z" />
    <glyph glyph-name="uni043A" unicode="&#x43a;" horiz-adv-x="576" 
d="M228 241l-38 -241h-179l83 523h178l-33 -209l175 209h194l-216 -242l140 -281h-193z" />
    <glyph glyph-name="uni043B" unicode="&#x43b;" horiz-adv-x="583" 
d="M255 276c-24 -125 -59 -285 -209 -285c-27 0 -41 1 -52 4c-6 1 -11 3 -14 5l22 143c1 -1 3 -1 5 -2s7 -1 15 -1c48 0 66 75 82 159c8 43 16 100 23 145l12 79h429l-82 -523h-179l64 401h-96c-7 -40 -13 -85 -20 -125z" />
    <glyph glyph-name="uni043C" unicode="&#x43c;" horiz-adv-x="755" 
d="M480 0l52 333l-190 -333h-60l-77 333l-52 -333h-142l83 523h218l60 -265l146 265h222l-83 -523h-177z" />
    <glyph glyph-name="uni043D" unicode="&#x43d;" horiz-adv-x="617" 
d="M373 201h-151l-32 -201h-179l83 523h178l-31 -200h151l32 200h178l-82 -523h-179z" />
    <glyph glyph-name="uni043E" unicode="&#x43e;" horiz-adv-x="615" 
d="M294 -12c-71 0 -137 19 -185 59c-49 40 -81 100 -81 180c0 89 31 166 84 221s129 88 218 88c71 0 138 -19 187 -59c48 -40 79 -101 79 -182c0 -91 -31 -168 -84 -221c-53 -55 -129 -86 -218 -86zM297 121c40 0 70 20 90 52c19 32 29 77 29 129c0 57 -28 101 -89 101
c-39 0 -69 -19 -89 -51s-31 -76 -31 -127c0 -27 5 -53 20 -72c13 -20 35 -32 70 -32z" />
    <glyph glyph-name="uni043F" unicode="&#x43f;" horiz-adv-x="607" 
d="M395 401h-142l-63 -401h-179l83 523h498l-82 -523h-179z" />
    <glyph glyph-name="uni0440" unicode="&#x440;" horiz-adv-x="643" 
d="M436 537c53 0 101 -20 134 -57c33 -39 54 -96 54 -169c0 -100 -27 -181 -71 -237c-45 -56 -109 -86 -182 -86c-84 0 -141 40 -164 96l-41 -259h-179l83 527c12 76 16 124 19 171h175c0 -24 -1 -50 -4 -81c40 63 95 95 176 95zM321 123c36 0 65 17 86 49
c20 31 32 74 32 126c0 68 -30 106 -86 106c-36 0 -68 -18 -89 -49c-23 -32 -36 -75 -36 -126c0 -68 33 -106 93 -106z" />
    <glyph glyph-name="uni0441" unicode="&#x441;" horiz-adv-x="579" 
d="M294 -11c-77 0 -143 21 -190 61c-48 40 -76 100 -76 179c0 93 30 170 82 223s125 84 212 84c68 0 128 -16 172 -51c43 -35 70 -88 73 -164h-168c-7 56 -32 76 -81 76c-39 0 -65 -19 -84 -50c-19 -32 -27 -75 -27 -120c0 -68 26 -108 93 -108c49 0 85 29 96 86h161
c-19 -140 -112 -216 -263 -216z" />
    <glyph glyph-name="uni0442" unicode="&#x442;" horiz-adv-x="472" 
d="M343 401l-63 -401h-179l64 401h-141l20 122h459l-20 -122h-140z" />
    <glyph glyph-name="uni0443" unicode="&#x443;" horiz-adv-x="577" 
d="M177 59l-127 464h186l60 -281l141 281h178l-386 -698h-179z" />
    <glyph glyph-name="uni0444" unicode="&#x444;" horiz-adv-x="783" 
d="M236 -175l26 163c-125 16 -238 86 -238 239v12c0 160 114 284 325 297l34 217h174l-35 -217c125 -16 237 -87 237 -239v-10c0 -160 -116 -288 -324 -299l-26 -163h-173zM198 228c0 -59 22 -103 85 -107l45 282c-91 -15 -130 -75 -130 -166v-9zM585 294
c0 61 -21 105 -84 109l-45 -282c88 13 129 75 129 166v7z" />
    <glyph glyph-name="uni0445" unicode="&#x445;" horiz-adv-x="585" 
d="M183 270l-122 253h197l59 -137l100 137h189l-201 -248l136 -275h-198l-68 156l-119 -156h-188z" />
    <glyph glyph-name="uni0446" unicode="&#x446;" horiz-adv-x="623" 
d="M411 -127l10 127h-410l82 523h179l-64 -401h142l63 401h179l-64 -401h70l-39 -249h-148z" />
    <glyph glyph-name="uni0447" unicode="&#x447;" horiz-adv-x="570" 
d="M294 0l36 230c-31 -37 -72 -68 -139 -68c-111 0 -165 76 -142 220l22 141h179l-21 -138c-9 -55 4 -90 55 -90c23 0 42 4 57 19l36 209h178l-82 -523h-179z" />
    <glyph glyph-name="uni0448" unicode="&#x448;" horiz-adv-x="867" 
d="M93 523h179l-64 -401h112l63 401h179l-64 -401h112l63 401h179l-83 -523h-758z" />
    <glyph glyph-name="uni0449" unicode="&#x449;" horiz-adv-x="884" 
d="M672 -127l10 127h-671l82 523h179l-64 -401h112l63 401h179l-64 -401h112l63 401h179l-64 -401h71l-39 -249h-148z" />
    <glyph glyph-name="uni044A" unicode="&#x44a;" horiz-adv-x="587" 
d="M133 401h-109l20 122h286l-28 -179h36c145 0 214 -49 214 -160c0 -108 -69 -184 -219 -184h-264zM285 234l-18 -116h53c39 0 60 29 60 64c0 29 -16 52 -55 52h-40z" />
    <glyph glyph-name="uni044B" unicode="&#x44b;" horiz-adv-x="761" 
d="M568 523h178l-82 -523h-179zM94 523h178l-28 -179h26c145 0 214 -49 214 -160c0 -108 -69 -184 -219 -184h-254zM227 234l-18 -116h43c39 0 60 29 60 64c0 29 -16 52 -55 52h-30z" />
    <glyph glyph-name="uni044C" unicode="&#x44c;" horiz-adv-x="529" 
d="M94 523h178l-28 -179h36c145 0 214 -49 214 -160c0 -108 -69 -184 -219 -184h-264zM227 234l-18 -116h53c39 0 60 29 60 64c0 29 -16 52 -55 52h-40z" />
    <glyph glyph-name="uni044D" unicode="&#x44d;" horiz-adv-x="578" 
d="M261 -11c-136 0 -232 65 -243 198h168c11 -39 30 -59 79 -59c48 0 80 31 97 78h-156l18 114h151v6c0 3 -1 7 -1 11c-7 47 -39 69 -91 69c-49 0 -80 -27 -92 -71h-163c21 125 110 201 261 201c154 0 266 -83 266 -240c0 -186 -123 -307 -294 -307z" />
    <glyph glyph-name="uni044E" unicode="&#x44e;" horiz-adv-x="831" 
d="M516 -12c-123 0 -230 66 -249 202c0 1 -1 4 -1 7v4h-44l-32 -201h-179l83 523h178l-31 -200h36c34 127 139 213 275 213c132 0 256 -77 256 -241c0 -181 -124 -307 -292 -307zM519 121c70 0 109 78 109 181c0 57 -28 101 -79 101c-68 0 -110 -77 -110 -178
c0 -54 22 -104 80 -104z" />
    <glyph glyph-name="uni044F" unicode="&#x44f;" horiz-adv-x="562" 
d="M335 287l18 118h-67c-39 0 -60 -31 -60 -66c0 -29 16 -52 55 -52h54zM153 0h-182l162 219c-55 23 -81 68 -81 132c0 92 72 172 222 172h273l-83 -523h-174l29 182h-40z" />
    <glyph glyph-name="uni0451" unicode="&#x451;" horiz-adv-x="595" 
d="M203 216c0 -60 26 -105 98 -105c52 0 81 23 93 62h169c-27 -121 -126 -185 -267 -185c-76 0 -143 19 -191 58s-78 99 -78 179c0 93 32 171 85 226c52 55 126 86 213 86c85 0 154 -28 198 -77c44 -51 63 -123 48 -215l-4 -25h-364v-4zM325 419c-47 0 -89 -26 -110 -98h188
c5 59 -15 98 -78 98zM241 580c-24 0 -45 9 -60 24c-16 15 -25 36 -25 59c0 47 38 84 86 84c24 0 45 -9 61 -24c15 -16 24 -36 24 -59c0 -47 -38 -84 -86 -84zM454 580c-48 0 -85 36 -85 83s37 84 85 84s86 -36 86 -83s-38 -84 -86 -84z" />
    <glyph glyph-name="uni0452" unicode="&#x452;" horiz-adv-x="622" 
d="M529 -12c-16 -101 -76 -179 -268 -171l19 129c45 3 66 19 73 59l46 297c11 64 -10 90 -59 90c-56 0 -93 -35 -104 -103l-46 -289h-179l93 587h-57l15 96h57l11 70h179l-11 -70h155l-15 -96h-155l-23 -147c36 56 88 97 173 97c100 0 172 -65 148 -222z" />
    <glyph glyph-name="uni0453" unicode="&#x453;" horiz-adv-x="433" 
d="M286 749h182l-125 -166h-130zM253 401l-63 -401h-179l83 523h365l-20 -122h-186z" />
    <glyph glyph-name="uni0454" unicode="&#x454;" horiz-adv-x="579" 
d="M551 190c-21 -125 -110 -201 -261 -201c-154 0 -266 83 -266 240c0 186 121 307 294 307c136 0 232 -65 243 -198h-168c-11 39 -30 59 -79 59c-48 0 -80 -31 -97 -78h156l-18 -114h-151v-3c0 -3 0 -4 1 -5c9 -49 35 -78 91 -78c49 0 80 27 92 71h163z" />
    <glyph glyph-name="uni0455" unicode="&#x455;" horiz-adv-x="513" 
d="M235 -13c-72 0 -130 14 -170 45c-41 29 -65 74 -65 134h166c3 -35 21 -59 74 -59c41 0 61 14 61 42c0 13 -5 22 -17 30c-13 7 -36 13 -72 20c-119 23 -171 68 -171 157c0 60 25 106 68 137c41 29 99 44 166 44c64 0 118 -12 157 -39s62 -70 66 -130h-163
c-3 29 -24 52 -65 52c-40 0 -60 -12 -60 -39s25 -35 82 -48c65 -13 112 -30 143 -55c29 -25 43 -61 43 -110c0 -61 -25 -107 -68 -136c-44 -31 -104 -45 -175 -45z" />
    <glyph glyph-name="uni0456" unicode="&#x456;" horiz-adv-x="295" 
d="M212 574c-56 0 -96 38 -96 91c0 52 41 92 97 92s96 -39 96 -91c0 -53 -41 -92 -97 -92zM103 523h178l-82 -523h-179z" />
    <glyph glyph-name="uni0457" unicode="&#x457;" horiz-adv-x="295" 
d="M111 580c-24 0 -45 9 -60 24c-16 15 -25 36 -25 59s9 44 25 60c15 15 36 24 60 24c48 0 86 -36 86 -83s-39 -84 -86 -84zM320 580c-24 0 -45 9 -60 24c-16 15 -25 36 -25 59s9 44 25 60c15 15 36 24 60 24c48 0 86 -36 86 -83s-38 -84 -86 -84zM103 523h178l-82 -523
h-179z" />
    <glyph glyph-name="uni0458" unicode="&#x458;" horiz-adv-x="295" 
d="M-53 -54c45 3 66 19 73 59l82 518h179l-85 -535c-8 -51 -27 -95 -67 -127c-41 -31 -105 -48 -201 -44zM211 574c-56 0 -96 38 -96 91c0 52 41 92 97 92s96 -39 96 -91c0 -53 -41 -92 -97 -92z" />
    <glyph glyph-name="uni0459" unicode="&#x459;" horiz-adv-x="805" 
d="M255 276c-24 -125 -59 -285 -209 -285c-27 0 -41 1 -52 4c-6 1 -11 3 -14 5l22 143c1 -1 3 -1 5 -2s7 -1 15 -1c48 0 66 75 82 159c8 43 16 100 23 145l12 79h419l-28 -179h26c145 0 214 -49 214 -160c0 -108 -69 -184 -219 -184h-254l64 401h-86
c-7 -40 -13 -85 -20 -125zM513 234l-18 -116h43c39 0 60 29 60 64c0 29 -16 52 -55 52h-30z" />
    <glyph glyph-name="uni045A" unicode="&#x45a;" horiz-adv-x="839" 
d="M546 234l-18 -116h44c39 0 60 29 60 64c0 29 -16 52 -55 52h-31zM362 201h-140l-32 -201h-179l83 523h178l-31 -200h140l32 200h178l-28 -179h27c145 0 214 -49 214 -160c0 -108 -69 -184 -219 -184h-255z" />
    <glyph glyph-name="uni045B" unicode="&#x45b;" horiz-adv-x="622" 
d="M66 683h57l11 70h179l-11 -70h155l-15 -96h-155l-23 -147c36 56 88 97 173 97c49 0 93 -16 121 -52c27 -36 39 -91 27 -170l-50 -315h-179l47 302c11 64 -10 90 -59 90c-56 0 -93 -35 -104 -103l-46 -289h-179l93 587h-57z" />
    <glyph glyph-name="uni045C" unicode="&#x45c;" horiz-adv-x="576" 
d="M336 749h182l-125 -166h-130zM228 241l-38 -241h-179l83 523h178l-33 -209l175 209h194l-216 -242l140 -281h-193z" />
    <glyph glyph-name="uni045D" unicode="&#x45d;" horiz-adv-x="627" 
d="M11 0l83 523h178l-46 -295l211 295h175l-82 -523h-179l47 295l-211 -295h-176zM217 749h178l40 -166h-125z" />
    <glyph glyph-name="uni045E" unicode="&#x45e;" horiz-adv-x="577" 
d="M340 587c-104 0 -164 58 -165 153h121c-1 -29 12 -61 45 -61c32 0 49 30 50 61h121c-15 -97 -83 -153 -172 -153zM177 59l-127 464h186l60 -281l141 281h178l-386 -698h-179z" />
    <glyph glyph-name="uni045F" unicode="&#x45f;" horiz-adv-x="607" 
d="M11 0l82 523h179l-64 -401h142l63 401h179l-83 -523h-169l-26 -127h-148l15 127h-170z" />
    <glyph glyph-name="uni0490" unicode="&#x490;" horiz-adv-x="562" 
d="M233 0h-206l113 715h281l26 130h185l-43 -289h-269z" />
    <glyph glyph-name="uni0491" unicode="&#x491;" horiz-adv-x="447" 
d="M253 401l-63 -401h-179l83 523h211l30 127h148l-38 -249h-192z" />
    <glyph glyph-name="Wgrave" unicode="&#x1e80;" horiz-adv-x="994" 
d="M83 715h208l20 -454l172 454h173l40 -458l168 458h189l-285 -715h-201l-41 436l-176 -436h-207zM424 905h185l33 -146h-132z" />
    <glyph glyph-name="wgrave" unicode="&#x1e81;" horiz-adv-x="838" 
d="M52 523h182l27 -314l131 314h145l29 -314l128 314h174l-244 -523h-172l-29 293l-125 -293h-175zM308 749h178l40 -166h-125z" />
    <glyph glyph-name="Wacute" unicode="&#x1e82;" horiz-adv-x="994" 
d="M83 715h208l20 -454l172 454h173l40 -458l168 458h189l-285 -715h-201l-41 436l-176 -436h-207zM564 905h188l-115 -146h-137z" />
    <glyph glyph-name="wacute" unicode="&#x1e83;" horiz-adv-x="838" 
d="M52 523h182l27 -314l131 314h145l29 -314l128 314h174l-244 -523h-172l-29 293l-125 -293h-175zM481 749h182l-125 -166h-130z" />
    <glyph glyph-name="Wdieresis" unicode="&#x1e84;" horiz-adv-x="994" 
d="M83 715h208l20 -454l172 454h173l40 -458l168 458h189l-285 -715h-201l-41 436l-176 -436h-207zM465 758c-24 0 -45 9 -60 24c-16 15 -25 36 -25 59s9 44 25 60c15 15 36 24 60 24c48 0 86 -36 86 -83s-38 -84 -86 -84zM688 758c-48 0 -85 36 -85 83c0 23 9 44 25 60
c15 15 36 24 60 24c48 0 86 -36 86 -83s-38 -84 -86 -84z" />
    <glyph glyph-name="wdieresis" unicode="&#x1e85;" horiz-adv-x="838" 
d="M52 523h182l27 -314l131 314h145l29 -314l128 314h174l-244 -523h-172l-29 293l-125 -293h-175zM368 580c-24 0 -45 9 -60 24c-16 15 -25 36 -25 59c0 47 38 84 86 84c24 0 45 -9 61 -24c15 -16 24 -36 24 -59c0 -47 -38 -84 -86 -84zM581 580c-48 0 -85 36 -85 83
s37 84 85 84s86 -36 86 -83s-38 -84 -86 -84z" />
    <glyph glyph-name="Ygrave" unicode="&#x1ef2;" horiz-adv-x="686" 
d="M249 307l-168 408h214l86 -238l157 238h205l-289 -419l-46 -296h-207zM269 905h185l33 -146h-132z" />
    <glyph glyph-name="ygrave" unicode="&#x1ef3;" horiz-adv-x="585" 
d="M177 59l-127 464h186l60 -281l141 281h178l-386 -698h-179zM189 749h178l40 -166h-125z" />
    <glyph glyph-name="uni2009" unicode="&#x2009;" horiz-adv-x="84" 
 />
    <glyph glyph-name="endash" unicode="&#x2013;" horiz-adv-x="549" 
d="M62 345h449l-17 -105h-449z" />
    <glyph glyph-name="emdash" unicode="&#x2014;" horiz-adv-x="954" 
d="M62 345h855l-17 -105h-855z" />
    <glyph glyph-name="quoteleft" unicode="&#x2018;" horiz-adv-x="305" 
d="M66 481l158 247l97 -39l-101 -261z" />
    <glyph glyph-name="quoteright" unicode="&#x2019;" horiz-adv-x="304" 
d="M79 466l100 262l155 -53l-157 -247z" />
    <glyph glyph-name="quotesinglbase" unicode="&#x201a;" horiz-adv-x="305" 
d="M-15 -68l100 262l154 -53l-157 -247z" />
    <glyph glyph-name="quotedblleft" unicode="&#x201c;" horiz-adv-x="532" 
d="M66 481l158 247l97 -39l-101 -261zM293 481l157 247l98 -39l-100 -261z" />
    <glyph glyph-name="quotedblright" unicode="&#x201d;" horiz-adv-x="532" 
d="M79 466l100 262l155 -53l-157 -247zM306 466l101 262l154 -53l-158 -247z" />
    <glyph glyph-name="quotedblbase" unicode="&#x201e;" horiz-adv-x="532" 
d="M-15 -68l100 262l154 -53l-157 -247zM211 -68l101 262l154 -53l-157 -247z" />
    <glyph glyph-name="dagger" unicode="&#x2020;" horiz-adv-x="413" 
d="M166 472h-106l19 126h107l19 117h145l-19 -117h107l-20 -126h-107l-41 -259h-145z" />
    <glyph glyph-name="daggerdbl" unicode="&#x2021;" horiz-adv-x="413" 
d="M171 501h-107l18 114h107l16 100h145l-16 -100h106l-18 -114h-106l-12 -74h107l-18 -114h-106l-17 -100h-145l17 100h-107l18 114h107z" />
    <glyph glyph-name="bullet" unicode="&#x2022;" horiz-adv-x="380" 
d="M190 156c-41 0 -77 17 -101 42c-25 24 -40 59 -40 95c0 45 17 85 44 113c27 27 64 43 107 43c41 0 78 -16 103 -41c24 -25 39 -61 39 -98c0 -44 -16 -83 -43 -110c-28 -28 -66 -44 -109 -44z" />
    <glyph glyph-name="ellipsis" unicode="&#x2026;" horiz-adv-x="901" 
d="M124 -11c-29 0 -56 11 -73 30c-19 17 -29 43 -29 71s10 53 29 72c17 17 43 29 72 29s56 -12 76 -29c19 -19 30 -44 30 -72s-11 -54 -30 -71c-19 -19 -46 -30 -75 -30zM421 -11c-29 0 -56 11 -73 30c-19 17 -29 43 -29 71s10 53 29 72c17 17 43 29 72 29s56 -12 76 -29
c19 -19 30 -44 30 -72s-11 -54 -30 -71c-19 -19 -46 -30 -75 -30zM718 -11c-29 0 -56 11 -73 30c-19 17 -29 43 -29 71s10 53 29 72c17 17 43 29 72 29s56 -12 76 -29c19 -19 30 -44 30 -72s-11 -54 -30 -71c-19 -19 -46 -30 -75 -30z" />
    <glyph glyph-name="perthousand" unicode="&#x2030;" horiz-adv-x="1226" 
d="M195 530c0 -31 13 -59 52 -58c21 0 36 13 47 30c9 16 15 38 15 61c0 31 -14 58 -50 58c-43 0 -64 -42 -64 -91zM243 368c-49 0 -94 14 -126 41c-33 27 -54 66 -54 117c0 55 20 104 56 140c35 35 85 57 144 57c48 0 93 -15 125 -42s53 -68 53 -117
c0 -53 -20 -102 -55 -138c-36 -36 -86 -58 -143 -58zM671 715h99l-577 -715h-99zM549 150c0 -31 14 -58 53 -58c43 1 62 47 62 92c0 31 -15 58 -51 58c-43 0 -64 -43 -64 -92zM597 -12c-48 0 -93 14 -125 41c-33 27 -54 66 -54 117c0 53 20 103 56 139c35 36 85 58 144 58
c48 0 92 -14 124 -41c32 -28 53 -67 53 -118c0 -53 -20 -102 -55 -138s-84 -58 -143 -58zM953 150c0 -31 13 -58 52 -58c43 1 62 47 62 92c0 31 -14 58 -50 58c-43 0 -64 -43 -64 -92zM1000 -12c-48 0 -93 14 -125 41c-33 27 -54 66 -54 117c0 53 20 103 56 139
c35 36 85 58 144 58c48 0 92 -14 125 -41c32 -28 52 -67 52 -118c0 -53 -20 -102 -55 -138s-84 -58 -143 -58z" />
    <glyph glyph-name="uni2032" unicode="&#x2032;" horiz-adv-x="258" 
d="M129 715h170l-108 -275h-127z" />
    <glyph glyph-name="uni2033" unicode="&#x2033;" horiz-adv-x="470" 
d="M129 715h170l-108 -275h-127zM341 715h170l-107 -275h-127z" />
    <glyph glyph-name="guilsinglleft" unicode="&#x2039;" horiz-adv-x="315" 
d="M34 267l152 185h125l-149 -187l85 -195h-117z" />
    <glyph glyph-name="guilsinglright" unicode="&#x203a;" horiz-adv-x="315" 
d="M278 255l-152 -185h-125l149 187l-85 195h117z" />
    <glyph glyph-name="fraction" unicode="&#x2044;" horiz-adv-x="176" 
d="M358 715h95l-611 -715h-95z" />
    <glyph glyph-name="Euro" unicode="&#x20ac;" horiz-adv-x="726" 
d="M56 452h61c41 168 155 273 330 273c84 0 152 -21 200 -64c47 -43 74 -107 74 -194h-191c-1 60 -21 104 -90 104c-67 0 -103 -46 -124 -119h154l-23 -71h-145l-8 -52h137l-23 -71h-120c0 -31 6 -59 22 -79c15 -20 39 -33 78 -33c63 0 102 33 123 116h187
c-35 -187 -147 -274 -319 -274c-92 0 -164 27 -212 74s-75 115 -76 196h-65l11 71h58l8 52h-58z" />
    <glyph glyph-name="uni20B4" unicode="&#x20b4;" horiz-adv-x="677" 
d="M650 227c-31 -149 -151 -239 -334 -238c-169 0 -251 77 -251 189c0 32 7 61 21 87h-65l11 71h122c29 19 64 37 108 54h-222l11 71h378c19 17 23 37 23 62c0 37 -21 56 -62 56c-49 0 -81 -22 -96 -77h-187c31 153 144 223 308 223c147 0 232 -90 232 -182
c0 -30 -6 -57 -18 -82h58l-11 -71h-106c-27 -20 -61 -38 -102 -54h200l-11 -71h-363c-24 -23 -30 -47 -30 -72c0 -35 24 -59 71 -59c77 0 108 44 122 93h193z" />
    <glyph glyph-name="uni20B8" unicode="&#x20b8;" horiz-adv-x="598" 
d="M81 644l11 71h556l-11 -71h-556zM222 429h-175l26 158h556l-26 -158h-175l-68 -429h-206z" />
    <glyph glyph-name="uni20BD" unicode="&#x20bd;" horiz-adv-x="682" 
d="M384 381c73 0 113 36 113 107c0 50 -31 75 -92 75h-55l-28 -182h62zM282 119l-19 -119h-206l19 119h-84l11 71h84l8 52h-84l11 71h84l64 402h257c172 0 264 -77 265 -204c0 -179 -120 -269 -300 -269h-91l-8 -52h236l-11 -71h-236z" />
    <glyph glyph-name="uni2116" unicode="&#x2116;" horiz-adv-x="1182" 
d="M966 331c-116 0 -187 63 -187 168c0 134 103 224 227 224c123 0 186 -68 186 -171c0 -135 -103 -221 -226 -221zM976 438c49 0 73 55 73 116c0 37 -15 62 -52 62c-47 0 -74 -51 -74 -116c0 -39 17 -62 53 -62zM140 715h234l131 -391l62 391h182l-113 -715h-200l-158 435
l-68 -435h-183zM761 265h386l-15 -96h-386z" />
    <glyph glyph-name="trademark" unicode="&#x2122;" horiz-adv-x="768" 
d="M413 715h124l33 -158l86 158h134l-51 -321h-108l28 183l-100 -183h-33l-43 183l-28 -183h-93zM170 631h-83l13 84h274l-14 -84h-83l-37 -237h-107z" />
    <glyph glyph-name="Omega" unicode="&#x2126;" horiz-adv-x="827" 
d="M448 565c-136 0 -190 -122 -190 -245c0 -93 40 -166 105 -219l-16 -101h-335l22 152h99c-43 39 -83 107 -83 195c0 225 186 378 402 378c212 0 356 -129 356 -314c0 -100 -43 -199 -124 -259h101l-23 -152h-326l16 101c88 63 144 171 144 290c0 103 -51 174 -148 174z
" />
    <glyph glyph-name="onethird" unicode="&#x2153;" horiz-adv-x="830" 
d="M159 585l-89 -46l17 109l113 67h114l-60 -376h-134zM653 715h95l-611 -715h-95zM611 -7c-48 0 -90 10 -119 31s-47 55 -47 103h118c0 -27 14 -42 42 -42c19 0 40 10 40 37c0 21 -14 31 -43 31h-28l12 74h33c31 0 45 11 45 34c0 17 -10 29 -34 29c-21 0 -38 -11 -45 -38
h-116c12 83 74 129 173 129c35 0 72 -5 100 -21s47 -41 47 -81c0 -47 -30 -76 -77 -89c39 -8 64 -30 64 -77c0 -41 -20 -71 -49 -91c-31 -20 -72 -29 -116 -29z" />
    <glyph glyph-name="twothirds" unicode="&#x2154;" horiz-adv-x="888" 
d="M26 357l149 132c20 17 41 35 57 54c16 17 28 35 28 51c0 20 -9 29 -29 29c-21 0 -38 -15 -46 -52h-122c15 100 83 149 178 149c40 0 78 -8 106 -25c27 -17 44 -47 44 -88c0 -55 -40 -94 -103 -147l-31 -26h109l-16 -95h-327zM729 715h95l-611 -715h-95zM668 -7
c-48 0 -90 10 -119 31s-47 55 -47 103h118c0 -27 14 -42 42 -42c19 0 40 10 40 37c0 21 -14 31 -43 31h-28l12 74h33c31 0 45 11 45 34c0 17 -10 29 -34 29c-21 0 -38 -11 -45 -38h-116c12 83 74 129 173 129c35 0 72 -5 100 -21s47 -41 47 -81c0 -47 -30 -76 -77 -89
c39 -8 64 -30 64 -77c0 -41 -20 -71 -49 -91c-31 -20 -72 -29 -116 -29z" />
    <glyph glyph-name="oneeighth" unicode="&#x215b;" horiz-adv-x="828" 
d="M159 585l-89 -46l17 109l113 67h114l-60 -376h-134zM655 715h95l-611 -715h-95zM608 -7c-41 0 -84 7 -116 24c-33 16 -56 43 -56 84c0 57 32 85 83 101c-27 15 -44 35 -44 66c0 40 19 68 50 87c29 17 69 26 108 26c37 0 76 -7 105 -23c29 -17 48 -43 48 -79
c0 -45 -20 -74 -63 -87c37 -15 56 -42 56 -77c0 -45 -22 -76 -54 -95c-33 -19 -76 -27 -117 -27zM568 117c0 -20 13 -35 40 -35c23 0 44 13 44 41c0 21 -14 36 -39 36c-24 0 -45 -14 -45 -42zM592 259c0 -19 14 -32 34 -32c23 0 40 13 40 37c0 19 -15 32 -36 32
c-19 0 -38 -12 -38 -37z" />
    <glyph glyph-name="threeeighths" unicode="&#x215c;" horiz-adv-x="885" 
d="M222 332c-48 0 -90 10 -119 31s-47 55 -47 103h118c0 -27 14 -42 42 -42c19 0 40 10 40 37c0 21 -14 31 -43 31h-28l12 74h33c31 0 45 11 45 34c0 17 -10 29 -34 29c-21 0 -38 -11 -45 -38h-116c12 83 74 129 173 129c35 0 72 -5 100 -21s47 -41 47 -81
c0 -47 -30 -76 -77 -89c39 -8 64 -30 64 -77c0 -41 -20 -71 -49 -91c-31 -20 -72 -29 -116 -29zM718 715h95l-611 -715h-95zM665 -7c-41 0 -84 7 -116 24c-33 16 -56 43 -56 84c0 57 32 85 83 101c-27 15 -44 35 -44 66c0 40 19 68 50 87c29 17 69 26 108 26
c37 0 76 -7 105 -23c29 -17 48 -43 48 -79c0 -45 -20 -74 -63 -87c37 -15 56 -42 56 -77c0 -45 -22 -76 -54 -95c-33 -19 -76 -27 -117 -27zM625 117c0 -20 13 -35 40 -35c23 0 44 13 44 41c0 21 -14 36 -39 36c-24 0 -45 -14 -45 -42zM649 259c0 -19 14 -32 34 -32
c23 0 40 13 40 37c0 19 -15 32 -36 32c-19 0 -38 -12 -38 -37z" />
    <glyph glyph-name="fiveeighths" unicode="&#x215d;" horiz-adv-x="865" 
d="M216 332c-41 0 -82 8 -111 28c-31 20 -52 51 -53 98h124c3 -17 12 -29 37 -29c21 0 39 14 39 45c0 24 -12 36 -37 36c-20 0 -31 -9 -42 -24h-101l48 229h279l-15 -93h-187l-16 -77c17 23 45 45 97 45c63 0 106 -33 106 -104c0 -103 -69 -153 -168 -154zM701 715h95
l-611 -715h-95zM645 -7c-41 0 -84 7 -116 24c-33 16 -56 43 -56 84c0 57 32 85 83 101c-27 15 -44 35 -44 66c0 40 19 68 50 87c29 17 69 26 108 26c37 0 76 -7 105 -23c29 -17 48 -43 48 -79c0 -45 -20 -74 -63 -87c37 -15 56 -42 56 -77c0 -45 -22 -76 -54 -95
c-33 -19 -76 -27 -117 -27zM605 117c0 -20 13 -35 40 -35c23 0 44 13 44 41c0 21 -14 36 -39 36c-24 0 -45 -14 -45 -42zM629 259c0 -19 14 -32 34 -32c23 0 40 13 40 37c0 19 -15 32 -36 32c-19 0 -38 -12 -38 -37z" />
    <glyph glyph-name="seveneighths" unicode="&#x215e;" horiz-adv-x="821" 
d="M225 611h-147l17 104h316l-2 -15l-194 -361h-136zM647 715h95l-611 -715h-95zM601 -7c-41 0 -84 7 -116 24c-33 16 -56 43 -56 84c0 57 32 85 83 101c-27 15 -44 35 -44 66c0 40 19 68 50 87c29 17 69 26 108 26c37 0 76 -7 105 -23c29 -17 48 -43 48 -79
c0 -45 -20 -74 -63 -87c37 -15 56 -42 56 -77c0 -45 -22 -76 -54 -95c-33 -19 -76 -27 -117 -27zM561 117c0 -20 13 -35 40 -35c23 0 44 13 44 41c0 21 -14 36 -39 36c-24 0 -45 -14 -45 -42zM585 259c0 -19 14 -32 34 -32c23 0 40 13 40 37c0 19 -15 32 -36 32
c-19 0 -38 -12 -38 -37z" />
    <glyph glyph-name="Delta" unicode="&#x2206;" horiz-adv-x="750" 
d="M-23 23l330 692h281l107 -692l-3 -23h-718zM230 158h243l-55 413z" />
    <glyph glyph-name="minus" unicode="&#x2212;" horiz-adv-x="580" 
d="M64 409h497l-21 -138h-498z" />
    <glyph glyph-name="approxequal" unicode="&#x2248;" horiz-adv-x="587" 
d="M60 342c8 64 29 109 57 137s62 40 98 40c40 0 80 -11 117 -20c37 -11 71 -20 95 -20c27 0 44 15 49 44h103c-7 -60 -27 -105 -54 -134c-28 -29 -63 -43 -99 -43c-40 0 -81 9 -118 20c-37 9 -71 20 -95 20c-27 0 -43 -17 -50 -44h-103zM24 121c9 64 30 109 58 138
c27 28 61 40 97 40c40 0 80 -11 117 -20c37 -11 71 -20 95 -20c27 0 43 15 50 44h103c-7 -60 -27 -105 -55 -134s-62 -44 -98 -44c-40 0 -82 9 -119 20c-37 9 -71 20 -95 20c-25 0 -42 -15 -50 -44h-103z" />
    <glyph glyph-name="notequal" unicode="&#x2260;" horiz-adv-x="565" 
d="M77 486h238l49 96h115l-49 -96h126l-19 -123h-169l-37 -74h194l-19 -122h-237l-48 -96h-116l48 96h-126l19 122h169l38 74h-195z" />
    <glyph glyph-name="lessequal" unicode="&#x2264;" horiz-adv-x="521" 
d="M61 373l6 34l457 221l-26 -164l-178 -80l153 -84l-26 -157zM22 118h422l-19 -118h-421z" />
    <glyph glyph-name="greaterequal" unicode="&#x2265;" horiz-adv-x="521" 
d="M29 118h422l-18 -118h-422zM496 397l-6 -34l-457 -220l26 163l178 80l-152 85l25 157z" />
    <glyph glyph-name="uni24C5" unicode="&#x24c5;" horiz-adv-x="851" 
d="M295 561h159c117 0 166 -52 166 -137v-3c0 -85 -55 -131 -159 -131h-40v-132h-126v403zM448 375c36 0 53 15 53 46v3c0 29 -17 43 -53 43h-27v-92h27zM437 31c88 0 168 32 227 91c59 57 95 138 95 237c0 96 -36 178 -93 235s-138 90 -227 90c-91 0 -172 -34 -229 -91
c-59 -57 -94 -139 -94 -236c0 -99 36 -180 95 -236c59 -57 138 -90 226 -90zM437 -20c-107 0 -203 41 -271 109c-69 67 -112 161 -112 268c0 105 43 200 112 268c68 68 165 110 273 110c109 0 205 -41 274 -109c68 -68 109 -162 109 -267c0 -108 -43 -202 -112 -270
s-165 -109 -273 -109z" />
    <glyph glyph-name="zero.tab" unicode="&#xe44f;" 
d="M224 287c-3 -24 -6 -45 -6 -62c0 -51 17 -85 73 -85c59 0 82 38 97 137l24 149c4 25 7 46 7 65c0 51 -18 85 -71 85c-59 0 -85 -42 -100 -139zM278 -12c-151 0 -242 83 -242 235c0 25 2 51 6 76l24 151c31 184 135 275 291 275c151 0 243 -84 243 -235
c0 -23 -1 -46 -6 -73l-24 -150c-29 -185 -128 -279 -292 -279z" />
    <glyph glyph-name="one.tab" unicode="&#xe450;" 
d="M292 505l-189 -112l29 177l219 145h185l-113 -715h-211z" />
    <glyph glyph-name="two.tab" unicode="&#xe451;" 
d="M-10 30l264 268c27 28 62 63 91 102s51 78 51 114c0 33 -17 59 -56 59c-43 1 -69 -26 -88 -118h-188c27 181 126 271 298 270c63 0 121 -14 164 -45s71 -79 72 -148c0 -56 -17 -103 -48 -150c-32 -47 -79 -93 -136 -145l-92 -80h222l-24 -157h-535z" />
    <glyph glyph-name="three.tab" unicode="&#xe452;" 
d="M291 -12c-81 0 -151 16 -199 56c-49 39 -77 101 -74 192h179c0 -29 5 -55 18 -72s35 -27 68 -27c59 0 91 30 91 94c0 41 -22 69 -78 69h-51l21 129h60c48 0 87 22 87 85c0 39 -23 62 -68 62c-49 0 -83 -26 -96 -91h-179c27 152 125 240 285 240c59 0 118 -12 165 -40
c45 -29 77 -76 77 -147c0 -88 -50 -149 -131 -172c64 -19 103 -69 103 -142s-28 -133 -76 -173c-49 -41 -119 -63 -202 -63z" />
    <glyph glyph-name="four.tab" unicode="&#xe453;" 
d="M300 136h-299l11 73l333 506h233l-69 -440h71l-22 -139h-72l-21 -136h-185zM327 275l44 276l-178 -276h134z" />
    <glyph glyph-name="five.tab" unicode="&#xe454;" 
d="M277 -12c-161 0 -257 76 -250 239h178c0 -51 20 -81 76 -81c61 0 91 48 91 116c0 51 -28 82 -85 82c-51 0 -85 -21 -108 -52h-117l81 423h453l-23 -151h-311l-30 -158c31 39 83 74 156 74c112 0 181 -70 181 -197c0 -88 -27 -162 -76 -214c-51 -52 -124 -81 -216 -81z
" />
    <glyph glyph-name="six.tab" unicode="&#xe455;" 
d="M299 -12c-79 0 -145 21 -190 62c-47 41 -73 104 -73 188c0 28 4 62 9 94l10 68c16 100 52 181 107 238c55 56 127 87 216 87c153 0 231 -67 228 -211h-171c-1 40 -15 66 -66 66c-37 0 -66 -21 -87 -54c-21 -35 -36 -83 -45 -140c31 40 81 78 153 78c53 0 100 -18 133 -51
s53 -82 53 -145c0 -83 -27 -152 -75 -201c-48 -51 -118 -79 -202 -79zM215 227c0 -48 28 -89 85 -89c59 0 97 46 97 111c0 47 -27 84 -83 84s-99 -41 -99 -106z" />
    <glyph glyph-name="seven.tab" unicode="&#xe456;" 
d="M357 548h-277l27 167h537l-3 -21l-361 -694h-211z" />
    <glyph glyph-name="eight.tab" unicode="&#xe457;" 
d="M289 -12c-63 0 -130 12 -181 43c-52 31 -87 80 -87 152c0 101 55 166 148 201c-44 25 -76 68 -76 124c0 69 30 124 78 161c48 36 112 56 180 56c57 0 118 -14 163 -43c44 -29 75 -77 75 -142c0 -89 -44 -138 -116 -170c64 -31 96 -82 96 -146c0 -80 -31 -138 -82 -177
c-52 -40 -122 -59 -198 -59zM208 215c0 -48 35 -78 86 -78c55 0 96 35 96 98c0 48 -34 77 -83 77c-56 0 -99 -34 -99 -97zM261 501c0 -39 27 -71 75 -71c44 0 83 27 83 83c0 40 -29 71 -73 71c-47 0 -85 -31 -85 -83z" />
    <glyph glyph-name="nine.tab" unicode="&#xe458;" 
d="M258 -11c-148 0 -236 67 -237 214h175c3 -47 24 -69 72 -69c71 0 112 61 131 193c-29 -41 -80 -77 -152 -77c-53 0 -100 17 -133 50s-53 82 -53 146c0 79 27 148 76 199c48 51 118 81 206 81c77 0 142 -20 187 -61c44 -41 70 -104 70 -188c0 -28 -4 -62 -9 -94l-11 -72
c-36 -227 -139 -322 -322 -322zM239 467c0 -48 28 -84 80 -84c56 0 103 38 103 106c0 47 -26 89 -83 89c-59 0 -100 -44 -100 -111z" />
    <glyph glyph-name="cent.tab" unicode="&#xe459;" 
d="M237 -6c-60 9 -111 34 -147 73c-37 39 -59 91 -59 155c0 89 30 166 82 222c51 55 123 88 210 92l15 93h78l-16 -98c111 -17 181 -82 186 -210h-162c-1 40 -17 66 -45 77l-45 -285c45 7 74 35 86 92h156c-8 -67 -37 -120 -82 -157s-107 -59 -180 -60l-19 -123h-78z
M205 224c0 -53 17 -88 52 -104l45 282c-60 -15 -97 -74 -97 -178z" />
    <glyph glyph-name="dollar.tab" unicode="&#xe45a;" 
d="M226 -7c-64 9 -119 32 -156 71c-39 39 -60 91 -56 162h170c-3 -47 19 -80 64 -93l24 149c-139 33 -203 93 -203 206c0 72 29 131 78 172s116 65 195 65l14 88h72l-15 -93c59 -8 108 -27 143 -62c33 -35 53 -84 53 -152h-164c-3 40 -22 62 -54 73l-23 -143
c63 -15 114 -36 150 -68s57 -75 57 -135c0 -77 -27 -139 -75 -180c-49 -43 -119 -65 -203 -65l-19 -123h-72zM404 202c0 31 -14 49 -63 64l-22 -140c51 4 85 29 85 76zM240 515c0 -29 14 -47 59 -62l21 132c-56 -4 -80 -31 -80 -70z" />
    <glyph glyph-name="Euro.tab" unicode="&#xe45b;" 
d="M45 453h48c32 185 134 273 283 272c157 0 242 -81 230 -242h-170c1 53 -12 90 -65 90s-80 -36 -95 -120h140l-23 -72h-129l-7 -49h119l-24 -73h-107c-4 -32 -4 -61 7 -82c9 -21 29 -35 65 -35c47 0 74 23 89 98h168c-15 -91 -46 -154 -91 -194c-47 -40 -106 -58 -177 -58
c-88 0 -152 26 -192 73c-41 47 -58 115 -51 198h-48l11 73h47l8 49h-47z" />
    <glyph glyph-name="a.alt" unicode="&#xe4c0;" horiz-adv-x="640" 
d="M324 404c-35 0 -63 -17 -83 -48s-31 -74 -31 -126c0 -68 27 -108 84 -108c33 0 63 19 84 51c20 31 32 74 32 125c0 67 -31 106 -86 106zM215 -12c-56 0 -104 20 -137 59c-33 37 -53 94 -53 165c0 100 28 182 73 238s108 87 179 87c84 0 134 -41 154 -96l13 82h179
l-56 -360c-11 -69 -15 -119 -11 -163h-177c-4 23 -3 59 -2 88c-37 -64 -87 -100 -162 -100z" />
    <glyph glyph-name="t.alt" unicode="&#xe4d3;" horiz-adv-x="390" 
d="M111 401h-72l19 122h72l18 109h179l-18 -109h96l-19 -122h-96l-63 -401h-179z" />
    <glyph glyph-name="f_i" unicode="&#xfb01;" horiz-adv-x="681" 
d="M56 523h66l10 64c11 64 37 108 76 136s87 41 142 41c47 0 70 -6 93 -14l-21 -131c-12 4 -25 8 -48 8c-40 0 -59 -19 -66 -58l-8 -46h107l-19 -122h-107l-63 -401h-178l63 401h-66zM589 574c-56 0 -96 38 -96 91c0 52 41 92 97 92s96 -39 96 -91c0 -53 -41 -92 -97 -92z
M480 523h178l-82 -523h-179z" />
    <glyph glyph-name="f_l" unicode="&#xfb02;" horiz-adv-x="679" 
d="M56 523h66l10 64c11 64 37 108 76 136s87 41 142 41c47 0 70 -6 93 -14l-21 -131c-12 4 -25 8 -48 8c-40 0 -59 -19 -66 -58l-8 -46h107l-19 -122h-107l-63 -401h-178l63 401h-66zM515 753h179l-119 -753h-178z" />
    <glyph glyph-name="hyphen.uc" horiz-adv-x="413" 
d="M75 397h303l-22 -142h-304z" />
    <glyph glyph-name="four.old" horiz-adv-x="677" 
d="M334 41h-351l10 64l382 514h240l-71 -451h92l-20 -127h-92l-22 -133h-190zM358 168l48 301l-214 -301h166z" />
    <glyph glyph-name="zero.num" horiz-adv-x="430" 
d="M197 495c0 -35 11 -62 50 -62c27 0 43 20 54 45c9 25 13 58 13 82c0 35 -12 61 -48 61c-28 0 -46 -22 -55 -47c-11 -27 -14 -58 -14 -79zM241 332c-104 0 -175 55 -175 159c0 64 19 122 54 163c35 40 87 66 152 66c51 0 94 -13 125 -40s49 -66 49 -118
c0 -65 -18 -123 -53 -164s-87 -66 -152 -66z" />
    <glyph glyph-name="nine.oldtab" horiz-adv-x="600" 
d="M396 400c0 53 -25 91 -85 91c-59 0 -99 -49 -100 -113c0 -49 27 -86 84 -86s101 44 101 108zM318 631c160 0 254 -84 254 -251c0 -31 -3 -60 -8 -88l-10 -67c-36 -231 -137 -331 -314 -331c-134 0 -244 58 -241 215h169c3 -44 22 -74 73 -74c73 0 113 62 137 207
c-29 -43 -80 -78 -156 -78c-111 0 -182 74 -182 193c0 165 115 274 278 274z" />
    <glyph glyph-name="eight.oldtab" horiz-adv-x="600" 
d="M285 -12c-134 0 -266 60 -266 196c0 103 59 167 151 198c-47 27 -77 69 -77 129c0 137 120 214 255 214c116 0 233 -51 233 -186c0 -87 -43 -141 -120 -172c64 -29 100 -80 100 -152c0 -153 -129 -227 -276 -227zM258 501c0 -40 27 -70 74 -70c45 0 82 31 82 87
c0 41 -27 72 -72 72c-47 0 -84 -33 -84 -89zM204 207c0 -47 29 -77 85 -77c52 0 94 35 94 100c0 47 -29 78 -82 78c-56 0 -97 -37 -97 -101z" />
    <glyph glyph-name="seven.oldtab" horiz-adv-x="600" 
d="M344 462h-277l26 157h528l-4 -22l-365 -689h-205z" />
    <glyph glyph-name="six.oldtab" horiz-adv-x="600" 
d="M300 -12c-160 0 -261 88 -261 256c0 31 4 59 8 87l10 67c32 212 158 327 323 327c134 0 230 -59 225 -208h-169c0 40 -16 67 -67 67c-65 0 -113 -62 -137 -207c31 43 80 78 159 78c112 0 179 -74 179 -191c0 -165 -106 -276 -270 -276zM214 223c0 -52 26 -92 86 -92
c59 0 98 49 99 113c0 49 -24 86 -83 86s-102 -43 -102 -107z" />
    <glyph glyph-name="five.oldtab" horiz-adv-x="600" 
d="M182 125c1 -53 22 -86 82 -86c65 0 96 48 96 121c0 49 -25 88 -88 88c-48 0 -82 -20 -109 -53h-112l80 424h444l-23 -146h-306l-31 -167c31 39 78 75 150 75c107 0 182 -71 182 -199c0 -165 -93 -286 -282 -286c-156 0 -262 79 -254 229h171z" />
    <glyph glyph-name="four.oldtab" horiz-adv-x="600" 
d="M284 41h-301l9 62l335 516h229l-72 -452h75l-19 -126h-76l-21 -133h-180zM308 167l47 296l-190 -296h143z" />
    <glyph glyph-name="three.oldtab" horiz-adv-x="600" 
d="M273 -105c-169 0 -278 82 -273 244h175c1 -67 25 -102 93 -102c56 0 92 31 93 95c0 49 -27 79 -83 79h-52l20 121h56c57 0 94 26 94 91c0 47 -28 69 -72 69c-53 0 -85 -32 -98 -96h-174c23 149 123 235 280 235c117 0 243 -45 243 -185c0 -84 -44 -149 -132 -174
c65 -20 104 -68 104 -148c0 -148 -123 -229 -274 -229z" />
    <glyph glyph-name="two.oldtab" horiz-adv-x="600" 
d="M-11 27l254 215c62 51 141 122 141 184c0 41 -21 61 -63 61c-49 0 -80 -35 -94 -104h-173c27 164 128 248 285 248c123 0 238 -53 238 -184c0 -108 -78 -175 -170 -246l-79 -62h210l-22 -139h-531z" />
    <glyph glyph-name="one.oldtab" horiz-adv-x="600" 
d="M288 427l-194 -113l26 163l224 142h165l-98 -619h-191z" />
    <glyph glyph-name="zero.oldtab" horiz-adv-x="600" 
d="M281 -12c-152 0 -249 81 -249 230c0 23 2 46 5 69l13 82c27 171 132 262 285 262c152 0 246 -85 246 -232c0 -21 -1 -41 -5 -64l-12 -81c-27 -173 -123 -266 -283 -266zM287 140c56 0 81 39 94 123l12 81c4 23 7 44 7 60c-1 51 -23 78 -71 78c-56 0 -84 -40 -96 -124
l-13 -81c-4 -22 -6 -42 -6 -59c1 -45 17 -78 73 -78z" />
    <glyph glyph-name="yen.oldtab" horiz-adv-x="600" 
d="M79 368h134l-119 326h197l57 -204l118 204h174l-216 -326h140l-11 -69h-149l-8 -51h149l-11 -69h-149l-28 -179h-192l28 179h-144l11 69h144l8 51h-144z" />
    <glyph glyph-name="sterling.oldtab" horiz-adv-x="600" 
d="M57 395h47c-3 20 -4 41 -4 64c0 149 100 244 257 244s238 -71 229 -230h-163c3 56 -19 80 -68 80c-68 0 -80 -62 -80 -123v-35h157l-18 -117h-135c-1 -41 -8 -76 -25 -111c33 -9 61 -20 85 -20c32 0 57 16 64 56h160c-19 -136 -88 -212 -207 -212c-88 0 -138 51 -182 51
c-27 0 -42 -18 -46 -42h-137c11 77 45 142 104 169c15 29 24 65 24 98v11h-80z" />
    <glyph glyph-name="f.short" horiz-adv-x="390" 
d="M56 523h66l10 64c11 64 37 108 76 136s87 41 142 41c47 0 70 -6 93 -14l-21 -131c-12 4 -25 8 -48 8c-40 0 -59 -19 -66 -58l-8 -46h107l-19 -122h-107l-63 -401h-178l63 401h-66z" />
    <glyph glyph-name="f_f.short" horiz-adv-x="721" 
d="M56 523h66l9 56c9 61 36 105 75 133c37 28 86 41 141 41c44 0 68 -5 91 -14l-20 -130c-15 5 -26 7 -46 7c-40 0 -58 -18 -65 -55l-6 -38h152l10 64c9 64 37 108 76 136c37 28 87 41 142 41c47 0 70 -6 93 -14l-21 -131c-13 4 -25 8 -48 8c-40 0 -59 -19 -66 -58l-8 -46
h107l-19 -122h-107l-63 -401h-179l63 401h-152l-63 -401h-178l63 401h-66z" />
    <glyph glyph-name="Euro.oldtab" horiz-adv-x="600" 
d="M50 439h47c32 180 129 265 274 264c152 0 234 -78 223 -233h-162c1 53 -11 89 -66 89s-81 -36 -96 -120h140l-23 -69h-128l-8 -49h120l-24 -69h-106c-8 -63 1 -118 73 -118c47 0 74 23 89 98h159c-28 -175 -122 -244 -259 -244c-171 0 -247 102 -234 264h-49l11 69h47
l7 49h-46z" />
    <glyph glyph-name="dollar.oldtab" horiz-adv-x="600" 
d="M235 500c0 -28 14 -46 58 -61l21 131c-53 -4 -79 -31 -79 -70zM400 196c0 32 -14 49 -63 64l-23 -142c52 4 86 29 86 78zM275 -131h-71l19 125c-122 19 -212 93 -204 225h160c0 -47 20 -79 65 -94l24 152c-135 33 -194 89 -194 198c0 137 111 225 261 228l14 86h71
l-15 -90c115 -16 190 -75 190 -207h-154c-3 43 -22 62 -57 73l-22 -144c122 -29 201 -81 201 -196c0 -149 -106 -236 -269 -236z" />
    <glyph glyph-name="braceright.tab" horiz-adv-x="308" 
d="M101 777c191 -7 239 -98 179 -247l-32 -81c-19 -47 -8 -76 56 -87l-18 -110c-65 -4 -83 -32 -80 -79l4 -102c5 -83 -13 -137 -56 -172c-44 -33 -111 -47 -200 -47l18 117c63 1 82 21 81 88l-1 108c-1 80 35 124 123 147c-79 27 -104 79 -71 167l29 79
c25 68 14 95 -51 102z" />
    <glyph glyph-name="braceleft.tab" horiz-adv-x="308" 
d="M222 -148c-96 4 -156 29 -184 70c-28 43 -25 102 4 177l32 81c19 47 8 76 -55 87l17 110c33 1 54 11 66 24s16 32 15 55l-5 102c-5 83 14 137 57 172c43 33 108 47 199 47l-18 -117c-32 -1 -52 -7 -64 -20c-13 -13 -17 -35 -17 -68l1 -108c3 -80 -35 -124 -122 -147
c77 -27 104 -79 71 -167l-29 -79c-25 -68 -14 -95 50 -102z" />
    <glyph glyph-name="bracketright.tab" horiz-adv-x="308" 
d="M-27 -31h77l110 690h-78l18 117h238l-146 -924h-237z" />
    <glyph glyph-name="bracketleft.tab" horiz-adv-x="308" 
d="M130 776h238l-18 -117h-77l-110 -690h78l-19 -117h-238z" />
    <glyph glyph-name="parenright.tab" horiz-adv-x="308" 
d="M196 775c21 -39 43 -85 62 -141c17 -57 30 -125 30 -205c0 -216 -80 -406 -228 -577h-131c129 183 203 382 203 590c0 79 -6 142 -17 197c-12 53 -26 97 -41 136h122z" />
    <glyph glyph-name="parenleft.tab" horiz-adv-x="308" 
d="M126 -148c-21 39 -44 85 -61 141c-19 57 -31 125 -31 205c0 216 80 406 228 577h131c-129 -183 -203 -382 -203 -590c0 -79 6 -142 18 -197c11 -53 25 -99 40 -136h-122z" />
    <glyph glyph-name="semicolon.tab" horiz-adv-x="308" 
d="M-44 -80l106 262l158 -59l-165 -247zM174 275c-60 0 -102 44 -102 101c0 28 10 53 29 72c17 17 43 29 72 29s56 -12 76 -29c19 -19 30 -44 30 -72c0 -57 -45 -101 -105 -101z" />
    <glyph glyph-name="colon.tab" horiz-adv-x="308" 
d="M125 -11c-29 0 -56 11 -73 30c-19 17 -30 43 -30 71s10 53 29 72c17 17 44 29 73 29s56 -12 75 -29c19 -19 30 -44 30 -72c0 -56 -44 -101 -104 -101zM171 275c-60 0 -103 44 -103 101c0 28 10 53 29 72c17 17 44 29 73 29s56 -12 76 -29c19 -19 30 -44 30 -72
c0 -57 -45 -101 -105 -101z" />
    <glyph glyph-name="comma.tab" horiz-adv-x="308" 
d="M-31 -80l107 262l157 -59l-165 -247z" />
    <glyph glyph-name="period.tab" horiz-adv-x="308" 
d="M125 -11c-29 0 -56 11 -73 30c-19 17 -29 43 -29 71s10 53 29 72c17 17 43 29 72 29s56 -12 76 -29c19 -19 30 -44 30 -72s-11 -54 -30 -71c-19 -19 -46 -30 -75 -30z" />
    <glyph glyph-name="greaterequal.tab" 
d="M72 118h422l-18 -118h-422zM539 397l-6 -34l-457 -220l26 163l178 80l-152 85l25 157z" />
    <glyph glyph-name="lessequal.tab" 
d="M104 373l6 34l457 221l-26 -164l-178 -80l153 -84l-26 -157zM65 118h422l-19 -118h-421z" />
    <glyph glyph-name="greater.tab" 
d="M536 335l-6 -36l-479 -239l26 167l226 97l-194 108l25 154z" />
    <glyph glyph-name="less.tab" 
d="M90 311l5 35l480 239l-26 -166l-226 -97l193 -108l-24 -155z" />
    <glyph glyph-name="approxequal.tab" 
d="M72 342c8 64 29 109 57 137s62 40 98 40c40 0 80 -11 117 -20c37 -11 71 -20 95 -20c27 0 44 15 49 44h103c-7 -60 -27 -105 -54 -134c-28 -29 -63 -43 -99 -43c-40 0 -81 9 -118 20c-37 9 -71 20 -95 20c-27 0 -43 -17 -50 -44h-103zM36 121c9 64 30 109 58 138
c27 28 61 40 97 40c40 0 80 -11 117 -20c37 -11 71 -20 95 -20c27 0 43 15 50 44h103c-7 -60 -27 -105 -55 -134s-62 -44 -98 -44c-40 0 -82 9 -119 20c-37 9 -71 20 -95 20c-25 0 -42 -15 -50 -44h-103z" />
    <glyph glyph-name="notequal.tab" 
d="M99 486h238l49 96h115l-49 -96h126l-19 -123h-169l-37 -74h194l-19 -122h-237l-48 -96h-116l48 96h-126l19 122h169l38 74h-195z" />
    <glyph glyph-name="equal.tab" 
d="M74 289h466l-19 -122h-466zM105 486h466l-19 -123h-466z" />
    <glyph glyph-name="divide.tab" 
d="M83 402h484l-19 -124h-485zM291 43c-55 0 -94 40 -94 92c0 25 10 49 27 66c16 16 39 27 66 27c28 0 52 -11 69 -27c16 -17 27 -41 27 -66c0 -52 -40 -92 -95 -92zM339 452c-55 0 -94 41 -94 93c0 25 10 49 27 66c16 16 39 26 66 26c55 0 96 -41 96 -92
c0 -52 -40 -93 -95 -93z" />
    <glyph glyph-name="multiply.tab" 
d="M47 186l173 152l-130 153l105 95l132 -155l174 152l84 -96l-175 -153l132 -153l-107 -94l-132 154l-173 -151z" />
    <glyph glyph-name="plusminus.tab" 
d="M245 341h-176l20 131h176l26 164h144l-26 -164h175l-20 -131h-176l-26 -165h-144zM34 118h497l-18 -118h-498z" />
    <glyph glyph-name="minus.tab" 
d="M84 409h485l-22 -138h-484z" />
    <glyph glyph-name="plus.tab" 
d="M234 275h-170l21 130h170l29 185h144l-30 -185h169l-21 -130h-169l-28 -185h-144z" />
    <glyph glyph-name="perthousand.tab" horiz-adv-x="1008" 
d="M176 525c0 -27 9 -46 34 -46c21 0 34 17 41 40s9 48 9 67c0 29 -9 47 -33 47c-21 0 -34 -19 -41 -40c-8 -23 -10 -51 -10 -68zM203 387c-84 0 -143 49 -143 140c0 52 16 101 45 137s72 59 128 59c81 0 142 -51 142 -140c0 -53 -16 -102 -44 -138
c-29 -36 -72 -58 -128 -58zM595 715h98l-584 -715h-98zM440 126c0 -27 10 -46 34 -46c21 0 35 17 42 40s9 48 9 67c0 32 -10 47 -33 47c-21 0 -34 -19 -42 -40c-8 -23 -10 -51 -10 -68zM468 -12c-84 0 -144 49 -144 140c0 53 17 102 46 138s72 58 127 58
c83 0 142 -51 142 -140c0 -53 -15 -102 -44 -138s-71 -58 -127 -58zM776 126c0 -27 8 -46 35 -46c21 0 34 17 41 40s9 48 9 67c0 31 -9 47 -34 47c-21 0 -34 -19 -41 -40c-8 -23 -10 -51 -10 -68zM805 -12c-85 0 -144 49 -144 140c0 53 16 102 45 138c28 36 72 58 128 58
c40 0 76 -13 101 -37s41 -59 41 -103c0 -53 -16 -102 -44 -138c-29 -36 -72 -58 -127 -58z" />
    <glyph glyph-name="percent.tab" horiz-adv-x="808" 
d="M199 539c0 -29 9 -56 48 -56c20 0 35 12 44 28s14 38 14 59c0 29 -12 56 -47 56c-43 0 -59 -40 -59 -87zM243 383c-47 0 -90 13 -121 38c-32 25 -51 64 -51 113c0 52 20 99 53 134c33 33 81 55 138 55c45 0 88 -15 120 -40c31 -27 50 -65 50 -113c0 -51 -20 -98 -52 -131
c-33 -35 -81 -56 -137 -56zM659 715h100l-578 -715h-99zM532 144c0 -29 8 -56 47 -56c41 1 58 43 58 87c0 28 -11 55 -46 55c-43 0 -59 -39 -59 -86zM575 -12c-47 0 -90 14 -121 39s-50 63 -50 112c0 52 20 99 53 134c33 33 81 55 138 55c45 0 88 -15 120 -40
c31 -27 50 -65 50 -113c0 -51 -20 -98 -53 -131c-33 -35 -81 -56 -137 -56z" />
    <glyph glyph-name="two.num" horiz-adv-x="361" 
d="M23 357l149 132c20 17 41 35 57 54c16 17 28 35 28 51c0 20 -9 29 -29 29c-21 0 -38 -15 -46 -52h-122c15 100 83 149 178 149c40 0 78 -8 106 -25c27 -17 44 -47 44 -88c0 -55 -40 -94 -103 -147l-31 -26h109l-16 -95h-327z" />
    <glyph glyph-name="uni045D.bgr" horiz-adv-x="621" 
d="M554 163c-11 -69 -16 -119 -13 -163h-175c-3 24 -2 48 1 79c-39 -53 -87 -91 -166 -91c-55 0 -101 16 -129 52c-29 35 -41 89 -29 168l50 315h179l-49 -312c-9 -59 10 -90 57 -90c56 0 93 35 104 104l47 298h179zM202 749h178l40 -166h-125z" />
    <glyph glyph-name="three.num" horiz-adv-x="382" 
d="M219 332c-48 0 -90 10 -119 31s-47 55 -47 103h118c0 -27 14 -42 42 -42c19 0 40 10 40 37c0 21 -14 31 -43 31h-28l12 74h33c31 0 45 11 45 34c0 17 -10 29 -34 29c-21 0 -38 -11 -45 -38h-116c12 83 74 129 173 129c35 0 72 -5 100 -21s47 -41 47 -81
c0 -47 -30 -76 -77 -89c39 -8 64 -30 64 -77c0 -41 -20 -71 -49 -91c-31 -20 -72 -29 -116 -29z" />
    <glyph glyph-name="four.num" horiz-adv-x="402" 
d="M225 409h-187l8 49l197 257h159l-35 -219h48l-14 -87h-47l-11 -70h-129zM243 496l20 128l-94 -128h74z" />
    <glyph glyph-name="uni20B4.old" horiz-adv-x="667" 
d="M631 220c-29 -145 -147 -232 -324 -231c-164 0 -243 75 -243 183c0 33 7 61 20 85h-63l11 69h119c27 19 61 36 104 52h-216l11 69h367c17 17 22 36 22 60c0 36 -20 54 -60 54c-48 0 -78 -22 -93 -74h-182c31 149 139 216 299 216c143 0 225 -88 225 -177
c0 -28 -6 -54 -17 -79h56l-11 -69h-103c-25 -19 -57 -37 -97 -52h193l-11 -69h-352c-23 -23 -29 -46 -29 -70c0 -35 24 -57 69 -57c73 0 106 42 118 90h187z" />
    <glyph glyph-name="uni20B4.oldtab" horiz-adv-x="600" 
d="M576 220c-29 -145 -140 -231 -301 -231c-150 0 -223 75 -220 183c1 32 7 60 20 85h-57l11 69h109c24 18 56 35 96 52h-198l12 69h336c16 17 20 36 21 60c1 36 -17 54 -54 54c-44 0 -71 -22 -86 -74h-167c31 149 130 216 277 216c130 0 206 -88 203 -177
c0 -27 -5 -54 -16 -79h51l-11 -69h-95c-22 -19 -52 -37 -89 -52h177l-12 -69h-323c-23 -23 -27 -46 -28 -70c0 -35 20 -57 63 -57c67 0 98 42 110 90h171z" />
    <glyph glyph-name="uni20B4.tab" horiz-adv-x="600" 
d="M581 227c-32 -150 -147 -238 -310 -238c-153 0 -226 77 -221 189c1 32 8 61 21 87h-58l11 71h111c27 19 59 37 100 54h-201l12 71h342c17 17 22 37 23 62c1 37 -17 56 -54 56c-45 0 -74 -22 -89 -77h-169c33 153 137 223 286 223c131 0 207 -90 204 -182
c-1 -31 -8 -58 -19 -82h52l-12 -71h-97c-25 -20 -54 -38 -93 -54h181l-13 -71h-329c-23 -23 -28 -47 -29 -72c-3 -35 20 -59 63 -59c69 0 101 44 112 93h176z" />
    <glyph glyph-name="five.num" horiz-adv-x="375" 
d="M213 332c-41 0 -82 8 -111 28c-31 20 -52 51 -53 98h124c3 -17 12 -29 37 -29c21 0 39 14 39 45c0 24 -12 36 -37 36c-20 0 -31 -9 -42 -24h-101l48 229h279l-15 -93h-187l-16 -77c17 23 45 45 97 45c63 0 106 -33 106 -104c0 -103 -69 -153 -168 -154z" />
    <glyph glyph-name="uni20B8.old" horiz-adv-x="588" 
d="M80 625l11 69h539l-11 -69h-539zM217 416h-170l25 153h540l-26 -153h-169l-66 -416h-200z" />
    <glyph glyph-name="uni20B8.oldtab" horiz-adv-x="600" 
d="M90 625l11 69h519l-11 -69h-519zM217 416h-160l25 153h520l-26 -153h-159l-66 -416h-200z" />
    <glyph glyph-name="uni20B8.tab" horiz-adv-x="600" 
d="M84 644l11 71h556l-11 -71h-556zM225 429h-175l26 158h556l-26 -158h-175l-68 -429h-206z" />
    <glyph glyph-name="six.num" horiz-adv-x="399" 
d="M237 332c-100 0 -171 48 -172 152c0 15 1 31 4 47l2 13c19 111 95 176 199 176c40 0 77 -8 105 -25c27 -19 45 -49 46 -93h-121c-3 16 -12 25 -33 25c-35 0 -53 -32 -64 -83c19 23 46 38 89 38c64 0 115 -34 115 -102c0 -49 -19 -87 -50 -111c-31 -25 -73 -37 -120 -37z
M198 459c0 -20 11 -39 38 -39c25 0 43 18 43 50c0 21 -12 38 -37 38c-24 0 -44 -18 -44 -49z" />
    <glyph glyph-name="uni20BD.old" horiz-adv-x="662" 
d="M372 370c72 0 110 35 110 103c0 49 -30 73 -89 73h-54l-27 -176h60zM273 115l-18 -115h-200l18 115h-81l11 69h81l8 51h-82l11 69h82l62 390h249c167 0 256 -75 257 -198c0 -173 -116 -261 -291 -261h-88l-8 -51h229l-11 -69h-229z" />
    <glyph glyph-name="uni20BD.oldtab" horiz-adv-x="600" 
d="M334 370c71 0 106 34 106 103c0 49 -29 73 -86 73h-33l-26 -176h39zM257 115l-18 -115h-194l18 115h-79l11 69h78l8 51h-80l11 69h80l60 390h222c163 0 249 -75 250 -198c0 -173 -113 -261 -283 -261h-66l-8 -51h204l-11 -69h-203z" />
    <glyph glyph-name="uni20BD.tab" horiz-adv-x="600" 
d="M352 381c68 0 104 36 104 107c0 50 -28 75 -85 75h-49l-25 -182h55zM260 119l-17 -119h-187l17 119h-76l9 71h77l8 52h-77l10 72h77l58 401h232c157 0 240 -77 241 -204c0 -179 -108 -269 -272 -269h-83l-7 -52h214l-10 -71h-214z" />
    <glyph glyph-name="seven.num" horiz-adv-x="351" 
d="M222 611h-147l17 104h316l-2 -15l-194 -361h-136z" />
    <glyph glyph-name="eight.num" horiz-adv-x="388" 
d="M225 332c-41 0 -84 7 -116 24c-33 16 -56 43 -56 84c0 57 32 85 83 101c-27 15 -44 35 -44 66c0 40 19 68 50 87c29 17 69 26 108 26c37 0 76 -7 105 -23c29 -17 48 -43 48 -79c0 -45 -20 -74 -63 -87c37 -15 56 -42 56 -77c0 -45 -22 -76 -54 -95
c-33 -19 -76 -27 -117 -27zM185 456c0 -20 13 -35 40 -35c23 0 44 13 44 41c0 21 -14 36 -39 36c-24 0 -45 -14 -45 -42zM209 598c0 -19 14 -32 34 -32c23 0 40 13 40 37c0 19 -15 32 -36 32c-19 0 -38 -12 -38 -37z" />
    <glyph glyph-name="nine.num" horiz-adv-x="399" 
d="M245 721c100 0 169 -46 169 -149c0 -17 -1 -36 -4 -52l-2 -13c-19 -113 -81 -175 -198 -175c-41 0 -78 7 -105 27c-28 19 -45 48 -48 92h121c3 -16 11 -25 36 -25c35 0 54 30 63 83c-19 -21 -46 -38 -90 -38c-63 0 -114 34 -114 103c0 48 20 85 52 110
c31 24 73 37 120 37zM282 594c0 20 -11 39 -38 39c-24 0 -44 -18 -44 -50c0 -21 11 -38 38 -38c24 0 44 18 44 49z" />
    <glyph glyph-name="zero.den" horiz-adv-x="430" 
d="M144 156c0 -35 11 -62 50 -62c27 0 43 20 54 45c9 25 13 58 13 82c0 35 -12 61 -48 61c-28 0 -46 -22 -55 -47c-11 -27 -14 -58 -14 -79zM188 -7c-104 0 -175 55 -175 159c0 64 19 122 54 163c35 40 87 66 152 66c51 0 94 -13 125 -40s49 -66 49 -118
c0 -65 -18 -123 -53 -164s-87 -66 -152 -66z" />
    <glyph glyph-name="one.den" horiz-adv-x="294" 
d="M103 246l-89 -46l17 109l113 67h114l-60 -376h-134z" />
    <glyph glyph-name="two.den" horiz-adv-x="361" 
d="M-30 18l149 132c20 17 41 35 57 54c16 17 28 35 28 51c0 20 -9 29 -29 29c-21 0 -38 -15 -46 -52h-122c15 100 83 149 178 149c40 0 78 -8 106 -25c27 -17 44 -47 44 -88c0 -55 -40 -94 -103 -147l-31 -26h109l-16 -95h-327z" />
    <glyph glyph-name="uni0437.bgr" horiz-adv-x="522" 
d="M203 -188c-130 0 -227 58 -227 212h154c-1 -52 16 -87 64 -87c45 0 76 38 77 102c0 53 -25 81 -85 81h-41l18 122h43c60 0 97 25 100 93c1 48 -15 75 -55 75c-43 0 -64 -26 -75 -75h-151c19 131 112 199 240 199c123 0 217 -56 217 -186c0 -82 -58 -159 -154 -167
c76 -13 127 -64 127 -143c0 -152 -121 -226 -252 -226z" />
    <glyph glyph-name="uni0449.bgr" horiz-adv-x="925" 
d="M713 -127l10 127h-77c-3 24 -2 48 1 79c-35 -55 -96 -93 -175 -93c-69 0 -115 33 -134 97c-52 -71 -110 -97 -178 -97c-100 0 -169 65 -145 209l51 328h179l-48 -305c-9 -58 9 -87 54 -87c47 0 81 32 92 93l47 299h177l-48 -306c-9 -57 9 -86 54 -86c49 0 81 33 92 93
l47 299h179l-64 -401h73l-39 -249h-148z" />
    <glyph glyph-name="three.den" horiz-adv-x="382" 
d="M166 -7c-48 0 -90 10 -119 31s-47 55 -47 103h118c0 -27 14 -42 42 -42c19 0 40 10 40 37c0 21 -14 31 -43 31h-28l12 74h33c31 0 45 11 45 34c0 17 -10 29 -34 29c-21 0 -38 -11 -45 -38h-116c12 83 74 129 173 129c35 0 72 -5 100 -21s47 -41 47 -81
c0 -47 -30 -76 -77 -89c39 -8 64 -30 64 -77c0 -41 -20 -71 -49 -91c-31 -20 -72 -29 -116 -29z" />
    <glyph glyph-name="uni044A.bgr" horiz-adv-x="584" 
d="M24 401l20 122h280l-27 -169h38c145 0 220 -53 220 -164c0 -108 -75 -200 -252 -200c-168 0 -227 98 -203 242l27 169h-103zM312 112c39 0 65 36 65 75c0 33 -19 54 -58 54h-40l-8 -50c-9 -59 6 -79 41 -79z" />
    <glyph glyph-name="four.den" horiz-adv-x="402" 
d="M172 70h-187l8 49l197 257h159l-35 -219h48l-14 -87h-47l-11 -70h-129zM190 157l20 128l-94 -128h74z" />
    <glyph glyph-name="five.den" horiz-adv-x="375" 
d="M160 -7c-41 0 -82 8 -111 28c-31 20 -52 51 -53 98h124c3 -17 12 -29 37 -29c21 0 39 14 39 45c0 24 -12 36 -37 36c-20 0 -31 -9 -42 -24h-101l48 229h279l-15 -93h-187l-16 -77c17 23 45 45 97 45c63 0 106 -33 106 -104c0 -103 -69 -153 -168 -154z" />
    <glyph glyph-name="six.den" horiz-adv-x="399" 
d="M184 -7c-100 0 -171 48 -172 152c0 15 1 31 4 47l2 13c19 111 95 176 199 176c40 0 77 -8 105 -25c27 -19 45 -49 46 -93h-121c-3 16 -12 25 -33 25c-35 0 -53 -32 -64 -83c19 23 46 38 89 38c64 0 115 -34 115 -102c0 -49 -19 -87 -50 -111c-31 -25 -73 -37 -120 -37z
M145 120c0 -20 11 -39 38 -39c25 0 43 18 43 50c0 21 -12 38 -37 38c-24 0 -44 -18 -44 -49z" />
    <glyph glyph-name="seven.den" horiz-adv-x="351" 
d="M169 272h-147l17 104h316l-2 -15l-194 -361h-136z" />
    <glyph glyph-name="florin.tab" 
d="M116 414h100l22 116c13 73 46 121 90 152c43 31 97 43 153 43c44 0 68 -5 92 -13l-21 -132c-15 4 -32 7 -56 7c-39 0 -73 -18 -84 -75l-19 -98h128l-19 -121h-131l-89 -475h-177l88 475h-96z" />
    <glyph glyph-name="uni0431.locl" horiz-adv-x="615" 
d="M290 -12c-142 0 -266 78 -266 239c0 109 53 204 152 241c38 14 83 15 83 14c-112 31 -154 77 -154 134c0 81 57 137 188 137h143c77 0 122 6 141 13l-20 -133c-19 -11 -70 -17 -133 -17h-144c-25 0 -38 -9 -38 -27c0 -25 21 -33 54 -44c135 -40 293 -98 293 -270
c0 -167 -120 -287 -299 -287zM293 121c80 0 116 72 116 161c0 57 -28 101 -89 101c-77 0 -117 -71 -117 -158c0 -54 22 -104 90 -104z" />
    <glyph glyph-name="yen.tab" 
d="M73 366h138l-117 349h203l52 -207l116 207h192l-226 -349h146l-12 -71h-153l-7 -50h152l-11 -73h-153l-26 -172h-205l27 172h-147l11 73h147l8 50h-147z" />
    <glyph glyph-name="eight.den" horiz-adv-x="388" 
d="M172 -7c-41 0 -84 7 -116 24c-33 16 -56 43 -56 84c0 57 32 85 83 101c-27 15 -44 35 -44 66c0 40 19 68 50 87c29 17 69 26 108 26c37 0 76 -7 105 -23c29 -17 48 -43 48 -79c0 -45 -20 -74 -63 -87c37 -15 56 -42 56 -77c0 -45 -22 -76 -54 -95
c-33 -19 -76 -27 -117 -27zM132 117c0 -20 13 -35 40 -35c23 0 44 13 44 41c0 21 -14 36 -39 36c-24 0 -45 -14 -45 -42zM156 259c0 -19 14 -32 34 -32c23 0 40 13 40 37c0 19 -15 32 -36 32c-19 0 -38 -12 -38 -37z" />
    <glyph glyph-name="nine.den" horiz-adv-x="399" 
d="M192 382c100 0 169 -46 169 -149c0 -17 -1 -36 -4 -52l-2 -13c-19 -113 -81 -175 -198 -175c-41 0 -78 7 -105 27c-28 19 -45 48 -48 92h121c3 -16 11 -25 36 -25c35 0 54 30 63 83c-19 -21 -46 -38 -90 -38c-63 0 -114 34 -114 103c0 48 20 85 52 110
c31 24 73 37 120 37zM229 255c0 20 -11 39 -38 39c-24 0 -44 -18 -44 -50c0 -21 11 -38 38 -38c24 0 44 18 44 49z" />
    <glyph glyph-name="zero.sub" horiz-adv-x="430" 
d="M125 36c0 -35 11 -62 50 -62c27 0 43 20 54 45c9 25 13 58 13 82c0 35 -12 61 -48 61c-28 0 -46 -22 -55 -47c-11 -27 -14 -58 -14 -79zM169 -127c-104 0 -175 55 -175 159c0 64 19 122 54 163c35 40 87 66 152 66c51 0 94 -13 125 -40s49 -66 49 -118
c0 -65 -18 -123 -53 -164s-87 -66 -152 -66z" />
    <glyph glyph-name="one.sub" horiz-adv-x="294" 
d="M84 126l-89 -46l17 109l113 67h114l-60 -376h-134z" />
    <glyph glyph-name="sterling.tab" 
d="M51 407h48c-3 20 -4 42 -4 66c0 77 25 140 72 184c45 44 113 68 194 68c165 0 250 -73 238 -240h-172c3 57 -19 82 -67 82c-35 0 -55 -16 -67 -39c-12 -24 -16 -54 -16 -85v-36h162l-19 -120h-138c-3 -41 -9 -76 -26 -111c33 -9 62 -19 87 -19c32 0 56 15 63 55h171
c-19 -141 -92 -221 -215 -221c-45 0 -82 13 -111 26c-31 13 -54 26 -77 26c-27 0 -42 -18 -47 -43h-143c11 81 47 147 107 176c15 31 23 68 23 101v10h-82z" />
    <glyph glyph-name="two.sub" horiz-adv-x="361" 
d="M-49 -102l149 132c20 17 41 35 57 54c16 17 28 35 28 51c0 20 -9 29 -29 29c-21 0 -38 -15 -46 -52h-122c15 100 83 149 178 149c40 0 78 -8 106 -25c27 -17 44 -47 44 -88c0 -55 -40 -94 -103 -147l-31 -26h109l-16 -95h-327z" />
    <glyph glyph-name="three.sub" horiz-adv-x="382" 
d="M147 -127c-48 0 -90 10 -119 31s-47 55 -47 103h118c0 -27 14 -42 42 -42c19 0 40 10 40 37c0 21 -14 31 -43 31h-28l12 74h33c31 0 45 11 45 34c0 17 -10 29 -34 29c-21 0 -38 -11 -45 -38h-116c12 83 74 129 173 129c35 0 72 -5 100 -21s47 -41 47 -81
c0 -47 -30 -76 -77 -89c39 -8 64 -30 64 -77c0 -41 -20 -71 -49 -91c-31 -20 -72 -29 -116 -29z" />
    <glyph glyph-name="four.sub" horiz-adv-x="402" 
d="M153 -50h-187l8 49l197 257h159l-35 -219h48l-14 -87h-47l-11 -70h-129zM171 37l20 128l-94 -128h74z" />
    <glyph glyph-name="space.tab" horiz-adv-x="300" 
 />
    <glyph glyph-name="uni0433.bgr" horiz-adv-x="516" 
d="M236 -13c-140 0 -224 49 -224 157c0 95 69 151 206 178c91 19 107 38 107 63c0 23 -16 35 -49 35c-35 0 -56 -23 -63 -52h-163c19 107 110 169 233 169c131 0 214 -57 214 -153c0 -109 -69 -147 -210 -174c-85 -16 -95 -41 -95 -65c0 -23 20 -38 48 -38c43 0 62 23 71 59
h166c-27 -127 -116 -179 -241 -179z" />
    <glyph glyph-name="uni043F.bgr" horiz-adv-x="622" 
d="M66 352c12 76 16 124 19 171h175c0 -27 -1 -58 -5 -89c37 60 93 103 178 103c100 0 172 -65 148 -222l-50 -315h-179l47 302c10 60 -10 90 -59 90c-56 0 -93 -35 -104 -103l-46 -289h-179z" />
    <glyph glyph-name="uni0448.bgr" horiz-adv-x="906" 
d="M834 163c-11 -69 -16 -119 -13 -163h-175c-3 24 -2 48 1 79c-35 -55 -96 -93 -175 -93c-69 0 -115 33 -134 97c-52 -71 -110 -97 -178 -97c-100 0 -169 65 -145 209l51 328h179l-48 -305c-9 -58 9 -87 54 -87c47 0 81 32 92 93l47 299h177l-48 -306c-9 -57 9 -86 54 -86
c49 0 81 33 92 93l47 299h179z" />
    <glyph glyph-name="uni044E.bgr" horiz-adv-x="831" 
d="M516 -12c-117 0 -222 61 -246 185c-3 9 -3 17 -4 28h-45l-31 -201h-179l117 753h178l-66 -430h37c34 127 139 213 275 213c132 0 256 -77 256 -241c0 -181 -124 -307 -292 -307zM519 121c70 0 109 78 109 181c0 57 -28 101 -79 101c-68 0 -110 -77 -110 -178
c0 -54 22 -104 80 -104z" />
    <glyph glyph-name="nine.old" horiz-adv-x="659" 
d="M352 631c181 0 276 -101 279 -265c0 -33 -4 -65 -9 -100l-6 -34c-37 -228 -161 -338 -348 -338c-69 0 -132 15 -177 50c-47 36 -76 89 -76 165h181c5 -47 28 -70 79 -70c83 0 122 65 149 206c-29 -41 -85 -81 -173 -81c-56 0 -107 17 -143 50c-36 32 -58 81 -58 145
c0 84 32 151 87 199c53 47 128 73 215 73zM438 399c1 53 -28 93 -91 93c-61 0 -106 -49 -106 -117c0 -51 29 -89 88 -89c61 0 109 48 109 113z" />
    <glyph glyph-name="eight.old" horiz-adv-x="661" 
d="M309 -12c-73 0 -144 16 -196 49c-52 32 -86 82 -86 150c0 53 18 96 47 128c28 32 68 55 113 67c-51 27 -81 70 -81 129c0 71 32 124 83 160s118 54 190 54c59 0 123 -13 172 -42c48 -31 83 -77 83 -148c0 -80 -52 -139 -128 -167c69 -27 105 -81 105 -148
c0 -77 -33 -135 -86 -174c-55 -39 -129 -58 -216 -58zM224 211c0 -51 34 -84 94 -84c27 0 52 9 71 26s31 42 31 77c0 51 -34 82 -91 82c-56 0 -105 -34 -105 -101zM283 502c0 -43 30 -74 81 -74c48 0 90 31 90 88c0 45 -32 76 -80 76s-91 -33 -91 -90z" />
    <glyph glyph-name="seven.old" horiz-adv-x="579" 
d="M344 462h-288l25 157h540l-4 -22l-369 -689h-206z" />
    <glyph glyph-name="six.old" horiz-adv-x="659" 
d="M323 -12c-177 0 -279 95 -282 260c0 32 4 73 9 105l6 34c17 109 59 195 119 252c59 56 137 86 226 86c68 0 129 -15 174 -48c44 -33 72 -85 72 -160h-180c-4 39 -24 63 -75 63c-72 0 -117 -65 -144 -206c29 41 86 82 173 82c56 0 107 -18 143 -51c36 -35 58 -84 58 -148
c0 -87 -33 -154 -86 -199c-55 -45 -129 -70 -213 -70zM234 222c-1 -53 29 -95 92 -95c61 0 105 50 105 118c0 51 -29 88 -88 88c-61 0 -109 -46 -109 -111z" />
    <glyph glyph-name="uni0434.bgr" horiz-adv-x="640" 
d="M294 156c75 0 122 65 122 153c0 57 -33 96 -89 96c-76 0 -116 -72 -116 -147c0 -60 27 -102 83 -102zM550 30c-24 -151 -103 -224 -286 -224c-193 0 -270 90 -275 194h178c5 -33 29 -68 92 -68c77 0 104 42 112 99l12 75c-34 -53 -86 -80 -157 -80
c-116 0 -200 76 -200 220c0 171 106 291 255 291c81 0 131 -31 156 -86l12 72h179z" />
    <glyph glyph-name="five.old" horiz-adv-x="621" 
d="M181 125c4 -55 32 -85 92 -85c64 0 104 48 104 116c0 55 -32 91 -97 91c-57 0 -92 -24 -119 -53h-116l83 425h468l-23 -148h-328l-30 -162c35 36 86 68 162 68c60 0 107 -20 142 -55c33 -36 52 -85 52 -144c0 -88 -30 -158 -82 -207c-52 -48 -128 -75 -220 -75
c-72 0 -139 18 -187 54c-49 37 -81 95 -81 175h180z" />
    <glyph glyph-name="uni0438.bgr" horiz-adv-x="621" 
d="M550 163c-11 -69 -16 -119 -13 -163h-175c-3 24 -2 48 1 79c-39 -53 -87 -91 -166 -91c-110 0 -182 64 -158 220l50 315h179l-49 -312c-9 -59 10 -90 57 -90c56 0 93 35 104 104l47 298h179z" />
    <glyph glyph-name="uni043F.locl" horiz-adv-x="621" 
d="M183 712h367l-15 -100h-368zM550 163c-11 -69 -16 -119 -13 -163h-175c-3 24 -2 48 1 79c-39 -53 -87 -91 -166 -91c-110 0 -182 64 -158 220l50 315h179l-49 -312c-9 -59 10 -90 57 -90c56 0 93 35 104 104l47 298h179z" />
    <glyph glyph-name="one.num" horiz-adv-x="294" 
d="M156 585l-89 -46l17 109l113 67h114l-60 -376h-134z" />
    <glyph glyph-name="five.sub" horiz-adv-x="375" 
d="M141 -127c-41 0 -82 8 -111 28c-31 20 -52 51 -53 98h124c3 -17 12 -29 37 -29c21 0 39 14 39 45c0 24 -12 36 -37 36c-20 0 -31 -9 -42 -24h-101l48 229h279l-15 -93h-187l-16 -77c17 23 45 45 97 45c63 0 106 -33 106 -104c0 -103 -69 -153 -168 -154z" />
    <glyph glyph-name="uni044C.bgr" horiz-adv-x="529" 
d="M248 -10c-168 0 -227 98 -203 242l46 291h178l-27 -169h38c145 0 220 -53 220 -164c0 -108 -75 -200 -252 -200zM257 112c39 0 65 36 65 75c0 33 -19 54 -58 54h-40l-8 -50c-9 -59 6 -79 41 -79z" />
    <glyph glyph-name="three.old" horiz-adv-x="628" 
d="M288 -104c-84 0 -156 19 -205 59c-51 40 -79 101 -79 184h174c3 -64 34 -101 105 -101c56 0 100 31 100 94c0 53 -31 79 -94 79h-54l19 121h58c59 0 100 22 100 89c0 47 -30 71 -78 71c-52 0 -91 -32 -106 -96h-174c12 69 44 129 93 170s117 65 201 65
c68 0 130 -14 175 -45c44 -32 71 -79 71 -144c0 -87 -51 -145 -134 -170c68 -23 110 -69 110 -150c0 -72 -32 -129 -83 -168c-52 -37 -122 -58 -199 -58z" />
    <glyph glyph-name="uni0439.bgr" horiz-adv-x="621" 
d="M356 587c-104 0 -164 58 -165 153h121c-1 -29 12 -61 45 -61c32 0 49 30 50 61h121c-15 -97 -83 -153 -172 -153zM550 163c-11 -69 -16 -119 -13 -163h-175c-3 24 -2 48 1 79c-39 -53 -87 -91 -166 -91c-110 0 -182 64 -158 220l50 315h179l-49 -312
c-9 -59 10 -90 57 -90c56 0 93 35 104 104l47 298h179z" />
    <glyph glyph-name="uni0414.bgr" horiz-adv-x="738" 
d="M407 554l-178 -394h233zM118 -130h-178l44 290h57l268 555h265l93 -555h57l-46 -290h-180l16 130h-370z" />
    <glyph glyph-name="uni0416.bgr" horiz-adv-x="988" 
d="M400 315l-243 -315h-217l312 398l-154 317h196l124 -288l45 288h204l-45 -286l224 286h215l-286 -345l173 -370h-205l-140 311l-49 -311h-204z" />
    <glyph glyph-name="uni041A.bgr" horiz-adv-x="726" 
d="M282 312l-49 -312h-206l113 715h206l-45 -284l264 284h220l-324 -342l213 -373h-221z" />
    <glyph glyph-name="uni0436.bgr" horiz-adv-x="822" 
d="M322 247l-168 -247h-194l214 298l-104 225h175l87 -214l70 444h176l-70 -446l155 216h189l-195 -241l120 -282h-189l-90 243l-38 -243h-177z" />
    <glyph glyph-name="two.old" horiz-adv-x="594" 
d="M-26 27l260 217c28 21 65 52 96 84s55 67 55 98c0 41 -23 61 -68 61c-48 0 -85 -35 -100 -104h-173c12 80 45 141 96 184c49 41 115 64 194 64c151 0 244 -67 244 -187c0 -49 -18 -90 -49 -127c-31 -39 -74 -75 -127 -116l-79 -62h217l-22 -139h-548z" />
    <glyph glyph-name="one.old" horiz-adv-x="443" 
d="M194 428l-145 -81l26 163l175 109h165l-98 -619h-190z" />
    <glyph glyph-name="uni0432.bgr" horiz-adv-x="550" 
d="M244 -13c-172 0 -239 123 -212 275l48 269c27 153 115 233 270 233c140 0 228 -90 212 -212c-12 -85 -73 -148 -162 -161c86 -16 127 -94 114 -182c-21 -133 -126 -222 -270 -222zM339 640c-41 0 -63 -34 -74 -85l-23 -105h45c59 0 87 26 100 97c11 64 -9 93 -48 93z
M250 112c51 0 74 52 82 112c11 75 -16 108 -68 108h-44l-16 -97c-13 -77 -5 -123 46 -123z" />
    <glyph glyph-name="zero.old" horiz-adv-x="682" 
d="M234 307c-3 -23 -5 -42 -5 -61c1 -69 28 -112 103 -112c72 0 110 50 126 153l4 26c3 23 5 42 5 61c0 69 -29 112 -101 112c-69 0 -112 -50 -128 -153zM328 -12c-84 0 -156 23 -208 68s-82 111 -82 198c0 21 2 43 5 66l4 25c15 95 54 166 110 214s129 72 213 72
c81 0 153 -23 205 -68c51 -45 83 -112 83 -197c0 -20 -1 -43 -5 -66l-4 -25c-31 -195 -148 -287 -321 -287z" />
    <glyph glyph-name="yen.old" horiz-adv-x="635" 
d="M81 355h133l-130 339h209l65 -227l136 227h194l-229 -339h135l-11 -69h-157l-8 -51h156l-11 -69h-156l-26 -166h-199l26 166h-157l10 69h158l8 51h-157z" />
    <glyph glyph-name="uni0424.bgr" horiz-adv-x="894" 
d="M303 -10l8 61c-165 19 -270 114 -270 281v8c0 189 127 328 368 341l7 44h204l-8 -44c168 -19 270 -119 270 -291v-8c0 -184 -127 -318 -368 -331l-9 -61h-202zM234 347c0 -84 31 -140 100 -152l53 347c-109 -13 -153 -103 -153 -189v-6zM689 375c0 89 -30 150 -99 162
l-54 -347c109 13 153 98 153 179v6z" />
    <glyph glyph-name="sterling.old" horiz-adv-x="645" 
d="M59 395h48c-3 19 -4 40 -4 61c0 76 28 137 77 180s118 67 201 67c75 0 139 -15 184 -51c45 -37 72 -96 72 -183h-185c0 56 -18 85 -71 85c-35 0 -57 -14 -70 -37s-18 -54 -18 -86v-36h180l-20 -117h-157v-6c0 -35 -7 -70 -24 -105c39 -11 71 -22 98 -22c37 0 58 19 65 58
h177c-8 -61 -30 -114 -66 -151c-37 -39 -88 -61 -155 -61c-48 0 -89 13 -124 26c-35 12 -63 25 -87 25c-29 0 -46 -19 -50 -42h-146c12 77 51 145 119 172c13 28 19 59 19 92v14h-81z" />
    </font>
</defs>
</svg>
