<?xml version="1.0" standalone="no"?>
<!DOCTYPE svg PUBLIC "-//W3C//DTD SVG 1.1//EN" "http://www.w3.org/Graphics/SVG/1.1/DTD/svg11.dtd" >
<svg xmlns="http://www.w3.org/2000/svg" xmlns:xlink="http://www.w3.org/1999/xlink" version="1.1">
<metadata>
Created by FontForge 20190801 at Mon Jul  4 10:34:37 2016
 By Jimmy Wärting
LCG stand for Latin, Cyrillic and Greek.
</metadata>
<defs>
<font id="GraphikLCG-BlackItalic" horiz-adv-x="600" >
  <font-face 
    font-family="Graphik LCG"
    font-weight="900"
    font-style="italic"
    font-stretch="normal"
    units-per-em="1000"
    panose-1="2 11 10 3 3 2 2 13 2 3"
    ascent="826"
    descent="-174"
    x-height="523"
    cap-height="715"
    bbox="-256 -233 1217 1142"
    underline-thickness="50"
    underline-position="-100"
    slope="-8"
    stemh="149"
    stemv="183"
    unicode-range="U+000D-FB02"
  />
<missing-glyph horiz-adv-x="523" 
 />
    <glyph glyph-name="f_f" unicode="ff" horiz-adv-x="730" 
d="M433 391h-144l-61 -391h-196l61 391h-63l20 132h64l8 49c19 128 114 179 225 179c47 0 71 -6 95 -14l-22 -142c-13 4 -24 7 -44 7c-37 0 -54 -16 -61 -51l-5 -28h144l10 60c19 128 114 179 228 179c49 0 73 -6 97 -15l-22 -142c-15 4 -24 8 -47 8c-39 0 -58 -20 -63 -51
l-6 -39h101l-20 -132h-102l-62 -391h-196z" />
    <glyph glyph-name=".notdef" horiz-adv-x="523" 
 />
    <glyph glyph-name="NULL" horiz-adv-x="0" 
 />
    <glyph glyph-name="NULL" horiz-adv-x="0" 
 />
    <glyph glyph-name="CR" unicode="&#xd;" horiz-adv-x="185" 
 />
    <glyph glyph-name="space" unicode=" " horiz-adv-x="185" 
 />
    <glyph glyph-name="exclam" unicode="!" horiz-adv-x="342" 
d="M132 715h221l-105 -474h-163zM145 -12c-64 0 -109 45 -109 105c0 58 48 106 111 106c64 0 111 -45 111 -105c0 -59 -50 -106 -113 -106z" />
    <glyph glyph-name="quotedbl" unicode="&#x22;" horiz-adv-x="478" 
d="M108 715h182l-64 -281h-139zM329 715h183l-65 -281h-138z" />
    <glyph glyph-name="numbersign" unicode="#" horiz-adv-x="581" 
d="M300 234h-57l-32 -135h-130l32 135h-76l25 154h88l15 65h-77l22 146h90l28 116h130l-28 -116h56l28 116h131l-28 -116h77l-22 -146h-90l-15 -65h79l-25 -154h-91l-32 -135h-130zM280 388h56l16 65h-57z" />
    <glyph glyph-name="dollar" unicode="$" horiz-adv-x="648" 
d="M242 -6c-122 16 -230 85 -233 233h200c1 -42 20 -69 57 -82l21 131c-155 32 -222 94 -222 209c0 151 132 237 293 240l14 88h82l-15 -93c119 -16 214 -73 219 -217h-196c-1 35 -20 55 -47 66l-20 -127c139 -29 228 -84 228 -207c0 -162 -128 -247 -300 -247l-19 -123h-82
zM423 203c0 25 -14 40 -57 55l-19 -121c51 4 76 26 76 66zM260 516c0 -29 13 -44 56 -57l19 118c-39 -5 -75 -22 -75 -61z" />
    <glyph glyph-name="percent" unicode="%" horiz-adv-x="835" 
d="M198 526c0 -28 12 -55 48 -54c40 0 58 47 58 89c0 29 -14 54 -47 54c-40 0 -59 -42 -59 -89zM241 360c-100 0 -185 56 -185 161c0 113 83 202 206 202c97 0 183 -57 183 -161c0 -109 -84 -202 -204 -202zM677 715h103l-582 -715h-103zM569 153c0 -28 11 -55 48 -54
c40 0 57 47 57 89c0 28 -13 54 -46 54c-41 0 -59 -42 -59 -89zM612 -13c-100 0 -186 56 -186 161c0 110 84 202 207 202c97 0 183 -57 183 -161c0 -109 -84 -202 -204 -202z" />
    <glyph glyph-name="ampersand" unicode="&#x26;" horiz-adv-x="777" 
d="M469 0l-32 48c-43 -31 -104 -60 -193 -60c-119 0 -231 54 -231 198c0 120 92 188 191 225c-20 32 -33 75 -33 110c0 133 115 204 251 204c104 0 217 -46 217 -170c0 -100 -77 -150 -165 -185l64 -98l65 101h175l-154 -239l85 -134h-240zM225 214c0 -43 25 -71 73 -71
c25 0 47 10 62 22l-85 129c-25 -15 -50 -37 -50 -80zM418 587c-31 0 -55 -22 -55 -59c0 -23 12 -47 31 -70c36 17 73 38 73 81c0 27 -18 48 -49 48z" />
    <glyph glyph-name="quotesingle" unicode="'" horiz-adv-x="264" 
d="M108 715h190l-64 -281h-147z" />
    <glyph glyph-name="parenleft" unicode="(" horiz-adv-x="362" 
d="M138 -148c-54 80 -106 194 -106 359c0 227 98 420 252 564h157c-139 -176 -224 -349 -224 -579c0 -144 31 -260 70 -344h-149z" />
    <glyph glyph-name="parenright" unicode=")" horiz-adv-x="362" 
d="M237 775c54 -80 106 -194 106 -359c0 -227 -98 -420 -252 -564h-157c139 176 224 349 224 579c0 144 -31 260 -70 344h149z" />
    <glyph glyph-name="asterisk" unicode="*" horiz-adv-x="444" 
d="M81 457l103 79l-114 18l58 130l99 -60l-7 119h154l-45 -125l116 45l16 -134l-118 -3l77 -91l-130 -75l-35 116l-70 -109z" />
    <glyph glyph-name="plus" unicode="+" horiz-adv-x="579" 
d="M211 269h-174l23 142h174l29 189h157l-30 -189h174l-23 -142h-173l-30 -190h-157z" />
    <glyph glyph-name="comma" unicode="," horiz-adv-x="311" 
d="M-25 -77l105 270l173 -63l-170 -254z" />
    <glyph glyph-name="hyphen" unicode="-" horiz-adv-x="390" 
d="M64 360h292l-24 -146h-292z" />
    <glyph glyph-name="period" unicode="." horiz-adv-x="302" 
d="M122 -12c-64 0 -109 47 -109 108c0 60 44 107 108 107c65 0 113 -48 113 -107c0 -61 -47 -108 -112 -108z" />
    <glyph glyph-name="slash" unicode="/" horiz-adv-x="440" 
d="M363 776h158l-452 -924h-158z" />
    <glyph glyph-name="zero" unicode="0" horiz-adv-x="741" 
d="M354 -13c-193 0 -314 106 -314 293c0 27 2 54 7 82l4 28c35 224 176 336 365 336c184 0 313 -105 313 -297c0 -25 -2 -51 -6 -77l-4 -29c-35 -224 -166 -336 -365 -336zM363 162c79 0 113 57 132 174l4 27c4 27 7 53 7 76c0 65 -23 115 -96 115c-76 0 -116 -55 -135 -175
l-4 -28c-4 -27 -8 -54 -8 -77c0 -61 24 -112 100 -112z" />
    <glyph glyph-name="one" unicode="1" horiz-adv-x="459" 
d="M199 493l-145 -82l30 193l182 111h195l-113 -715h-227z" />
    <glyph glyph-name="two" unicode="2" horiz-adv-x="626" 
d="M-33 31l286 259c81 70 149 133 149 205c0 36 -20 61 -60 61c-43 0 -76 -25 -95 -108h-205c21 188 149 278 320 278c153 0 266 -69 266 -213c0 -117 -79 -195 -172 -269l-91 -76h217l-25 -168h-595z" />
    <glyph glyph-name="three" unicode="3" horiz-adv-x="661" 
d="M321 -13c-182 0 -303 77 -303 253h205c-1 -53 23 -91 87 -91c51 0 86 29 86 80c0 43 -27 65 -80 65h-50l22 137h64c49 0 81 22 81 73c1 41 -27 61 -66 61c-51 0 -84 -27 -95 -84h-201c19 148 135 245 311 245c136 0 266 -52 266 -192c0 -81 -50 -144 -139 -167
c72 -19 114 -73 114 -145c0 -161 -151 -235 -302 -235z" />
    <glyph glyph-name="four" unicode="4" horiz-adv-x="689" 
d="M339 134h-346l14 86l372 495h270l-68 -426h91l-25 -155h-90l-21 -134h-218zM369 289l39 249l-179 -249h140z" />
    <glyph glyph-name="five" unicode="5" horiz-adv-x="639" 
d="M297 -13c-152 0 -284 66 -284 243h211c1 -44 22 -73 73 -73c56 0 83 38 84 97c0 53 -30 81 -85 81c-51 0 -87 -20 -110 -48h-135l81 428h496l-26 -164h-333l-26 -142c31 40 86 76 170 76c117 0 195 -71 195 -210c0 -177 -121 -288 -311 -288z" />
    <glyph glyph-name="six" unicode="6" horiz-adv-x="685" 
d="M342 -13c-184 0 -303 94 -300 283c0 29 3 61 8 93l3 23c32 197 163 340 360 340c138 0 260 -60 265 -219h-209c-3 32 -20 52 -61 52c-83 0 -117 -80 -133 -171c31 42 83 81 165 81c110 0 215 -69 215 -204c0 -177 -142 -278 -313 -278zM265 227c0 -44 25 -81 78 -81
c55 0 91 46 91 105c0 43 -24 79 -76 79c-53 0 -93 -43 -93 -103z" />
    <glyph glyph-name="seven" unicode="7" horiz-adv-x="586" 
d="M334 531h-270l29 184h557l-3 -23l-356 -692h-233z" />
    <glyph glyph-name="eight" unicode="8" horiz-adv-x="666" 
d="M314 -13c-155 0 -300 62 -300 201c0 105 66 167 159 195c-51 27 -81 71 -81 128c0 144 137 215 288 215c124 0 272 -51 272 -193c0 -80 -48 -137 -124 -165c71 -28 105 -84 105 -148c0 -156 -136 -233 -319 -233zM241 220c0 -47 33 -75 82 -75c51 0 91 31 91 90
c0 47 -33 73 -80 73c-51 0 -93 -29 -93 -88zM294 498c0 -39 27 -67 70 -67c41 0 82 26 82 77c0 40 -28 67 -71 67c-41 0 -81 -26 -81 -77z" />
    <glyph glyph-name="nine" unicode="9" horiz-adv-x="685" 
d="M299 -12c-143 0 -267 60 -275 219h209c4 -37 33 -52 74 -52c73 0 110 62 130 167c-33 -47 -79 -80 -162 -80c-110 0 -218 58 -218 201c0 177 135 284 314 284c185 0 301 -99 301 -291c0 -28 -2 -57 -7 -88l-3 -19c-39 -231 -156 -341 -363 -341zM274 464
c0 -47 25 -79 73 -79c55 0 97 39 97 103c0 43 -24 80 -77 80s-93 -41 -93 -104z" />
    <glyph glyph-name="colon" unicode=":" horiz-adv-x="308" 
d="M124 -12c-64 0 -109 47 -109 108c0 60 44 107 108 107c65 0 114 -48 114 -107c0 -61 -48 -108 -113 -108zM170 272c-64 0 -109 47 -109 107s45 108 108 108c65 0 114 -48 114 -108s-48 -107 -113 -107z" />
    <glyph glyph-name="semicolon" unicode=";" horiz-adv-x="326" 
d="M-28 -77l105 270l172 -63l-169 -254zM195 272c-64 0 -109 47 -109 107s45 108 108 108c65 0 114 -48 114 -108s-48 -107 -113 -107z" />
    <glyph glyph-name="less" unicode="&#x3c;" horiz-adv-x="514" 
d="M46 309l6 38l467 245l-28 -181l-191 -90l161 -100l-27 -168z" />
    <glyph glyph-name="equal" unicode="=" horiz-adv-x="570" 
d="M42 293h493l-20 -131h-493zM73 492h493l-20 -131h-493z" />
    <glyph glyph-name="greater" unicode="&#x3e;" horiz-adv-x="514" 
d="M485 337l-6 -38l-467 -245l28 181l192 90l-162 100l27 168z" />
    <glyph glyph-name="question" unicode="?" horiz-adv-x="568" 
d="M165 260c14 81 69 121 118 159c45 35 86 59 86 103c-1 29 -18 44 -49 44c-39 0 -63 -27 -74 -80h-192c19 163 139 239 288 239c159 0 240 -72 240 -183c0 -90 -48 -139 -102 -179c-51 -38 -114 -70 -132 -122h-186zM232 -12c-64 0 -109 45 -109 104s48 108 111 108
c64 0 111 -46 111 -106c0 -58 -50 -106 -113 -106z" />
    <glyph glyph-name="at" unicode="@" horiz-adv-x="918" 
d="M662 187c-7 -40 3 -64 39 -64c55 0 114 59 114 207c0 173 -130 291 -332 291c-205 0 -370 -144 -370 -373c0 -192 118 -338 353 -338c117 0 212 42 261 90h93c-69 -96 -203 -160 -358 -160c-271 0 -435 180 -435 410c0 267 217 441 457 441c235 0 413 -142 413 -364
c0 -200 -113 -277 -229 -277c-83 0 -132 27 -147 80c-27 -51 -72 -82 -140 -82c-92 0 -153 67 -154 176c0 148 90 247 206 247c61 0 92 -25 105 -57l9 49h159zM442 175c43 0 75 49 75 113c0 36 -19 59 -54 59c-41 0 -74 -44 -73 -112c0 -37 17 -60 52 -60z" />
    <glyph glyph-name="A" unicode="A" horiz-adv-x="755" 
d="M457 119h-225l-51 -119h-217l339 715h292l111 -715h-235zM299 273h141l-29 259z" />
    <glyph glyph-name="B" unicode="B" horiz-adv-x="690" 
d="M136 715h305c169 0 232 -77 232 -176c0 -95 -60 -151 -140 -170c72 -15 124 -62 124 -149c0 -132 -108 -220 -279 -220h-355zM343 149c60 0 95 34 95 85c0 44 -25 67 -85 67h-62l-24 -152h76zM383 436c56 0 84 24 84 73c0 41 -24 58 -71 58h-63l-21 -131h71z" />
    <glyph glyph-name="C" unicode="C" horiz-adv-x="768" 
d="M394 -13c-214 0 -354 107 -354 315c0 247 150 424 403 424c195 0 315 -93 323 -282h-228c-7 68 -34 105 -101 105c-107 0 -160 -109 -160 -237c0 -81 30 -146 119 -146c64 0 109 35 128 108h225c-29 -192 -177 -287 -355 -287z" />
    <glyph glyph-name="D" unicode="D" horiz-adv-x="757" 
d="M136 715h242c245 0 369 -112 369 -304c0 -268 -171 -411 -418 -411h-306zM330 172c119 0 182 81 182 229c0 95 -46 142 -139 142h-37l-59 -371h53z" />
    <glyph glyph-name="E" unicode="E" horiz-adv-x="621" 
d="M136 715h507l-27 -174h-282l-16 -101h224l-24 -158h-224l-18 -108h298l-27 -174h-524z" />
    <glyph glyph-name="F" unicode="F" horiz-adv-x="587" 
d="M136 715h495l-28 -175h-268l-20 -133h215l-27 -167h-215l-38 -240h-227z" />
    <glyph glyph-name="G" unicode="G" horiz-adv-x="791" 
d="M401 -13c-217 0 -361 109 -361 319c0 244 171 419 411 419c171 0 318 -75 326 -269h-225c-5 60 -37 91 -110 91c-110 0 -167 -115 -167 -239c0 -93 42 -149 135 -149c83 0 118 40 130 91h-120l24 149h341c-16 -277 -132 -412 -384 -412z" />
    <glyph glyph-name="H" unicode="H" horiz-adv-x="794" 
d="M136 715h227l-41 -264h209l42 264h227l-113 -715h-227l43 275h-210l-43 -275h-227z" />
    <glyph glyph-name="I" unicode="I" horiz-adv-x="366" 
d="M139 715h229l-113 -715h-229z" />
    <glyph glyph-name="J" unicode="J" horiz-adv-x="489" 
d="M151 -9c-84 0 -130 16 -158 31l26 166c24 -8 52 -18 91 -18c48 0 85 21 94 82l74 463h227l-75 -472c-27 -173 -124 -252 -279 -252z" />
    <glyph glyph-name="K" unicode="K" horiz-adv-x="745" 
d="M136 715h227l-43 -273l246 273h243l-317 -342l204 -373h-245l-154 300l-47 -300h-227z" />
    <glyph glyph-name="L" unicode="L" horiz-adv-x="582" 
d="M136 715h227l-85 -540h260l-28 -175h-487z" />
    <glyph glyph-name="M" unicode="M" horiz-adv-x="957" 
d="M136 715h285l67 -346l178 346h296l-113 -715h-225l67 424l-230 -424h-76l-93 424l-67 -424h-202z" />
    <glyph glyph-name="N" unicode="N" horiz-adv-x="787" 
d="M136 715h255l141 -372l59 372h201l-113 -715h-217l-171 423l-66 -423h-202z" />
    <glyph glyph-name="O" unicode="O" horiz-adv-x="820" 
d="M810 410c0 -251 -168 -423 -421 -423c-189 0 -349 109 -349 313c0 251 169 426 413 426c196 0 357 -107 357 -316zM574 402c0 81 -36 144 -128 147c-115 0 -171 -117 -171 -241c0 -84 41 -143 130 -143c116 0 169 118 169 237z" />
    <glyph glyph-name="P" unicode="P" horiz-adv-x="664" 
d="M136 715h268c179 0 272 -80 273 -208c0 -178 -118 -274 -305 -274h-85l-37 -233h-227zM362 385c64 0 100 32 100 96c0 45 -28 67 -83 67h-44l-25 -163h52z" />
    <glyph glyph-name="Q" unicode="Q" horiz-adv-x="820" 
d="M389 -13c-189 0 -349 108 -349 312c0 252 169 426 413 426c197 0 357 -107 357 -315c0 -152 -60 -272 -164 -347l62 -63l-135 -126l-109 119c-24 -4 -49 -6 -75 -6zM451 265l59 -62c43 45 64 119 64 199c0 78 -36 144 -128 147c-115 0 -171 -116 -171 -241
c0 -59 20 -108 64 -133z" />
    <glyph glyph-name="R" unicode="R" horiz-adv-x="710" 
d="M136 715h283c183 0 271 -80 271 -207c0 -117 -66 -190 -159 -217l128 -291h-229l-106 245h-37l-38 -245h-226zM372 391c61 0 97 26 97 87c0 45 -27 67 -81 67h-53l-25 -154h62z" />
    <glyph glyph-name="S" unicode="S" horiz-adv-x="651" 
d="M315 -13c-195 0 -310 87 -307 242h212c3 -44 27 -82 100 -82c55 -1 81 21 81 61c0 29 -24 45 -92 58c-178 34 -242 96 -242 215c0 139 107 244 296 244c173 0 281 -71 278 -228h-207c-3 46 -28 69 -77 69c-47 0 -71 -21 -71 -54c0 -31 20 -44 91 -57
c163 -32 246 -87 246 -213c0 -150 -108 -252 -308 -255z" />
    <glyph glyph-name="T" unicode="T" horiz-adv-x="629" 
d="M243 541h-181l29 174h589l-28 -174h-181l-85 -541h-228z" />
    <glyph glyph-name="U" unicode="U" horiz-adv-x="776" 
d="M376 -13c-221 0 -344 109 -309 326l65 402h226l-65 -409c-15 -95 8 -141 87 -141c76 0 99 44 112 129l67 421h228l-70 -439c-31 -200 -140 -289 -341 -289z" />
    <glyph glyph-name="V" unicode="V" horiz-adv-x="734" 
d="M76 715h237l57 -479l209 479h221l-345 -715h-256z" />
    <glyph glyph-name="W" unicode="W" horiz-adv-x="1000" 
d="M77 715h229l14 -432l158 432h191l33 -437l156 437h208l-283 -715h-221l-35 416l-164 -416h-229z" />
    <glyph glyph-name="X" unicode="X" horiz-adv-x="744" 
d="M246 376l-145 339h243l71 -202l129 202h234l-240 -347l159 -368h-244l-87 237l-158 -237h-237z" />
    <glyph glyph-name="Y" unicode="Y" horiz-adv-x="693" 
d="M241 306l-166 409h235l77 -221l143 221h226l-288 -421l-46 -294h-228z" />
    <glyph glyph-name="Z" unicode="Z" horiz-adv-x="626" 
d="M-28 24l367 521h-248l28 170h568l-4 -24l-366 -520h262l-27 -171h-584z" />
    <glyph glyph-name="bracketleft" unicode="[" horiz-adv-x="419" 
d="M141 776h321l-22 -142h-123l-100 -640h122l-23 -142h-321z" />
    <glyph glyph-name="backslash" unicode="\" horiz-adv-x="440" 
d="M65 776h149l197 -924h-149z" />
    <glyph glyph-name="bracketright" unicode="]" horiz-adv-x="546" 
d="M-6 -6h121l101 640h-121l23 142h319l-146 -924h-319z" />
    <glyph glyph-name="asciicircum" unicode="^" horiz-adv-x="535" 
d="M251 715h169l116 -324h-162l-59 165l-109 -165h-167z" />
    <glyph glyph-name="underscore" unicode="_" horiz-adv-x="441" 
d="M-54 -72h442l-14 -89h-442z" />
    <glyph glyph-name="grave" unicode="`" horiz-adv-x="400" 
d="M96 747h192l38 -169h-137z" />
    <glyph glyph-name="a" unicode="a" horiz-adv-x="584" 
d="M168 -13c-92 0 -165 52 -165 145c0 138 104 184 279 184h72l2 12c7 43 -1 73 -53 73c-44 0 -60 -27 -67 -56h-184c27 129 117 193 260 193c179 0 260 -75 235 -235l-22 -139c-11 -68 -15 -120 -8 -164h-191c-4 21 -4 44 -3 65c-29 -41 -75 -78 -155 -78zM251 117
c43 0 75 27 82 66l5 27h-51c-64 0 -88 -14 -88 -50c0 -24 17 -43 52 -43z" />
    <glyph glyph-name="b" unicode="b" horiz-adv-x="646" 
d="M374 -13c-80 0 -138 39 -159 96l-13 -83h-198l120 749h196l-47 -300c35 56 89 89 172 89c101 0 181 -76 181 -226c0 -205 -108 -325 -252 -325zM316 135c64 0 108 64 108 163c0 61 -26 95 -77 95c-65 0 -111 -70 -111 -163c0 -63 27 -95 80 -95z" />
    <glyph glyph-name="c" unicode="c" horiz-adv-x="584" 
d="M291 -12c-153 0 -270 80 -270 240c0 187 121 309 298 309c141 0 246 -65 251 -220h-184c-4 46 -28 69 -71 69c-72 0 -97 -78 -97 -160c0 -59 21 -97 80 -97c45 0 75 27 86 80h176c-17 -143 -112 -221 -269 -221z" />
    <glyph glyph-name="d" unicode="d" horiz-adv-x="645" 
d="M206 -13c-109 0 -188 75 -188 227c0 206 112 324 260 324c76 0 129 -32 152 -88l47 299h198l-93 -585c-11 -69 -15 -120 -11 -164h-194c-5 23 -4 52 -3 81c-39 -63 -89 -94 -168 -94zM297 133c65 0 111 69 111 165c0 61 -28 95 -79 95c-64 0 -109 -64 -109 -163
c0 -61 26 -97 77 -97z" />
    <glyph glyph-name="e" unicode="e" horiz-adv-x="602" 
d="M213 217c0 -54 22 -98 89 -98c49 0 73 23 84 58h185c-25 -124 -127 -190 -274 -190c-153 0 -276 73 -276 240c0 187 129 311 304 311s280 -111 251 -297l-3 -23h-360v-1zM324 412c-41 0 -80 -24 -99 -91h170c5 53 -14 91 -71 91z" />
    <glyph glyph-name="f" unicode="f" horiz-adv-x="391" 
d="M50 523h64l10 60c21 128 115 179 229 179c49 0 73 -6 97 -15l-23 -142c-13 4 -25 8 -46 8c-39 0 -57 -20 -64 -51l-6 -39h102l-21 -132h-102l-62 -391h-196l61 391h-63z" />
    <glyph glyph-name="g" unicode="g" horiz-adv-x="643" 
d="M298 168c70 0 109 63 109 141c-1 51 -29 86 -77 86c-71 0 -105 -67 -105 -135c0 -55 24 -92 73 -92zM558 31c-24 -153 -106 -225 -293 -225c-196 0 -275 89 -280 198h195c3 -29 24 -62 82 -62c69 0 92 38 99 89l14 82c-33 -52 -83 -82 -159 -82c-109 0 -194 72 -194 216
c0 173 107 291 254 291c80 0 128 -33 151 -88l12 73h197z" />
    <glyph glyph-name="h" unicode="h" horiz-adv-x="627" 
d="M124 749h196l-49 -313c36 59 90 102 175 102c97 0 170 -65 146 -223l-50 -315h-197l47 297c9 55 -9 83 -54 83c-51 0 -81 -31 -91 -94l-45 -286h-197z" />
    <glyph glyph-name="i" unicode="i" horiz-adv-x="303" 
d="M211 563c-61 0 -104 42 -104 98c0 57 44 98 105 98c60 0 104 -41 104 -98c0 -56 -46 -98 -105 -98zM93 523h197l-83 -523h-196z" />
    <glyph glyph-name="j" unicode="j" horiz-adv-x="303" 
d="M-57 -42c41 3 64 16 69 55l81 510h196l-84 -529c-16 -102 -78 -186 -284 -175zM210 563c-60 0 -103 42 -103 98c0 57 44 98 104 98s104 -41 104 -98c0 -56 -45 -98 -105 -98z" />
    <glyph glyph-name="k" unicode="k" horiz-adv-x="587" 
d="M123 750h197l-68 -431l161 204h211l-207 -242l129 -281h-210l-98 231l-36 -231h-197z" />
    <glyph glyph-name="l" unicode="l" horiz-adv-x="300" 
d="M129 750h195l-118 -750h-196z" />
    <glyph glyph-name="m" unicode="m" horiz-adv-x="931" 
d="M60 349c12 76 17 126 20 174h192c0 -27 -1 -58 -5 -89c34 55 97 104 177 104c68 0 113 -33 132 -98c49 68 109 98 178 98c99 0 168 -66 144 -207l-51 -331h-197l48 301c8 53 -9 78 -48 78c-44 0 -71 -27 -80 -82l-47 -297h-194l47 302c9 52 -9 77 -48 77
c-44 0 -71 -30 -79 -82l-47 -297h-197z" />
    <glyph glyph-name="n" unicode="n" horiz-adv-x="627" 
d="M60 349c12 76 17 126 20 174h192c0 -27 -1 -61 -5 -92c37 60 94 107 179 107c97 0 170 -65 146 -223l-50 -315h-197l47 297c9 55 -9 83 -54 83c-51 0 -81 -31 -91 -94l-45 -286h-197z" />
    <glyph glyph-name="o" unicode="o" horiz-adv-x="620" 
d="M294 -13c-141 0 -272 74 -272 240c0 179 124 310 306 310c141 0 272 -75 272 -243c0 -181 -126 -307 -306 -307zM297 132c72 0 105 74 105 171c0 49 -22 89 -77 89c-72 0 -107 -71 -107 -166c0 -46 17 -94 79 -94z" />
    <glyph glyph-name="p" unicode="p" horiz-adv-x="646" 
d="M444 538c104 0 182 -76 182 -226c0 -205 -107 -325 -251 -325c-80 0 -139 39 -160 96l-41 -257h-197l83 523c12 76 17 126 20 174h192c0 -23 -1 -52 -4 -83c39 64 93 98 176 98zM316 135c64 0 108 64 108 163c0 61 -26 95 -77 95c-65 0 -111 -70 -111 -163
c0 -63 27 -95 80 -95z" />
    <glyph glyph-name="q" unicode="q" horiz-adv-x="646" 
d="M372 76c-36 -56 -87 -89 -166 -89c-109 0 -188 75 -188 227c0 206 112 324 260 324c76 0 129 -32 152 -88l12 73h196l-110 -697h-197zM297 133c65 0 111 69 111 165c0 61 -28 95 -79 95c-64 0 -109 -64 -109 -163c0 -61 26 -97 77 -97z" />
    <glyph glyph-name="r" unicode="r" horiz-adv-x="439" 
d="M60 349c12 76 16 126 19 174h192c0 -27 -2 -72 -7 -115c41 85 101 123 189 122l-28 -184c-112 7 -172 -25 -187 -122l-36 -224h-197z" />
    <glyph glyph-name="s" unicode="s" horiz-adv-x="519" 
d="M233 -14c-144 0 -241 56 -241 182h182c3 -33 17 -54 64 -54c35 0 53 12 53 37c0 23 -15 32 -86 45c-119 23 -173 64 -173 156c0 125 103 186 243 186c133 0 222 -49 230 -173h-179c-3 27 -20 49 -56 49c-35 0 -53 -12 -53 -35c0 -24 24 -32 76 -43
c139 -27 192 -63 192 -164c0 -128 -107 -186 -252 -186z" />
    <glyph glyph-name="t" unicode="t" horiz-adv-x="393" 
d="M228 -12c-125 0 -193 56 -169 204l32 199h-61l20 132h61l18 107h197l-18 -107h99l-20 -132h-99l-31 -192c-7 -43 10 -56 43 -56c15 0 32 1 49 8l-23 -148c-23 -8 -55 -15 -98 -15z" />
    <glyph glyph-name="u" unicode="u" horiz-adv-x="627" 
d="M561 164c-11 -69 -16 -120 -13 -164h-192c-3 23 -3 55 0 84c-39 -56 -90 -97 -170 -97c-105 0 -177 64 -153 221l50 315h197l-49 -308c-8 -55 9 -83 52 -83c51 0 81 31 91 94l47 297h196z" />
    <glyph glyph-name="v" unicode="v" horiz-adv-x="592" 
d="M44 523h202l42 -321l147 321h194l-274 -523h-210z" />
    <glyph glyph-name="w" unicode="w" horiz-adv-x="842" 
d="M45 523h199l23 -294l120 294h158l25 -294l119 294h190l-246 -523h-185l-27 275l-115 -275h-190z" />
    <glyph glyph-name="x" unicode="x" horiz-adv-x="602" 
d="M175 269l-119 254h216l52 -128l90 128h207l-201 -247l135 -276h-217l-61 146l-108 -146h-207z" />
    <glyph glyph-name="y" unicode="y" horiz-adv-x="590" 
d="M172 59l-128 464h204l54 -263l130 263h195l-385 -697h-196z" />
    <glyph glyph-name="z" unicode="z" horiz-adv-x="511" 
d="M-32 19l268 359h-189l22 145h471l-3 -20l-276 -359h206l-23 -144h-478z" />
    <glyph glyph-name="braceleft" unicode="{" horiz-adv-x="425" 
d="M322 -148c-204 3 -293 87 -240 244l25 78c17 49 -6 77 -79 81l21 136c76 -1 106 23 103 72v81c0 178 96 233 316 233l-23 -143c-77 -5 -96 -26 -99 -93l-4 -96c-3 -72 -47 -115 -123 -130c76 -19 101 -69 80 -141l-25 -90c-19 -63 -3 -84 70 -89z" />
    <glyph glyph-name="bar" unicode="|" horiz-adv-x="270" 
d="M81 776h135v-924h-135v924z" />
    <glyph glyph-name="braceright" unicode="}" horiz-adv-x="425" 
d="M117 777c204 -3 291 -87 240 -244l-25 -77c-15 -49 7 -77 80 -82l-21 -136c-77 3 -103 -20 -104 -71v-82c0 -178 -97 -233 -316 -233l22 143c77 3 97 27 100 93l4 99c3 72 48 113 124 128c-76 19 -101 71 -81 140l25 90c19 63 3 84 -70 89z" />
    <glyph glyph-name="asciitilde" unicode="~" horiz-adv-x="532" 
d="M20 213c19 156 95 211 171 211c73 0 127 -44 161 -44c27 0 43 17 50 45h125c-16 -144 -95 -211 -171 -211c-75 0 -127 43 -162 43c-28 0 -42 -17 -49 -44h-125z" />
    <glyph glyph-name="uni00A0" unicode="&#xa0;" horiz-adv-x="253" 
 />
    <glyph glyph-name="exclamdown" unicode="&#xa1;" horiz-adv-x="343" 
d="M218 -118h-221l105 474h163zM205 608c64 0 109 -44 109 -104c0 -58 -48 -106 -111 -106c-64 0 -111 45 -111 105s50 105 113 105z" />
    <glyph glyph-name="cent" unicode="&#xa2;" 
d="M234 -8c-121 18 -216 97 -216 229c0 180 121 308 302 316l15 92h74l-15 -96c116 -17 190 -85 195 -217h-177c-1 37 -14 62 -41 73l-42 -267c43 7 69 36 80 87h170c-16 -133 -117 -219 -272 -222l-19 -122h-74zM208 223c0 -49 16 -81 47 -95l42 264
c-56 -15 -89 -70 -89 -169z" />
    <glyph glyph-name="sterling" unicode="&#xa3;" horiz-adv-x="668" 
d="M55 409h45c-3 19 -4 40 -4 61c0 159 124 255 295 255c160 0 276 -62 276 -250h-210c0 55 -17 81 -64 81c-64 0 -81 -55 -81 -117v-30h179l-20 -124h-156c0 -32 -7 -67 -24 -102c35 -9 63 -17 87 -17c35 0 56 17 63 54h203c-18 -132 -93 -229 -239 -229
c-102 0 -169 50 -217 50c-27 0 -44 -17 -48 -41h-165c13 84 52 156 123 187c13 28 20 56 20 91v7h-83z" />
    <glyph glyph-name="yen" unicode="&#xa5;" horiz-adv-x="659" 
d="M77 370h133l-131 345h240l56 -216l126 216h221l-233 -345h136l-11 -73h-161l-8 -47h160l-11 -74h-160l-28 -176h-227l27 176h-160l11 74h161l7 47h-159z" />
    <glyph glyph-name="brokenbar" unicode="&#xa6;" horiz-adv-x="270" 
d="M81 302h135v-450h-135v450zM81 776h135v-403h-135v403z" />
    <glyph glyph-name="section" unicode="&#xa7;" horiz-adv-x="618" 
d="M266 -137c-124 0 -230 51 -230 187h179c3 -36 18 -57 58 -57c28 0 50 12 50 37c0 24 -27 38 -100 61c-123 37 -204 87 -204 187c0 88 55 133 131 156c-20 25 -30 53 -30 85c0 140 111 206 246 206c124 0 220 -48 225 -188h-182c-1 35 -12 54 -52 55
c-31 0 -50 -11 -50 -38c0 -25 24 -37 95 -60c123 -37 204 -86 204 -189c0 -86 -51 -127 -129 -154c22 -25 33 -54 33 -85c0 -142 -116 -203 -244 -203zM373 227c20 4 39 13 39 37s-21 35 -81 60l-75 32c-20 -3 -41 -11 -41 -36c0 -23 21 -35 81 -60z" />
    <glyph glyph-name="dieresis" unicode="&#xa8;" horiz-adv-x="400" 
d="M153 570c-51 0 -91 39 -91 89c0 49 40 89 92 89c51 0 91 -40 91 -89s-40 -89 -92 -89zM370 570c-51 0 -90 39 -90 89c0 49 39 89 90 89c52 0 92 -40 92 -89s-40 -89 -92 -89z" />
    <glyph glyph-name="copyright" unicode="&#xa9;" horiz-adv-x="842" 
d="M442 150c-147 0 -216 81 -216 204v8c0 124 91 203 210 203c111 0 184 -48 193 -160h-138c-3 35 -20 54 -55 54c-43 0 -69 -32 -69 -97v-7c0 -65 24 -98 72 -98c33 0 58 17 62 56h133c-5 -107 -84 -163 -192 -163zM433 31c178 0 323 132 323 328c0 193 -141 325 -321 325
c-181 0 -323 -133 -323 -327c0 -196 145 -326 321 -326zM433 -21c-214 0 -386 163 -386 378c0 212 171 379 388 379c219 0 386 -165 386 -377c0 -216 -171 -380 -388 -380z" />
    <glyph glyph-name="ordfeminine" unicode="&#xaa;" horiz-adv-x="495" 
d="M182 287c-69 0 -130 40 -130 113c0 110 87 145 234 145h42l2 12c3 28 1 49 -35 49c-31 0 -42 -19 -47 -40h-161c19 104 100 157 221 157c151 0 208 -57 185 -201l-15 -95c-9 -52 -10 -94 -6 -129h-163c-3 16 -4 36 -4 52c-21 -31 -58 -63 -123 -63zM256 400
c31 0 51 14 56 42l3 19h-35c-43 0 -59 -11 -59 -34c0 -18 12 -27 35 -27z" />
    <glyph glyph-name="guillemotleft" unicode="&#xab;" horiz-adv-x="477" 
d="M24 266l143 189h125l-142 -191l90 -197h-118zM206 264l143 191h125l-142 -195l86 -193h-118z" />
    <glyph glyph-name="uni00AD" unicode="&#xad;" horiz-adv-x="390" 
d="M64 360h292l-24 -146h-292z" />
    <glyph glyph-name="registered" unicode="&#xae;" horiz-adv-x="517" 
d="M208 615h92c61 0 92 -24 92 -72v-1c0 -31 -14 -47 -34 -58l47 -88h-75l-39 73h-9v-73h-74v219zM295 516c17 0 26 7 26 22v1c0 13 -9 20 -26 20h-13v-43h13zM295 320c104 0 186 75 186 183s-78 183 -186 183s-186 -76 -186 -184c0 -109 82 -182 186 -182zM295 280
c-128 0 -231 97 -231 222c0 124 102 224 231 224c131 0 230 -99 230 -223c0 -126 -102 -223 -230 -223z" />
    <glyph glyph-name="macron" unicode="&#xaf;" horiz-adv-x="400" 
d="M112 712h316l-17 -107h-316z" />
    <glyph glyph-name="degree" unicode="&#xb0;" horiz-adv-x="457" 
d="M273 448c53 0 91 43 91 102s-38 102 -91 102c-55 0 -93 -43 -93 -103c0 -57 37 -101 93 -101zM272 376c-99 0 -179 80 -179 172c0 96 80 176 181 176c98 0 177 -78 177 -174c0 -93 -80 -174 -179 -174z" />
    <glyph glyph-name="plusminus" unicode="&#xb1;" horiz-adv-x="579" 
d="M223 343h-173l22 142h173l26 162h157l-26 -162h174l-22 -142h-174l-26 -161h-156zM15 126h507l-19 -126h-507z" />
    <glyph glyph-name="twosuperior" unicode="&#xb2;" horiz-adv-x="366" 
d="M18 351l149 133c38 32 87 77 87 104c0 19 -8 28 -25 28c-20 0 -35 -15 -43 -51h-132c15 105 87 156 186 156c85 0 157 -30 157 -117c0 -55 -41 -96 -104 -148l-24 -20h103l-16 -103h-341z" />
    <glyph glyph-name="threesuperior" unicode="&#xb3;" horiz-adv-x="385" 
d="M220 326c-101 0 -171 40 -172 137h128c0 -25 13 -38 38 -38c17 0 36 9 36 33c0 18 -14 27 -41 27h-29l12 79h35c27 0 41 11 41 32c0 15 -7 26 -30 26c-19 0 -36 -11 -41 -35h-126c12 84 76 134 180 134c72 0 153 -24 153 -104c0 -48 -30 -78 -77 -91c39 -9 65 -31 65 -78
c0 -85 -80 -122 -172 -122z" />
    <glyph glyph-name="acute" unicode="&#xb4;" horiz-adv-x="400" 
d="M244 747h194l-125 -169h-142z" />
    <glyph glyph-name="mu" unicode="&#xb5;" horiz-adv-x="631" 
d="M565 164c-11 -69 -16 -120 -13 -164h-192c-3 21 -1 52 0 79c-24 -57 -57 -78 -97 -78c-21 0 -43 6 -56 29l-34 -204h-196l110 697h198l-51 -314c-8 -51 12 -78 49 -78c48 0 83 31 94 94l48 298h196z" />
    <glyph glyph-name="paragraph" unicode="&#xb6;" horiz-adv-x="544" 
d="M261 326h-2c-112 0 -197 56 -197 171c0 147 105 218 246 218h241l-129 -815h-76l118 750h-73l-119 -750h-75z" />
    <glyph glyph-name="periodcentered" unicode="&#xb7;" horiz-adv-x="302" 
d="M159 219c-63 0 -110 47 -110 107s45 108 109 108s113 -48 113 -108s-48 -107 -112 -107z" />
    <glyph glyph-name="cedilla" unicode="&#xb8;" horiz-adv-x="400" 
d="M138 -228c-66 0 -126 28 -131 94h91c3 -13 10 -26 33 -26c15 0 32 9 32 32c0 18 -10 27 -31 27c-15 0 -23 -3 -30 -10l-35 39l57 72h76l-36 -44c56 4 101 -24 101 -80c0 -71 -58 -104 -127 -104z" />
    <glyph glyph-name="onesuperior" unicode="&#xb9;" horiz-adv-x="297" 
d="M150 574l-89 -45l19 118l114 68h124l-61 -382h-145z" />
    <glyph glyph-name="ordmasculine" unicode="&#xba;" horiz-adv-x="527" 
d="M276 287c-131 0 -212 70 -212 187c0 149 118 249 257 249s211 -77 211 -191c0 -151 -121 -245 -256 -245zM288 411c51 0 74 59 74 124c0 40 -14 63 -53 63c-47 0 -74 -53 -74 -124c0 -40 17 -63 53 -63z" />
    <glyph glyph-name="guillemotright" unicode="&#xbb;" horiz-adv-x="477" 
d="M451 256l-142 -189h-125l141 191l-90 197h119zM269 258l-142 -191h-125l141 195l-86 193h119z" />
    <glyph glyph-name="onequarter" unicode="&#xbc;" horiz-adv-x="823" 
d="M153 574l-89 -45l19 118l114 68h124l-61 -382h-145zM671 715h101l-614 -715h-100zM580 70h-189l9 54l197 258h173l-34 -218h48l-15 -94h-48l-11 -70h-141zM600 164l19 120l-88 -120h69z" />
    <glyph glyph-name="onehalf" unicode="&#xbd;" horiz-adv-x="835" 
d="M153 574l-89 -45l19 118l114 68h124l-61 -382h-145zM659 715h101l-614 -715h-100zM432 18l149 133c38 32 87 77 87 104c0 19 -8 28 -25 28c-20 0 -35 -15 -43 -51h-132c15 105 87 156 186 156c85 0 157 -30 157 -117c0 -55 -41 -96 -104 -148l-24 -20h103l-16 -103h-341z
" />
    <glyph glyph-name="threequarters" unicode="&#xbe;" horiz-adv-x="866" 
d="M223 326c-101 0 -171 40 -172 137h128c0 -25 13 -38 38 -38c17 0 36 9 36 33c0 18 -14 27 -41 27h-29l12 79h35c27 0 41 11 41 32c0 15 -7 26 -30 26c-19 0 -36 -11 -41 -35h-126c12 84 76 134 180 134c72 0 153 -24 153 -104c0 -48 -30 -78 -77 -91c39 -9 65 -31 65 -78
c0 -85 -80 -122 -172 -122zM728 715h101l-614 -715h-100zM623 70h-189l9 54l197 258h173l-34 -218h48l-15 -94h-48l-11 -70h-141zM643 164l19 120l-88 -120h69z" />
    <glyph glyph-name="questiondown" unicode="&#xbf;" horiz-adv-x="568" 
d="M412 340c-14 -81 -69 -121 -118 -159c-45 -35 -86 -59 -86 -103c1 -29 18 -44 49 -44c39 0 63 27 74 80h192c-19 -163 -139 -239 -288 -239c-159 0 -240 72 -240 183c0 90 48 139 102 179c51 38 114 70 132 122h186zM345 611c64 0 109 -43 109 -103
c0 -59 -48 -108 -111 -108c-64 0 -111 46 -111 106c0 59 50 105 113 105z" />
    <glyph glyph-name="Agrave" unicode="&#xc0;" horiz-adv-x="755" 
d="M457 119h-225l-51 -119h-217l339 715h292l111 -715h-235zM299 273h141l-29 259zM302 906h199l32 -149h-144z" />
    <glyph glyph-name="Aacute" unicode="&#xc1;" horiz-adv-x="755" 
d="M457 119h-225l-51 -119h-217l339 715h292l111 -715h-235zM299 273h141l-29 259zM433 906h201l-115 -149h-150z" />
    <glyph glyph-name="Acircumflex" unicode="&#xc2;" horiz-adv-x="755" 
d="M457 119h-225l-51 -119h-217l339 715h292l111 -715h-235zM299 273h141l-29 259zM381 906h164l93 -149h-137l-48 47l-60 -47h-144z" />
    <glyph glyph-name="Atilde" unicode="&#xc3;" horiz-adv-x="755" 
d="M457 119h-225l-51 -119h-217l339 715h292l111 -715h-235zM299 273h141l-29 259zM518 755c-58 0 -89 32 -120 32c-16 0 -30 -11 -33 -30h-110c19 112 76 160 140 160c56 0 88 -32 123 -32c17 0 28 10 34 30h109c-21 -111 -81 -160 -143 -160z" />
    <glyph glyph-name="Adieresis" unicode="&#xc4;" horiz-adv-x="755" 
d="M457 119h-225l-51 -119h-217l339 715h292l111 -715h-235zM299 273h141l-29 259zM342 752c-51 0 -91 40 -91 89s40 89 92 89c51 0 91 -38 91 -89c0 -49 -40 -89 -92 -89zM569 752c-51 0 -91 40 -91 89s40 89 91 89c52 0 92 -38 92 -89c0 -49 -40 -89 -92 -89z" />
    <glyph glyph-name="Aring" unicode="&#xc5;" horiz-adv-x="755" 
d="M457 119h-225l-51 -119h-217l339 715h292l111 -715h-235zM299 273h141l-29 259zM454 810c27 0 45 21 45 50s-18 50 -45 50s-45 -19 -45 -51c0 -29 17 -49 45 -49zM454 742c-68 0 -122 53 -122 117c0 66 56 119 122 119c68 0 122 -54 122 -118s-56 -118 -122 -118z" />
    <glyph glyph-name="AE" unicode="&#xc6;" horiz-adv-x="1012" 
d="M384 715h651l-27 -174h-275l-16 -101h217l-24 -158h-217l-18 -108h291l-27 -174h-516l21 135h-184l-75 -135h-220zM344 285h123l41 256h-20z" />
    <glyph glyph-name="Ccedilla" unicode="&#xc7;" horiz-adv-x="768" 
d="M317 -228c-66 0 -126 28 -131 94h91c3 -13 10 -26 33 -26c15 0 32 9 32 32c0 18 -10 27 -31 27c-15 0 -23 -3 -30 -10l-35 39l53 67c-160 27 -259 131 -259 307c0 247 150 424 403 424c195 0 315 -93 323 -282h-228c-7 68 -34 105 -101 105c-107 0 -160 -109 -160 -237
c0 -81 30 -146 119 -146c64 0 109 35 128 108h225c-29 -192 -177 -287 -355 -287h-26l-25 -31c56 4 101 -24 101 -80c0 -71 -58 -104 -127 -104z" />
    <glyph glyph-name="Egrave" unicode="&#xc8;" horiz-adv-x="621" 
d="M136 715h507l-27 -174h-282l-16 -101h224l-24 -158h-224l-18 -108h298l-27 -174h-524zM242 906h199l32 -149h-144z" />
    <glyph glyph-name="Eacute" unicode="&#xc9;" horiz-adv-x="621" 
d="M136 715h507l-27 -174h-282l-16 -101h224l-24 -158h-224l-18 -108h298l-27 -174h-524zM367 906h201l-115 -149h-150z" />
    <glyph glyph-name="Ecircumflex" unicode="&#xca;" horiz-adv-x="621" 
d="M136 715h507l-27 -174h-282l-16 -101h224l-24 -158h-224l-18 -108h298l-27 -174h-524zM326 906h164l93 -149h-137l-48 47l-60 -47h-144z" />
    <glyph glyph-name="Edieresis" unicode="&#xcb;" horiz-adv-x="621" 
d="M136 715h507l-27 -174h-282l-16 -101h224l-24 -158h-224l-18 -108h298l-27 -174h-524zM289 752c-51 0 -91 40 -91 89s40 89 92 89c51 0 91 -38 91 -89c0 -49 -40 -89 -92 -89zM516 752c-51 0 -91 40 -91 89s40 89 91 89c52 0 92 -38 92 -89c0 -49 -40 -89 -92 -89z" />
    <glyph glyph-name="Igrave" unicode="&#xcc;" horiz-adv-x="366" 
d="M139 715h229l-113 -715h-229zM107 906h199l32 -149h-144z" />
    <glyph glyph-name="Iacute" unicode="&#xcd;" horiz-adv-x="366" 
d="M139 715h229l-113 -715h-229zM235 906h201l-115 -149h-150z" />
    <glyph glyph-name="Icircumflex" unicode="&#xce;" horiz-adv-x="366" 
d="M139 715h229l-113 -715h-229zM195 906h164l93 -149h-137l-48 47l-60 -47h-144z" />
    <glyph glyph-name="Idieresis" unicode="&#xcf;" horiz-adv-x="366" 
d="M139 715h229l-113 -715h-229zM158 752c-51 0 -91 40 -91 89s40 89 92 89c51 0 91 -38 91 -89c0 -49 -40 -89 -92 -89zM385 752c-51 0 -91 40 -91 89s40 89 91 89c52 0 92 -38 92 -89c0 -49 -40 -89 -92 -89z" />
    <glyph glyph-name="Eth" unicode="&#xd0;" horiz-adv-x="775" 
d="M55 435h55l44 280h242c245 0 369 -112 369 -304c0 -268 -170 -411 -418 -411h-306l45 284h-55zM349 172c117 0 182 81 182 229c0 95 -46 142 -139 142h-42l-17 -108h103l-23 -151h-104l-18 -112h58z" />
    <glyph glyph-name="Ntilde" unicode="&#xd1;" horiz-adv-x="787" 
d="M136 715h255l141 -372l59 372h201l-113 -715h-217l-171 423l-66 -423h-202zM551 755c-58 0 -89 32 -120 32c-16 0 -30 -11 -33 -30h-110c19 112 76 160 140 160c56 0 88 -32 123 -32c17 0 28 10 34 30h109c-21 -111 -81 -160 -143 -160z" />
    <glyph glyph-name="Ograve" unicode="&#xd2;" horiz-adv-x="820" 
d="M810 410c0 -251 -168 -423 -421 -423c-189 0 -349 109 -349 313c0 251 169 426 413 426c196 0 357 -107 357 -316zM574 402c0 81 -36 144 -128 147c-115 0 -171 -117 -171 -241c0 -84 41 -143 130 -143c116 0 169 118 169 237zM313 906h199l32 -149h-144z" />
    <glyph glyph-name="Oacute" unicode="&#xd3;" horiz-adv-x="820" 
d="M810 410c0 -251 -168 -423 -421 -423c-189 0 -349 109 -349 313c0 251 169 426 413 426c196 0 357 -107 357 -316zM574 402c0 81 -36 144 -128 147c-115 0 -171 -117 -171 -241c0 -84 41 -143 130 -143c116 0 169 118 169 237zM441 906h201l-115 -149h-150z" />
    <glyph glyph-name="Ocircumflex" unicode="&#xd4;" horiz-adv-x="820" 
d="M810 410c0 -251 -168 -423 -421 -423c-189 0 -349 109 -349 313c0 251 169 426 413 426c196 0 357 -107 357 -316zM574 402c0 81 -36 144 -128 147c-115 0 -171 -117 -171 -241c0 -84 41 -143 130 -143c116 0 169 118 169 237zM399 906h164l93 -149h-137l-48 47l-60 -47
h-144z" />
    <glyph glyph-name="Otilde" unicode="&#xd5;" horiz-adv-x="820" 
d="M810 410c0 -251 -168 -423 -421 -423c-189 0 -349 109 -349 313c0 251 169 426 413 426c196 0 357 -107 357 -316zM574 402c0 81 -36 144 -128 147c-115 0 -171 -117 -171 -241c0 -84 41 -143 130 -143c116 0 169 118 169 237zM530 755c-58 0 -89 32 -120 32
c-16 0 -30 -11 -33 -30h-110c19 112 76 160 140 160c56 0 88 -32 123 -32c17 0 28 10 34 30h109c-21 -111 -81 -160 -143 -160z" />
    <glyph glyph-name="Odieresis" unicode="&#xd6;" horiz-adv-x="820" 
d="M810 410c0 -251 -168 -423 -421 -423c-189 0 -349 109 -349 313c0 251 169 426 413 426c196 0 357 -107 357 -316zM574 402c0 81 -36 144 -128 147c-115 0 -171 -117 -171 -241c0 -84 41 -143 130 -143c116 0 169 118 169 237zM363 752c-51 0 -91 40 -91 89s40 89 92 89
c51 0 91 -38 91 -89c0 -49 -40 -89 -92 -89zM590 752c-51 0 -91 40 -91 89s40 89 91 89c52 0 92 -38 92 -89c0 -49 -40 -89 -92 -89z" />
    <glyph glyph-name="multiply" unicode="&#xd7;" horiz-adv-x="589" 
d="M28 186l174 152l-131 154l116 103l132 -155l174 151l90 -104l-175 -152l132 -153l-117 -103l-132 154l-173 -150z" />
    <glyph glyph-name="Oslash" unicode="&#xd8;" horiz-adv-x="820" 
d="M34 23l76 77c-44 51 -70 116 -70 199c0 252 169 426 413 426c83 0 158 -19 218 -56l72 72l55 -56l-65 -66c48 -52 77 -121 77 -209c0 -251 -168 -423 -421 -423c-85 0 -158 20 -220 61l-80 -81zM581 402c0 20 -3 39 -7 56l-262 -265c23 -19 54 -29 93 -29
c117 0 176 113 176 238zM269 309c0 -16 1 -31 4 -44l257 260c-22 16 -50 24 -84 25c-116 0 -177 -112 -177 -241z" />
    <glyph glyph-name="Ugrave" unicode="&#xd9;" horiz-adv-x="776" 
d="M376 -13c-221 0 -344 109 -309 326l65 402h226l-65 -409c-15 -95 8 -141 87 -141c76 0 99 44 112 129l67 421h228l-70 -439c-31 -200 -140 -289 -341 -289zM303 906h199l32 -149h-144z" />
    <glyph glyph-name="Uacute" unicode="&#xda;" horiz-adv-x="776" 
d="M376 -13c-221 0 -344 109 -309 326l65 402h226l-65 -409c-15 -95 8 -141 87 -141c76 0 99 44 112 129l67 421h228l-70 -439c-31 -200 -140 -289 -341 -289zM445 906h201l-115 -149h-150z" />
    <glyph glyph-name="Ucircumflex" unicode="&#xdb;" horiz-adv-x="776" 
d="M376 -13c-221 0 -344 109 -309 326l65 402h226l-65 -409c-15 -95 8 -141 87 -141c76 0 99 44 112 129l67 421h228l-70 -439c-31 -200 -140 -289 -341 -289zM392 906h164l93 -149h-137l-48 47l-60 -47h-144z" />
    <glyph glyph-name="Udieresis" unicode="&#xdc;" horiz-adv-x="776" 
d="M376 -13c-221 0 -344 109 -309 326l65 402h226l-65 -409c-15 -95 8 -141 87 -141c76 0 99 44 112 129l67 421h228l-70 -439c-31 -200 -140 -289 -341 -289zM352 752c-51 0 -91 40 -91 89s40 89 92 89c51 0 91 -38 91 -89c0 -49 -40 -89 -92 -89zM579 752
c-51 0 -91 40 -91 89s40 89 91 89c52 0 92 -38 92 -89c0 -49 -40 -89 -92 -89z" />
    <glyph glyph-name="Yacute" unicode="&#xdd;" horiz-adv-x="693" 
d="M241 306l-166 409h235l77 -221l143 221h226l-288 -421l-46 -294h-228zM412 906h201l-115 -149h-150z" />
    <glyph glyph-name="Thorn" unicode="&#xde;" horiz-adv-x="664" 
d="M344 600h45c179 0 272 -73 272 -206c0 -165 -118 -264 -304 -264h-87l-20 -130h-227l113 715h226zM319 442l-25 -160h53c64 0 98 34 98 95c1 41 -26 65 -82 65h-44z" />
    <glyph glyph-name="germandbls" unicode="&#xdf;" horiz-adv-x="641" 
d="M358 -10c-45 0 -81 6 -109 17l24 143c13 -7 30 -11 49 -11c73 0 100 54 100 129c0 71 -42 103 -111 100l22 137c55 1 95 22 95 78c0 37 -22 60 -62 60c-42 0 -67 -28 -76 -84l-88 -559h-197l88 549c24 160 134 221 280 221c141 0 239 -59 239 -177
c0 -80 -55 -132 -136 -155c84 -24 143 -89 143 -192c0 -156 -94 -256 -261 -256z" />
    <glyph glyph-name="agrave" unicode="&#xe0;" horiz-adv-x="584" 
d="M168 -13c-92 0 -165 52 -165 145c0 138 104 184 279 184h72l2 12c7 43 -1 73 -53 73c-44 0 -60 -27 -67 -56h-184c27 129 117 193 260 193c179 0 260 -75 235 -235l-22 -139c-11 -68 -15 -120 -8 -164h-191c-4 21 -4 44 -3 65c-29 -41 -75 -78 -155 -78zM251 117
c43 0 75 27 82 66l5 27h-51c-64 0 -88 -14 -88 -50c0 -24 17 -43 52 -43zM162 747h192l38 -169h-137z" />
    <glyph glyph-name="aacute" unicode="&#xe1;" horiz-adv-x="584" 
d="M168 -13c-92 0 -165 52 -165 145c0 138 104 184 279 184h72l2 12c7 43 -1 73 -53 73c-44 0 -60 -27 -67 -56h-184c27 129 117 193 260 193c179 0 260 -75 235 -235l-22 -139c-11 -68 -15 -120 -8 -164h-191c-4 21 -4 44 -3 65c-29 -41 -75 -78 -155 -78zM251 117
c43 0 75 27 82 66l5 27h-51c-64 0 -88 -14 -88 -50c0 -24 17 -43 52 -43zM331 747h194l-125 -169h-142z" />
    <glyph glyph-name="acircumflex" unicode="&#xe2;" horiz-adv-x="584" 
d="M168 -13c-92 0 -165 52 -165 145c0 138 104 184 279 184h72l2 12c7 43 -1 73 -53 73c-44 0 -60 -27 -67 -56h-184c27 129 117 193 260 193c179 0 260 -75 235 -235l-22 -139c-11 -68 -15 -120 -8 -164h-191c-4 21 -4 44 -3 65c-29 -41 -75 -78 -155 -78zM251 117
c43 0 75 27 82 66l5 27h-51c-64 0 -88 -14 -88 -50c0 -24 17 -43 52 -43zM280 746h137l99 -166h-132l-49 53l-63 -53h-139z" />
    <glyph glyph-name="atilde" unicode="&#xe3;" horiz-adv-x="584" 
d="M168 -13c-92 0 -165 52 -165 145c0 138 104 184 279 184h72l2 12c7 43 -1 73 -53 73c-44 0 -60 -27 -67 -56h-184c27 129 117 193 260 193c179 0 260 -75 235 -235l-22 -139c-11 -68 -15 -120 -8 -164h-191c-4 21 -4 44 -3 65c-29 -41 -75 -78 -155 -78zM251 117
c43 0 75 27 82 66l5 27h-51c-64 0 -88 -14 -88 -50c0 -24 17 -43 52 -43zM396 581c-59 0 -86 32 -118 32c-16 0 -28 -11 -33 -30h-103c17 112 67 162 132 162c55 0 87 -32 121 -32c16 0 27 10 32 31h104c-19 -113 -72 -163 -135 -163z" />
    <glyph glyph-name="adieresis" unicode="&#xe4;" horiz-adv-x="584" 
d="M168 -13c-92 0 -165 52 -165 145c0 138 104 184 279 184h72l2 12c7 43 -1 73 -53 73c-44 0 -60 -27 -67 -56h-184c27 129 117 193 260 193c179 0 260 -75 235 -235l-22 -139c-11 -68 -15 -120 -8 -164h-191c-4 21 -4 44 -3 65c-29 -41 -75 -78 -155 -78zM251 117
c43 0 75 27 82 66l5 27h-51c-64 0 -88 -14 -88 -50c0 -24 17 -43 52 -43zM224 570c-51 0 -91 39 -91 89c0 49 40 89 92 89c51 0 91 -40 91 -89s-40 -89 -92 -89zM441 570c-51 0 -90 39 -90 89c0 49 39 89 90 89c52 0 92 -40 92 -89s-40 -89 -92 -89z" />
    <glyph glyph-name="aring" unicode="&#xe5;" horiz-adv-x="584" 
d="M168 -13c-92 0 -165 52 -165 145c0 138 104 184 279 184h72l2 12c7 43 -1 73 -53 73c-44 0 -60 -27 -67 -56h-184c27 129 117 193 260 193c179 0 260 -75 235 -235l-22 -139c-11 -68 -15 -120 -8 -164h-191c-4 21 -4 44 -3 65c-29 -41 -75 -78 -155 -78zM251 117
c43 0 75 27 82 66l5 27h-51c-64 0 -88 -14 -88 -50c0 -24 17 -43 52 -43zM329 642c27 0 45 20 45 49c0 28 -17 48 -44 48s-45 -20 -45 -49c0 -28 17 -48 44 -48zM329 574c-66 0 -120 52 -120 116s54 117 121 117c66 0 120 -52 120 -116c0 -65 -54 -117 -121 -117z" />
    <glyph glyph-name="ae" unicode="&#xe6;" horiz-adv-x="912" 
d="M525 217c0 -54 22 -98 88 -98c49 0 71 23 82 58h185c-25 -124 -125 -190 -272 -190c-100 0 -173 29 -216 93c-32 -48 -83 -93 -195 -93c-114 0 -194 54 -194 149c0 136 108 183 281 183h71l2 11c7 41 -4 71 -56 71c-44 0 -63 -27 -70 -56h-183c24 132 128 193 262 193
c80 0 133 -19 164 -56c48 35 105 55 166 55c173 0 274 -106 245 -295l-3 -23h-357v-2zM635 412c-41 0 -79 -25 -98 -92h168c4 52 -14 92 -70 92zM251 117c43 0 76 25 83 70l5 29h-52c-64 0 -88 -16 -88 -55c0 -27 17 -44 52 -44z" />
    <glyph glyph-name="ccedilla" unicode="&#xe7;" horiz-adv-x="584" 
d="M229 -228c-66 0 -126 28 -131 94h91c3 -13 10 -26 33 -26c15 0 32 9 32 32c0 18 -10 27 -31 27c-15 0 -23 -3 -30 -10l-35 39l54 68c-113 24 -191 101 -191 232c0 187 121 309 298 309c141 0 246 -65 251 -220h-184c-4 46 -28 69 -71 69c-72 0 -97 -78 -97 -160
c0 -59 21 -97 80 -97c45 0 75 27 86 80h176c-17 -143 -112 -221 -269 -221h-10l-26 -32c56 4 101 -24 101 -80c0 -71 -58 -104 -127 -104z" />
    <glyph glyph-name="egrave" unicode="&#xe8;" horiz-adv-x="602" 
d="M213 217c0 -54 22 -98 89 -98c49 0 73 23 84 58h185c-25 -124 -127 -190 -274 -190c-153 0 -276 73 -276 240c0 187 129 311 304 311s280 -111 251 -297l-3 -23h-360v-1zM324 412c-41 0 -80 -24 -99 -91h170c5 53 -14 91 -71 91zM179 747h192l38 -169h-137z" />
    <glyph glyph-name="eacute" unicode="&#xe9;" horiz-adv-x="602" 
d="M213 217c0 -54 22 -98 89 -98c49 0 73 23 84 58h185c-25 -124 -127 -190 -274 -190c-153 0 -276 73 -276 240c0 187 129 311 304 311s280 -111 251 -297l-3 -23h-360v-1zM324 412c-41 0 -80 -24 -99 -91h170c5 53 -14 91 -71 91zM335 747h194l-125 -169h-142z" />
    <glyph glyph-name="ecircumflex" unicode="&#xea;" horiz-adv-x="602" 
d="M213 217c0 -54 22 -98 89 -98c49 0 73 23 84 58h185c-25 -124 -127 -190 -274 -190c-153 0 -276 73 -276 240c0 187 129 311 304 311s280 -111 251 -297l-3 -23h-360v-1zM324 412c-41 0 -80 -24 -99 -91h170c5 53 -14 91 -71 91zM289 746h137l99 -166h-132l-49 53
l-63 -53h-139z" />
    <glyph glyph-name="edieresis" unicode="&#xeb;" horiz-adv-x="602" 
d="M213 217c0 -54 22 -98 89 -98c49 0 73 23 84 58h185c-25 -124 -127 -190 -274 -190c-153 0 -276 73 -276 240c0 187 129 311 304 311s280 -111 251 -297l-3 -23h-360v-1zM324 412c-41 0 -80 -24 -99 -91h170c5 53 -14 91 -71 91zM236 570c-51 0 -91 39 -91 89
c0 49 40 89 92 89c51 0 91 -40 91 -89s-40 -89 -92 -89zM453 570c-51 0 -90 39 -90 89c0 49 39 89 90 89c52 0 92 -40 92 -89s-40 -89 -92 -89z" />
    <glyph glyph-name="igrave" unicode="&#xec;" horiz-adv-x="303" 
d="M93 523h197l-83 -523h-196zM44 747h192l38 -169h-137z" />
    <glyph glyph-name="iacute" unicode="&#xed;" horiz-adv-x="303" 
d="M93 523h197l-83 -523h-196zM195 747h194l-125 -169h-142z" />
    <glyph glyph-name="icircumflex" unicode="&#xee;" horiz-adv-x="303" 
d="M93 523h197l-83 -523h-196zM155 746h137l99 -166h-132l-49 53l-63 -53h-139z" />
    <glyph glyph-name="idieresis" unicode="&#xef;" horiz-adv-x="303" 
d="M107 570c-51 0 -91 38 -91 89c0 49 40 89 92 89c51 0 91 -40 91 -89s-40 -89 -92 -89zM322 570c-51 0 -90 39 -90 89c0 49 39 89 90 89c52 0 92 -40 92 -89s-40 -89 -92 -89zM93 523h197l-83 -523h-196z" />
    <glyph glyph-name="eth" unicode="&#xf0;" horiz-adv-x="625" 
d="M138 618l119 39c-37 35 -76 65 -111 92h230c17 -11 34 -22 51 -37l114 37l18 -63l-79 -26c67 -78 125 -184 125 -319c0 -197 -99 -354 -311 -354c-155 0 -273 81 -273 246c0 159 97 296 257 296c48 0 82 -12 113 -47c-21 43 -48 84 -83 123l-151 -49zM217 223
c0 -51 22 -91 82 -91c77 0 106 91 106 170c0 51 -22 90 -81 90c-74 0 -107 -77 -107 -169z" />
    <glyph glyph-name="ntilde" unicode="&#xf1;" horiz-adv-x="627" 
d="M60 349c12 76 17 126 20 174h192c0 -27 -1 -61 -5 -92c37 60 94 107 179 107c97 0 170 -65 146 -223l-50 -315h-197l47 297c9 55 -9 83 -54 83c-51 0 -81 -31 -91 -94l-45 -286h-197zM421 581c-59 0 -86 32 -118 32c-16 0 -28 -11 -33 -30h-103c17 112 67 162 132 162
c55 0 87 -32 121 -32c16 0 27 10 32 31h104c-19 -113 -72 -163 -135 -163z" />
    <glyph glyph-name="ograve" unicode="&#xf2;" horiz-adv-x="620" 
d="M294 -13c-141 0 -272 74 -272 240c0 179 124 310 306 310c141 0 272 -75 272 -243c0 -181 -126 -307 -306 -307zM297 132c72 0 105 74 105 171c0 49 -22 89 -77 89c-72 0 -107 -71 -107 -166c0 -46 17 -94 79 -94zM181 747h192l38 -169h-137z" />
    <glyph glyph-name="oacute" unicode="&#xf3;" horiz-adv-x="620" 
d="M294 -13c-141 0 -272 74 -272 240c0 179 124 310 306 310c141 0 272 -75 272 -243c0 -181 -126 -307 -306 -307zM297 132c72 0 105 74 105 171c0 49 -22 89 -77 89c-72 0 -107 -71 -107 -166c0 -46 17 -94 79 -94zM332 747h194l-125 -169h-142z" />
    <glyph glyph-name="ocircumflex" unicode="&#xf4;" horiz-adv-x="620" 
d="M294 -13c-141 0 -272 74 -272 240c0 179 124 310 306 310c141 0 272 -75 272 -243c0 -181 -126 -307 -306 -307zM297 132c72 0 105 74 105 171c0 49 -22 89 -77 89c-72 0 -107 -71 -107 -166c0 -46 17 -94 79 -94zM293 746h137l99 -166h-132l-49 53l-63 -53h-139z" />
    <glyph glyph-name="otilde" unicode="&#xf5;" horiz-adv-x="620" 
d="M294 -13c-141 0 -272 74 -272 240c0 179 124 310 306 310c141 0 272 -75 272 -243c0 -181 -126 -307 -306 -307zM297 132c72 0 105 74 105 171c0 49 -22 89 -77 89c-72 0 -107 -71 -107 -166c0 -46 17 -94 79 -94zM410 581c-59 0 -86 32 -118 32c-16 0 -28 -11 -33 -30
h-103c17 112 67 162 132 162c55 0 87 -32 121 -32c16 0 27 10 32 31h104c-19 -113 -72 -163 -135 -163z" />
    <glyph glyph-name="odieresis" unicode="&#xf6;" horiz-adv-x="620" 
d="M294 -13c-141 0 -272 74 -272 240c0 179 124 310 306 310c141 0 272 -75 272 -243c0 -181 -126 -307 -306 -307zM297 132c72 0 105 74 105 171c0 49 -22 89 -77 89c-72 0 -107 -71 -107 -166c0 -46 17 -94 79 -94zM242 570c-51 0 -91 39 -91 89c0 49 40 89 92 89
c51 0 91 -40 91 -89s-40 -89 -92 -89zM459 570c-51 0 -90 39 -90 89c0 49 39 89 90 89c52 0 92 -40 92 -89s-40 -89 -92 -89z" />
    <glyph glyph-name="divide" unicode="&#xf7;" horiz-adv-x="582" 
d="M59 407h507l-21 -134h-507zM277 34c-57 0 -99 42 -99 98c0 55 42 97 99 97c59 0 102 -42 102 -97c0 -56 -42 -98 -102 -98zM325 450c-57 0 -99 42 -99 97s42 98 99 98c59 0 102 -43 102 -98s-42 -97 -102 -97z" />
    <glyph glyph-name="oslash" unicode="&#xf8;" horiz-adv-x="620" 
d="M12 7l64 66c-33 39 -54 89 -54 156c0 178 124 309 306 309c59 0 114 -13 161 -41l66 67l48 -46l-62 -63c36 -40 59 -93 59 -162c0 -183 -126 -306 -306 -306c-61 0 -120 14 -167 43l-67 -69zM298 129c75 0 112 75 112 172c0 7 -1 11 -1 18l-169 -173
c13 -11 33 -17 58 -17zM210 228c0 -7 0 -12 1 -17l165 169c-13 9 -30 14 -50 14c-76 0 -116 -69 -116 -166z" />
    <glyph glyph-name="ugrave" unicode="&#xf9;" horiz-adv-x="627" 
d="M561 164c-11 -69 -16 -120 -13 -164h-192c-3 23 -3 55 0 84c-39 -56 -90 -97 -170 -97c-105 0 -177 64 -153 221l50 315h197l-49 -308c-8 -55 9 -83 52 -83c51 0 81 31 91 94l47 297h196zM193 747h192l38 -169h-137z" />
    <glyph glyph-name="uacute" unicode="&#xfa;" horiz-adv-x="627" 
d="M561 164c-11 -69 -16 -120 -13 -164h-192c-3 23 -3 55 0 84c-39 -56 -90 -97 -170 -97c-105 0 -177 64 -153 221l50 315h197l-49 -308c-8 -55 9 -83 52 -83c51 0 81 31 91 94l47 297h196zM355 747h194l-125 -169h-142z" />
    <glyph glyph-name="ucircumflex" unicode="&#xfb;" horiz-adv-x="627" 
d="M561 164c-11 -69 -16 -120 -13 -164h-192c-3 23 -3 55 0 84c-39 -56 -90 -97 -170 -97c-105 0 -177 64 -153 221l50 315h197l-49 -308c-8 -55 9 -83 52 -83c51 0 81 31 91 94l47 297h196zM304 746h137l99 -166h-132l-49 53l-63 -53h-139z" />
    <glyph glyph-name="udieresis" unicode="&#xfc;" horiz-adv-x="627" 
d="M561 164c-11 -69 -16 -120 -13 -164h-192c-3 23 -3 55 0 84c-39 -56 -90 -97 -170 -97c-105 0 -177 64 -153 221l50 315h197l-49 -308c-8 -55 9 -83 52 -83c51 0 81 31 91 94l47 297h196zM251 570c-51 0 -91 39 -91 89c0 49 40 89 92 89c51 0 91 -40 91 -89
s-40 -89 -92 -89zM468 570c-51 0 -90 39 -90 89c0 49 39 89 90 89c52 0 92 -40 92 -89s-40 -89 -92 -89z" />
    <glyph glyph-name="yacute" unicode="&#xfd;" horiz-adv-x="590" 
d="M172 59l-128 464h204l54 -263l130 263h195l-385 -697h-196zM346 747h194l-125 -169h-142z" />
    <glyph glyph-name="thorn" unicode="&#xfe;" horiz-adv-x="647" 
d="M123 750h197l-48 -308c35 57 93 95 174 95c100 0 180 -75 180 -225c0 -205 -107 -325 -251 -325c-80 0 -140 39 -159 98l-42 -259h-197zM316 135c64 0 108 64 108 163c0 61 -27 95 -76 95c-67 0 -112 -70 -112 -163c0 -61 28 -95 80 -95z" />
    <glyph glyph-name="ydieresis" unicode="&#xff;" horiz-adv-x="590" 
d="M172 59l-128 464h204l54 -263l130 263h195l-385 -697h-196zM247 570c-51 0 -91 39 -91 89c0 49 40 89 92 89c51 0 91 -40 91 -89s-40 -89 -92 -89zM464 570c-51 0 -90 39 -90 89c0 49 39 89 90 89c52 0 92 -40 92 -89s-40 -89 -92 -89z" />
    <glyph glyph-name="Amacron" unicode="&#x100;" horiz-adv-x="755" 
d="M457 119h-225l-51 -119h-217l339 715h292l111 -715h-235zM299 273h141l-29 259zM305 884h332l-18 -115h-332z" />
    <glyph glyph-name="amacron" unicode="&#x101;" horiz-adv-x="584" 
d="M168 -13c-92 0 -165 52 -165 145c0 138 104 184 279 184h72l2 12c7 43 -1 73 -53 73c-44 0 -60 -27 -67 -56h-184c27 129 117 193 260 193c179 0 260 -75 235 -235l-22 -139c-11 -68 -15 -120 -8 -164h-191c-4 21 -4 44 -3 65c-29 -41 -75 -78 -155 -78zM251 117
c43 0 75 27 82 66l5 27h-51c-64 0 -88 -14 -88 -50c0 -24 17 -43 52 -43zM190 712h316l-17 -107h-316z" />
    <glyph glyph-name="Abreve" unicode="&#x102;" horiz-adv-x="755" 
d="M457 119h-225l-51 -119h-217l339 715h292l111 -715h-235zM299 273h141l-29 259zM459 749c-109 0 -166 61 -167 157h124c3 -27 16 -42 45 -42c27 0 44 14 49 42h125c-15 -101 -81 -157 -176 -157z" />
    <glyph glyph-name="abreve" unicode="&#x103;" horiz-adv-x="584" 
d="M168 -13c-92 0 -165 52 -165 145c0 138 104 184 279 184h72l2 12c7 43 -1 73 -53 73c-44 0 -60 -27 -67 -56h-184c27 129 117 193 260 193c179 0 260 -75 235 -235l-22 -139c-11 -68 -15 -120 -8 -164h-191c-4 21 -4 44 -3 65c-29 -41 -75 -78 -155 -78zM251 117
c43 0 75 27 82 66l5 27h-51c-64 0 -88 -14 -88 -50c0 -24 17 -43 52 -43zM342 582c-104 0 -168 59 -164 163h118c2 -30 18 -45 48 -45c31 0 48 15 52 45h120c-15 -107 -78 -163 -174 -163z" />
    <glyph glyph-name="Aogonek" unicode="&#x104;" horiz-adv-x="755" 
d="M457 119h-225l-51 -119h-217l339 715h292l110 -704c-36 -24 -62 -47 -62 -74c0 -15 9 -22 28 -22c9 0 18 1 25 3l-14 -85c-17 -7 -42 -15 -81 -15c-58 0 -115 19 -115 79c0 54 53 87 98 103h-113zM299 273h141l-29 259z" />
    <glyph glyph-name="aogonek" unicode="&#x105;" horiz-adv-x="584" 
d="M425 -182c-58 0 -115 19 -115 79c0 54 53 87 97 103h-81c-4 21 -4 44 -3 65c-29 -41 -75 -78 -155 -78c-92 0 -165 52 -165 145c0 138 104 184 279 184h72l2 12c7 43 -1 73 -53 73c-44 0 -60 -27 -67 -56h-184c27 129 117 193 260 193c179 0 260 -75 235 -235l-22 -139
c-11 -67 -14 -114 -9 -158c-23 -19 -48 -42 -48 -69c0 -15 9 -22 27 -22c11 0 19 1 25 4l-14 -86c-17 -8 -42 -15 -81 -15zM251 117c43 0 75 27 82 66l5 27h-51c-64 0 -88 -14 -88 -50c0 -24 17 -43 52 -43z" />
    <glyph glyph-name="Cacute" unicode="&#x106;" horiz-adv-x="768" 
d="M394 -13c-214 0 -354 107 -354 315c0 247 150 424 403 424c195 0 315 -93 323 -282h-228c-7 68 -34 105 -101 105c-107 0 -160 -109 -160 -237c0 -81 30 -146 119 -146c64 0 109 35 128 108h225c-29 -192 -177 -287 -355 -287zM427 906h201l-115 -149h-150z" />
    <glyph glyph-name="cacute" unicode="&#x107;" horiz-adv-x="584" 
d="M291 -12c-153 0 -270 80 -270 240c0 187 121 309 298 309c141 0 246 -65 251 -220h-184c-4 46 -28 69 -71 69c-72 0 -97 -78 -97 -160c0 -59 21 -97 80 -97c45 0 75 27 86 80h176c-17 -143 -112 -221 -269 -221zM321 747h194l-125 -169h-142z" />
    <glyph glyph-name="Ccircumflex" unicode="&#x108;" horiz-adv-x="768" 
d="M394 -13c-214 0 -354 107 -354 315c0 247 150 424 403 424c195 0 315 -93 323 -282h-228c-7 68 -34 105 -101 105c-107 0 -160 -109 -160 -237c0 -81 30 -146 119 -146c64 0 109 35 128 108h225c-29 -192 -177 -287 -355 -287zM386 906h164l93 -149h-137l-48 47l-60 -47
h-144z" />
    <glyph glyph-name="ccircumflex" unicode="&#x109;" horiz-adv-x="584" 
d="M291 -12c-153 0 -270 80 -270 240c0 187 121 309 298 309c141 0 246 -65 251 -220h-184c-4 46 -28 69 -71 69c-72 0 -97 -78 -97 -160c0 -59 21 -97 80 -97c45 0 75 27 86 80h176c-17 -143 -112 -221 -269 -221zM279 746h137l99 -166h-132l-49 53l-63 -53h-139z" />
    <glyph glyph-name="Cdotaccent" unicode="&#x10a;" horiz-adv-x="768" 
d="M394 -13c-214 0 -354 107 -354 315c0 247 150 424 403 424c195 0 315 -93 323 -282h-228c-7 68 -34 105 -101 105c-107 0 -160 -109 -160 -237c0 -81 30 -146 119 -146c64 0 109 35 128 108h225c-29 -192 -177 -287 -355 -287zM455 752c-60 0 -103 39 -103 94
c0 56 44 96 103 96s103 -39 103 -95s-44 -95 -103 -95z" />
    <glyph glyph-name="cdotaccent" unicode="&#x10b;" horiz-adv-x="584" 
d="M291 -12c-153 0 -270 80 -270 240c0 187 121 309 298 309c141 0 246 -65 251 -220h-184c-4 46 -28 69 -71 69c-72 0 -97 -78 -97 -160c0 -59 21 -97 80 -97c45 0 75 27 86 80h176c-17 -143 -112 -221 -269 -221zM334 569c-60 0 -103 38 -103 94s44 96 103 96
s103 -39 103 -95s-44 -95 -103 -95z" />
    <glyph glyph-name="Ccaron" unicode="&#x10c;" horiz-adv-x="768" 
d="M394 -13c-214 0 -354 107 -354 315c0 247 150 424 403 424c195 0 315 -93 323 -282h-228c-7 68 -34 105 -101 105c-107 0 -160 -109 -160 -237c0 -81 30 -146 119 -146c64 0 109 35 128 108h225c-29 -192 -177 -287 -355 -287zM528 757h-164l-92 149h137l48 -47l59 47
h145z" />
    <glyph glyph-name="ccaron" unicode="&#x10d;" horiz-adv-x="584" 
d="M291 -12c-153 0 -270 80 -270 240c0 187 121 309 298 309c141 0 246 -65 251 -220h-184c-4 46 -28 69 -71 69c-72 0 -97 -78 -97 -160c0 -59 21 -97 80 -97c45 0 75 27 86 80h176c-17 -143 -112 -221 -269 -221zM389 580h-138l-98 166h131l49 -52l63 52h139z" />
    <glyph glyph-name="Dcaron" unicode="&#x10e;" horiz-adv-x="757" 
d="M136 715h242c245 0 369 -112 369 -304c0 -268 -171 -411 -418 -411h-306zM330 172c119 0 182 81 182 229c0 95 -46 142 -139 142h-37l-59 -371h53zM491 757h-164l-92 149h137l48 -47l59 47h145z" />
    <glyph glyph-name="dcaron" unicode="&#x10f;" horiz-adv-x="645" 
d="M206 -13c-109 0 -188 75 -188 227c0 206 112 324 260 324c76 0 129 -32 152 -88l47 299h198l-93 -585c-11 -69 -15 -120 -11 -164h-194c-5 23 -4 52 -3 81c-39 -63 -89 -94 -168 -94zM297 133c65 0 111 69 111 165c0 61 -28 95 -79 95c-64 0 -109 -64 -109 -163
c0 -61 26 -97 77 -97zM716 750h139l-75 -175h-99z" />
    <glyph glyph-name="Dcroat" unicode="&#x110;" horiz-adv-x="775" 
d="M55 435h55l44 280h242c245 0 369 -112 369 -304c0 -268 -170 -411 -418 -411h-306l45 284h-55zM349 172c117 0 182 81 182 229c0 95 -46 142 -139 142h-42l-17 -108h103l-23 -151h-104l-18 -112h58z" />
    <glyph glyph-name="dcroat" unicode="&#x111;" horiz-adv-x="645" 
d="M316 684h150l11 65h198l-11 -65h53l-16 -102h-53l-66 -418c-11 -69 -15 -120 -11 -164h-194c-5 23 -4 52 -3 81c-39 -63 -89 -94 -168 -94c-109 0 -188 75 -188 227c0 206 112 324 260 324c76 0 129 -32 152 -88l20 132h-150zM329 393c-64 0 -109 -64 -109 -163
c0 -61 26 -97 77 -97c65 0 111 69 111 165c0 61 -28 95 -79 95z" />
    <glyph glyph-name="Emacron" unicode="&#x112;" horiz-adv-x="621" 
d="M136 715h507l-27 -174h-282l-16 -101h224l-24 -158h-224l-18 -108h298l-27 -174h-524zM245 884h332l-18 -115h-332z" />
    <glyph glyph-name="emacron" unicode="&#x113;" horiz-adv-x="602" 
d="M213 217c0 -54 22 -98 89 -98c49 0 73 23 84 58h185c-25 -124 -127 -190 -274 -190c-153 0 -276 73 -276 240c0 187 129 311 304 311s280 -111 251 -297l-3 -23h-360v-1zM324 412c-41 0 -80 -24 -99 -91h170c5 53 -14 91 -71 91zM200 712h316l-17 -107h-316z" />
    <glyph glyph-name="Ebreve" unicode="&#x114;" horiz-adv-x="621" 
d="M136 715h507l-27 -174h-282l-16 -101h224l-24 -158h-224l-18 -108h298l-27 -174h-524zM399 749c-109 0 -166 61 -167 157h124c3 -27 16 -42 45 -42c27 0 44 14 49 42h125c-15 -101 -81 -157 -176 -157z" />
    <glyph glyph-name="ebreve" unicode="&#x115;" horiz-adv-x="602" 
d="M213 217c0 -54 22 -98 89 -98c49 0 73 23 84 58h185c-25 -124 -127 -190 -274 -190c-153 0 -276 73 -276 240c0 187 129 311 304 311s280 -111 251 -297l-3 -23h-360v-1zM324 412c-41 0 -80 -24 -99 -91h170c5 53 -14 91 -71 91zM345 581c-104 0 -168 59 -164 163h118
c2 -30 18 -45 48 -45c31 0 48 15 52 45h120c-15 -107 -78 -163 -174 -163z" />
    <glyph glyph-name="Edotaccent" unicode="&#x116;" horiz-adv-x="621" 
d="M136 715h507l-27 -174h-282l-16 -101h224l-24 -158h-224l-18 -108h298l-27 -174h-524zM396 752c-60 0 -103 39 -103 94c0 56 44 96 103 96s103 -39 103 -95s-44 -95 -103 -95z" />
    <glyph glyph-name="edotaccent" unicode="&#x117;" horiz-adv-x="602" 
d="M213 217c0 -54 22 -98 89 -98c49 0 73 23 84 58h185c-25 -124 -127 -190 -274 -190c-153 0 -276 73 -276 240c0 187 129 311 304 311s280 -111 251 -297l-3 -23h-360v-1zM324 412c-41 0 -80 -24 -99 -91h170c5 53 -14 91 -71 91zM341 569c-60 0 -103 38 -103 94
s44 96 103 96s103 -39 103 -95s-44 -95 -103 -95z" />
    <glyph glyph-name="Eogonek" unicode="&#x118;" horiz-adv-x="621" 
d="M136 715h507l-27 -174h-282l-16 -101h224l-24 -158h-224l-18 -108h298l-27 -174h-38c-19 -15 -47 -36 -47 -63c0 -15 9 -22 27 -22c9 0 18 1 25 3l-14 -85c-17 -7 -43 -15 -80 -15c-59 0 -116 17 -116 78c0 53 53 88 97 104h-378z" />
    <glyph glyph-name="eogonek" unicode="&#x119;" horiz-adv-x="602" 
d="M297 -13c-153 0 -276 73 -276 240c0 187 130 311 304 311c175 0 280 -111 251 -297l-3 -23h-360v-1c0 -54 22 -98 89 -98c49 0 73 23 84 58h185c-12 -59 -38 -100 -83 -136c-31 -26 -104 -60 -104 -104c0 -15 9 -22 28 -22c11 0 19 1 25 4l-14 -86
c-17 -8 -42 -15 -81 -15c-58 0 -115 18 -115 75c0 51 44 78 84 94h-14zM324 412c-41 0 -80 -24 -99 -91h170c5 53 -14 91 -71 91z" />
    <glyph glyph-name="Ecaron" unicode="&#x11a;" horiz-adv-x="621" 
d="M136 715h507l-27 -174h-282l-16 -101h224l-24 -158h-224l-18 -108h298l-27 -174h-524zM468 757h-164l-92 149h137l48 -47l59 47h145z" />
    <glyph glyph-name="ecaron" unicode="&#x11b;" horiz-adv-x="602" 
d="M213 217c0 -54 22 -98 89 -98c49 0 73 23 84 58h185c-25 -124 -127 -190 -274 -190c-153 0 -276 73 -276 240c0 187 129 311 304 311s280 -111 251 -297l-3 -23h-360v-1zM324 412c-41 0 -80 -24 -99 -91h170c5 53 -14 91 -71 91zM398 580h-138l-98 166h131l49 -52l63 52
h139z" />
    <glyph glyph-name="Gcircumflex" unicode="&#x11c;" horiz-adv-x="791" 
d="M401 -13c-217 0 -361 109 -361 319c0 244 171 419 411 419c171 0 318 -75 326 -269h-225c-5 60 -37 91 -110 91c-110 0 -167 -115 -167 -239c0 -93 42 -149 135 -149c83 0 118 40 130 91h-120l24 149h341c-16 -277 -132 -412 -384 -412zM382 906h164l93 -149h-137l-48 47
l-60 -47h-144z" />
    <glyph glyph-name="gcircumflex" unicode="&#x11d;" horiz-adv-x="643" 
d="M298 168c70 0 109 63 109 141c-1 51 -29 86 -77 86c-71 0 -105 -67 -105 -135c0 -55 24 -92 73 -92zM558 31c-24 -153 -106 -225 -293 -225c-196 0 -275 89 -280 198h195c3 -29 24 -62 82 -62c69 0 92 38 99 89l14 82c-33 -52 -83 -82 -159 -82c-109 0 -194 72 -194 216
c0 173 107 291 254 291c80 0 128 -33 151 -88l12 73h197zM311 746h137l99 -166h-132l-49 53l-63 -53h-139z" />
    <glyph glyph-name="Gbreve" unicode="&#x11e;" horiz-adv-x="791" 
d="M401 -13c-217 0 -361 109 -361 319c0 244 171 419 411 419c171 0 318 -75 326 -269h-225c-5 60 -37 91 -110 91c-110 0 -167 -115 -167 -239c0 -93 42 -149 135 -149c83 0 118 40 130 91h-120l24 149h341c-16 -277 -132 -412 -384 -412zM454 749c-109 0 -166 61 -167 157
h124c3 -27 16 -42 45 -42c27 0 44 14 49 42h125c-15 -101 -81 -157 -176 -157z" />
    <glyph glyph-name="gbreve" unicode="&#x11f;" horiz-adv-x="643" 
d="M298 168c70 0 109 63 109 141c-1 51 -29 86 -77 86c-71 0 -105 -67 -105 -135c0 -55 24 -92 73 -92zM558 31c-24 -153 -106 -225 -293 -225c-196 0 -275 89 -280 198h195c3 -29 24 -62 82 -62c69 0 92 38 99 89l14 82c-33 -52 -83 -82 -159 -82c-109 0 -194 72 -194 216
c0 173 107 291 254 291c80 0 128 -33 151 -88l12 73h197zM363 581c-104 0 -168 59 -164 163h118c2 -30 18 -45 48 -45c31 0 48 15 52 45h120c-15 -107 -78 -163 -174 -163z" />
    <glyph glyph-name="Gdotaccent" unicode="&#x120;" horiz-adv-x="791" 
d="M401 -13c-217 0 -361 109 -361 319c0 244 171 419 411 419c171 0 318 -75 326 -269h-225c-5 60 -37 91 -110 91c-110 0 -167 -115 -167 -239c0 -93 42 -149 135 -149c83 0 118 40 130 91h-120l24 149h341c-16 -277 -132 -412 -384 -412zM451 752c-60 0 -103 39 -103 94
c0 56 44 96 103 96s103 -39 103 -95s-44 -95 -103 -95z" />
    <glyph glyph-name="gdotaccent" unicode="&#x121;" horiz-adv-x="643" 
d="M298 168c70 0 109 63 109 141c-1 51 -29 86 -77 86c-71 0 -105 -67 -105 -135c0 -55 24 -92 73 -92zM558 31c-24 -153 -106 -225 -293 -225c-196 0 -275 89 -280 198h195c3 -29 24 -62 82 -62c69 0 92 38 99 89l14 82c-33 -52 -83 -82 -159 -82c-109 0 -194 72 -194 216
c0 173 107 291 254 291c80 0 128 -33 151 -88l12 73h197zM356 569c-60 0 -103 38 -103 94s44 96 103 96s103 -39 103 -95s-44 -95 -103 -95z" />
    <glyph glyph-name="uni0122" unicode="&#x122;" horiz-adv-x="791" 
d="M401 -13c-217 0 -361 109 -361 319c0 244 171 419 411 419c171 0 318 -75 326 -269h-225c-5 60 -37 91 -110 91c-110 0 -167 -115 -167 -239c0 -93 42 -149 135 -149c83 0 118 40 130 91h-120l24 149h341c-16 -277 -132 -412 -384 -412zM228 -206l47 175l171 -12
l-110 -190z" />
    <glyph glyph-name="uni0123" unicode="&#x123;" horiz-adv-x="643" 
d="M298 168c70 0 109 63 109 141c-1 51 -29 86 -77 86c-71 0 -105 -67 -105 -135c0 -55 24 -92 73 -92zM558 31c-24 -153 -106 -225 -293 -225c-196 0 -275 89 -280 198h195c3 -29 24 -62 82 -62c69 0 92 38 99 89l14 82c-33 -52 -83 -82 -159 -82c-109 0 -194 72 -194 216
c0 173 107 291 254 291c80 0 128 -33 151 -88l12 73h197zM480 740l-47 -175l-171 12l110 190z" />
    <glyph glyph-name="Hcircumflex" unicode="&#x124;" horiz-adv-x="794" 
d="M136 715h227l-41 -264h209l42 264h227l-113 -715h-227l43 275h-210l-43 -275h-227zM404 906h164l93 -149h-137l-48 47l-60 -47h-144z" />
    <glyph glyph-name="hcircumflex" unicode="&#x125;" horiz-adv-x="627" 
d="M124 749h196l-49 -313c36 59 90 102 175 102c97 0 170 -65 146 -223l-50 -315h-197l47 297c9 55 -9 83 -54 83c-51 0 -81 -31 -91 -94l-45 -286h-197zM328 936h164l93 -149h-137l-48 47l-60 -47h-144z" />
    <glyph glyph-name="Hbar" unicode="&#x126;" horiz-adv-x="794" 
d="M64 627h58l14 88h227l-14 -88h210l14 88h227l-14 -88h58l-16 -101h-58l-83 -526h-227l43 275h-210l-43 -275h-227l83 526h-59zM531 451l12 75h-210l-11 -75h209z" />
    <glyph glyph-name="hbar" unicode="&#x127;" horiz-adv-x="627" 
d="M60 684h53l11 65h196l-10 -65h151l-16 -102h-151l-23 -146c36 59 90 102 175 102c97 0 170 -65 146 -223l-50 -315h-197l47 297c9 55 -9 83 -54 83c-51 0 -81 -31 -91 -94l-45 -286h-197l92 582h-53z" />
    <glyph glyph-name="Itilde" unicode="&#x128;" horiz-adv-x="366" 
d="M139 715h229l-113 -715h-229zM334 755c-58 0 -89 32 -120 32c-16 0 -30 -11 -33 -30h-110c19 112 76 160 140 160c56 0 88 -32 123 -32c17 0 28 10 34 30h109c-21 -111 -81 -160 -143 -160z" />
    <glyph glyph-name="itilde" unicode="&#x129;" horiz-adv-x="303" 
d="M93 523h197l-83 -523h-196zM274 581c-59 0 -86 32 -118 32c-16 0 -28 -11 -33 -30h-103c17 112 67 162 132 162c55 0 87 -32 121 -32c16 0 27 10 32 31h104c-19 -113 -72 -163 -135 -163z" />
    <glyph glyph-name="Imacron" unicode="&#x12a;" horiz-adv-x="366" 
d="M139 715h229l-113 -715h-229zM111 884h332l-18 -115h-332z" />
    <glyph glyph-name="imacron" unicode="&#x12b;" horiz-adv-x="303" 
d="M95 712h255l-17 -107h-255zM93 523h197l-83 -523h-196z" />
    <glyph glyph-name="Ibreve" unicode="&#x12c;" horiz-adv-x="366" 
d="M139 715h229l-113 -715h-229zM268 749c-109 0 -166 61 -167 157h124c3 -27 16 -42 45 -42c27 0 44 14 49 42h125c-15 -101 -81 -157 -176 -157z" />
    <glyph glyph-name="ibreve" unicode="&#x12d;" horiz-adv-x="303" 
d="M93 523h197l-83 -523h-196zM208 581c-104 0 -168 59 -164 163h118c2 -30 18 -45 48 -45c31 0 48 15 52 45h120c-15 -107 -78 -163 -174 -163z" />
    <glyph glyph-name="Iogonek" unicode="&#x12e;" horiz-adv-x="366" 
d="M151 -182c-58 0 -115 19 -115 79c0 54 54 87 98 103h-108l113 715h229l-110 -700c-37 -27 -65 -53 -65 -78c0 -15 9 -22 28 -22c9 0 18 1 25 3l-14 -85c-17 -7 -42 -15 -81 -15z" />
    <glyph glyph-name="iogonek" unicode="&#x12f;" horiz-adv-x="303" 
d="M93 523h197l-80 -508c-37 -27 -64 -51 -64 -78c0 -15 9 -22 27 -22c9 0 18 1 25 3l-14 -85c-17 -7 -42 -15 -81 -15c-58 0 -115 19 -115 79c0 54 55 87 97 103h-74zM211 563c-61 0 -104 42 -104 98c0 57 44 98 105 98c60 0 104 -41 104 -98c0 -56 -46 -98 -105 -98z" />
    <glyph glyph-name="Idotaccent" unicode="&#x130;" horiz-adv-x="366" 
d="M139 715h229l-113 -715h-229zM264 752c-60 0 -103 39 -103 94c0 56 44 96 103 96s103 -39 103 -95s-44 -95 -103 -95z" />
    <glyph glyph-name="dotlessi" unicode="&#x131;" horiz-adv-x="303" 
d="M93 523h197l-83 -523h-196z" />
    <glyph glyph-name="IJ" unicode="&#x132;" horiz-adv-x="830" 
d="M130 715h229l-113 -715h-229zM483 -9c-84 0 -130 16 -158 31l26 166c24 -8 52 -18 91 -18c48 0 85 21 94 82l74 463h227l-75 -472c-27 -173 -124 -252 -279 -252z" />
    <glyph glyph-name="ij" unicode="&#x133;" horiz-adv-x="303" 
d="M211 563c-61 0 -104 42 -104 98c0 57 44 98 105 98c60 0 104 -41 104 -98c0 -56 -46 -98 -105 -98zM93 523h197l-83 -523h-196zM245 -42c41 3 64 16 69 55l81 510h196l-84 -529c-16 -102 -78 -186 -284 -175zM512 563c-60 0 -103 42 -103 98c0 57 44 98 104 98
s104 -41 104 -98c0 -56 -45 -98 -105 -98z" />
    <glyph glyph-name="Jcircumflex" unicode="&#x134;" horiz-adv-x="489" 
d="M151 -9c-84 0 -130 16 -158 31l26 166c24 -8 52 -18 91 -18c48 0 85 21 94 82l74 463h227l-75 -472c-27 -173 -124 -252 -279 -252zM329 906h164l93 -149h-137l-48 47l-60 -47h-144z" />
    <glyph glyph-name="jcircumflex" unicode="&#x135;" horiz-adv-x="303" 
d="M-57 -42c41 3 64 16 69 55l81 510h196l-84 -529c-16 -102 -78 -186 -284 -175zM148 746h137l99 -166h-132l-49 53l-63 -53h-139z" />
    <glyph glyph-name="uni0136" unicode="&#x136;" horiz-adv-x="745" 
d="M136 715h227l-43 -273l246 273h243l-317 -342l204 -373h-245l-154 300l-47 -300h-227zM204 -206l47 175l171 -12l-110 -190z" />
    <glyph glyph-name="uni0137" unicode="&#x137;" horiz-adv-x="587" 
d="M123 750h197l-68 -431l161 204h211l-207 -242l129 -281h-210l-98 231l-36 -231h-197zM138 -206l47 175l171 -12l-110 -190z" />
    <glyph glyph-name="Lacute" unicode="&#x139;" horiz-adv-x="582" 
d="M136 715h227l-85 -540h260l-28 -175h-487zM231 906h201l-115 -149h-150z" />
    <glyph glyph-name="lacute" unicode="&#x13a;" horiz-adv-x="300" 
d="M129 750h195l-118 -750h-196zM211 936h201l-115 -149h-150z" />
    <glyph glyph-name="uni013B" unicode="&#x13b;" horiz-adv-x="582" 
d="M136 715h227l-85 -540h260l-28 -175h-487zM129 -206l47 175l171 -12l-110 -190z" />
    <glyph glyph-name="uni013C" unicode="&#x13c;" horiz-adv-x="300" 
d="M129 750h195l-118 -750h-196zM-29 -206l47 175l171 -12l-110 -190z" />
    <glyph glyph-name="Lcaron" unicode="&#x13d;" horiz-adv-x="582" 
d="M450 715h159l-90 -180h-112zM136 715h227l-85 -540h260l-28 -175h-487z" />
    <glyph glyph-name="lcaron" unicode="&#x13e;" horiz-adv-x="300" 
d="M129 750h195l-118 -750h-196zM367 750h139l-75 -175h-99z" />
    <glyph glyph-name="Ldot" unicode="&#x13f;" horiz-adv-x="613" 
d="M136 715h227l-85 -540h260l-28 -175h-487zM516 297c-63 0 -110 47 -110 107s45 108 109 108s113 -48 113 -108s-48 -107 -112 -107z" />
    <glyph glyph-name="ldot" unicode="&#x140;" horiz-adv-x="478" 
d="M129 750h195l-118 -750h-196zM401 251c-63 0 -110 47 -110 107s45 108 109 108s113 -48 113 -108s-48 -107 -112 -107z" />
    <glyph glyph-name="Lslash" unicode="&#x141;" 
d="M33 343l65 21l56 351h228l-44 -274l186 60l-20 -120l-185 -60l-23 -146h260l-27 -175h-488l38 244l-64 -21z" />
    <glyph glyph-name="lslash" unicode="&#x142;" horiz-adv-x="344" 
d="M34 379l62 26l54 345h196l-40 -255l66 28l-20 -126l-66 -29l-58 -368h-196l44 278l-62 -26z" />
    <glyph glyph-name="Nacute" unicode="&#x143;" horiz-adv-x="787" 
d="M136 715h255l141 -372l59 372h201l-113 -715h-217l-171 423l-66 -423h-202zM459 906h201l-115 -149h-150z" />
    <glyph glyph-name="nacute" unicode="&#x144;" horiz-adv-x="627" 
d="M60 349c12 76 17 126 20 174h192c0 -27 -1 -61 -5 -92c37 60 94 107 179 107c97 0 170 -65 146 -223l-50 -315h-197l47 297c9 55 -9 83 -54 83c-51 0 -81 -31 -91 -94l-45 -286h-197zM349 747h194l-125 -169h-142z" />
    <glyph glyph-name="uni0145" unicode="&#x145;" horiz-adv-x="787" 
d="M136 715h255l141 -372l59 372h201l-113 -715h-217l-171 423l-66 -423h-202zM215 -206l47 175l171 -12l-110 -190z" />
    <glyph glyph-name="uni0146" unicode="&#x146;" horiz-adv-x="626" 
d="M60 349c12 76 17 126 20 174h192c0 -27 -1 -61 -5 -92c37 60 94 107 179 107c97 0 170 -65 146 -223l-50 -315h-197l47 297c9 55 -9 83 -54 83c-51 0 -81 -31 -91 -94l-45 -286h-197zM139 -206l47 175l171 -12l-110 -190z" />
    <glyph glyph-name="Ncaron" unicode="&#x147;" horiz-adv-x="787" 
d="M136 715h255l141 -372l59 372h201l-113 -715h-217l-171 423l-66 -423h-202zM560 757h-164l-92 149h137l48 -47l59 47h145z" />
    <glyph glyph-name="ncaron" unicode="&#x148;" horiz-adv-x="627" 
d="M60 349c12 76 17 126 20 174h192c0 -27 -1 -61 -5 -92c37 60 94 107 179 107c97 0 170 -65 146 -223l-50 -315h-197l47 297c9 55 -9 83 -54 83c-51 0 -81 -31 -91 -94l-45 -286h-197zM415 580h-138l-98 166h131l49 -52l63 52h139z" />
    <glyph glyph-name="napostrophe" unicode="&#x149;" horiz-adv-x="766" 
d="M200 349c12 76 17 126 20 174h192c0 -27 -1 -61 -5 -92c37 60 94 107 179 107c97 0 170 -65 146 -223l-50 -315h-197l47 297c9 55 -9 83 -54 83c-51 0 -81 -31 -91 -94l-45 -286h-197zM2 458l100 270l168 -56l-161 -255z" />
    <glyph glyph-name="Eng" unicode="&#x14a;" horiz-adv-x="787" 
d="M377 -23c40 0 67 14 80 42l-163 408l-68 -427h-203l113 715h255l140 -373l59 373h202l-110 -697c-21 -129 -103 -210 -266 -210c-71 0 -111 10 -139 25l26 158c21 -8 39 -14 74 -14z" />
    <glyph glyph-name="eng" unicode="&#x14b;" horiz-adv-x="628" 
d="M60 349c12 76 17 126 20 174h192c0 -27 -1 -61 -5 -92c37 60 94 107 179 107c97 0 170 -65 146 -223l-51 -321c-16 -102 -76 -187 -284 -176l21 140c41 3 63 16 70 55l44 284c9 55 -9 83 -54 83c-51 0 -81 -31 -91 -94l-45 -286h-197z" />
    <glyph glyph-name="Omacron" unicode="&#x14c;" horiz-adv-x="820" 
d="M810 410c0 -251 -168 -423 -421 -423c-189 0 -349 109 -349 313c0 251 169 426 413 426c196 0 357 -107 357 -316zM574 402c0 81 -36 144 -128 147c-115 0 -171 -117 -171 -241c0 -84 41 -143 130 -143c116 0 169 118 169 237zM319 884h332l-18 -115h-332z" />
    <glyph glyph-name="omacron" unicode="&#x14d;" horiz-adv-x="620" 
d="M294 -13c-141 0 -272 74 -272 240c0 179 124 310 306 310c141 0 272 -75 272 -243c0 -181 -126 -307 -306 -307zM297 132c72 0 105 74 105 171c0 49 -22 89 -77 89c-72 0 -107 -71 -107 -166c0 -46 17 -94 79 -94zM202 712h316l-17 -107h-316z" />
    <glyph glyph-name="Obreve" unicode="&#x14e;" horiz-adv-x="820" 
d="M810 410c0 -251 -168 -423 -421 -423c-189 0 -349 109 -349 313c0 251 169 426 413 426c196 0 357 -107 357 -316zM574 402c0 81 -36 144 -128 147c-115 0 -171 -117 -171 -241c0 -84 41 -143 130 -143c116 0 169 118 169 237zM475 749c-109 0 -166 61 -167 157h124
c3 -27 16 -42 45 -42c27 0 44 14 49 42h125c-15 -101 -81 -157 -176 -157z" />
    <glyph glyph-name="obreve" unicode="&#x14f;" horiz-adv-x="620" 
d="M294 -13c-141 0 -272 74 -272 240c0 179 124 310 306 310c141 0 272 -75 272 -243c0 -181 -126 -307 -306 -307zM297 132c72 0 105 74 105 171c0 49 -22 89 -77 89c-72 0 -107 -71 -107 -166c0 -46 17 -94 79 -94zM344 581c-104 0 -168 59 -164 163h118
c2 -30 18 -45 48 -45c31 0 48 15 52 45h120c-15 -107 -78 -163 -174 -163z" />
    <glyph glyph-name="Ohungarumlaut" unicode="&#x150;" horiz-adv-x="820" 
d="M810 410c0 -251 -168 -423 -421 -423c-189 0 -349 109 -349 313c0 251 169 426 413 426c196 0 357 -107 357 -316zM574 402c0 81 -36 144 -128 147c-115 0 -171 -117 -171 -241c0 -84 41 -143 130 -143c116 0 169 118 169 237zM357 906h164l-91 -149h-130zM558 906h164
l-90 -149h-131z" />
    <glyph glyph-name="ohungarumlaut" unicode="&#x151;" horiz-adv-x="620" 
d="M294 -13c-141 0 -272 74 -272 240c0 179 124 310 306 310c141 0 272 -75 272 -243c0 -181 -126 -307 -306 -307zM297 132c72 0 105 74 105 171c0 49 -22 89 -77 89c-72 0 -107 -71 -107 -166c0 -46 17 -94 79 -94zM252 747h148l-98 -169h-114zM434 747h148l-98 -169h-115
z" />
    <glyph glyph-name="OE" unicode="&#x152;" horiz-adv-x="988" 
d="M402 0c-240 0 -362 107 -362 299c0 268 171 416 419 416h553l-28 -174h-267l-16 -101h209l-24 -158h-209l-18 -108h284l-28 -174h-513zM457 543c-117 0 -182 -86 -182 -234c0 -91 47 -137 140 -137h20l58 371h-36z" />
    <glyph glyph-name="oe" unicode="&#x153;" horiz-adv-x="980" 
d="M590 217c0 -55 23 -98 90 -98c48 0 73 23 84 58h184c-25 -124 -126 -190 -273 -190c-80 0 -148 22 -193 71c-49 -45 -112 -71 -188 -71c-140 0 -272 77 -272 242c0 179 124 308 306 308c73 0 140 -24 187 -75c49 48 113 76 188 76c175 0 280 -111 251 -297l-4 -23h-360
v-1zM297 132c72 0 105 74 105 171c0 49 -22 89 -77 89c-73 0 -108 -71 -108 -167c0 -46 19 -93 80 -93zM701 412c-41 0 -79 -24 -99 -91h171c4 53 -15 91 -72 91z" />
    <glyph glyph-name="Racute" unicode="&#x154;" horiz-adv-x="710" 
d="M136 715h283c183 0 271 -80 271 -207c0 -117 -66 -190 -159 -217l128 -291h-229l-106 245h-37l-38 -245h-226zM372 391c61 0 97 26 97 87c0 45 -27 67 -81 67h-53l-25 -154h62zM374 906h201l-115 -149h-150z" />
    <glyph glyph-name="racute" unicode="&#x155;" horiz-adv-x="439" 
d="M60 349c12 76 16 126 19 174h192c0 -27 -2 -72 -7 -115c41 85 101 123 189 122l-28 -184c-112 7 -172 -25 -187 -122l-36 -224h-197zM289 747h194l-125 -169h-142z" />
    <glyph glyph-name="uni0156" unicode="&#x156;" horiz-adv-x="710" 
d="M136 715h283c183 0 271 -80 271 -207c0 -117 -66 -190 -159 -217l128 -291h-229l-106 245h-37l-38 -245h-226zM372 391c61 0 97 26 97 87c0 45 -27 67 -81 67h-53l-25 -154h62zM191 -206l47 175l171 -12l-110 -190z" />
    <glyph glyph-name="uni0157" unicode="&#x157;" horiz-adv-x="440" 
d="M60 349c12 76 16 126 19 174h192c0 -27 -2 -72 -7 -115c41 85 101 123 189 122l-28 -184c-112 7 -172 -25 -187 -122l-36 -224h-197zM-35 -206l47 175l171 -12l-110 -190z" />
    <glyph glyph-name="Rcaron" unicode="&#x158;" horiz-adv-x="710" 
d="M136 715h283c183 0 271 -80 271 -207c0 -117 -66 -190 -159 -217l128 -291h-229l-106 245h-37l-38 -245h-226zM372 391c61 0 97 26 97 87c0 45 -27 67 -81 67h-53l-25 -154h62zM474 757h-164l-92 149h137l48 -47l59 47h145z" />
    <glyph glyph-name="rcaron" unicode="&#x159;" horiz-adv-x="439" 
d="M60 349c12 76 16 126 19 174h192c0 -27 -2 -72 -7 -115c41 85 101 123 189 122l-28 -184c-112 7 -172 -25 -187 -122l-36 -224h-197zM353 580h-138l-98 166h131l49 -52l63 52h139z" />
    <glyph glyph-name="Sacute" unicode="&#x15a;" horiz-adv-x="651" 
d="M315 -13c-195 0 -310 87 -307 242h212c3 -44 27 -82 100 -82c55 -1 81 21 81 61c0 29 -24 45 -92 58c-178 34 -242 96 -242 215c0 139 107 244 296 244c173 0 281 -71 278 -228h-207c-3 46 -28 69 -77 69c-47 0 -71 -21 -71 -54c0 -31 20 -44 91 -57
c163 -32 246 -87 246 -213c0 -150 -108 -252 -308 -255zM363 906h201l-115 -149h-150z" />
    <glyph glyph-name="sacute" unicode="&#x15b;" horiz-adv-x="519" 
d="M233 -14c-144 0 -241 56 -241 182h182c3 -33 17 -54 64 -54c35 0 53 12 53 37c0 23 -15 32 -86 45c-119 23 -173 64 -173 156c0 125 103 186 243 186c133 0 222 -49 230 -173h-179c-3 27 -20 49 -56 49c-35 0 -53 -12 -53 -35c0 -24 24 -32 76 -43
c139 -27 192 -63 192 -164c0 -128 -107 -186 -252 -186zM284 747h194l-125 -169h-142z" />
    <glyph glyph-name="Scircumflex" unicode="&#x15c;" horiz-adv-x="651" 
d="M315 -13c-195 0 -310 87 -307 242h212c3 -44 27 -82 100 -82c55 -1 81 21 81 61c0 29 -24 45 -92 58c-178 34 -242 96 -242 215c0 139 107 244 296 244c173 0 281 -71 278 -228h-207c-3 46 -28 69 -77 69c-47 0 -71 -21 -71 -54c0 -31 20 -44 91 -57
c163 -32 246 -87 246 -213c0 -150 -108 -252 -308 -255zM322 906h164l93 -149h-137l-48 47l-60 -47h-144z" />
    <glyph glyph-name="scircumflex" unicode="&#x15d;" horiz-adv-x="519" 
d="M233 -14c-144 0 -241 56 -241 182h182c3 -33 17 -54 64 -54c35 0 53 12 53 37c0 23 -15 32 -86 45c-119 23 -173 64 -173 156c0 125 103 186 243 186c133 0 222 -49 230 -173h-179c-3 27 -20 49 -56 49c-35 0 -53 -12 -53 -35c0 -24 24 -32 76 -43
c139 -27 192 -63 192 -164c0 -128 -107 -186 -252 -186zM243 746h137l99 -166h-132l-49 53l-63 -53h-139z" />
    <glyph glyph-name="uni015E" unicode="&#x15e;" horiz-adv-x="651" 
d="M258 -228c-66 0 -126 28 -131 94h91c3 -13 10 -26 33 -26c15 0 32 9 32 32c0 18 -10 27 -31 27c-15 0 -23 -3 -30 -10l-35 39l51 64c-149 20 -233 102 -230 237h212c3 -44 27 -82 100 -82c55 -1 81 21 81 61c0 29 -24 45 -92 58c-178 34 -242 96 -242 215
c0 139 107 244 296 244c173 0 281 -71 278 -228h-207c-3 46 -28 69 -77 69c-47 0 -71 -21 -71 -54c0 -31 20 -44 91 -57c163 -32 246 -87 246 -213c0 -150 -108 -252 -308 -255h-6l-25 -31c56 4 101 -24 101 -80c0 -71 -58 -104 -127 -104z" />
    <glyph glyph-name="uni015F" unicode="&#x15f;" horiz-adv-x="519" 
d="M198 -228c-66 0 -126 28 -131 94h91c3 -13 10 -26 33 -26c15 0 32 9 32 32c0 18 -10 27 -31 27c-15 0 -23 -3 -30 -10l-35 39l48 62c-112 13 -182 69 -183 178h182c3 -33 17 -54 64 -54c35 0 53 12 53 37c0 23 -15 32 -86 45c-119 23 -173 64 -173 156
c0 125 103 186 243 186c133 0 222 -49 230 -173h-179c-3 27 -20 49 -56 49c-35 0 -53 -12 -53 -35c0 -24 24 -32 76 -43c139 -27 192 -63 192 -164c0 -123 -101 -183 -237 -186l-24 -30c56 4 101 -24 101 -80c0 -71 -58 -104 -127 -104z" />
    <glyph glyph-name="Scaron" unicode="&#x160;" horiz-adv-x="651" 
d="M315 -13c-195 0 -310 87 -307 242h212c3 -44 27 -82 100 -82c55 -1 81 21 81 61c0 29 -24 45 -92 58c-178 34 -242 96 -242 215c0 139 107 244 296 244c173 0 281 -71 278 -228h-207c-3 46 -28 69 -77 69c-47 0 -71 -21 -71 -54c0 -31 20 -44 91 -57
c163 -32 246 -87 246 -213c0 -150 -108 -252 -308 -255zM451 757h-164l-92 149h137l48 -47l59 47h145z" />
    <glyph glyph-name="scaron" unicode="&#x161;" horiz-adv-x="519" 
d="M233 -14c-144 0 -241 56 -241 182h182c3 -33 17 -54 64 -54c35 0 53 12 53 37c0 23 -15 32 -86 45c-119 23 -173 64 -173 156c0 125 103 186 243 186c133 0 222 -49 230 -173h-179c-3 27 -20 49 -56 49c-35 0 -53 -12 -53 -35c0 -24 24 -32 76 -43
c139 -27 192 -63 192 -164c0 -128 -107 -186 -252 -186zM349 580h-138l-98 166h131l49 -52l63 52h139z" />
    <glyph glyph-name="Tcommaaccent" unicode="&#x162;" horiz-adv-x="629" 
d="M243 541h-181l29 174h589l-28 -174h-181l-85 -541h-228zM142 -206l47 175l171 -12l-110 -190z" />
    <glyph glyph-name="tcommaaccent" unicode="&#x163;" horiz-adv-x="393" 
d="M228 -12c-125 0 -193 56 -169 204l32 199h-61l20 132h61l18 107h197l-18 -107h99l-20 -132h-99l-31 -192c-7 -43 10 -56 43 -56c15 0 32 1 49 8l-23 -148c-23 -8 -55 -15 -98 -15zM47 -206l47 175l171 -12l-110 -190z" />
    <glyph glyph-name="Tcaron" unicode="&#x164;" horiz-adv-x="629" 
d="M243 541h-181l29 174h589l-28 -174h-181l-85 -541h-228zM466 757h-164l-92 149h137l48 -47l59 47h145z" />
    <glyph glyph-name="tcaron" unicode="&#x165;" horiz-adv-x="393" 
d="M228 -12c-125 0 -193 56 -169 204l32 199h-61l20 132h61l18 107h197l-18 -107h99l-20 -132h-99l-31 -192c-7 -43 10 -56 43 -56c15 0 32 1 49 8l-23 -148c-23 -8 -55 -15 -98 -15zM394 750h139l-75 -175h-99z" />
    <glyph glyph-name="Tbar" unicode="&#x166;" horiz-adv-x="629" 
d="M100 408h122l21 133h-181l29 174h589l-28 -174h-181l-21 -133h123l-22 -140h-123l-42 -268h-228l42 268h-122z" />
    <glyph glyph-name="tbar" unicode="&#x167;" horiz-adv-x="393" 
d="M20 331h61l10 60h-61l20 132h61l18 107h197l-18 -107h99l-20 -132h-99l-10 -60h99l-16 -96h-98l-6 -36c-7 -43 10 -56 43 -56c15 0 32 1 49 8l-23 -148c-23 -8 -55 -15 -98 -15c-125 0 -193 56 -169 204l7 43h-61z" />
    <glyph glyph-name="Utilde" unicode="&#x168;" horiz-adv-x="776" 
d="M376 -13c-221 0 -344 109 -309 326l65 402h226l-65 -409c-15 -95 8 -141 87 -141c76 0 99 44 112 129l67 421h228l-70 -439c-31 -200 -140 -289 -341 -289zM524 755c-58 0 -89 32 -120 32c-16 0 -30 -11 -33 -30h-110c19 112 76 160 140 160c56 0 88 -32 123 -32
c17 0 28 10 34 30h109c-21 -111 -81 -160 -143 -160z" />
    <glyph glyph-name="utilde" unicode="&#x169;" horiz-adv-x="627" 
d="M561 164c-11 -69 -16 -120 -13 -164h-192c-3 23 -3 55 0 84c-39 -56 -90 -97 -170 -97c-105 0 -177 64 -153 221l50 315h197l-49 -308c-8 -55 9 -83 52 -83c51 0 81 31 91 94l47 297h196zM420 581c-59 0 -86 32 -118 32c-16 0 -28 -11 -33 -30h-103
c17 112 67 162 132 162c55 0 87 -32 121 -32c16 0 27 10 32 31h104c-19 -113 -72 -163 -135 -163z" />
    <glyph glyph-name="Umacron" unicode="&#x16a;" horiz-adv-x="776" 
d="M376 -13c-221 0 -344 109 -309 326l65 402h226l-65 -409c-15 -95 8 -141 87 -141c76 0 99 44 112 129l67 421h228l-70 -439c-31 -200 -140 -289 -341 -289zM317 884h332l-18 -115h-332z" />
    <glyph glyph-name="umacron" unicode="&#x16b;" horiz-adv-x="627" 
d="M561 164c-11 -69 -16 -120 -13 -164h-192c-3 23 -3 55 0 84c-39 -56 -90 -97 -170 -97c-105 0 -177 64 -153 221l50 315h197l-49 -308c-8 -55 9 -83 52 -83c51 0 81 31 91 94l47 297h196zM211 712h316l-17 -107h-316z" />
    <glyph glyph-name="Ubreve" unicode="&#x16c;" horiz-adv-x="776" 
d="M376 -13c-221 0 -344 109 -309 326l65 402h226l-65 -409c-15 -95 8 -141 87 -141c76 0 99 44 112 129l67 421h228l-70 -439c-31 -200 -140 -289 -341 -289zM466 749c-109 0 -166 61 -167 157h124c3 -27 16 -42 45 -42c27 0 44 14 49 42h125c-15 -101 -81 -157 -176 -157z
" />
    <glyph glyph-name="ubreve" unicode="&#x16d;" horiz-adv-x="627" 
d="M561 164c-11 -69 -16 -120 -13 -164h-192c-3 23 -3 55 0 84c-39 -56 -90 -97 -170 -97c-105 0 -177 64 -153 221l50 315h197l-49 -308c-8 -55 9 -83 52 -83c51 0 81 31 91 94l47 297h196zM364 581c-104 0 -168 59 -164 163h118c2 -30 18 -45 48 -45c31 0 48 15 52 45h120
c-15 -107 -78 -163 -174 -163z" />
    <glyph glyph-name="Uring" unicode="&#x16e;" horiz-adv-x="776" 
d="M376 -13c-221 0 -344 109 -309 326l65 402h226l-65 -409c-15 -95 8 -141 87 -141c76 0 99 44 112 129l67 421h228l-70 -439c-31 -200 -140 -289 -341 -289zM466 790c27 0 45 21 45 50s-18 50 -45 50s-45 -19 -45 -51c0 -29 17 -49 45 -49zM466 722
c-68 0 -122 53 -122 117c0 66 56 119 122 119c68 0 122 -54 122 -118s-56 -118 -122 -118z" />
    <glyph glyph-name="uring" unicode="&#x16f;" horiz-adv-x="627" 
d="M561 164c-11 -69 -16 -120 -13 -164h-192c-3 23 -3 55 0 84c-39 -56 -90 -97 -170 -97c-105 0 -177 64 -153 221l50 315h197l-49 -308c-8 -55 9 -83 52 -83c51 0 81 31 91 94l47 297h196zM355 642c27 0 45 20 45 49c0 28 -17 48 -44 48s-45 -20 -45 -49
c0 -28 17 -48 44 -48zM355 574c-66 0 -120 52 -120 116s54 117 121 117c66 0 120 -52 120 -116c0 -65 -54 -117 -121 -117z" />
    <glyph glyph-name="Uhungarumlaut" unicode="&#x170;" horiz-adv-x="776" 
d="M376 -13c-221 0 -344 109 -309 326l65 402h226l-65 -409c-15 -95 8 -141 87 -141c76 0 99 44 112 129l67 421h228l-70 -439c-31 -200 -140 -289 -341 -289zM353 906h164l-91 -149h-130zM554 906h164l-90 -149h-131z" />
    <glyph glyph-name="uhungarumlaut" unicode="&#x171;" horiz-adv-x="627" 
d="M561 164c-11 -69 -16 -120 -13 -164h-192c-3 23 -3 55 0 84c-39 -56 -90 -97 -170 -97c-105 0 -177 64 -153 221l50 315h197l-49 -308c-8 -55 9 -83 52 -83c51 0 81 31 91 94l47 297h196zM264 747h148l-98 -169h-114zM446 747h148l-98 -169h-115z" />
    <glyph glyph-name="Uogonek" unicode="&#x172;" horiz-adv-x="776" 
d="M374 -182c-58 0 -115 19 -115 79c0 44 35 73 71 92c-194 13 -295 122 -263 324l65 402h226l-65 -409c-15 -95 9 -141 86 -141c75 0 100 44 113 129l67 421h228l-70 -439c-21 -142 -78 -225 -204 -270c-40 -16 -97 -29 -97 -69c0 -15 9 -22 28 -22c9 0 18 1 25 3l-14 -85
c-17 -7 -42 -15 -81 -15z" />
    <glyph glyph-name="uogonek" unicode="&#x173;" horiz-adv-x="627" 
d="M561 164c-11 -69 -15 -120 -12 -156c-24 -23 -52 -44 -52 -71c0 -15 9 -22 27 -22c9 0 18 1 25 3l-14 -85c-17 -7 -41 -15 -80 -15c-59 0 -116 19 -116 79c0 54 54 87 98 103h-81c-3 24 -2 67 1 96c-39 -64 -96 -109 -180 -109c-96 0 -168 64 -144 221l50 315h197
l-49 -308c-8 -55 9 -83 52 -83c51 0 81 31 90 94l48 297h197z" />
    <glyph glyph-name="Wcircumflex" unicode="&#x174;" horiz-adv-x="1000" 
d="M77 715h229l14 -432l158 432h191l33 -437l156 437h208l-283 -715h-221l-35 416l-164 -416h-229zM508 906h164l93 -149h-137l-48 47l-60 -47h-144z" />
    <glyph glyph-name="wcircumflex" unicode="&#x175;" horiz-adv-x="842" 
d="M45 523h199l23 -294l120 294h158l25 -294l119 294h190l-246 -523h-185l-27 275l-115 -275h-190zM415 746h137l99 -166h-132l-49 53l-63 -53h-139z" />
    <glyph glyph-name="Ycircumflex" unicode="&#x176;" horiz-adv-x="693" 
d="M241 306l-166 409h235l77 -221l143 221h226l-288 -421l-46 -294h-228zM355 906h164l93 -149h-137l-48 47l-60 -47h-144z" />
    <glyph glyph-name="ycircumflex" unicode="&#x177;" horiz-adv-x="590" 
d="M172 59l-128 464h204l54 -263l130 263h195l-385 -697h-196zM296 746h137l99 -166h-132l-49 53l-63 -53h-139z" />
    <glyph glyph-name="Ydieresis" unicode="&#x178;" horiz-adv-x="693" 
d="M241 306l-166 409h235l77 -221l143 221h226l-288 -421l-46 -294h-228zM318 752c-51 0 -91 40 -91 89s40 89 92 89c51 0 91 -38 91 -89c0 -49 -40 -89 -92 -89zM545 752c-51 0 -91 40 -91 89s40 89 91 89c52 0 92 -38 92 -89c0 -49 -40 -89 -92 -89z" />
    <glyph glyph-name="Zacute" unicode="&#x179;" horiz-adv-x="626" 
d="M-28 24l367 521h-248l28 170h568l-4 -24l-366 -520h262l-27 -171h-584zM372 906h201l-115 -149h-150z" />
    <glyph glyph-name="zacute" unicode="&#x17a;" horiz-adv-x="511" 
d="M-32 19l268 359h-189l22 145h471l-3 -20l-276 -359h206l-23 -144h-478zM303 747h194l-125 -169h-142z" />
    <glyph glyph-name="Zdotaccent" unicode="&#x17b;" horiz-adv-x="626" 
d="M-28 24l367 521h-248l28 170h568l-4 -24l-366 -520h262l-27 -171h-584zM401 752c-60 0 -103 39 -103 94c0 56 44 96 103 96s103 -39 103 -95s-44 -95 -103 -95z" />
    <glyph glyph-name="zdotaccent" unicode="&#x17c;" horiz-adv-x="511" 
d="M-32 19l268 359h-189l22 145h471l-3 -20l-276 -359h206l-23 -144h-478zM308 569c-60 0 -103 38 -103 94s44 96 103 96s103 -39 103 -95s-44 -95 -103 -95z" />
    <glyph glyph-name="Zcaron" unicode="&#x17d;" horiz-adv-x="626" 
d="M-28 24l367 521h-248l28 170h568l-4 -24l-366 -520h262l-27 -171h-584zM475 757h-164l-92 149h137l48 -47l59 47h145z" />
    <glyph glyph-name="zcaron" unicode="&#x17e;" horiz-adv-x="511" 
d="M-32 19l268 359h-189l22 145h471l-3 -20l-276 -359h206l-23 -144h-478zM369 580h-138l-98 166h131l49 -52l63 52h139z" />
    <glyph glyph-name="uni0192" unicode="&#x192;" horiz-adv-x="456" 
d="M51 415h85l23 119c27 139 128 191 244 191c47 0 67 -4 91 -12l-23 -145c-15 5 -26 7 -50 7c-36 0 -64 -20 -72 -61l-19 -99h113l-20 -132h-117l-87 -465h-194l87 465h-81z" />
    <glyph glyph-name="Aringacute" unicode="&#x1fa;" horiz-adv-x="755" 
d="M457 119h-225l-51 -119h-217l339 715h292l111 -715h-235zM299 273h141l-29 259zM453 808c27 0 45 21 45 50s-18 50 -45 50s-45 -19 -45 -51c0 -29 17 -49 45 -49zM453 740c-68 0 -122 53 -122 117c0 66 56 119 122 119c68 0 122 -54 122 -118s-56 -118 -122 -118z
M455 1142h201l-115 -149h-150z" />
    <glyph glyph-name="aringacute" unicode="&#x1fb;" horiz-adv-x="584" 
d="M168 -13c-92 0 -165 52 -165 145c0 138 104 184 279 184h72l2 12c7 43 -1 73 -53 73c-44 0 -60 -27 -67 -56h-184c27 129 117 193 260 193c179 0 260 -75 235 -235l-22 -139c-11 -68 -15 -120 -8 -164h-191c-4 21 -4 44 -3 65c-29 -41 -75 -78 -155 -78zM251 117
c43 0 75 27 82 66l5 27h-51c-64 0 -88 -14 -88 -50c0 -24 17 -43 52 -43zM346 638c27 0 45 20 45 49c0 28 -17 48 -44 48s-45 -20 -45 -49c0 -28 17 -48 44 -48zM346 570c-66 0 -120 52 -120 116s54 117 121 117c66 0 120 -52 120 -116c0 -65 -54 -117 -121 -117zM351 978
h201l-115 -149h-150z" />
    <glyph glyph-name="AEacute" unicode="&#x1fc;" horiz-adv-x="1012" 
d="M384 715h651l-27 -174h-275l-16 -101h217l-24 -158h-217l-18 -108h291l-27 -174h-516l21 135h-184l-75 -135h-220zM344 285h123l41 256h-20zM675 906h201l-115 -149h-150z" />
    <glyph glyph-name="aeacute" unicode="&#x1fd;" horiz-adv-x="912" 
d="M525 217c0 -54 22 -98 88 -98c49 0 71 23 82 58h185c-25 -124 -125 -190 -272 -190c-100 0 -173 29 -216 93c-32 -48 -83 -93 -195 -93c-114 0 -194 54 -194 149c0 136 108 183 281 183h71l2 11c7 41 -4 71 -56 71c-44 0 -63 -27 -70 -56h-183c24 132 128 193 262 193
c80 0 133 -19 164 -56c48 35 105 55 166 55c173 0 274 -106 245 -295l-3 -23h-357v-2zM635 412c-41 0 -79 -25 -98 -92h168c4 52 -14 92 -70 92zM251 117c43 0 76 25 83 70l5 29h-52c-64 0 -88 -16 -88 -55c0 -27 17 -44 52 -44zM491 747h194l-125 -169h-142z" />
    <glyph glyph-name="Oslashacute" unicode="&#x1fe;" horiz-adv-x="820" 
d="M34 23l76 77c-44 51 -70 116 -70 199c0 252 169 426 413 426c83 0 158 -19 218 -56l72 72l55 -56l-65 -66c48 -52 77 -121 77 -209c0 -251 -168 -423 -421 -423c-85 0 -158 20 -220 61l-80 -81zM581 402c0 20 -3 39 -7 56l-262 -265c23 -19 54 -29 93 -29
c117 0 176 113 176 238zM269 309c0 -16 1 -31 4 -44l257 260c-22 16 -50 24 -84 25c-116 0 -177 -112 -177 -241zM443 906h201l-115 -149h-150z" />
    <glyph glyph-name="oslashacute" unicode="&#x1ff;" horiz-adv-x="620" 
d="M12 7l64 66c-33 39 -54 89 -54 156c0 178 124 309 306 309c59 0 114 -13 161 -41l66 67l48 -46l-62 -63c36 -40 59 -93 59 -162c0 -183 -126 -306 -306 -306c-61 0 -120 14 -167 43l-67 -69zM298 129c75 0 112 75 112 172c0 7 -1 11 -1 18l-169 -173
c13 -11 33 -17 58 -17zM210 228c0 -7 0 -12 1 -17l165 169c-13 9 -30 14 -50 14c-76 0 -116 -69 -116 -166zM332 747h194l-125 -169h-142z" />
    <glyph glyph-name="uni0218" unicode="&#x218;" horiz-adv-x="650" 
d="M315 -13c-195 0 -310 87 -307 242h212c3 -44 27 -82 100 -82c55 -1 81 21 81 61c0 29 -24 45 -92 58c-178 34 -242 96 -242 215c0 139 107 244 296 244c173 0 281 -71 278 -228h-207c-3 46 -28 69 -77 69c-47 0 -71 -21 -71 -54c0 -31 20 -44 91 -57
c163 -32 246 -87 246 -213c0 -150 -108 -252 -308 -255zM151 -206l47 175l171 -12l-110 -190z" />
    <glyph glyph-name="uni0219" unicode="&#x219;" horiz-adv-x="519" 
d="M233 -14c-144 0 -241 56 -241 182h182c3 -33 17 -54 64 -54c35 0 53 12 53 37c0 23 -15 32 -86 45c-119 23 -173 64 -173 156c0 125 103 186 243 186c133 0 222 -49 230 -173h-179c-3 27 -20 49 -56 49c-35 0 -53 -12 -53 -35c0 -24 24 -32 76 -43
c139 -27 192 -63 192 -164c0 -128 -107 -186 -252 -186zM86 -206l47 175l171 -12l-110 -190z" />
    <glyph glyph-name="uni021A" unicode="&#x21a;" horiz-adv-x="629" 
d="M243 541h-181l29 174h589l-28 -174h-181l-85 -541h-228zM142 -206l47 175l171 -12l-110 -190z" />
    <glyph glyph-name="uni021B" unicode="&#x21b;" horiz-adv-x="393" 
d="M228 -12c-125 0 -193 56 -169 204l32 199h-61l20 132h61l18 107h197l-18 -107h99l-20 -132h-99l-31 -192c-7 -43 10 -56 43 -56c15 0 32 1 49 8l-23 -148c-23 -8 -55 -15 -98 -15zM47 -206l47 175l171 -12l-110 -190z" />
    <glyph glyph-name="uni0237" unicode="&#x237;" horiz-adv-x="303" 
d="M-57 -42c41 3 64 16 69 55l81 510h196l-84 -529c-16 -102 -78 -186 -284 -175z" />
    <glyph glyph-name="circumflex" unicode="&#x2c6;" horiz-adv-x="400" 
d="M205 746h137l99 -166h-132l-49 53l-63 -53h-139z" />
    <glyph glyph-name="caron" unicode="&#x2c7;" horiz-adv-x="400" 
d="M320 580h-138l-98 166h131l49 -52l63 52h139z" />
    <glyph glyph-name="breve" unicode="&#x2d8;" horiz-adv-x="400" 
d="M265 581c-104 0 -168 59 -164 163h118c2 -30 18 -45 48 -45c31 0 48 15 52 45h120c-15 -107 -78 -163 -174 -163z" />
    <glyph glyph-name="dotaccent" unicode="&#x2d9;" horiz-adv-x="400" 
d="M263 569c-60 0 -103 38 -103 94s44 96 103 96s103 -39 103 -95s-44 -95 -103 -95z" />
    <glyph glyph-name="ring" unicode="&#x2da;" horiz-adv-x="400" 
d="M266 642c27 0 45 20 45 49c0 28 -17 48 -44 48s-45 -20 -45 -49c0 -28 17 -48 44 -48zM266 574c-66 0 -120 52 -120 116s54 117 121 117c66 0 120 -52 120 -116c0 -65 -54 -117 -121 -117z" />
    <glyph glyph-name="ogonek" unicode="&#x2db;" horiz-adv-x="400" 
d="M138 -182c-59 0 -116 19 -116 79c0 54 54 87 98 103h107c-19 -15 -47 -36 -47 -63c0 -15 9 -22 27 -22c9 0 18 1 25 3l-14 -85c-17 -7 -41 -15 -80 -15z" />
    <glyph glyph-name="tilde" unicode="&#x2dc;" horiz-adv-x="400" 
d="M322 581c-59 0 -86 32 -118 32c-16 0 -28 -11 -33 -30h-103c17 112 67 162 132 162c55 0 87 -32 121 -32c16 0 27 10 32 31h104c-19 -113 -72 -163 -135 -163z" />
    <glyph glyph-name="hungarumlaut" unicode="&#x2dd;" horiz-adv-x="400" 
d="M159 747h148l-98 -169h-114zM341 747h148l-98 -169h-115z" />
    <glyph glyph-name="uni037E" unicode="&#x37e;" horiz-adv-x="326" 
d="M-28 -77l105 270l172 -63l-169 -254zM195 272c-64 0 -109 47 -109 107s45 108 108 108c65 0 114 -48 114 -108s-48 -107 -113 -107z" />
    <glyph glyph-name="tonos" unicode="&#x384;" horiz-adv-x="400" 
d="M244 747h194l-125 -169h-142z" />
    <glyph glyph-name="dieresistonos" unicode="&#x385;" horiz-adv-x="400" 
d="M241 768h142l-102 -185h-105zM441 578c-44 0 -79 35 -79 78s35 78 79 78c47 0 81 -35 81 -78s-34 -78 -81 -78zM88 578c-45 0 -80 35 -80 78s35 78 80 78s81 -35 81 -78s-36 -78 -81 -78z" />
    <glyph glyph-name="Alphatonos" unicode="&#x386;" horiz-adv-x="754" 
d="M457 119h-225l-51 -119h-217l339 715h292l111 -715h-235zM299 273h141l-29 259zM49 715h194l-125 -169h-142z" />
    <glyph glyph-name="anoteleia" unicode="&#x387;" horiz-adv-x="302" 
d="M159 219c-63 0 -110 47 -110 107s45 108 109 108s113 -48 113 -108s-48 -107 -112 -107z" />
    <glyph glyph-name="Epsilontonos" unicode="&#x388;" horiz-adv-x="621" 
d="M136 715h507l-27 -174h-282l-16 -101h224l-24 -158h-224l-18 -108h298l-27 -174h-524zM-90 715h194l-125 -169h-142z" />
    <glyph glyph-name="Etatonos" unicode="&#x389;" horiz-adv-x="794" 
d="M136 715h227l-41 -264h209l42 264h227l-113 -715h-227l43 275h-210l-43 -275h-227zM-90 715h194l-125 -169h-142z" />
    <glyph glyph-name="Iotatonos" unicode="&#x38a;" horiz-adv-x="366" 
d="M139 715h229l-113 -715h-229zM-90 715h194l-125 -169h-142z" />
    <glyph glyph-name="Omicrontonos" unicode="&#x38c;" horiz-adv-x="820" 
d="M810 410c0 -251 -168 -423 -421 -423c-189 0 -349 109 -349 313c0 251 169 426 413 426c196 0 357 -107 357 -316zM574 402c0 81 -36 144 -128 147c-115 0 -171 -117 -171 -241c0 -84 41 -143 130 -143c116 0 169 118 169 237zM-33 715h194l-125 -169h-142z" />
    <glyph glyph-name="Upsilontonos" unicode="&#x38e;" horiz-adv-x="694" 
d="M241 306l-166 409h235l77 -221l143 221h226l-288 -421l-46 -294h-228zM-138 715h194l-125 -169h-142z" />
    <glyph glyph-name="Omegatonos" unicode="&#x38f;" horiz-adv-x="828" 
d="M447 549c-127 0 -171 -119 -171 -230c0 -88 35 -155 92 -206l-18 -113h-342l25 166h90c-40 37 -76 105 -76 186c0 229 192 373 404 373c211 0 362 -123 362 -312c0 -93 -41 -190 -117 -247h96l-25 -166h-333l17 113c79 61 128 167 128 276c0 100 -47 160 -132 160z
M-36 715h194l-125 -169h-142z" />
    <glyph glyph-name="iotadieresistonos" unicode="&#x390;" horiz-adv-x="302" 
d="M94 523h195l-82 -523h-196zM204 768h142l-102 -185h-105zM404 578c-44 0 -79 35 -79 78s35 78 79 78c47 0 81 -35 81 -78s-34 -78 -81 -78zM51 578c-45 0 -80 35 -80 78s35 78 80 78s81 -35 81 -78s-36 -78 -81 -78z" />
    <glyph glyph-name="Alpha" unicode="&#x391;" horiz-adv-x="754" 
d="M457 119h-225l-51 -119h-217l339 715h292l111 -715h-235zM299 273h141l-29 259z" />
    <glyph glyph-name="Beta" unicode="&#x392;" horiz-adv-x="690" 
d="M136 715h305c169 0 232 -77 232 -176c0 -95 -60 -151 -140 -170c72 -15 124 -62 124 -149c0 -132 -108 -220 -279 -220h-355zM343 149c60 0 95 34 95 85c0 44 -25 67 -85 67h-62l-24 -152h76zM383 436c56 0 84 24 84 73c0 41 -24 58 -71 58h-63l-21 -131h71z" />
    <glyph glyph-name="Gamma" unicode="&#x393;" horiz-adv-x="570" 
d="M136 715h485l-27 -175h-258l-85 -540h-228z" />
    <glyph glyph-name="uni0394" unicode="&#x394;" horiz-adv-x="767" 
d="M-25 24l326 691h310l103 -691l-3 -24h-739zM253 173h216l-46 383z" />
    <glyph glyph-name="Epsilon" unicode="&#x395;" horiz-adv-x="621" 
d="M136 715h507l-27 -174h-282l-16 -101h224l-24 -158h-224l-18 -108h298l-27 -174h-524z" />
    <glyph glyph-name="Zeta" unicode="&#x396;" horiz-adv-x="626" 
d="M-28 24l367 521h-248l28 170h568l-4 -24l-366 -520h262l-27 -171h-584z" />
    <glyph glyph-name="Eta" unicode="&#x397;" horiz-adv-x="794" 
d="M136 715h227l-41 -264h209l42 264h227l-113 -715h-227l43 275h-210l-43 -275h-227z" />
    <glyph glyph-name="Theta" unicode="&#x398;" horiz-adv-x="839" 
d="M829 412c0 -261 -171 -425 -428 -425c-228 0 -360 125 -360 312c0 264 177 426 421 426c216 0 367 -109 367 -313zM596 400c0 95 -51 153 -139 153c-120 0 -184 -121 -184 -238c0 -96 50 -155 141 -155c117 0 182 112 182 240zM357 427h174l-22 -135h-173z" />
    <glyph glyph-name="Iota" unicode="&#x399;" horiz-adv-x="366" 
d="M139 715h229l-113 -715h-229z" />
    <glyph glyph-name="Kappa" unicode="&#x39a;" horiz-adv-x="746" 
d="M136 715h227l-43 -273l246 273h243l-317 -342l204 -373h-245l-154 300l-47 -300h-227z" />
    <glyph glyph-name="Lambda" unicode="&#x39b;" horiz-adv-x="736" 
d="M687 0h-239l-59 471l-207 -471h-218l342 715h263z" />
    <glyph glyph-name="Mu" unicode="&#x39c;" horiz-adv-x="957" 
d="M136 715h285l67 -346l178 346h296l-113 -715h-225l67 424l-230 -424h-76l-93 424l-67 -424h-202z" />
    <glyph glyph-name="Nu" unicode="&#x39d;" horiz-adv-x="787" 
d="M136 715h255l141 -372l59 372h201l-113 -715h-217l-171 423l-66 -423h-202z" />
    <glyph glyph-name="Xi" unicode="&#x39e;" horiz-adv-x="635" 
d="M659 715l-29 -179h-551l29 179h551zM569 441l-26 -164h-455l26 164h455zM21 180h564l-29 -180h-563z" />
    <glyph glyph-name="Omicron" unicode="&#x39f;" horiz-adv-x="820" 
d="M810 410c0 -251 -168 -423 -421 -423c-189 0 -349 109 -349 313c0 251 169 426 413 426c196 0 357 -107 357 -316zM574 402c0 81 -36 144 -128 147c-115 0 -171 -117 -171 -241c0 -84 41 -143 130 -143c116 0 169 118 169 237z" />
    <glyph glyph-name="Pi" unicode="&#x3a0;" horiz-adv-x="788" 
d="M136 715h658l-113 -715h-227l84 533h-204l-83 -533h-228z" />
    <glyph glyph-name="Rho" unicode="&#x3a1;" horiz-adv-x="665" 
d="M136 715h268c179 0 272 -80 273 -208c0 -178 -118 -274 -305 -274h-85l-37 -233h-227zM362 385c64 0 100 32 100 96c0 45 -28 67 -83 67h-44l-25 -163h52z" />
    <glyph glyph-name="Sigma" unicode="&#x3a3;" horiz-adv-x="618" 
d="M295 177h278l-28 -177h-544l22 142l197 220l-129 186l26 167h526l-27 -168h-271l123 -178z" />
    <glyph glyph-name="Tau" unicode="&#x3a4;" horiz-adv-x="629" 
d="M243 541h-181l29 174h589l-28 -174h-181l-85 -541h-228z" />
    <glyph glyph-name="Upsilon" unicode="&#x3a5;" horiz-adv-x="694" 
d="M241 306l-166 409h235l77 -221l143 221h226l-288 -421l-46 -294h-228z" />
    <glyph glyph-name="Phi" unicode="&#x3a6;" horiz-adv-x="971" 
d="M550 40l-10 -68h-204l11 71c-200 16 -305 127 -305 281c0 227 182 355 406 360l9 59h205l-10 -62c188 -16 310 -118 310 -276c0 -234 -180 -362 -410 -365h-2zM258 338c0 -73 38 -119 114 -134l50 318c-92 -13 -164 -73 -164 -184zM745 389c0 72 -41 118 -118 131
l-50 -318c93 11 168 79 168 187z" />
    <glyph glyph-name="Chi" unicode="&#x3a7;" horiz-adv-x="744" 
d="M246 376l-145 339h243l71 -202l129 202h234l-240 -347l159 -368h-244l-87 237l-158 -237h-237z" />
    <glyph glyph-name="Psi" unicode="&#x3a8;" horiz-adv-x="921" 
d="M906 463c-29 -190 -138 -296 -361 -304c-1 -9 -2 -20 -5 -35c-4 -25 -11 -64 -20 -124h-204l24 162c-172 24 -296 137 -267 324l36 229h215l-37 -231c-12 -75 6 -132 81 -152l60 383h205c-23 -144 -36 -239 -47 -299l-14 -85c75 11 117 52 132 141l38 243h204z" />
    <glyph glyph-name="uni03A9" unicode="&#x3a9;" horiz-adv-x="828" 
d="M447 549c-127 0 -171 -119 -171 -230c0 -88 35 -155 92 -206l-18 -113h-342l25 166h90c-40 37 -76 105 -76 186c0 229 192 373 404 373c211 0 362 -123 362 -312c0 -93 -41 -190 -117 -247h96l-25 -166h-333l17 113c79 61 128 167 128 276c0 100 -47 160 -132 160z" />
    <glyph glyph-name="Iotadieresis" unicode="&#x3aa;" horiz-adv-x="366" 
d="M139 715h229l-113 -715h-229zM158 752c-51 0 -91 40 -91 89s40 89 92 89c51 0 91 -38 91 -89c0 -49 -40 -89 -92 -89zM385 752c-51 0 -91 40 -91 89s40 89 91 89c52 0 92 -38 92 -89c0 -49 -40 -89 -92 -89z" />
    <glyph glyph-name="Upsilondieresis" unicode="&#x3ab;" horiz-adv-x="694" 
d="M241 306l-166 409h235l77 -221l143 221h226l-288 -421l-46 -294h-228zM318 752c-51 0 -91 40 -91 89s40 89 92 89c51 0 91 -38 91 -89c0 -49 -40 -89 -92 -89zM545 752c-51 0 -91 40 -91 89s40 89 91 89c52 0 92 -38 92 -89c0 -49 -40 -89 -92 -89z" />
    <glyph glyph-name="alphatonos" unicode="&#x3ac;" horiz-adv-x="637" 
d="M323 393c-61 0 -103 -64 -103 -163c0 -60 23 -97 74 -97c61 0 104 71 104 165c0 60 -26 95 -75 95zM204 -13c-110 0 -186 79 -186 223c0 207 113 327 249 327c81 0 133 -38 153 -93l12 79h197l-56 -359c-11 -69 -15 -119 -11 -164h-195c-4 23 -4 58 -3 86
c-37 -63 -85 -99 -160 -99zM380 747h194l-125 -169h-142z" />
    <glyph glyph-name="epsilontonos" unicode="&#x3ad;" horiz-adv-x="578" 
d="M384 357c-3 31 -26 53 -73 53c-28 0 -70 -9 -70 -49c0 -19 10 -41 47 -41h96l-16 -103h-90c-28 0 -67 -10 -67 -50c0 -31 26 -46 77 -46c59 0 81 25 88 57h177c-21 -123 -112 -191 -287 -191s-255 63 -255 148c0 72 53 124 125 140c-48 11 -85 50 -85 103
c0 123 127 159 258 159c138 0 242 -62 258 -180h-183zM354 747h194l-125 -169h-142z" />
    <glyph glyph-name="etatonos" unicode="&#x3ae;" horiz-adv-x="627" 
d="M60 349c12 76 17 126 20 174h192c0 -27 -1 -61 -5 -92c39 64 96 107 181 107c97 0 168 -65 144 -223l-78 -489h-196l74 471c9 55 -9 83 -54 83c-51 0 -81 -31 -91 -94l-45 -286h-197zM359 747h194l-125 -169h-142z" />
    <glyph glyph-name="iotatonos" unicode="&#x3af;" horiz-adv-x="302" 
d="M94 523h195l-82 -523h-196zM205 747h194l-125 -169h-142z" />
    <glyph glyph-name="upsilondieresistonos" unicode="&#x3b0;" horiz-adv-x="614" 
d="M229 228c-1 -9 -3 -19 -3 -27c0 -41 19 -69 62 -69c49 0 70 28 79 84l49 307h197l-48 -305c-25 -159 -116 -231 -289 -231c-164 0 -243 95 -243 218c0 17 1 33 4 52l42 266h197zM350 768h142l-102 -185h-105zM550 578c-44 0 -79 35 -79 78s35 78 79 78
c47 0 81 -35 81 -78s-34 -78 -81 -78zM197 578c-45 0 -80 35 -80 78s35 78 80 78s81 -35 81 -78s-36 -78 -81 -78z" />
    <glyph glyph-name="alpha" unicode="&#x3b1;" horiz-adv-x="637" 
d="M323 393c-61 0 -103 -64 -103 -163c0 -60 23 -97 74 -97c61 0 104 71 104 165c0 60 -26 95 -75 95zM204 -13c-110 0 -186 79 -186 223c0 207 113 327 249 327c81 0 133 -38 153 -93l12 79h197l-56 -359c-11 -69 -15 -119 -11 -164h-195c-4 23 -4 58 -3 86
c-37 -63 -85 -99 -160 -99z" />
    <glyph glyph-name="beta" unicode="&#x3b2;" horiz-adv-x="640" 
d="M240 239c-11 -61 25 -104 77 -104c63 0 100 60 100 126c0 54 -33 80 -100 77l19 128c58 0 113 24 113 92c0 36 -25 66 -72 66c-48 0 -81 -34 -92 -98zM174 -174h-197l109 692c27 161 138 244 295 244c116 0 242 -47 242 -182c0 -81 -51 -152 -134 -176
c80 -23 126 -88 126 -167c0 -140 -91 -250 -243 -250c-63 0 -135 32 -156 99z" />
    <glyph glyph-name="gamma" unicode="&#x3b3;" horiz-adv-x="607" 
d="M452 523h196l-290 -516l-29 -181h-196l29 181l-122 516h204l52 -309z" />
    <glyph glyph-name="delta" unicode="&#x3b4;" horiz-adv-x="620" 
d="M585 602h-197l106 -115c56 -61 101 -121 101 -210c0 -170 -129 -290 -301 -290c-156 0 -272 87 -272 235c0 138 83 258 238 258c7 0 16 0 21 -3l-136 149l19 123h444zM217 220c0 -52 25 -88 81 -88c73 0 102 82 102 149c0 53 -30 90 -81 90c-72 0 -102 -80 -102 -151z
" />
    <glyph glyph-name="epsilon" unicode="&#x3b5;" horiz-adv-x="578" 
d="M384 357c-3 31 -26 53 -73 53c-28 0 -70 -9 -70 -49c0 -19 10 -41 47 -41h96l-16 -103h-90c-28 0 -67 -10 -67 -50c0 -31 26 -46 77 -46c59 0 81 25 88 57h177c-21 -123 -112 -191 -287 -191s-255 63 -255 148c0 72 53 124 125 140c-48 11 -85 50 -85 103
c0 123 127 159 258 159c138 0 242 -62 258 -180h-183z" />
    <glyph glyph-name="zeta" unicode="&#x3b6;" horiz-adv-x="518" 
d="M477 32c0 -55 -29 -123 -55 -178h-145c13 31 33 86 33 109c0 27 -15 37 -47 37h-39c-137 0 -203 73 -203 180c0 167 128 309 245 405h-158l26 164h467l-8 -40c-195 -179 -374 -359 -374 -490c0 -43 28 -62 76 -62h42c99 0 140 -55 140 -125z" />
    <glyph glyph-name="eta" unicode="&#x3b7;" horiz-adv-x="627" 
d="M60 349c12 76 17 126 20 174h192c0 -27 -1 -61 -5 -92c39 64 96 107 181 107c97 0 168 -65 144 -223l-78 -489h-196l74 471c9 55 -9 83 -54 83c-51 0 -81 -31 -91 -94l-45 -286h-197z" />
    <glyph glyph-name="theta" unicode="&#x3b8;" horiz-adv-x="636" 
d="M623 498c0 -109 -21 -248 -74 -347c-53 -100 -137 -164 -270 -164c-165 0 -242 102 -242 263c0 120 29 274 99 382c51 79 132 130 249 130c155 0 238 -95 238 -264zM370 618c-33 0 -61 -16 -83 -48c-20 -31 -36 -73 -45 -129h195c4 25 6 47 6 68c0 69 -18 109 -73 109z
M291 128c34 0 61 16 82 49c19 30 33 73 43 130h-196c-3 -27 -5 -52 -5 -72c0 -68 20 -107 76 -107z" />
    <glyph glyph-name="iota" unicode="&#x3b9;" horiz-adv-x="302" 
d="M94 523h195l-82 -523h-196z" />
    <glyph glyph-name="kappa" unicode="&#x3ba;" horiz-adv-x="596" 
d="M251 309l173 214h210l-214 -250l131 -273h-211l-102 227l-36 -227h-197l82 523h198z" />
    <glyph glyph-name="lambda" unicode="&#x3bb;" horiz-adv-x="606" 
d="M163 0h-205l287 519l-9 39c-9 39 -32 54 -69 54c-23 0 -50 -4 -69 -11l24 139c31 13 81 22 126 22c76 0 139 -31 168 -163l91 -415c5 -21 16 -37 39 -37c15 0 33 3 41 4l-24 -147c-21 -7 -54 -13 -86 -13c-73 0 -124 31 -143 120l-35 181z" />
    <glyph glyph-name="uni03BC" unicode="&#x3bc;" horiz-adv-x="631" 
d="M565 164c-11 -69 -16 -120 -13 -164h-192c-3 21 -1 52 0 79c-24 -57 -57 -78 -97 -78c-21 0 -43 6 -56 29l-34 -204h-196l110 697h198l-51 -314c-8 -51 12 -78 49 -78c48 0 83 31 94 94l48 298h196z" />
    <glyph glyph-name="nu" unicode="&#x3bd;" horiz-adv-x="592" 
d="M44 523h202l42 -321l147 321h194l-274 -523h-210z" />
    <glyph glyph-name="xi" unicode="&#x3be;" horiz-adv-x="536" 
d="M93 615l22 134h463l-25 -153h-144c-57 0 -112 -24 -112 -78c0 -35 26 -56 77 -56h122l-25 -156h-146c-61 0 -112 -29 -112 -88c0 -47 41 -61 80 -61h56c99 0 140 -55 140 -125c0 -56 -29 -122 -56 -178h-144c13 31 33 86 33 109c0 27 -16 37 -47 37h-28
c-139 0 -231 61 -231 176c0 108 70 184 171 212c-52 19 -80 61 -80 104c0 64 40 104 100 123h-114z" />
    <glyph glyph-name="omicron" unicode="&#x3bf;" horiz-adv-x="620" 
d="M294 -13c-141 0 -272 74 -272 240c0 179 124 310 306 310c141 0 272 -75 272 -243c0 -181 -126 -307 -306 -307zM297 132c72 0 105 74 105 171c0 49 -22 89 -77 89c-72 0 -107 -71 -107 -166c0 -46 17 -94 79 -94z" />
    <glyph glyph-name="pi" unicode="&#x3c0;" horiz-adv-x="667" 
d="M568 164c-11 -69 -15 -120 -12 -164h-194c-3 27 -2 84 6 136l38 246h-120l-61 -382h-196l60 382h-64l23 141h642l-23 -141h-64z" />
    <glyph glyph-name="rho" unicode="&#x3c1;" horiz-adv-x="642" 
d="M314 131c73 0 105 63 105 171c0 51 -22 90 -74 90c-76 0 -110 -72 -110 -166c0 -48 20 -95 79 -95zM168 -174h-196l73 465c24 147 140 247 300 247c142 0 272 -76 272 -244c0 -177 -106 -303 -284 -303c-43 0 -97 19 -128 62z" />
    <glyph glyph-name="uni03C2" unicode="&#x3c2;" horiz-adv-x="582" 
d="M346 152c99 0 152 -49 152 -120c0 -57 -29 -122 -56 -178h-144c13 31 33 86 33 109c0 27 -16 37 -47 37h-12c-148 0 -251 88 -251 229c0 186 121 308 298 308c141 0 246 -65 251 -221h-184c-5 49 -26 69 -71 69c-68 0 -96 -70 -96 -142c0 -56 27 -91 95 -91h32z" />
    <glyph glyph-name="sigma" unicode="&#x3c3;" horiz-adv-x="652" 
d="M292 -13c-146 0 -271 82 -271 242c0 173 115 294 307 294h343l-23 -141h-109c37 -27 55 -76 55 -120c0 -160 -133 -275 -302 -275zM296 132c75 0 106 75 106 169c0 51 -27 88 -78 88c-76 0 -107 -71 -107 -164c0 -46 17 -93 79 -93z" />
    <glyph glyph-name="tau" unicode="&#x3c4;" horiz-adv-x="498" 
d="M286 -8c-108 0 -160 53 -160 152c0 16 2 34 5 53l28 185h-131l23 141h466l-23 -141h-138l-27 -170c-1 -9 -2 -17 -2 -25c0 -33 15 -45 54 -45c15 0 40 3 55 6l-23 -145c-31 -7 -66 -11 -127 -11z" />
    <glyph glyph-name="upsilon" unicode="&#x3c5;" horiz-adv-x="614" 
d="M229 228c-1 -9 -3 -19 -3 -27c0 -41 19 -69 62 -69c49 0 70 28 79 84l49 307h197l-48 -305c-25 -159 -116 -231 -289 -231c-164 0 -243 95 -243 218c0 17 1 33 4 52l42 266h197z" />
    <glyph glyph-name="phi" unicode="&#x3c6;" horiz-adv-x="833" 
d="M472 538c201 0 344 -96 344 -243c0 -188 -134 -297 -339 -302l-27 -167h-193l26 168c-148 8 -262 90 -262 235c0 171 110 285 281 304l-14 -144c-51 -22 -76 -94 -76 -151c0 -60 29 -97 93 -108l63 400c27 4 53 8 104 8zM499 130c92 3 124 82 124 173c0 47 -31 84 -82 91
z" />
    <glyph glyph-name="chi" unicode="&#x3c7;" horiz-adv-x="604" 
d="M258 39l-119 -213h-203l248 376l-57 139c-11 27 -30 37 -55 37c-11 0 -26 -2 -39 -7l23 142c35 15 68 22 99 22c68 0 111 -19 138 -94l36 -103l97 185h211l-233 -349l68 -164c11 -27 27 -35 50 -35c11 0 22 1 33 4l-22 -144c-39 -13 -75 -15 -98 -15
c-61 0 -107 29 -136 108z" />
    <glyph glyph-name="psi" unicode="&#x3c8;" horiz-adv-x="843" 
d="M231 258c-11 -63 11 -112 72 -123l62 388h194l-62 -390c68 7 99 50 110 118l44 272h195l-45 -279c-30 -191 -166 -240 -326 -248l-27 -170h-194l28 171c-154 11 -273 104 -244 275l41 251h195z" />
    <glyph glyph-name="omega" unicode="&#x3c9;" horiz-adv-x="839" 
d="M505 206c-8 -52 9 -75 44 -75c60 0 71 120 71 163c0 49 -6 85 -67 104l22 139c159 -16 243 -111 243 -243c0 -160 -85 -307 -254 -307c-99 0 -145 50 -161 103c-29 -53 -79 -103 -177 -103c-139 0 -205 101 -205 217c0 196 104 322 321 333l-22 -142
c-83 -16 -102 -112 -102 -187c0 -43 13 -77 45 -77c31 0 44 31 51 75l22 143h191z" />
    <glyph glyph-name="iotadieresis" unicode="&#x3ca;" horiz-adv-x="302" 
d="M94 523h195l-82 -523h-196zM101 570c-51 0 -91 39 -91 89c0 49 40 89 92 89c51 0 91 -40 91 -89s-40 -89 -92 -89zM318 570c-51 0 -90 39 -90 89c0 49 39 89 90 89c52 0 92 -40 92 -89s-40 -89 -92 -89z" />
    <glyph glyph-name="upsilondieresis" unicode="&#x3cb;" horiz-adv-x="614" 
d="M229 228c-1 -9 -3 -19 -3 -27c0 -41 19 -69 62 -69c49 0 70 28 79 84l49 307h197l-48 -305c-25 -159 -116 -231 -289 -231c-164 0 -243 95 -243 218c0 17 1 33 4 52l42 266h197zM249 570c-51 0 -91 39 -91 89c0 49 40 89 92 89c51 0 91 -40 91 -89s-40 -89 -92 -89z
M466 570c-51 0 -90 39 -90 89c0 49 39 89 90 89c52 0 92 -40 92 -89s-40 -89 -92 -89z" />
    <glyph glyph-name="omicrontonos" unicode="&#x3cc;" horiz-adv-x="622" 
d="M294 -13c-141 0 -272 74 -272 240c0 179 124 310 306 310c141 0 272 -75 272 -243c0 -181 -126 -307 -306 -307zM297 132c72 0 105 74 105 171c0 49 -22 89 -77 89c-72 0 -107 -71 -107 -166c0 -46 17 -94 79 -94zM360 747h194l-125 -169h-142z" />
    <glyph glyph-name="upsilontonos" unicode="&#x3cd;" horiz-adv-x="614" 
d="M229 228c-1 -9 -3 -19 -3 -27c0 -41 19 -69 62 -69c49 0 70 28 79 84l49 307h197l-48 -305c-25 -159 -116 -231 -289 -231c-164 0 -243 95 -243 218c0 17 1 33 4 52l42 266h197zM356 747h194l-125 -169h-142z" />
    <glyph glyph-name="omegatonos" unicode="&#x3ce;" horiz-adv-x="839" 
d="M505 206c-8 -52 9 -75 44 -75c60 0 71 120 71 163c0 49 -6 85 -67 104l22 139c159 -16 243 -111 243 -243c0 -160 -85 -307 -254 -307c-99 0 -145 50 -161 103c-29 -53 -79 -103 -177 -103c-139 0 -205 101 -205 217c0 196 104 322 321 333l-22 -142
c-83 -16 -102 -112 -102 -187c0 -43 13 -77 45 -77c31 0 44 31 51 75l22 143h191zM470 747h194l-125 -169h-142z" />
    <glyph glyph-name="uni0401" unicode="&#x401;" horiz-adv-x="621" 
d="M136 715h507l-27 -174h-282l-16 -101h224l-24 -158h-224l-18 -108h298l-27 -174h-524zM289 752c-51 0 -91 40 -91 89s40 89 92 89c51 0 91 -38 91 -89c0 -49 -40 -89 -92 -89zM516 752c-51 0 -91 40 -91 89s40 89 91 89c52 0 92 -38 92 -89c0 -49 -40 -89 -92 -89z" />
    <glyph glyph-name="uni0402" unicode="&#x402;" horiz-adv-x="838" 
d="M577 -18c-65 0 -93 12 -113 21l24 152c8 -3 20 -7 39 -7c33 0 56 24 56 69c0 39 -16 67 -73 67c-52 0 -78 -27 -85 -34l-39 -250h-228l85 541h-181l29 174h596l-28 -174h-188l-20 -124c35 19 80 34 137 34c148 0 220 -85 220 -216c0 -168 -101 -253 -231 -253z" />
    <glyph glyph-name="uni0403" unicode="&#x403;" horiz-adv-x="583" 
d="M360 906h201l-115 -149h-150zM136 715h492l-29 -175h-264l-84 -540h-228z" />
    <glyph glyph-name="uni0404" unicode="&#x404;" horiz-adv-x="767" 
d="M747 263c-32 -185 -178 -276 -353 -276c-212 0 -354 106 -354 322c0 240 151 417 403 417c188 0 309 -88 322 -265h-231c-8 57 -37 88 -97 88c-69 0 -118 -41 -142 -108h234l-25 -158h-227c0 -4 1 -9 2 -16c9 -63 46 -101 117 -101c60 0 104 32 124 97h227z" />
    <glyph glyph-name="uni0405" unicode="&#x405;" horiz-adv-x="651" 
d="M315 -13c-195 0 -310 87 -307 242h212c3 -44 27 -82 100 -82c55 -1 81 21 81 61c0 29 -24 45 -92 58c-178 34 -242 96 -242 215c0 139 107 244 296 244c173 0 281 -71 278 -228h-207c-3 46 -28 69 -77 69c-47 0 -71 -21 -71 -54c0 -31 20 -44 91 -57
c163 -32 246 -87 246 -213c0 -150 -108 -252 -308 -255z" />
    <glyph glyph-name="uni0406" unicode="&#x406;" horiz-adv-x="366" 
d="M139 715h229l-113 -715h-229z" />
    <glyph glyph-name="uni0407" unicode="&#x407;" horiz-adv-x="366" 
d="M139 715h229l-113 -715h-229zM158 752c-51 0 -91 40 -91 89s40 89 92 89c51 0 91 -38 91 -89c0 -49 -40 -89 -92 -89zM385 752c-51 0 -91 40 -91 89s40 89 91 89c52 0 92 -38 92 -89c0 -49 -40 -89 -92 -89z" />
    <glyph glyph-name="uni0408" unicode="&#x408;" horiz-adv-x="489" 
d="M151 -9c-84 0 -130 16 -158 31l26 166c24 -8 52 -18 91 -18c48 0 85 21 94 82l74 463h227l-75 -472c-27 -173 -124 -252 -279 -252z" />
    <glyph glyph-name="uni0409" unicode="&#x409;" horiz-adv-x="1058" 
d="M390 539c-5 -28 -26 -128 -53 -232c-48 -184 -101 -318 -273 -318c-56 0 -81 10 -82 11l26 169l8 -3c7 -1 15 -2 24 -2c58 0 79 73 111 188c19 71 39 161 54 234c9 43 17 86 25 129h529l-40 -259h43c171 0 275 -62 275 -214c0 -144 -109 -242 -288 -242h-326l86 539h-119
zM725 151c60 0 95 36 95 91c0 43 -25 67 -85 67h-40l-25 -158h55z" />
    <glyph glyph-name="uni040A" unicode="&#x40a;" horiz-adv-x="1084" 
d="M750 151c61 0 96 36 96 91c0 45 -28 67 -85 67h-40l-25 -158h54zM23 0l113 715h228l-43 -264h199l42 264h223l-41 -259h44c170 0 274 -62 274 -214c0 -144 -107 -242 -287 -242h-326l44 275h-199l-43 -275h-228z" />
    <glyph glyph-name="uni040B" unicode="&#x40b;" horiz-adv-x="849" 
d="M510 278c-52 0 -78 -26 -86 -34l-38 -244h-228l85 541h-181l29 174h596l-28 -174h-188l-20 -125c36 20 84 35 144 35c164 0 244 -107 215 -286l-24 -165h-226l25 160c11 71 0 118 -75 118z" />
    <glyph glyph-name="uni040C" unicode="&#x40c;" horiz-adv-x="746" 
d="M136 715h227l-43 -273l246 273h243l-317 -342l204 -373h-245l-154 300l-47 -300h-227zM439 906h201l-115 -149h-150z" />
    <glyph glyph-name="uni040D" unicode="&#x40d;" horiz-adv-x="800" 
d="M23 0l113 715h226l-63 -397l287 397h220l-113 -715h-225l63 397l-286 -397h-222zM325 906h199l32 -149h-144z" />
    <glyph glyph-name="uni040E" unicode="&#x40e;" horiz-adv-x="660" 
d="M405 749c-109 0 -169 61 -170 157h128c0 -27 9 -59 43 -59c32 0 44 31 47 59h129c-16 -100 -84 -157 -177 -157zM183 -10c-56 0 -93 7 -100 10l24 165c16 -4 33 -7 52 -7c35 0 65 16 89 48l-188 509h229l89 -282l136 281l223 1l-273 -502c-77 -141 -153 -223 -281 -223z
" />
    <glyph glyph-name="uni040F" unicode="&#x40f;" horiz-adv-x="784" 
d="M23 0l113 715h227l-86 -539h200l85 539h228l-113 -715h-232l-25 -130h-178l14 130h-233z" />
    <glyph glyph-name="uni0410" unicode="&#x410;" horiz-adv-x="754" 
d="M457 119h-225l-51 -119h-217l339 715h292l111 -715h-235zM299 273h141l-29 259z" />
    <glyph glyph-name="uni0411" unicode="&#x411;" horiz-adv-x="678" 
d="M650 241c0 -153 -107 -241 -290 -241h-337l113 715h522l-28 -175h-302l-15 -101h79c158 0 258 -62 258 -198zM337 149c60 0 95 31 95 82c0 48 -26 66 -86 66h-55l-24 -148h70z" />
    <glyph glyph-name="uni0412" unicode="&#x412;" horiz-adv-x="690" 
d="M136 715h305c169 0 232 -77 232 -176c0 -95 -60 -151 -140 -170c72 -15 124 -62 124 -149c0 -132 -108 -220 -279 -220h-355zM343 149c60 0 95 34 95 85c0 44 -25 67 -85 67h-62l-24 -152h76zM383 436c56 0 84 24 84 73c0 41 -24 58 -71 58h-63l-21 -131h71z" />
    <glyph glyph-name="uni0413" unicode="&#x413;" horiz-adv-x="583" 
d="M136 715h492l-29 -175h-264l-84 -540h-228z" />
    <glyph glyph-name="uni0414" unicode="&#x414;" horiz-adv-x="800" 
d="M342 391c-24 -96 -49 -164 -84 -215h203l58 365h-139zM132 -130h-195l47 306h44c59 25 88 105 119 220c13 48 33 126 49 195l29 124h547l-86 -539h102l-49 -306h-196l14 130h-398z" />
    <glyph glyph-name="uni0415" unicode="&#x415;" horiz-adv-x="621" 
d="M136 715h507l-27 -174h-282l-16 -101h224l-24 -158h-224l-18 -108h298l-27 -174h-524z" />
    <glyph glyph-name="uni0416" unicode="&#x416;" horiz-adv-x="1026" 
d="M406 309l-222 -309h-238l298 400l-150 315h215l117 -281l44 281h225l-44 -281l211 281h236l-282 -344l167 -371h-230l-123 306l-48 -306h-225z" />
    <glyph glyph-name="uni0417" unicode="&#x417;" horiz-adv-x="660" 
d="M313 -13c-173 0 -290 92 -293 253h210c3 -52 32 -89 88 -89c55 0 82 31 85 70c4 47 -26 66 -82 66h-74l25 152h88c49 0 74 23 75 59c3 37 -19 66 -72 66c-60 0 -83 -35 -91 -79h-200c19 143 125 240 307 240c186 0 266 -96 263 -198c-3 -83 -55 -143 -140 -158
c70 -16 127 -72 119 -162c-8 -123 -116 -220 -308 -220z" />
    <glyph glyph-name="uni0418" unicode="&#x418;" horiz-adv-x="800" 
d="M23 0l113 715h226l-63 -397l287 397h220l-113 -715h-225l63 397l-286 -397h-222z" />
    <glyph glyph-name="uni0419" unicode="&#x419;" horiz-adv-x="800" 
d="M481 749c-111 0 -169 61 -170 157h128c0 -27 7 -59 43 -59c32 0 44 31 47 59h128c-15 -100 -84 -157 -176 -157zM23 0l113 715h226l-63 -397l287 397h220l-113 -715h-225l63 397l-286 -397h-222z" />
    <glyph glyph-name="uni041A" unicode="&#x41a;" horiz-adv-x="746" 
d="M136 715h227l-43 -273l246 273h243l-317 -342l204 -373h-245l-154 300l-47 -300h-227z" />
    <glyph glyph-name="uni041B" unicode="&#x41b;" horiz-adv-x="769" 
d="M337 307c-48 -184 -101 -318 -273 -318c-56 0 -81 10 -82 11l26 169l8 -3c7 -1 15 -2 24 -2c58 0 79 73 111 188c19 71 39 161 54 234c9 43 17 86 25 129h545l-113 -715h-227l86 539h-131c-5 -28 -26 -128 -53 -232z" />
    <glyph glyph-name="uni041C" unicode="&#x41c;" horiz-adv-x="957" 
d="M136 715h285l67 -346l178 346h296l-113 -715h-225l67 424l-230 -424h-76l-93 424l-67 -424h-202z" />
    <glyph glyph-name="uni041D" unicode="&#x41d;" horiz-adv-x="794" 
d="M136 715h227l-41 -264h209l42 264h227l-113 -715h-227l43 275h-210l-43 -275h-227z" />
    <glyph glyph-name="uni041E" unicode="&#x41e;" horiz-adv-x="820" 
d="M810 410c0 -251 -168 -423 -421 -423c-189 0 -349 109 -349 313c0 251 169 426 413 426c196 0 357 -107 357 -316zM574 402c0 81 -36 144 -128 147c-115 0 -171 -117 -171 -241c0 -84 41 -143 130 -143c116 0 169 118 169 237z" />
    <glyph glyph-name="uni041F" unicode="&#x41f;" horiz-adv-x="784" 
d="M536 539h-200l-85 -539h-228l113 715h654l-113 -715h-227z" />
    <glyph glyph-name="uni0420" unicode="&#x420;" horiz-adv-x="665" 
d="M136 715h268c179 0 272 -80 273 -208c0 -178 -118 -274 -305 -274h-85l-37 -233h-227zM362 385c64 0 100 32 100 96c0 45 -28 67 -83 67h-44l-25 -163h52z" />
    <glyph glyph-name="uni0421" unicode="&#x421;" horiz-adv-x="768" 
d="M394 -13c-214 0 -354 107 -354 315c0 247 150 424 403 424c195 0 315 -93 323 -282h-228c-7 68 -34 105 -101 105c-107 0 -160 -109 -160 -237c0 -81 30 -146 119 -146c64 0 109 35 128 108h225c-29 -192 -177 -287 -355 -287z" />
    <glyph glyph-name="uni0422" unicode="&#x422;" horiz-adv-x="629" 
d="M243 541h-181l29 174h589l-28 -174h-181l-85 -541h-228z" />
    <glyph glyph-name="uni0423" unicode="&#x423;" horiz-adv-x="660" 
d="M183 -10c-56 0 -93 7 -100 10l24 165c16 -4 33 -7 52 -7c35 0 65 16 89 48l-188 509h229l89 -282l136 281l223 1l-273 -502c-77 -141 -153 -223 -281 -223z" />
    <glyph glyph-name="uni0424" unicode="&#x424;" horiz-adv-x="931" 
d="M310 -10l15 98c-160 8 -288 89 -288 248v9c0 171 141 287 374 290l14 94h224l-15 -94c162 -8 289 -90 289 -249v-7c0 -171 -139 -291 -374 -291l-16 -98h-223zM255 346c0 -61 30 -103 94 -106l38 246c-87 -3 -132 -62 -132 -134v-6zM705 377c1 61 -30 102 -94 105
l-39 -246c89 3 133 63 133 135v6z" />
    <glyph glyph-name="uni0425" unicode="&#x425;" horiz-adv-x="744" 
d="M246 376l-145 339h243l71 -202l129 202h234l-240 -347l159 -368h-244l-87 237l-158 -237h-237z" />
    <glyph glyph-name="uni0426" unicode="&#x426;" horiz-adv-x="818" 
d="M561 -130l14 130h-552l113 715h227l-86 -539h200l85 539h228l-86 -539h102l-49 -306h-196z" />
    <glyph glyph-name="uni0427" unicode="&#x427;" horiz-adv-x="754" 
d="M420 0l43 272c-36 -16 -80 -27 -132 -27c-173 0 -272 108 -243 294l26 176h227l-29 -179c-11 -71 9 -117 86 -117c59 0 84 22 93 31l42 265h227l-113 -715h-227z" />
    <glyph glyph-name="uni0428" unicode="&#x428;" horiz-adv-x="1088" 
d="M136 715h223l-85 -539h144l85 539h224l-86 -539h144l85 539h224l-113 -715h-958z" />
    <glyph glyph-name="uni0429" unicode="&#x429;" horiz-adv-x="1125" 
d="M868 -130l14 130h-859l113 715h223l-85 -539h144l85 539h224l-86 -539h144l85 539h224l-85 -539h104l-49 -306h-196z" />
    <glyph glyph-name="uni042A" unicode="&#x42a;" horiz-adv-x="776" 
d="M133 0l86 542h-157l29 173h378l-41 -259h51c171 0 275 -62 275 -214c0 -144 -109 -242 -288 -242h-333zM442 151c61 0 96 36 96 91c0 45 -29 67 -86 67h-47l-25 -158h62z" />
    <glyph glyph-name="uni042B" unicode="&#x42b;" horiz-adv-x="972" 
d="M23 0l113 715h221l-41 -259h49c171 0 275 -62 275 -214c0 -144 -109 -242 -288 -242h-329zM751 715h226l-113 -715h-226zM328 151c61 0 96 36 96 91c0 45 -29 67 -86 67h-45l-25 -158h60z" />
    <glyph glyph-name="uni042C" unicode="&#x42c;" horiz-adv-x="665" 
d="M23 0l113 715h223l-40 -259h50c171 0 275 -62 275 -214c0 -144 -109 -242 -288 -242h-333zM331 151c61 0 96 36 96 91c0 43 -25 67 -85 67h-47l-25 -158h61z" />
    <glyph glyph-name="uni042D" unicode="&#x42d;" horiz-adv-x="759" 
d="M354 -13c-189 0 -313 91 -324 266h231c7 -57 36 -89 100 -89c69 0 115 44 138 109h-233l25 158h227v8c-7 68 -44 108 -119 108c-60 0 -104 -32 -123 -97h-225c32 183 177 276 351 276c213 0 353 -106 353 -322c0 -239 -150 -417 -401 -417z" />
    <glyph glyph-name="uni042E" unicode="&#x42e;" horiz-adv-x="1112" 
d="M691 -14c-165 0 -313 92 -334 265c-1 5 -2 10 -2 15c-1 3 -1 6 -1 10h-61l-43 -276h-228l113 715h228l-43 -265h56c50 167 195 274 379 274c188 0 346 -107 346 -315c0 -251 -167 -423 -410 -423zM866 401c0 81 -35 146 -118 146c-105 0 -161 -116 -161 -240
c0 -84 40 -143 120 -143c107 0 159 117 159 237z" />
    <glyph glyph-name="uni042F" unicode="&#x42f;" horiz-adv-x="704" 
d="M438 400l25 160h-64c-61 0 -97 -34 -97 -85c0 -47 28 -75 88 -75h48zM204 0h-243l221 308c-56 33 -96 83 -96 170c0 139 100 237 292 237h332l-113 -715h-223l41 256h-38z" />
    <glyph glyph-name="uni0430" unicode="&#x430;" horiz-adv-x="584" 
d="M168 -13c-92 0 -165 52 -165 145c0 138 104 184 279 184h72l2 12c7 43 -1 73 -53 73c-44 0 -60 -27 -67 -56h-184c27 129 117 193 260 193c179 0 260 -75 235 -235l-22 -139c-11 -68 -15 -120 -8 -164h-191c-4 21 -4 44 -3 65c-29 -41 -75 -78 -155 -78zM251 117
c43 0 75 27 82 66l5 27h-51c-64 0 -88 -14 -88 -50c0 -24 17 -43 52 -43z" />
    <glyph glyph-name="uni0431" unicode="&#x431;" horiz-adv-x="620" 
d="M301 -13c-156 0 -268 94 -268 277c0 52 3 84 8 123c32 216 135 347 371 358c95 5 154 12 178 22l-23 -151c-23 -13 -68 -18 -155 -25c-143 -11 -199 -50 -226 -173h4c33 52 96 98 191 98c125 0 219 -78 219 -233c0 -180 -123 -296 -299 -296zM300 130
c72 0 103 68 103 152c0 51 -22 90 -77 90c-72 0 -105 -69 -105 -145c0 -48 17 -97 79 -97z" />
    <glyph glyph-name="uni0432" unicode="&#x432;" horiz-adv-x="579" 
d="M90 523h278c134 0 185 -57 185 -130c0 -68 -42 -110 -101 -123c49 -11 89 -46 89 -110c0 -96 -77 -160 -213 -160h-320zM268 408l-14 -87h51c41 0 62 16 62 48c0 26 -17 39 -52 39h-47zM238 215l-16 -99h56c43 0 68 18 68 53c0 33 -22 46 -62 46h-46z" />
    <glyph glyph-name="uni0433" unicode="&#x433;" horiz-adv-x="446" 
d="M265 391l-61 -391h-196l82 523h377l-22 -132h-180z" />
    <glyph glyph-name="uni0434" unicode="&#x434;" horiz-adv-x="624" 
d="M380 393h-99c-11 -48 -19 -93 -27 -128c-15 -63 -27 -104 -48 -133h133zM-62 -127l41 259h33c54 16 76 114 100 236l17 88c3 21 7 43 12 67h451l-61 -391h73l-40 -259h-161l10 127h-284l-30 -127h-161z" />
    <glyph glyph-name="uni0435" unicode="&#x435;" horiz-adv-x="602" 
d="M213 217c0 -54 22 -98 89 -98c49 0 73 23 84 58h185c-25 -124 -127 -190 -274 -190c-153 0 -276 73 -276 240c0 187 129 311 304 311s280 -111 251 -297l-3 -23h-360v-1zM324 412c-41 0 -80 -24 -99 -91h170c5 53 -14 91 -71 91z" />
    <glyph glyph-name="uni0436" unicode="&#x436;" horiz-adv-x="840" 
d="M321 240l-152 -240h-209l203 296l-97 227h191l76 -210l33 210h194l-33 -212l141 212h205l-186 -242l108 -281h-205l-75 237l-37 -237h-195z" />
    <glyph glyph-name="uni0437" unicode="&#x437;" horiz-adv-x="526" 
d="M255 -12c-140 0 -237 60 -248 189h177c3 -33 25 -52 58 -52c32 0 48 21 48 46c1 29 -15 43 -48 43h-58l19 112h64c36 0 54 13 54 40c0 20 -12 39 -47 39c-39 0 -63 -22 -70 -54h-168c27 121 116 186 261 186c164 0 218 -75 215 -149c-3 -64 -49 -105 -109 -118
c51 -12 89 -46 86 -110c0 -95 -95 -172 -234 -172z" />
    <glyph glyph-name="uni0438" unicode="&#x438;" horiz-adv-x="638" 
d="M8 0l82 523h196l-43 -276l193 276h192l-82 -523h-196l43 276l-192 -276h-193z" />
    <glyph glyph-name="uni0439" unicode="&#x439;" horiz-adv-x="638" 
d="M366 581c-108 0 -166 63 -167 159h128c0 -26 7 -61 43 -61c32 0 44 33 47 61h128c-15 -100 -83 -159 -179 -159zM8 0l82 523h196l-43 -276l193 276h192l-82 -523h-196l43 276l-192 -276h-193z" />
    <glyph glyph-name="uni043A" unicode="&#x43a;" horiz-adv-x="588" 
d="M238 231l-36 -231h-197l83 523h196l-32 -202l161 202h211l-208 -242l130 -281h-211z" />
    <glyph glyph-name="uni043B" unicode="&#x43b;" horiz-adv-x="591" 
d="M256 253c-24 -131 -67 -262 -210 -262c-27 0 -44 1 -55 4c-7 1 -12 3 -15 5l25 158c1 -1 2 -1 5 -2c4 -1 10 -2 17 -2c43 0 60 59 73 134c8 43 17 101 24 149c4 28 8 57 13 86h449l-82 -523h-197l62 391h-86c-7 -44 -15 -94 -23 -138z" />
    <glyph glyph-name="uni043C" unicode="&#x43c;" horiz-adv-x="769" 
d="M483 0l45 291l-172 -291h-71l-80 291l-46 -291h-150l82 523h230l59 -248l140 248h239l-83 -523h-193z" />
    <glyph glyph-name="uni043D" unicode="&#x43d;" horiz-adv-x="625" 
d="M368 195h-132l-31 -195h-196l82 523h196l-30 -196h132l31 196h195l-82 -523h-196z" />
    <glyph glyph-name="uni043E" unicode="&#x43e;" horiz-adv-x="620" 
d="M294 -13c-141 0 -272 74 -272 240c0 179 124 310 306 310c141 0 272 -75 272 -243c0 -181 -126 -307 -306 -307zM297 132c72 0 105 74 105 171c0 49 -22 89 -77 89c-72 0 -107 -71 -107 -166c0 -46 17 -94 79 -94z" />
    <glyph glyph-name="uni043F" unicode="&#x43f;" horiz-adv-x="614" 
d="M388 391h-123l-61 -391h-196l82 523h514l-82 -523h-196z" />
    <glyph glyph-name="uni0440" unicode="&#x440;" horiz-adv-x="646" 
d="M444 538c104 0 182 -76 182 -226c0 -205 -107 -325 -251 -325c-80 0 -139 39 -160 96l-41 -257h-197l83 523c12 76 17 126 20 174h192c0 -23 -1 -52 -4 -83c39 64 93 98 176 98zM316 135c64 0 108 64 108 163c0 61 -26 95 -77 95c-65 0 -111 -70 -111 -163
c0 -63 27 -95 80 -95z" />
    <glyph glyph-name="uni0441" unicode="&#x441;" horiz-adv-x="584" 
d="M291 -12c-153 0 -270 80 -270 240c0 187 121 309 298 309c141 0 246 -65 251 -220h-184c-4 46 -28 69 -71 69c-72 0 -97 -78 -97 -160c0 -59 21 -97 80 -97c45 0 75 27 86 80h176c-17 -143 -112 -221 -269 -221z" />
    <glyph glyph-name="uni0442" unicode="&#x442;" horiz-adv-x="512" 
d="M370 391l-61 -391h-196l62 391h-141l22 132h476l-23 -132h-139z" />
    <glyph glyph-name="uni0443" unicode="&#x443;" horiz-adv-x="590" 
d="M172 59l-128 464h204l54 -263l130 263h195l-385 -697h-196z" />
    <glyph glyph-name="uni0444" unicode="&#x444;" horiz-adv-x="819" 
d="M247 -174l25 161c-128 13 -250 86 -250 243v11c0 171 124 285 337 296l34 212h190l-34 -212c128 -16 250 -86 250 -247v-10c0 -169 -126 -282 -337 -293l-26 -161h-189zM212 234c0 -57 21 -100 82 -105l43 267c-80 -11 -125 -66 -125 -154v-8zM608 289
c0 60 -21 101 -82 106l-42 -267c79 11 124 68 124 153v8z" />
    <glyph glyph-name="uni0445" unicode="&#x445;" horiz-adv-x="602" 
d="M175 269l-119 254h216l52 -128l90 128h207l-201 -247l135 -276h-217l-61 146l-108 -146h-207z" />
    <glyph glyph-name="uni0446" unicode="&#x446;" horiz-adv-x="636" 
d="M413 -127l10 127h-415l82 523h196l-62 -391h123l61 391h196l-62 -391h74l-40 -259h-163z" />
    <glyph glyph-name="uni0447" unicode="&#x447;" horiz-adv-x="589" 
d="M300 0l36 227c-29 -32 -75 -64 -144 -64c-112 0 -167 73 -144 216l22 144h197l-22 -142c-8 -51 6 -82 50 -82c22 0 40 5 53 14l36 210h195l-83 -523h-196z" />
    <glyph glyph-name="uni0448" unicode="&#x448;" horiz-adv-x="869" 
d="M90 523h193l-62 -391h96l61 391h193l-62 -391h96l61 391h193l-83 -523h-768z" />
    <glyph glyph-name="uni0449" unicode="&#x449;" horiz-adv-x="896" 
d="M673 -127l10 127h-675l82 523h193l-62 -391h96l61 391h193l-62 -391h96l61 391h193l-62 -391h79l-41 -259h-162z" />
    <glyph glyph-name="uni044A" unicode="&#x44a;" horiz-adv-x="624" 
d="M149 392h-115l22 131h308l-27 -173h47c142 0 213 -54 213 -161c0 -110 -74 -189 -223 -189h-287zM319 232l-17 -108h44c37 0 58 25 58 61c0 27 -16 47 -52 47h-33z" />
    <glyph glyph-name="uni044B" unicode="&#x44b;" horiz-adv-x="793" 
d="M590 523h193l-82 -523h-194zM90 523h195l-27 -173h37c141 0 212 -54 212 -161c0 -110 -73 -189 -222 -189h-277zM240 232l-17 -108h35c39 0 59 25 59 61c0 27 -17 47 -53 47h-24z" />
    <glyph glyph-name="uni044C" unicode="&#x44c;" horiz-adv-x="545" 
d="M90 523h195l-27 -173h47c142 0 213 -54 213 -161c0 -110 -74 -189 -223 -189h-287zM240 232l-17 -108h44c39 0 59 25 59 61c0 27 -17 47 -53 47h-33z" />
    <glyph glyph-name="uni044D" unicode="&#x44d;" horiz-adv-x="583" 
d="M265 -12c-136 0 -237 65 -248 200h182c9 -35 27 -52 70 -52s72 27 87 71h-153l17 113h148v4c0 3 -1 4 -1 7c-4 45 -30 68 -79 68c-43 0 -69 -23 -81 -63h-176c23 129 115 201 264 201c155 0 268 -82 268 -244c0 -179 -117 -305 -298 -305z" />
    <glyph glyph-name="uni044E" unicode="&#x44e;" horiz-adv-x="852" 
d="M532 -13c-122 0 -237 63 -256 199c0 1 -1 4 -1 7v4h-41l-31 -197h-195l82 523h195l-31 -198h32c34 127 141 212 280 212c135 0 266 -75 266 -243c0 -181 -125 -307 -300 -307zM535 132c67 0 99 74 99 171c0 49 -23 89 -71 89c-65 0 -101 -71 -101 -167
c0 -46 17 -93 73 -93z" />
    <glyph glyph-name="uni044F" unicode="&#x44f;" horiz-adv-x="580" 
d="M341 293l17 107h-57c-43 0 -62 -23 -62 -58c0 -28 16 -49 56 -49h46zM168 0h-199l159 221c-43 19 -79 58 -79 130c0 92 74 172 223 172h298l-82 -523h-192l29 183h-35z" />
    <glyph glyph-name="uni0451" unicode="&#x451;" horiz-adv-x="602" 
d="M213 217c0 -54 22 -98 89 -98c49 0 73 23 84 58h185c-25 -124 -127 -190 -274 -190c-153 0 -276 73 -276 240c0 187 129 311 304 311s280 -111 251 -297l-3 -23h-360v-1zM324 412c-41 0 -80 -24 -99 -91h170c5 53 -14 91 -71 91zM236 570c-51 0 -91 39 -91 89
c0 49 40 89 92 89c51 0 91 -40 91 -89s-40 -89 -92 -89zM453 570c-51 0 -90 39 -90 89c0 49 39 89 90 89c52 0 92 -40 92 -89s-40 -89 -92 -89z" />
    <glyph glyph-name="uni0452" unicode="&#x452;" horiz-adv-x="627" 
d="M541 -8c-16 -102 -78 -186 -284 -175l21 139c43 3 62 16 69 55l45 286c9 55 -9 83 -54 83c-51 0 -81 -31 -91 -94l-45 -286h-197l92 582h-53l16 102h53l11 65h196l-10 -65h151l-16 -102h-151l-23 -146c36 59 90 102 175 102c97 0 170 -65 146 -223z" />
    <glyph glyph-name="uni0453" unicode="&#x453;" horiz-adv-x="446" 
d="M275 747h194l-125 -169h-142zM265 391l-61 -391h-196l82 523h377l-22 -132h-180z" />
    <glyph glyph-name="uni0454" unicode="&#x454;" horiz-adv-x="584" 
d="M558 190c-21 -129 -112 -202 -267 -202s-270 82 -270 245c0 179 119 304 298 304c139 0 235 -62 248 -200h-184c-9 35 -25 52 -68 52s-71 -27 -87 -71h154l-18 -113h-147v-5c7 -47 32 -74 81 -74c43 0 71 21 82 64h178z" />
    <glyph glyph-name="uni0455" unicode="&#x455;" horiz-adv-x="519" 
d="M233 -14c-144 0 -241 56 -241 182h182c3 -33 17 -54 64 -54c35 0 53 12 53 37c0 23 -15 32 -86 45c-119 23 -173 64 -173 156c0 125 103 186 243 186c133 0 222 -49 230 -173h-179c-3 27 -20 49 -56 49c-35 0 -53 -12 -53 -35c0 -24 24 -32 76 -43
c139 -27 192 -63 192 -164c0 -128 -107 -186 -252 -186z" />
    <glyph glyph-name="uni0456" unicode="&#x456;" horiz-adv-x="302" 
d="M211 563c-61 0 -104 42 -104 98c0 57 44 98 105 98c60 0 104 -41 104 -98c0 -56 -46 -98 -105 -98zM93 523h197l-83 -523h-196z" />
    <glyph glyph-name="uni0457" unicode="&#x457;" horiz-adv-x="302" 
d="M107 570c-51 0 -91 38 -91 89c0 49 40 89 92 89c51 0 91 -40 91 -89s-40 -89 -92 -89zM322 570c-51 0 -90 39 -90 89c0 49 39 89 90 89c52 0 92 -40 92 -89s-40 -89 -92 -89zM93 523h197l-83 -523h-196z" />
    <glyph glyph-name="uni0458" unicode="&#x458;" horiz-adv-x="302" 
d="M-57 -42c41 3 64 16 69 55l81 510h196l-84 -529c-16 -102 -78 -186 -284 -175zM210 563c-60 0 -103 42 -103 98c0 57 44 98 104 98s104 -41 104 -98c0 -56 -45 -98 -105 -98z" />
    <glyph glyph-name="uni0459" unicode="&#x459;" horiz-adv-x="821" 
d="M256 253c-24 -131 -67 -262 -210 -262c-27 0 -44 1 -55 4c-7 1 -12 3 -15 5l25 158c1 -1 2 -1 5 -2c4 -1 10 -2 17 -2c43 0 60 59 73 134c8 43 17 101 24 149c4 28 8 57 13 86h438l-28 -173h38c141 0 212 -54 212 -161c0 -110 -73 -189 -222 -189h-278l62 391h-76
c-7 -44 -15 -94 -23 -138zM525 232l-17 -108h34c39 0 59 25 59 61c0 27 -16 47 -53 47h-23z" />
    <glyph glyph-name="uni045A" unicode="&#x45a;" horiz-adv-x="853" 
d="M557 232l-17 -108h35c39 0 59 25 59 61c0 27 -17 47 -53 47h-24zM356 195h-121l-31 -195h-196l82 523h196l-30 -196h121l31 196h195l-28 -173h38c142 0 213 -54 213 -161c0 -110 -74 -189 -223 -189h-278z" />
    <glyph glyph-name="uni045B" unicode="&#x45b;" horiz-adv-x="627" 
d="M60 684h53l11 65h196l-10 -65h151l-16 -102h-151l-23 -146c36 59 90 102 175 102c97 0 170 -65 146 -223l-50 -315h-197l47 297c9 55 -9 83 -54 83c-51 0 -81 -31 -91 -94l-45 -286h-197l92 582h-53z" />
    <glyph glyph-name="uni045C" unicode="&#x45c;" horiz-adv-x="588" 
d="M238 231l-36 -231h-197l83 523h196l-32 -202l161 202h211l-208 -242l130 -281h-211zM332 747h194l-125 -169h-142z" />
    <glyph glyph-name="uni045D" unicode="&#x45d;" horiz-adv-x="638" 
d="M8 0l82 523h196l-43 -276l193 276h192l-82 -523h-196l43 276l-192 -276h-193zM209 747h192l38 -169h-137z" />
    <glyph glyph-name="uni045E" unicode="&#x45e;" horiz-adv-x="590" 
d="M345 581c-107 0 -165 63 -166 159h127c0 -26 9 -61 43 -61c32 0 45 33 48 61h128c-15 -100 -84 -159 -180 -159zM172 59l-128 464h204l54 -263l130 263h195l-385 -697h-196z" />
    <glyph glyph-name="uni045F" unicode="&#x45f;" horiz-adv-x="614" 
d="M8 0l82 523h196l-62 -391h123l61 391h196l-82 -523h-170l-28 -127h-158l13 127h-171z" />
    <glyph glyph-name="uni0490" unicode="&#x490;" horiz-adv-x="570" 
d="M251 0h-228l113 715h281l28 130h195l-46 -305h-259z" />
    <glyph glyph-name="uni0491" unicode="&#x491;" horiz-adv-x="446" 
d="M265 391l-61 -391h-196l82 523h207l30 127h159l-41 -259h-180z" />
    <glyph glyph-name="Wgrave" unicode="&#x1e80;" horiz-adv-x="1000" 
d="M77 715h229l14 -432l158 432h191l33 -437l156 437h208l-283 -715h-221l-35 416l-164 -416h-229zM420 906h199l32 -149h-144z" />
    <glyph glyph-name="wgrave" unicode="&#x1e81;" horiz-adv-x="842" 
d="M45 523h199l23 -294l120 294h158l25 -294l119 294h190l-246 -523h-185l-27 275l-115 -275h-190zM302 747h192l38 -169h-137z" />
    <glyph glyph-name="Wacute" unicode="&#x1e82;" horiz-adv-x="1000" 
d="M77 715h229l14 -432l158 432h191l33 -437l156 437h208l-283 -715h-221l-35 416l-164 -416h-229zM560 906h201l-115 -149h-150z" />
    <glyph glyph-name="wacute" unicode="&#x1e83;" horiz-adv-x="842" 
d="M45 523h199l23 -294l120 294h158l25 -294l119 294h190l-246 -523h-185l-27 275l-115 -275h-190zM476 747h194l-125 -169h-142z" />
    <glyph glyph-name="Wdieresis" unicode="&#x1e84;" horiz-adv-x="1000" 
d="M77 715h229l14 -432l158 432h191l33 -437l156 437h208l-283 -715h-221l-35 416l-164 -416h-229zM466 752c-51 0 -91 40 -91 89s40 89 92 89c51 0 91 -38 91 -89c0 -49 -40 -89 -92 -89zM693 752c-51 0 -91 40 -91 89s40 89 91 89c52 0 92 -38 92 -89
c0 -49 -40 -89 -92 -89z" />
    <glyph glyph-name="wdieresis" unicode="&#x1e85;" horiz-adv-x="842" 
d="M45 523h199l23 -294l120 294h158l25 -294l119 294h190l-246 -523h-185l-27 275l-115 -275h-190zM365 570c-51 0 -91 39 -91 89c0 49 40 89 92 89c51 0 91 -40 91 -89s-40 -89 -92 -89zM582 570c-51 0 -90 39 -90 89c0 49 39 89 90 89c52 0 92 -40 92 -89s-40 -89 -92 -89
z" />
    <glyph glyph-name="Ygrave" unicode="&#x1ef2;" horiz-adv-x="693" 
d="M241 306l-166 409h235l77 -221l143 221h226l-288 -421l-46 -294h-228zM265 906h199l32 -149h-144z" />
    <glyph glyph-name="ygrave" unicode="&#x1ef3;" horiz-adv-x="590" 
d="M172 59l-128 464h204l54 -263l130 263h195l-385 -697h-196zM185 747h192l38 -169h-137z" />
    <glyph glyph-name="uni2009" unicode="&#x2009;" horiz-adv-x="81" 
 />
    <glyph glyph-name="endash" unicode="&#x2013;" horiz-adv-x="543" 
d="M59 351h452l-18 -112h-452z" />
    <glyph glyph-name="emdash" unicode="&#x2014;" horiz-adv-x="958" 
d="M59 351h866l-18 -112h-866z" />
    <glyph glyph-name="quoteleft" unicode="&#x2018;" horiz-adv-x="307" 
d="M59 473l162 255l107 -40l-101 -271z" />
    <glyph glyph-name="quoteright" unicode="&#x2019;" horiz-adv-x="307" 
d="M73 458l100 270l168 -56l-161 -255z" />
    <glyph glyph-name="quotesinglbase" unicode="&#x201a;" horiz-adv-x="307" 
d="M-18 -64l100 271l168 -57l-162 -255z" />
    <glyph glyph-name="quotedblleft" unicode="&#x201c;" horiz-adv-x="543" 
d="M59 473l162 255l107 -40l-101 -271zM295 473l162 255l106 -40l-100 -271z" />
    <glyph glyph-name="quotedblright" unicode="&#x201d;" horiz-adv-x="543" 
d="M73 458l100 270l168 -56l-161 -255zM308 458l101 270l168 -56l-162 -255z" />
    <glyph glyph-name="quotedblbase" unicode="&#x201e;" horiz-adv-x="543" 
d="M-18 -64l100 271l168 -57l-162 -255zM217 -64l101 271l168 -57l-162 -255z" />
    <glyph glyph-name="dagger" unicode="&#x2020;" horiz-adv-x="411" 
d="M157 464h-105l22 136h105l19 115h157l-18 -115h104l-21 -136h-105l-40 -251h-157z" />
    <glyph glyph-name="daggerdbl" unicode="&#x2021;" horiz-adv-x="411" 
d="M163 497h-105l19 123h105l16 95h157l-15 -95h105l-20 -123h-105l-10 -66h105l-19 -123h-105l-16 -95h-157l15 95h-105l19 123h106z" />
    <glyph glyph-name="bullet" unicode="&#x2022;" horiz-adv-x="379" 
d="M189 150c-86 0 -146 66 -146 142c0 96 69 162 157 162s147 -67 147 -145c0 -92 -69 -159 -158 -159z" />
    <glyph glyph-name="ellipsis" unicode="&#x2026;" horiz-adv-x="909" 
d="M122 -12c-64 0 -109 47 -109 108c0 60 44 107 108 107c65 0 113 -48 113 -107c0 -61 -47 -108 -112 -108zM425 -12c-64 0 -109 47 -109 108c0 60 44 107 108 107c65 0 114 -48 114 -107c0 -61 -48 -108 -113 -108zM729 -12c-63 0 -110 48 -110 108s45 107 109 107
s113 -48 113 -107c0 -60 -48 -108 -112 -108z" />
    <glyph glyph-name="perthousand" unicode="&#x2030;" horiz-adv-x="1237" 
d="M198 528c0 -28 12 -54 48 -54c40 0 57 48 57 88c0 28 -14 53 -46 53c-40 0 -59 -40 -59 -87zM241 363c-99 0 -185 55 -185 159c0 112 83 201 206 201c96 0 182 -57 182 -160c0 -108 -83 -200 -203 -200zM674 715h102l-582 -715h-102zM561 152c0 -27 12 -54 48 -53
c39 1 57 45 57 88c0 28 -14 52 -46 52c-40 0 -59 -40 -59 -87zM604 -13c-99 0 -185 55 -185 160c0 109 83 201 205 201c97 0 183 -57 183 -160c0 -109 -83 -201 -203 -201zM971 152c0 -27 12 -54 48 -53c39 1 57 45 57 88c0 28 -14 52 -46 52c-40 0 -59 -40 -59 -87z
M1014 -13c-100 0 -185 55 -185 160c0 109 83 201 205 201c97 0 183 -57 183 -160c0 -109 -83 -201 -203 -201z" />
    <glyph glyph-name="uni2032" unicode="&#x2032;" horiz-adv-x="256" 
d="M122 715h184l-109 -281h-139z" />
    <glyph glyph-name="uni2033" unicode="&#x2033;" horiz-adv-x="478" 
d="M122 715h184l-109 -281h-139zM344 715h184l-109 -281h-139z" />
    <glyph glyph-name="guilsinglleft" unicode="&#x2039;" horiz-adv-x="304" 
d="M24 267l151 188h133l-148 -189l83 -199h-124z" />
    <glyph glyph-name="guilsinglright" unicode="&#x203a;" horiz-adv-x="304" 
d="M276 255l-151 -188h-133l149 189l-84 199h124z" />
    <glyph glyph-name="fraction" unicode="&#x2044;" horiz-adv-x="178" 
d="M357 715h101l-614 -715h-100z" />
    <glyph glyph-name="Euro" unicode="&#x20ac;" horiz-adv-x="727" 
d="M50 452h59c43 172 158 274 337 274c172 0 286 -85 283 -265h-210c0 55 -17 94 -80 94c-59 0 -91 -39 -110 -103h139l-23 -74h-131l-7 -46h123l-24 -74h-105c3 -55 22 -97 89 -97c57 0 92 31 111 107h207c-35 -191 -149 -281 -329 -281c-185 0 -292 105 -295 271h-64
l12 74h56l7 46h-56z" />
    <glyph glyph-name="uni20B4" unicode="&#x20b4;" horiz-adv-x="681" 
d="M652 229c-31 -156 -148 -242 -335 -241c-174 0 -259 81 -259 192c0 31 7 60 21 85h-60l11 73h119c27 19 59 35 98 51h-210l12 73h367c16 15 21 32 21 53c1 34 -16 51 -51 51c-43 0 -70 -21 -82 -69h-207c29 155 140 228 313 228c156 0 243 -91 243 -188
c0 -27 -5 -52 -15 -75h54l-12 -73h-99c-22 -19 -51 -36 -86 -51h178l-11 -73h-353c-24 -20 -31 -42 -31 -66c-1 -31 21 -52 60 -52c67 0 91 38 102 82h212z" />
    <glyph glyph-name="uni20B8" unicode="&#x20b8;" horiz-adv-x="616" 
d="M82 642l12 73h570l-11 -73h-571zM217 412h-171l28 174h570l-29 -174h-170l-65 -412h-228z" />
    <glyph glyph-name="uni20BD" unicode="&#x20bd;" horiz-adv-x="698" 
d="M395 385c64 0 101 32 101 96c0 45 -28 67 -83 67h-44l-25 -163h51zM302 112l-18 -112h-227l18 112h-85l12 74h84l8 47h-85l11 73h85l65 409h267c180 0 272 -80 273 -208c0 -178 -117 -274 -305 -274h-84l-7 -47h210l-11 -74h-211z" />
    <glyph glyph-name="uni2116" unicode="&#x2116;" horiz-adv-x="1194" 
d="M972 328c-117 0 -191 61 -191 169c0 136 107 226 232 226c127 0 191 -69 191 -173c0 -137 -109 -222 -232 -222zM983 445c43 0 64 52 64 109c0 32 -12 54 -44 54c-43 0 -66 -48 -66 -109c0 -35 15 -54 46 -54zM136 715h255l110 -365l58 365h200l-113 -715h-218l-139 414
l-65 -414h-201zM762 270h397l-15 -100h-397z" />
    <glyph glyph-name="trademark" unicode="&#x2122;" horiz-adv-x="768" 
d="M410 715h133l30 -146l78 146h144l-51 -321h-117l26 170l-93 -170h-36l-38 170l-27 -170h-100zM163 623h-81l15 92h277l-15 -92h-80l-37 -229h-116z" />
    <glyph glyph-name="Omega" unicode="&#x2126;" horiz-adv-x="828" 
d="M447 549c-127 0 -171 -119 -171 -230c0 -88 35 -155 92 -206l-18 -113h-342l25 166h90c-40 37 -76 105 -76 186c0 229 192 373 404 373c211 0 362 -123 362 -312c0 -93 -41 -190 -117 -247h96l-25 -166h-333l17 113c79 61 128 167 128 276c0 100 -47 160 -132 160z" />
    <glyph glyph-name="onethird" unicode="&#x2153;" horiz-adv-x="839" 
d="M154 574l-89 -45l19 118l114 68h124l-61 -382h-145zM655 715h101l-614 -715h-100zM618 -7c-101 0 -171 40 -172 137h128c0 -25 13 -38 38 -38c17 0 36 9 36 33c0 18 -14 27 -41 27h-29l12 79h35c27 0 41 11 41 32c0 15 -7 26 -30 26c-19 0 -36 -11 -41 -35h-126
c12 84 76 134 180 134c72 0 153 -24 153 -104c0 -48 -30 -78 -77 -91c39 -9 65 -31 65 -78c0 -85 -80 -122 -172 -122z" />
    <glyph glyph-name="twothirds" unicode="&#x2154;" horiz-adv-x="899" 
d="M21 351l149 133c38 32 87 77 87 104c0 19 -8 28 -25 28c-20 0 -35 -15 -43 -51h-132c15 105 87 156 186 156c85 0 157 -30 157 -117c0 -55 -41 -96 -104 -148l-24 -20h103l-16 -103h-341zM737 715h101l-614 -715h-100zM679 -7c-101 0 -171 40 -172 137h128
c0 -25 13 -38 38 -38c17 0 36 9 36 33c0 18 -14 27 -41 27h-29l12 79h35c27 0 41 11 41 32c0 15 -7 26 -30 26c-19 0 -36 -11 -41 -35h-126c12 84 76 134 180 134c72 0 153 -24 153 -104c0 -48 -30 -78 -77 -91c39 -9 65 -31 65 -78c0 -85 -80 -122 -172 -122z" />
    <glyph glyph-name="oneeighth" unicode="&#x215b;" horiz-adv-x="837" 
d="M153 574l-89 -45l19 118l114 68h124l-61 -382h-145zM657 715h101l-614 -715h-100zM616 -7c-86 0 -180 25 -180 109c0 60 33 87 84 103c-27 15 -45 36 -45 67c0 83 84 116 164 116c83 0 161 -30 161 -105c0 -47 -21 -76 -64 -89c39 -15 57 -44 57 -77
c0 -94 -92 -124 -177 -124zM580 120c0 -17 12 -32 35 -32s40 13 40 38c0 19 -12 33 -35 33c-21 0 -40 -14 -40 -39zM602 261c0 -19 12 -30 32 -30s36 12 36 35c0 19 -14 30 -33 30c-17 0 -35 -12 -35 -35z" />
    <glyph glyph-name="threeeighths" unicode="&#x215c;" horiz-adv-x="898" 
d="M223 326c-101 0 -171 40 -172 137h128c0 -25 13 -38 38 -38c17 0 36 9 36 33c0 18 -14 27 -41 27h-29l12 79h35c27 0 41 11 41 32c0 15 -7 26 -30 26c-19 0 -36 -11 -41 -35h-126c12 84 76 134 180 134c72 0 153 -24 153 -104c0 -48 -30 -78 -77 -91c39 -9 65 -31 65 -78
c0 -85 -80 -122 -172 -122zM722 715h101l-614 -715h-100zM677 -7c-86 0 -180 25 -180 109c0 60 33 87 84 103c-27 15 -45 36 -45 67c0 83 84 116 164 116c83 0 161 -30 161 -105c0 -47 -21 -76 -64 -89c39 -15 57 -44 57 -77c0 -94 -92 -124 -177 -124zM641 120
c0 -17 12 -32 35 -32s40 13 40 38c0 19 -12 33 -35 33c-21 0 -40 -14 -40 -39zM663 261c0 -19 12 -30 32 -30s36 12 36 35c0 19 -14 30 -33 30c-17 0 -35 -12 -35 -35z" />
    <glyph glyph-name="fiveeighths" unicode="&#x215d;" horiz-adv-x="877" 
d="M218 326c-84 0 -168 33 -171 130h135c1 -15 9 -26 32 -26c19 0 36 13 36 40c0 21 -11 32 -33 32c-19 0 -30 -8 -38 -23h-113l50 236h291l-16 -100h-192l-16 -76c17 24 47 49 103 49c63 0 107 -33 107 -104c-1 -108 -71 -158 -175 -158zM704 715h101l-614 -715h-100z
M656 -7c-86 0 -180 25 -180 109c0 60 33 87 84 103c-27 15 -45 36 -45 67c0 83 84 116 164 116c83 0 161 -30 161 -105c0 -47 -21 -76 -64 -89c39 -15 57 -44 57 -77c0 -94 -92 -124 -177 -124zM620 120c0 -17 12 -32 35 -32s40 13 40 38c0 19 -12 33 -35 33
c-21 0 -40 -14 -40 -39zM642 261c0 -19 12 -30 32 -30s36 12 36 35c0 19 -14 30 -33 30c-17 0 -35 -12 -35 -35z" />
    <glyph glyph-name="seveneighths" unicode="&#x215e;" horiz-adv-x="831" 
d="M219 602h-144l18 113h329l-3 -16l-197 -366h-147zM649 715h101l-614 -715h-100zM610 -7c-86 0 -180 25 -180 109c0 60 33 87 84 103c-27 15 -45 36 -45 67c0 83 84 116 164 116c83 0 161 -30 161 -105c0 -47 -21 -76 -64 -89c39 -15 57 -44 57 -77
c0 -94 -92 -124 -177 -124zM574 120c0 -17 12 -32 35 -32s40 13 40 38c0 19 -12 33 -35 33c-21 0 -40 -14 -40 -39zM596 261c0 -19 12 -30 32 -30s36 12 36 35c0 19 -14 30 -33 30c-17 0 -35 -12 -35 -35z" />
    <glyph glyph-name="Delta" unicode="&#x2206;" horiz-adv-x="767" 
d="M-25 24l326 691h310l103 -691l-3 -24h-739zM253 173h216l-46 383z" />
    <glyph glyph-name="minus" unicode="&#x2212;" horiz-adv-x="582" 
d="M61 414h507l-24 -149h-507z" />
    <glyph glyph-name="approxequal" unicode="&#x2248;" horiz-adv-x="593" 
d="M55 341c19 139 86 189 161 189c80 0 169 -39 217 -39c25 0 42 14 49 43h111c-13 -128 -86 -188 -161 -188c-80 0 -169 39 -217 39c-26 0 -43 -15 -50 -44h-110zM18 113c19 138 86 188 162 188c79 0 167 -39 216 -39c27 0 43 15 49 44h111c-13 -128 -85 -189 -160 -189
c-82 0 -169 40 -218 40c-27 0 -42 -17 -49 -44h-111z" />
    <glyph glyph-name="notequal" unicode="&#x2260;" horiz-adv-x="570" 
d="M73 492h243l49 96h123l-49 -96h127l-20 -131h-173l-34 -68h196l-20 -131h-243l-48 -96h-122l48 96h-128l20 131h174l34 68h-197z" />
    <glyph glyph-name="lessequal" unicode="&#x2264;" horiz-adv-x="514" 
d="M57 382l6 36l464 224l-28 -178l-160 -71l137 -75l-27 -171zM17 126h429l-20 -126h-428z" />
    <glyph glyph-name="greaterequal" unicode="&#x2265;" horiz-adv-x="514" 
d="M24 126h428l-20 -126h-428zM497 407l-6 -36l-464 -224l27 178l161 71l-138 74l28 172z" />
    <glyph glyph-name="uni24C5" unicode="&#x24c5;" horiz-adv-x="842" 
d="M287 562h165c120 0 168 -55 168 -140v-2c0 -87 -53 -134 -161 -134h-38v-129h-134v405zM444 376c33 0 50 15 50 44v2c0 26 -16 39 -49 39h-24v-85h23zM433 31c178 0 323 132 323 328c0 193 -141 325 -321 325c-181 0 -323 -133 -323 -327c0 -196 145 -326 321 -326z
M433 -21c-214 0 -386 163 -386 378c0 212 171 379 388 379c219 0 386 -165 386 -377c0 -216 -171 -380 -388 -380z" />
    <glyph glyph-name="zero.tab" unicode="&#xe44f;" 
d="M233 284c-3 -23 -6 -43 -6 -59c0 -44 16 -71 61 -71c49 0 67 35 82 122l25 153c4 25 6 45 6 62c0 45 -16 71 -59 71c-49 0 -69 -36 -84 -124zM274 -13c-152 0 -246 81 -246 236c0 24 2 49 6 75l25 154c29 183 137 274 293 274c150 0 248 -84 248 -236
c0 -23 -1 -46 -5 -70l-25 -154c-31 -185 -131 -279 -296 -279z" />
    <glyph glyph-name="one.tab" unicode="&#xe450;" 
d="M275 487l-182 -105l31 192l218 141h200l-113 -715h-231z" />
    <glyph glyph-name="two.tab" unicode="&#xe451;" 
d="M-15 31l251 264c51 54 144 149 144 215c0 29 -13 51 -46 51c-37 0 -60 -25 -76 -112h-204c27 187 124 277 304 276c128 0 239 -53 242 -194c0 -113 -67 -188 -185 -298l-72 -63h204l-26 -170h-541z" />
    <glyph glyph-name="three.tab" unicode="&#xe452;" 
d="M289 -13c-163 0 -285 64 -277 253h194c0 -56 14 -91 74 -91c51 0 79 27 79 84c0 37 -18 61 -69 61h-52l22 137h60c44 0 79 22 79 79c0 33 -19 54 -60 54c-43 0 -73 -23 -84 -84h-195c27 156 126 245 290 245c119 0 248 -44 248 -188c0 -89 -50 -149 -130 -172
c64 -19 102 -68 102 -140c0 -148 -112 -238 -281 -238z" />
    <glyph glyph-name="four.tab" unicode="&#xe453;" 
d="M285 134h-292l12 80l323 501h251l-68 -432h69l-24 -149h-70l-20 -134h-201zM314 283l40 254l-158 -254h118z" />
    <glyph glyph-name="five.tab" unicode="&#xe454;" 
d="M274 -13c-166 0 -264 80 -253 245h192c-1 -47 16 -73 65 -73c55 0 79 44 79 103c0 47 -26 73 -77 73c-47 0 -78 -21 -99 -49h-130l84 429h461l-25 -163h-308l-29 -149c31 40 82 78 158 78c111 0 178 -67 178 -195c0 -180 -107 -299 -296 -299z" />
    <glyph glyph-name="six.tab" unicode="&#xe455;" 
d="M296 -13c-159 0 -267 81 -267 251c0 28 4 62 9 93l11 74c33 207 148 320 323 320c157 0 236 -68 233 -217h-185c0 37 -12 61 -57 61c-65 0 -99 -70 -118 -182c29 39 76 77 148 77c104 0 183 -68 183 -195c0 -166 -108 -282 -280 -282zM222 229c0 -43 24 -79 75 -79
s85 39 85 98c0 43 -24 75 -72 75c-49 0 -88 -35 -88 -94z" />
    <glyph glyph-name="seven.tab" unicode="&#xe456;" 
d="M333 533h-262l29 182h546l-4 -23l-356 -692h-230z" />
    <glyph glyph-name="eight.tab" unicode="&#xe457;" 
d="M286 -13c-128 0 -274 48 -274 196c0 100 54 164 146 199c-43 25 -74 67 -74 123c0 141 125 220 262 220c117 0 243 -51 243 -186c0 -89 -42 -138 -113 -171c61 -31 93 -80 93 -143c0 -161 -128 -238 -283 -238zM215 218c0 -43 30 -70 75 -70c48 0 86 33 86 89
c0 44 -29 69 -74 69c-48 0 -87 -32 -87 -88zM264 496c0 -35 24 -65 67 -65c40 0 75 28 75 77c0 37 -25 65 -65 65c-43 0 -77 -30 -77 -77z" />
    <glyph glyph-name="nine.tab" unicode="&#xe458;" 
d="M254 -12c-152 0 -241 69 -240 220h189c3 -43 19 -63 62 -63c64 0 101 57 118 181c-28 -39 -76 -76 -148 -76c-104 0 -182 67 -182 194c0 157 106 282 285 282c155 0 261 -78 261 -250c0 -27 -4 -62 -9 -93l-12 -77c-38 -225 -136 -318 -324 -318zM246 468
c0 -43 23 -75 70 -75c49 0 91 34 91 94c0 43 -23 79 -74 79s-87 -39 -87 -98z" />
    <glyph glyph-name="cent.tab" unicode="&#xe459;" 
d="M235 -8c-120 19 -212 99 -212 229c0 181 119 308 298 316l15 92h74l-15 -96c115 -17 185 -85 190 -217h-174c-1 37 -14 61 -39 72l-42 -266c41 7 67 36 78 87h167c-13 -133 -115 -219 -267 -222l-19 -122h-74zM212 223c0 -49 15 -80 44 -94l42 263
c-53 -15 -86 -70 -86 -169z" />
    <glyph glyph-name="dollar.tab" unicode="&#xe45a;" 
d="M221 -7c-126 19 -221 89 -213 234h183c-2 -43 16 -71 54 -83l20 130c-142 32 -205 93 -205 208c0 149 119 243 277 243l14 88h74l-15 -93c121 -16 199 -77 199 -217h-177c-2 33 -17 55 -46 65l-20 -126c125 -29 210 -83 210 -205c0 -160 -111 -246 -282 -249l-19 -123
h-74zM390 202c0 27 -12 43 -53 56l-19 -121c43 4 72 22 72 65zM244 513c0 -27 12 -41 51 -54l18 115c-47 -4 -69 -26 -69 -61z" />
    <glyph glyph-name="Euro.tab" unicode="&#xe45b;" 
d="M40 453h45c33 188 137 273 286 272c161 0 248 -82 235 -246h-184c3 48 -8 81 -56 81c-47 0 -67 -31 -82 -107h128l-24 -74h-116l-7 -45h108l-24 -75h-95c-8 -56 -2 -105 60 -105c43 0 66 21 77 89h182c-27 -183 -124 -256 -271 -256c-179 0 -259 105 -246 272h-46l12 75
h45l7 45h-45z" />
    <glyph glyph-name="a.alt" unicode="&#xe4c0;" horiz-adv-x="638" 
d="M323 393c-61 0 -103 -64 -103 -163c0 -60 23 -97 74 -97c61 0 104 71 104 165c0 60 -26 95 -75 95zM204 -13c-110 0 -186 79 -186 223c0 207 113 327 249 327c81 0 133 -38 153 -93l12 79h197l-56 -359c-11 -69 -15 -119 -11 -164h-195c-4 23 -4 58 -3 86
c-37 -63 -85 -99 -160 -99z" />
    <glyph glyph-name="t.alt" unicode="&#xe4d3;" horiz-adv-x="389" 
d="M101 391h-70l20 132h71l17 107h197l-17 -107h92l-20 -132h-93l-61 -391h-197z" />
    <glyph glyph-name="f_i" unicode="&#xfb01;" horiz-adv-x="688" 
d="M50 523h64l10 59c22 129 114 180 227 180c49 0 74 -6 97 -15l-22 -142c-13 4 -24 8 -47 8c-39 0 -55 -19 -62 -52l-6 -38h102l-21 -132h-102l-62 -391h-196l62 391h-64zM596 563c-61 0 -104 42 -104 98c0 57 44 98 105 98c60 0 104 -41 104 -98c0 -56 -46 -98 -105 -98z
M478 523h197l-83 -523h-196z" />
    <glyph glyph-name="f_l" unicode="&#xfb02;" horiz-adv-x="686" 
d="M50 523h64l10 59c22 129 114 180 227 180c49 0 74 -6 97 -15l-22 -142c-13 4 -24 8 -47 8c-39 0 -55 -19 -62 -52l-6 -38h102l-21 -132h-102l-62 -391h-196l62 391h-64zM514 750h195l-118 -750h-196z" />
    <glyph glyph-name="hyphen.uc" horiz-adv-x="412" 
d="M70 403h315l-25 -154h-314z" />
    <glyph glyph-name="four.old" horiz-adv-x="679" 
d="M323 38h-347l11 70l375 511h263l-70 -443h90l-21 -138h-91l-21 -130h-210zM351 176l43 278l-194 -278h151z" />
    <glyph glyph-name="zero.num" horiz-adv-x="435" 
d="M204 493c0 -33 10 -58 45 -58c52 0 63 76 63 120c0 35 -10 58 -45 58c-53 0 -63 -83 -63 -120zM243 326c-107 0 -183 56 -183 162c0 132 80 233 214 233c107 0 182 -55 182 -162c0 -135 -78 -233 -213 -233z" />
    <glyph glyph-name="nine.oldtab" 
d="M386 398c0 48 -24 81 -76 81s-88 -42 -89 -101c-1 -44 24 -77 75 -77s90 40 90 97zM318 632c159 0 259 -82 259 -254c0 -29 -3 -59 -7 -87l-11 -73c-35 -225 -136 -324 -316 -324c-135 0 -252 58 -247 221h185c0 -39 18 -67 62 -67c67 0 101 58 124 193
c-28 -41 -77 -77 -153 -77c-108 0 -178 74 -178 191c0 168 116 277 282 277z" />
    <glyph glyph-name="eight.oldtab" 
d="M286 -13c-139 0 -273 59 -273 197c0 101 57 166 149 197c-47 27 -76 68 -76 128c0 140 123 216 261 216c117 0 239 -50 239 -187c0 -87 -41 -142 -117 -173c64 -29 98 -79 98 -150c0 -155 -132 -228 -281 -228zM265 497c0 -36 25 -64 66 -64s75 29 75 80
c0 37 -25 66 -66 66c-43 0 -75 -31 -75 -82zM214 211c0 -43 27 -70 76 -70c47 0 83 32 83 91c0 43 -25 71 -73 71c-49 0 -86 -36 -86 -92z" />
    <glyph glyph-name="seven.oldtab" 
d="M321 445h-261l28 174h539l-5 -23l-357 -688h-226z" />
    <glyph glyph-name="six.oldtab" 
d="M302 -13c-160 0 -268 85 -268 262c0 27 4 55 8 82l11 73c32 207 157 321 327 321c136 0 237 -58 229 -215h-185c1 36 -12 61 -57 61c-60 0 -100 -58 -123 -193c29 41 79 77 155 77c109 0 176 -72 176 -189c0 -168 -105 -279 -273 -279zM225 224c0 -47 24 -81 77 -81
c52 0 88 42 89 101c0 44 -24 77 -75 77c-52 0 -91 -40 -91 -97z" />
    <glyph glyph-name="five.oldtab" 
d="M194 131c0 -48 18 -78 71 -78c57 0 83 40 83 108c0 45 -24 78 -80 78c-41 0 -74 -17 -99 -51h-127l84 431h454l-27 -160h-302l-30 -155c33 41 78 80 153 80c105 0 178 -69 178 -198c0 -169 -91 -290 -285 -290c-162 0 -271 82 -260 235h187z" />
    <glyph glyph-name="four.oldtab" 
d="M272 38h-294l11 69l323 512h249l-71 -444h73l-21 -137h-72l-22 -130h-197zM297 175l44 272l-169 -272h125z" />
    <glyph glyph-name="three.oldtab" 
d="M275 -105c-175 0 -287 83 -279 249h192c0 -60 20 -94 80 -94c49 0 79 29 79 85c1 43 -24 70 -73 70h-52l21 130h57c51 0 85 24 85 84c0 40 -24 60 -63 60c-47 0 -74 -26 -86 -87h-191c23 153 124 240 285 240c120 0 251 -44 251 -187c0 -85 -44 -149 -132 -173
c64 -20 103 -68 103 -147c0 -149 -125 -230 -277 -230z" />
    <glyph glyph-name="two.oldtab" 
d="M-13 29l246 212c60 52 139 122 139 180c0 35 -18 52 -53 52c-41 0 -69 -32 -82 -95h-191c28 171 132 254 293 254c126 0 245 -54 245 -186c0 -108 -75 -174 -163 -243l-65 -52h190l-23 -151h-541z" />
    <glyph glyph-name="one.oldtab" 
d="M274 409l-187 -108l28 178l222 140h181l-98 -619h-210z" />
    <glyph glyph-name="zero.oldtab" 
d="M282 -13c-155 0 -254 78 -254 233c0 23 2 46 6 70l12 78c27 173 134 264 287 264c155 0 252 -85 252 -235c0 -20 -1 -41 -5 -64l-12 -78c-27 -175 -123 -268 -286 -268zM289 154c48 0 66 34 78 111l13 78c3 24 6 44 6 60c0 44 -19 66 -58 66c-48 0 -70 -36 -82 -113
l-12 -78c-4 -22 -6 -41 -6 -58c0 -37 14 -66 61 -66z" />
    <glyph glyph-name="yen.oldtab" 
d="M73 375h131l-115 319h217l46 -184l103 184h191l-212 -319h138l-11 -72h-147l-7 -45h147l-12 -72h-146l-29 -186h-213l29 186h-140l11 72h140l7 45h-140z" />
    <glyph glyph-name="sterling.oldtab" 
d="M54 396h43c-3 19 -4 40 -4 63c0 151 104 244 262 244c164 0 247 -73 235 -238h-178c3 53 -16 74 -59 74c-60 0 -70 -58 -70 -114v-29h150l-19 -119h-128c-3 -36 -8 -68 -23 -99c27 -8 51 -15 71 -15c31 0 52 14 59 51h177c-19 -144 -94 -223 -215 -223
c-88 0 -136 49 -176 49c-24 0 -39 -16 -43 -40h-149c13 81 46 145 103 176c15 29 23 66 23 97v4h-78z" />
    <glyph glyph-name="f.short" horiz-adv-x="391" 
d="M50 523h64l10 59c22 129 114 180 227 180c49 0 74 -6 97 -15l-22 -142c-13 4 -24 8 -47 8c-39 0 -55 -19 -62 -52l-6 -38h102l-21 -132h-102l-62 -391h-196l62 391h-64z" />
    <glyph glyph-name="f_f.short" horiz-adv-x="731" 
d="M50 523h64l8 49c19 128 114 179 225 179c47 0 71 -6 95 -14l-22 -142c-13 4 -24 7 -44 7c-37 0 -54 -16 -61 -51l-5 -28h143l10 59c19 129 116 180 228 180c49 0 73 -6 97 -15l-23 -142c-12 4 -25 8 -46 8c-39 0 -56 -19 -63 -52l-6 -38h102l-20 -132h-103l-61 -391h-196
l61 391h-144l-61 -391h-196l61 391h-63z" />
    <glyph glyph-name="Euro.oldtab" 
d="M48 440h44c33 181 132 264 277 264c156 -1 240 -81 228 -238h-177c3 48 -8 80 -56 80c-47 0 -67 -30 -82 -106h127l-24 -72h-114l-7 -45h107l-24 -71h-94c-8 -56 -2 -105 61 -105c41 0 65 20 77 88h173c-27 -177 -121 -248 -262 -248c-173 0 -251 102 -238 265h-46l11 71
h44l8 45h-44z" />
    <glyph glyph-name="dollar.oldtab" 
d="M244 498c0 -25 13 -41 49 -54l18 114c-45 -4 -67 -25 -67 -60zM390 196c0 28 -11 43 -54 55l-19 -121c44 4 73 23 73 66zM222 -7c-122 19 -215 88 -204 227h174c-1 -43 16 -70 53 -83l20 131c-136 33 -197 90 -197 201c0 144 114 231 266 234l14 86h73l-14 -90
c116 -16 193 -75 193 -211h-169c-3 36 -19 55 -48 64l-19 -125c122 -29 204 -80 204 -198c0 -155 -109 -238 -273 -241l-19 -119h-73z" />
    <glyph glyph-name="braceright.tab" horiz-adv-x="300" 
d="M93 776c201 -5 248 -100 187 -252l-31 -78c-19 -43 -6 -72 54 -80l-19 -119c-63 -3 -80 -28 -77 -73l6 -98c11 -171 -77 -224 -267 -224l21 127c60 1 76 20 75 80l-2 105c-3 80 34 125 123 148c-80 27 -103 81 -70 169l28 76c23 61 13 85 -48 92z" />
    <glyph glyph-name="braceleft.tab" horiz-adv-x="300" 
d="M221 -148c-200 8 -249 99 -187 253l31 77c19 44 7 73 -53 80l19 120c61 1 79 28 76 72l-6 98c-11 171 77 224 267 224l-20 -126c-60 -3 -76 -20 -76 -80l2 -106c3 -80 -32 -124 -123 -147c80 -27 104 -83 71 -169l-28 -76c-23 -61 -15 -86 48 -93z" />
    <glyph glyph-name="bracketright.tab" horiz-adv-x="300" 
d="M-33 -21h71l106 670h-71l20 127h246l-146 -924h-246z" />
    <glyph glyph-name="bracketleft.tab" horiz-adv-x="300" 
d="M121 776h246l-19 -127h-71l-106 -670h71l-21 -127h-246z" />
    <glyph glyph-name="parenright.tab" horiz-adv-x="300" 
d="M193 775c42 -74 94 -185 94 -345c0 -217 -78 -406 -230 -578h-139c129 185 201 384 201 595c0 156 -27 254 -56 328h130z" />
    <glyph glyph-name="parenleft.tab" horiz-adv-x="300" 
d="M121 -148c-42 74 -94 187 -94 345c0 219 78 406 230 578h139c-129 -185 -201 -385 -201 -594c0 -158 27 -255 56 -329h-130z" />
    <glyph glyph-name="semicolon.tab" horiz-adv-x="300" 
d="M-54 -77l105 270l172 -63l-169 -254zM169 272c-64 0 -109 47 -109 107s45 108 108 108c65 0 114 -48 114 -108s-48 -107 -113 -107z" />
    <glyph glyph-name="colon.tab" horiz-adv-x="300" 
d="M120 -12c-64 0 -109 47 -109 108c0 60 44 107 108 107c65 0 114 -48 114 -107c0 -61 -48 -108 -113 -108zM166 272c-64 0 -109 47 -109 107s45 108 108 108c65 0 114 -48 114 -108s-48 -107 -113 -107z" />
    <glyph glyph-name="comma.tab" horiz-adv-x="300" 
d="M-41 -77l105 270l173 -63l-170 -254z" />
    <glyph glyph-name="period.tab" horiz-adv-x="300" 
d="M122 -12c-63 0 -110 48 -110 108s45 107 109 107s113 -48 113 -107c0 -60 -48 -108 -112 -108z" />
    <glyph glyph-name="greaterequal.tab" 
d="M66 126h428l-20 -126h-428zM539 407l-6 -36l-464 -224l27 178l161 71l-138 74l28 172z" />
    <glyph glyph-name="lessequal.tab" 
d="M100 382l6 36l464 224l-28 -178l-160 -71l137 -75l-27 -171zM60 126h429l-20 -126h-428z" />
    <glyph glyph-name="greater.tab" 
d="M536 336l-6 -38l-490 -244l28 181l215 89l-185 101l27 168z" />
    <glyph glyph-name="less.tab" 
d="M81 310l7 38l490 244l-28 -181l-215 -89l185 -101l-27 -168z" />
    <glyph glyph-name="approxequal.tab" 
d="M59 341c19 139 86 189 161 189c80 0 169 -39 217 -39c25 0 42 14 49 43h111c-13 -128 -86 -188 -161 -188c-80 0 -169 39 -217 39c-26 0 -43 -15 -50 -44h-110zM22 113c19 138 86 188 162 188c79 0 167 -39 216 -39c27 0 43 15 49 44h111c-13 -128 -85 -189 -160 -189
c-82 0 -169 40 -218 40c-27 0 -42 -17 -49 -44h-111z" />
    <glyph glyph-name="notequal.tab" 
d="M89 492h243l49 96h123l-49 -96h127l-20 -131h-173l-34 -68h196l-20 -131h-243l-48 -96h-122l48 96h-128l20 131h174l34 68h-197z" />
    <glyph glyph-name="equal.tab" 
d="M65 293h478l-21 -131h-477zM96 492h478l-21 -131h-477z" />
    <glyph glyph-name="divide.tab" 
d="M76 407h492l-22 -134h-491zM286 34c-57 0 -99 42 -99 98c0 55 42 97 99 97c59 0 102 -42 102 -97c0 -56 -42 -98 -102 -98zM334 450c-57 0 -99 42 -99 97s42 98 99 98c59 0 102 -43 102 -98s-42 -97 -102 -97z" />
    <glyph glyph-name="multiply.tab" 
d="M34 186l174 152l-131 154l116 103l132 -155l174 151l90 -104l-175 -152l132 -153l-117 -103l-132 154l-173 -150z" />
    <glyph glyph-name="plusminus.tab" 
d="M235 343h-173l22 142h173l26 162h157l-26 -162h174l-22 -142h-174l-26 -161h-156zM27 126h507l-19 -126h-507z" />
    <glyph glyph-name="minus.tab" 
d="M78 414h491l-23 -149h-492z" />
    <glyph glyph-name="plus.tab" 
d="M222 269h-166l22 142h167l29 181h156l-28 -181h165l-23 -142h-165l-28 -182h-157z" />
    <glyph glyph-name="perthousand.tab" horiz-adv-x="1000" 
d="M173 525c0 -24 8 -42 32 -42c40 0 46 69 46 103c0 29 -10 43 -30 43c-41 0 -48 -71 -48 -104zM197 386c-85 0 -146 49 -146 141c0 107 63 196 176 196c83 0 145 -51 145 -141c0 -108 -63 -196 -175 -196zM590 715h101l-590 -715h-100zM437 127c0 -24 8 -43 31 -43
c41 0 47 70 47 104c0 29 -10 43 -30 43c-40 0 -48 -71 -48 -104zM462 -13c-87 0 -147 49 -147 141c0 108 63 197 176 197c83 0 145 -52 145 -141c0 -109 -63 -197 -174 -197zM777 127c0 -24 8 -43 32 -43c41 0 46 70 46 104c0 28 -8 43 -31 43c-39 0 -47 -71 -47 -104z
M802 -13c-87 0 -146 49 -146 141c0 108 62 197 176 197c83 0 145 -52 145 -141c0 -109 -63 -197 -175 -197z" />
    <glyph glyph-name="percent.tab" horiz-adv-x="800" 
d="M200 540c0 -27 8 -52 43 -51c37 0 53 43 53 82c0 27 -11 50 -42 50c-39 0 -54 -37 -54 -81zM239 383c-93 0 -174 50 -174 150c0 106 77 190 193 190c92 0 172 -54 172 -152c0 -103 -77 -188 -191 -188zM656 715h104l-583 -715h-103zM533 144c0 -27 8 -51 43 -51
c39 1 52 42 52 82c0 27 -10 50 -41 50c-39 0 -54 -37 -54 -81zM571 -13c-93 0 -173 51 -173 150c0 107 77 191 193 191c92 0 172 -54 172 -152c0 -103 -78 -189 -192 -189z" />
    <glyph glyph-name="two.num" horiz-adv-x="366" 
d="M18 351l149 133c38 32 87 77 87 104c0 19 -8 28 -25 28c-20 0 -35 -15 -43 -51h-132c15 105 87 156 186 156c85 0 157 -30 157 -117c0 -55 -41 -96 -104 -148l-24 -20h103l-16 -103h-341z" />
    <glyph glyph-name="uni045D.bgr" horiz-adv-x="627" 
d="M561 164c-11 -69 -16 -120 -13 -164h-192c-3 23 -3 55 0 84c-39 -56 -90 -97 -170 -97c-105 0 -177 64 -153 221l50 315h197l-49 -308c-8 -55 9 -83 52 -83c51 0 81 31 91 94l47 297h196zM193 747h192l38 -169h-137z" />
    <glyph glyph-name="three.num" horiz-adv-x="385" 
d="M220 326c-101 0 -171 40 -172 137h128c0 -25 13 -38 38 -38c17 0 36 9 36 33c0 18 -14 27 -41 27h-29l12 79h35c27 0 41 11 41 32c0 15 -7 26 -30 26c-19 0 -36 -11 -41 -35h-126c12 84 76 134 180 134c72 0 153 -24 153 -104c0 -48 -30 -78 -77 -91c39 -9 65 -31 65 -78
c0 -85 -80 -122 -172 -122z" />
    <glyph glyph-name="four.num" horiz-adv-x="408" 
d="M221 403h-189l9 54l197 258h173l-34 -218h48l-15 -94h-48l-11 -70h-141zM241 497l19 120l-88 -120h69z" />
    <glyph glyph-name="uni20B4.old" horiz-adv-x="667" 
d="M633 222c-29 -152 -141 -235 -320 -234c-173 0 -256 78 -256 186c0 31 7 59 21 83h-59l11 71h115c25 17 57 34 94 49h-203l12 71h357c15 15 20 31 20 52c0 32 -17 48 -50 48c-43 0 -68 -19 -79 -66h-202c29 149 136 221 304 221c155 0 236 -88 236 -182
c0 -26 -5 -50 -14 -73h51l-11 -71h-95c-21 -17 -49 -34 -82 -49h171l-11 -71h-342c-24 -19 -31 -41 -31 -64c0 -31 19 -51 58 -51c61 0 88 37 99 80h206z" />
    <glyph glyph-name="uni20B4.oldtab" 
d="M572 222c-27 -149 -136 -235 -295 -234c-156 0 -233 78 -228 186c1 31 8 59 21 83h-51l12 71h102c23 17 52 34 87 49h-183l13 71h322c13 15 18 31 19 52c1 32 -14 48 -45 48c-39 0 -61 -19 -73 -66h-182c29 149 131 221 276 221s216 -88 213 -182c-1 -27 -5 -50 -14 -73
h49l-12 -71h-88c-19 -17 -45 -34 -76 -49h158l-13 -71h-312c-21 -19 -28 -41 -29 -64c-1 -31 16 -51 52 -51c59 0 80 37 91 80h186z" />
    <glyph glyph-name="uni20B4.tab" 
d="M579 229c-31 -156 -144 -242 -311 -241c-157 0 -231 81 -226 192c1 31 8 60 21 85h-52l11 73h106c26 19 57 36 93 51h-191l12 73h331c15 16 19 33 19 53c1 34 -13 51 -44 51c-39 0 -64 -21 -76 -69h-186c31 155 134 228 290 228c141 0 215 -91 212 -188
c-1 -28 -7 -53 -16 -75h50l-12 -73h-91c-21 -19 -48 -36 -79 -51h162l-13 -73h-319c-23 -20 -29 -42 -30 -66c-3 -31 17 -52 53 -52c60 0 84 38 93 82h193z" />
    <glyph glyph-name="five.num" horiz-adv-x="378" 
d="M215 326c-84 0 -168 33 -171 130h135c1 -15 9 -26 32 -26c19 0 36 13 36 40c0 21 -11 32 -33 32c-19 0 -30 -8 -38 -23h-113l50 236h291l-16 -100h-192l-16 -76c17 24 47 49 103 49c63 0 107 -33 107 -104c-1 -108 -71 -158 -175 -158z" />
    <glyph glyph-name="uni20B8.old" horiz-adv-x="606" 
d="M81 623l11 71h554l-12 -71h-553zM212 400h-166l27 168h553l-28 -168h-165l-63 -400h-221z" />
    <glyph glyph-name="uni20B8.oldtab" 
d="M89 623l11 71h526l-11 -71h-526zM206 400h-152l27 168h526l-28 -168h-152l-63 -400h-221z" />
    <glyph glyph-name="uni20B8.tab" 
d="M84 642l12 73h556l-12 -73h-556zM212 412h-164l28 174h556l-29 -174h-164l-64 -412h-228z" />
    <glyph glyph-name="six.num" horiz-adv-x="404" 
d="M241 326c-105 0 -181 47 -181 156c0 15 1 32 4 49l2 12c19 111 98 178 206 178c86 0 155 -31 158 -123h-132c-3 13 -9 22 -29 22c-32 0 -49 -32 -60 -79c19 23 46 39 91 39c65 0 116 -35 116 -104c0 -102 -79 -150 -175 -150zM204 456c0 -19 10 -35 35 -35
c23 0 39 16 39 44c0 20 -11 35 -34 35s-40 -16 -40 -44z" />
    <glyph glyph-name="uni20BD.old" horiz-adv-x="678" 
d="M383 374c63 0 98 31 98 92c0 43 -28 66 -81 66h-43l-24 -158h50zM292 109l-17 -109h-220l17 109h-82l12 71h82l7 46h-83l11 71h83l63 397h259c173 0 264 -79 265 -202c0 -173 -114 -266 -296 -266h-82l-7 -46h204l-11 -71h-205z" />
    <glyph glyph-name="uni20BD.oldtab" 
d="M339 374c59 0 91 31 91 92c0 43 -24 66 -75 66h-28l-24 -158h36zM264 109l-17 -109h-202l17 109h-73l11 71h73l7 46h-74l11 71h74l61 397h226c163 0 247 -78 247 -202c0 -173 -109 -266 -279 -266h-64l-7 -46h180l-11 -71h-180z" />
    <glyph glyph-name="uni20BD.tab" 
d="M348 385c60 0 92 32 92 96c0 45 -25 67 -75 67h-39l-23 -163h45zM263 112l-16 -112h-204l17 112h-70l10 74h71l7 47h-71l11 74h71l60 408h239c161 0 243 -80 244 -208c-1 -179 -106 -274 -275 -274h-76l-7 -47h188l-10 -74h-189z" />
    <glyph glyph-name="seven.num" horiz-adv-x="357" 
d="M215 602h-144l18 113h329l-3 -16l-197 -366h-147z" />
    <glyph glyph-name="eight.num" horiz-adv-x="393" 
d="M227 326c-86 0 -180 25 -180 109c0 60 33 87 84 103c-27 15 -45 36 -45 67c0 83 84 116 164 116c83 0 161 -30 161 -105c0 -47 -21 -76 -64 -89c39 -15 57 -44 57 -77c0 -94 -92 -124 -177 -124zM191 453c0 -17 12 -32 35 -32s40 13 40 38c0 19 -12 33 -35 33
c-21 0 -40 -14 -40 -39zM213 594c0 -19 12 -30 32 -30s36 12 36 35c0 19 -14 30 -33 30c-17 0 -35 -12 -35 -35z" />
    <glyph glyph-name="nine.num" horiz-adv-x="404" 
d="M246 721c104 0 177 -47 177 -155c0 -16 -1 -34 -4 -51l-2 -12c-17 -115 -82 -177 -205 -177c-86 0 -155 31 -160 123h132c3 -15 8 -22 31 -22c33 0 51 28 59 79c-17 -23 -46 -39 -90 -39c-65 0 -117 33 -117 105c0 99 83 149 179 149zM279 591c0 19 -9 35 -34 35
c-23 0 -39 -17 -39 -45c0 -19 10 -34 33 -34s40 15 40 44z" />
    <glyph glyph-name="zero.den" horiz-adv-x="435" 
d="M151 160c0 -33 10 -58 45 -58c52 0 63 76 63 120c0 35 -10 58 -45 58c-53 0 -63 -83 -63 -120zM190 -7c-107 0 -183 56 -183 162c0 132 80 233 214 233c107 0 182 -55 182 -162c0 -135 -78 -233 -213 -233z" />
    <glyph glyph-name="one.den" horiz-adv-x="297" 
d="M99 241l-89 -45l19 118l114 68h124l-61 -382h-145z" />
    <glyph glyph-name="two.den" horiz-adv-x="366" 
d="M-33 18l149 133c38 32 87 77 87 104c0 19 -8 28 -25 28c-20 0 -35 -15 -43 -51h-132c15 105 87 156 186 156c85 0 157 -30 157 -117c0 -55 -41 -96 -104 -148l-24 -20h103l-16 -103h-341z" />
    <glyph glyph-name="uni021B.alt" horiz-adv-x="389" 
d="M-1 -206l47 175l171 -12l-110 -190zM101 391h-70l20 132h71l17 107h197l-17 -107h92l-20 -132h-93l-61 -391h-197z" />
    <glyph glyph-name="uni0437.bgr" horiz-adv-x="533" 
d="M212 -190c-148 0 -238 72 -238 220h170c-1 -51 14 -85 61 -85s71 35 72 94c1 52 -19 78 -79 78h-43l18 132h47c55 0 87 24 90 84c3 48 -13 72 -49 72c-41 0 -63 -27 -72 -75h-166c19 133 109 206 252 206c139 0 225 -65 225 -186c0 -84 -60 -157 -151 -168
c76 -13 128 -67 127 -143c0 -148 -113 -229 -264 -229z" />
    <glyph glyph-name="uni0449.bgr" horiz-adv-x="936" 
d="M714 -127l10 127h-84c-3 23 -2 55 1 84c-35 -55 -97 -99 -177 -99c-68 0 -114 33 -133 98c-48 -68 -109 -98 -177 -98c-100 0 -166 66 -145 207l52 331h196l-47 -301c-8 -52 8 -78 48 -78c43 0 71 29 80 82l46 297h195l-48 -302c-8 -52 9 -77 48 -77c45 0 71 30 80 82
l47 297h196l-62 -391h77l-41 -259h-162z" />
    <glyph glyph-name="three.den" horiz-adv-x="385" 
d="M168 -7c-101 0 -171 40 -172 137h128c0 -25 13 -38 38 -38c17 0 36 9 36 33c0 18 -14 27 -41 27h-29l12 79h35c27 0 41 11 41 32c0 15 -7 26 -30 26c-19 0 -36 -11 -41 -35h-126c12 84 76 134 180 134c72 0 153 -24 153 -104c0 -48 -30 -78 -77 -91c39 -9 65 -31 65 -78
c0 -85 -80 -122 -172 -122z" />
    <glyph glyph-name="uni044A.bgr" horiz-adv-x="622" 
d="M34 392l22 131h304l-27 -168c6 0 38 1 49 1c144 0 217 -56 217 -163c0 -110 -78 -203 -263 -203c-169 0 -241 84 -215 253l24 149h-111zM345 115c33 0 58 32 58 72c0 29 -19 51 -54 51h-34l-8 -50c-7 -49 5 -73 38 -73z" />
    <glyph glyph-name="four.den" horiz-adv-x="408" 
d="M169 70h-189l9 54l197 258h173l-34 -218h48l-15 -94h-48l-11 -70h-141zM189 164l19 120l-88 -120h69z" />
    <glyph glyph-name="five.den" horiz-adv-x="378" 
d="M163 -7c-84 0 -168 33 -171 130h135c1 -15 9 -26 32 -26c19 0 36 13 36 40c0 21 -11 32 -33 32c-19 0 -30 -8 -38 -23h-113l50 236h291l-16 -100h-192l-16 -76c17 24 47 49 103 49c63 0 107 -33 107 -104c-1 -108 -71 -158 -175 -158z" />
    <glyph glyph-name="six.den" horiz-adv-x="404" 
d="M188 -7c-105 0 -181 47 -181 156c0 15 1 32 4 49l2 12c19 111 98 178 206 178c86 0 155 -31 158 -123h-132c-3 13 -9 22 -29 22c-32 0 -49 -32 -60 -79c19 23 46 39 91 39c65 0 116 -35 116 -104c0 -102 -79 -150 -175 -150zM151 123c0 -19 10 -35 35 -35
c23 0 39 16 39 44c0 20 -11 35 -34 35s-40 -16 -40 -44z" />
    <glyph glyph-name="seven.den" horiz-adv-x="357" 
d="M163 269h-144l18 113h329l-3 -16l-197 -366h-147z" />
    <glyph glyph-name="florin.tab" 
d="M107 415h99l21 111c27 151 136 199 252 199c45 0 70 -4 94 -12l-23 -145c-15 4 -29 7 -53 7c-36 0 -69 -15 -80 -70l-17 -90h124l-20 -132h-129l-86 -465h-195l87 465h-95z" />
    <glyph glyph-name="uni0431.locl" horiz-adv-x="620" 
d="M294 -13c-142 0 -272 74 -272 240c-1 111 56 198 148 231c44 15 87 14 87 14c-108 29 -154 74 -154 138c0 88 61 139 190 139h138c85 0 131 7 158 16l-22 -143c-27 -15 -76 -20 -139 -20h-140c-24 0 -36 -8 -36 -24c0 -20 21 -30 52 -39c156 -46 294 -106 294 -270
c0 -171 -123 -282 -304 -282zM297 132c72 0 104 65 104 147c0 49 -23 90 -78 90c-72 0 -106 -63 -106 -144c0 -46 19 -93 80 -93z" />
    <glyph glyph-name="yen.tab" 
d="M63 371h135l-113 344h220l43 -189l102 189h208l-221 -344h143l-12 -74h-150l-8 -46h150l-11 -74h-150l-28 -177h-223l28 177h-144l11 74h144l8 46h-144z" />
    <glyph glyph-name="eight.den" horiz-adv-x="393" 
d="M175 -7c-86 0 -180 25 -180 109c0 60 33 87 84 103c-27 15 -45 36 -45 67c0 83 84 116 164 116c83 0 161 -30 161 -105c0 -47 -21 -76 -64 -89c39 -15 57 -44 57 -77c0 -94 -92 -124 -177 -124zM139 120c0 -17 12 -32 35 -32s40 13 40 38c0 19 -12 33 -35 33
c-21 0 -40 -14 -40 -39zM161 261c0 -19 12 -30 32 -30s36 12 36 35c0 19 -14 30 -33 30c-17 0 -35 -12 -35 -35z" />
    <glyph glyph-name="nine.den" horiz-adv-x="404" 
d="M194 388c104 0 177 -47 177 -155c0 -16 -1 -34 -4 -51l-2 -12c-17 -115 -82 -177 -205 -177c-86 0 -155 31 -160 123h132c3 -15 8 -22 31 -22c33 0 51 28 59 79c-17 -23 -46 -39 -90 -39c-65 0 -117 33 -117 105c0 99 83 149 179 149zM227 258c0 19 -9 35 -34 35
c-23 0 -39 -17 -39 -45c0 -19 10 -34 33 -34s40 15 40 44z" />
    <glyph glyph-name="zero.sub" horiz-adv-x="435" 
d="M131 33c0 -33 10 -58 45 -58c52 0 63 76 63 120c0 35 -10 58 -45 58c-53 0 -63 -83 -63 -120zM170 -134c-107 0 -183 56 -183 162c0 132 80 233 214 233c107 0 182 -55 182 -162c0 -135 -78 -233 -213 -233z" />
    <glyph glyph-name="one.sub" horiz-adv-x="297" 
d="M78 114l-89 -45l19 118l114 68h124l-61 -382h-145z" />
    <glyph glyph-name="sterling.tab" 
d="M44 408h44c-3 20 -4 41 -4 65c0 158 108 252 270 252c171 0 257 -76 244 -248h-186c3 56 -15 76 -58 76c-60 0 -73 -59 -73 -115v-30h154l-19 -122h-131c-3 -36 -9 -68 -24 -100c28 -8 52 -15 73 -15c31 0 52 14 59 51h186c-20 -149 -97 -231 -222 -231
c-93 0 -139 50 -182 50c-24 0 -40 -16 -44 -41h-155c13 84 46 152 106 184c15 31 23 68 23 99v3h-81z" />
    <glyph glyph-name="two.sub" horiz-adv-x="366" 
d="M-55 -109l149 133c38 32 87 77 87 104c0 19 -8 28 -25 28c-20 0 -35 -15 -43 -51h-132c15 105 87 156 186 156c85 0 157 -30 157 -117c0 -55 -41 -96 -104 -148l-24 -20h103l-16 -103h-341z" />
    <glyph glyph-name="three.sub" horiz-adv-x="385" 
d="M149 -134c-101 0 -171 40 -172 137h128c0 -25 13 -38 38 -38c17 0 36 9 36 33c0 18 -14 27 -41 27h-29l12 79h35c27 0 41 11 41 32c0 15 -7 26 -30 26c-19 0 -36 -11 -41 -35h-126c12 84 76 134 180 134c72 0 153 -24 153 -104c0 -48 -30 -78 -77 -91
c39 -9 65 -31 65 -78c0 -85 -80 -122 -172 -122z" />
    <glyph glyph-name="four.sub" horiz-adv-x="408" 
d="M148 -57h-189l9 54l197 258h173l-34 -218h48l-15 -94h-48l-11 -70h-141zM168 37l19 120l-88 -120h69z" />
    <glyph glyph-name="space.tab" horiz-adv-x="300" 
 />
    <glyph glyph-name="uni0433.bgr" horiz-adv-x="524" 
d="M234 -14c-141 0 -227 52 -226 159c1 93 65 154 209 181c89 16 106 36 106 57s-15 31 -44 31c-33 0 -52 -20 -59 -49h-175c17 107 108 173 247 173c133 0 216 -62 216 -155c-1 -108 -69 -157 -206 -180c-90 -16 -99 -37 -99 -57s15 -32 42 -32c39 0 58 21 67 54h180
c-29 -128 -128 -182 -258 -182z" />
    <glyph glyph-name="uni043F.bgr" horiz-adv-x="627" 
d="M60 349c12 76 17 126 20 174h192c0 -27 -1 -61 -5 -92c37 60 94 107 179 107c97 0 170 -65 146 -223l-50 -315h-197l47 297c9 55 -9 83 -54 83c-51 0 -81 -31 -91 -94l-45 -286h-197z" />
    <glyph glyph-name="uni0448.bgr" horiz-adv-x="919" 
d="M853 164c-11 -69 -16 -120 -13 -164h-193c-3 23 -2 55 1 84c-35 -55 -97 -99 -177 -99c-68 0 -113 33 -132 98c-49 -68 -109 -98 -178 -98c-99 0 -168 66 -144 207l51 331h197l-48 -301c-8 -53 9 -78 48 -78c43 0 72 29 80 82l47 297h194l-47 -302c-9 -52 9 -77 48 -77
c45 0 71 30 79 82l47 297h197z" />
    <glyph glyph-name="uni044E.bgr" horiz-adv-x="852" 
d="M532 -13c-115 0 -225 55 -252 178c-3 11 -4 20 -5 32h-42l-30 -197h-195l116 749h194l-65 -424h33c34 127 141 212 280 212c135 0 266 -75 266 -243c0 -181 -125 -307 -300 -307zM535 132c67 0 99 74 99 171c0 49 -23 89 -71 89c-65 0 -101 -71 -101 -167
c0 -46 17 -93 73 -93z" />
    <glyph glyph-name="nine.old" horiz-adv-x="658" 
d="M350 632c187 0 285 -99 288 -272c0 -32 -2 -63 -9 -99l-6 -35c-36 -223 -166 -332 -355 -332c-141 0 -262 63 -262 222h200c4 -43 24 -63 71 -63c76 0 111 61 136 192c-29 -40 -84 -81 -172 -81c-112 0 -200 65 -200 194c0 169 133 274 309 274zM425 398
c1 47 -26 82 -81 82c-53 0 -94 -44 -94 -105c0 -45 27 -78 78 -78c56 0 97 41 97 101z" />
    <glyph glyph-name="eight.old" horiz-adv-x="664" 
d="M311 -13c-153 0 -291 63 -291 200c0 107 68 170 159 194c-51 27 -80 70 -80 129c0 144 133 216 280 216c121 0 265 -49 265 -193c0 -80 -53 -138 -126 -166c69 -28 103 -83 103 -147c0 -156 -130 -233 -310 -233zM237 215c0 -47 30 -76 83 -76c48 0 91 32 91 93
c0 47 -30 74 -81 74c-49 0 -93 -31 -93 -91zM293 498c0 -39 26 -67 73 -67c43 0 80 28 80 80c0 41 -28 69 -71 69s-82 -30 -82 -82z" />
    <glyph glyph-name="seven.old" horiz-adv-x="580" 
d="M323 445h-276l28 174h553l-4 -23l-363 -688h-226z" />
    <glyph glyph-name="six.old" horiz-adv-x="658" 
d="M324 -12c-179 0 -288 93 -291 265c0 31 4 72 9 104l6 35c35 215 168 334 351 334c139 0 255 -59 255 -216h-199c-3 35 -20 57 -65 57c-67 0 -107 -63 -131 -192c27 40 84 81 171 81c112 0 200 -70 200 -198c0 -176 -136 -270 -306 -270zM246 223c-1 -47 26 -83 81 -83
s94 42 94 105c0 45 -27 78 -78 78c-56 0 -96 -41 -97 -100z" />
    <glyph glyph-name="uni0434.bgr" horiz-adv-x="643" 
d="M298 168c70 0 109 63 109 141c-1 51 -29 86 -77 86c-71 0 -105 -67 -105 -135c0 -55 24 -92 73 -92zM558 31c-24 -153 -106 -225 -293 -225c-196 0 -275 89 -280 198h195c3 -29 24 -62 82 -62c69 0 92 38 99 89l14 82c-33 -52 -83 -82 -159 -82c-109 0 -194 72 -194 216
c0 173 107 291 254 291c80 0 128 -33 151 -88l12 73h197z" />
    <glyph glyph-name="five.old" horiz-adv-x="620" 
d="M192 131c4 -49 27 -78 83 -78s92 43 92 103c0 51 -31 82 -91 82c-53 0 -87 -23 -111 -50h-130l86 431h482l-26 -162h-328l-29 -150c35 39 88 73 167 73c118 0 193 -82 193 -199c0 -179 -122 -285 -309 -285c-148 0 -277 70 -277 235h198z" />
    <glyph glyph-name="uni0438.bgr" horiz-adv-x="627" 
d="M561 164c-11 -69 -16 -120 -13 -164h-192c-3 23 -3 55 0 84c-39 -56 -90 -97 -170 -97c-105 0 -177 64 -153 221l50 315h197l-49 -308c-8 -55 9 -83 52 -83c51 0 81 31 91 94l47 297h196z" />
    <glyph glyph-name="uni043F.locl" horiz-adv-x="627" 
d="M181 712h376l-17 -107h-376zM561 164c-11 -69 -16 -120 -13 -164h-192c-3 23 -3 55 0 84c-39 -56 -90 -97 -170 -97c-105 0 -177 64 -153 221l50 315h197l-49 -308c-8 -55 9 -83 52 -83c51 0 81 31 91 94l47 297h196z" />
    <glyph glyph-name="one.num" horiz-adv-x="297" 
d="M150 574l-89 -45l19 118l114 68h124l-61 -382h-145z" />
    <glyph glyph-name="five.sub" horiz-adv-x="378" 
d="M142 -134c-84 0 -168 33 -171 130h135c1 -15 9 -26 32 -26c19 0 36 13 36 40c0 21 -11 32 -33 32c-19 0 -30 -8 -38 -23h-113l50 236h291l-16 -100h-192l-16 -76c17 24 47 49 103 49c63 0 107 -33 107 -104c-1 -108 -71 -158 -175 -158z" />
    <glyph glyph-name="uni044C.bgr" horiz-adv-x="541" 
d="M255 -10c-169 0 -241 84 -215 253l45 280h194l-26 -168c4 0 37 1 48 1c144 0 217 -56 217 -163c0 -110 -78 -203 -263 -203zM264 115c33 0 58 32 58 72c0 29 -18 51 -53 51h-35l-8 -50c-7 -49 5 -73 38 -73z" />
    <glyph glyph-name="three.old" horiz-adv-x="625" 
d="M288 -104c-175 0 -294 78 -291 248h191c3 -57 29 -93 93 -93c51 1 89 28 89 84c0 47 -28 70 -85 70h-57l22 130h59c51 0 91 19 91 82c0 41 -25 62 -69 62c-47 0 -82 -27 -95 -87h-193c26 143 126 240 302 240c144 0 255 -59 255 -191c0 -88 -52 -146 -135 -170
c68 -23 111 -68 111 -149c0 -145 -132 -226 -288 -226z" />
    <glyph glyph-name="uni0439.bgr" horiz-adv-x="627" 
d="M356 581c-107 0 -165 63 -166 159h127c0 -26 9 -61 44 -61c32 0 44 33 47 61h128c-15 -100 -84 -159 -180 -159zM561 164c-11 -69 -16 -120 -13 -164h-192c-3 23 -3 55 0 84c-39 -56 -90 -97 -170 -97c-105 0 -177 64 -153 221l50 315h197l-49 -308c-8 -55 9 -83 52 -83
c51 0 81 31 91 94l47 297h196z" />
    <glyph glyph-name="uni0414.bgr" horiz-adv-x="761" 
d="M414 535l-157 -359h203zM135 -130h-195l48 306h61l258 539h292l87 -539h62l-49 -306h-196l14 130h-354z" />
    <glyph glyph-name="uni0416.bgr" horiz-adv-x="1026" 
d="M406 309l-222 -309h-238l298 400l-150 315h215l117 -281l44 281h225l-44 -281l211 281h236l-282 -344l167 -371h-230l-123 306l-48 -306h-225z" />
    <glyph glyph-name="uni041A.bgr" horiz-adv-x="746" 
d="M298 299l-47 -299h-228l113 715h228l-43 -271l245 271h242l-315 -342l203 -373h-244z" />
    <glyph glyph-name="uni0436.bgr" horiz-adv-x="840" 
d="M321 240l-152 -240h-209l203 296l-97 227h191l75 -210l69 436h194l-69 -439l142 213h205l-186 -242l108 -281h-205l-75 237l-37 -237h-195z" />
    <glyph glyph-name="two.old" horiz-adv-x="594" 
d="M-31 29l255 215c51 43 150 119 150 178c0 34 -20 51 -59 51c-43 0 -74 -31 -89 -95h-190c24 164 137 254 298 254c160 0 252 -70 252 -189c0 -95 -67 -161 -170 -240l-67 -52h200l-23 -151h-562z" />
    <glyph glyph-name="one.old" horiz-adv-x="444" 
d="M182 410l-139 -76l27 177l175 108h180l-98 -619h-210z" />
    <glyph glyph-name="uni0432.bgr" horiz-adv-x="564" 
d="M258 -13c-173 0 -257 117 -228 280l43 253c27 161 123 242 278 242c150 0 239 -87 226 -206c-9 -88 -68 -153 -155 -168c80 -15 123 -84 112 -171c-13 -139 -117 -230 -276 -230zM343 631c-39 0 -57 -33 -68 -84l-20 -95h42c53 0 80 27 91 94c11 60 -6 85 -45 85z
M263 122c48 0 68 48 76 103c8 67 -15 100 -68 100h-38l-13 -87c-12 -76 -2 -116 43 -116z" />
    <glyph glyph-name="zero.old" horiz-adv-x="680" 
d="M245 308c-4 -23 -5 -43 -5 -60c1 -64 25 -101 92 -101c65 0 98 46 113 142l4 23c3 23 5 42 5 61c0 61 -24 100 -91 100c-64 0 -99 -46 -114 -142zM327 -13c-168 0 -298 92 -298 269c0 20 2 42 5 65l4 23c29 192 158 288 329 288c163 0 297 -93 297 -268
c0 -21 -1 -42 -5 -65l-4 -24c-32 -199 -151 -288 -328 -288z" />
    <glyph glyph-name="uni0424.bgr" horiz-adv-x="931" 
d="M311 -10l9 61c-159 19 -283 104 -283 278v9c0 200 143 330 382 341l7 46h222l-8 -46c160 -19 283 -106 283 -284v-9c0 -197 -143 -324 -381 -335l-10 -61h-221zM255 342c0 -81 30 -125 90 -134l49 318c-93 -8 -139 -85 -139 -178v-6zM705 382c0 83 -29 130 -89 141
l-50 -319c95 11 139 80 139 172v6z" />
    <glyph glyph-name="yen.old" horiz-adv-x="639" 
d="M75 359h129l-127 335h232l54 -210l122 210h215l-226 -335h132l-10 -71h-157l-7 -46h155l-11 -71h-155l-27 -171h-221l27 171h-155l10 71h156l7 46h-155z" />
    <glyph glyph-name="sterling.old" horiz-adv-x="648" 
d="M53 397h44c-3 19 -4 38 -4 59c0 154 121 247 286 247c155 0 270 -59 267 -243h-203c1 55 -15 79 -62 79c-61 0 -78 -53 -78 -113v-29h174l-20 -120h-152c0 -32 -7 -66 -23 -99c33 -8 62 -17 85 -17c35 0 55 18 61 53h196c-16 -128 -91 -223 -231 -223
c-99 0 -163 49 -210 49c-27 0 -43 -17 -47 -40h-160c12 81 52 153 120 182c12 27 18 56 18 88v7h-80z" />
    <glyph glyph-name="Euro.old" horiz-adv-x="706" 
d="M49 438h56c41 167 155 265 327 265c169 0 275 -82 275 -256h-204c0 53 -17 92 -77 92c-57 0 -89 -38 -108 -101h136l-23 -71h-127l-7 -45h120l-23 -72h-103c3 -53 23 -94 87 -94c56 0 88 31 107 104h201c-35 -184 -143 -273 -319 -273c-180 0 -283 102 -286 263h-62
l11 72h55l7 45h-55z" />
    <glyph glyph-name="uni0442.bgr" horiz-adv-x="931" 
d="M60 349c12 76 17 126 20 174h192c0 -27 -1 -58 -5 -89c34 55 97 104 177 104c68 0 113 -33 132 -98c49 68 109 98 178 98c99 0 168 -66 144 -207l-51 -331h-197l48 301c8 53 -9 78 -48 78c-44 0 -71 -27 -80 -82l-47 -297h-194l47 302c9 52 -9 77 -48 77
c-44 0 -71 -30 -79 -82l-47 -297h-197z" />
    <glyph glyph-name="six.sub" horiz-adv-x="404" 
d="M169 -134c-105 0 -181 47 -181 156c0 15 1 32 4 49l2 12c19 111 98 178 206 178c86 0 155 -31 158 -123h-132c-3 13 -9 22 -29 22c-32 0 -49 -32 -60 -79c19 23 46 39 91 39c65 0 116 -35 116 -104c0 -102 -79 -150 -175 -150zM132 -4c0 -19 10 -35 35 -35
c23 0 39 16 39 44c0 20 -11 35 -34 35s-40 -16 -40 -44z" />
    <glyph glyph-name="seven.sub" horiz-adv-x="357" 
d="M143 142h-144l18 113h329l-3 -16l-197 -366h-147z" />
    <glyph glyph-name="eight.sub" horiz-adv-x="393" 
d="M155 -134c-86 0 -180 25 -180 109c0 60 33 87 84 103c-27 15 -45 36 -45 67c0 83 84 116 164 116c83 0 161 -30 161 -105c0 -47 -21 -76 -64 -89c39 -15 57 -44 57 -77c0 -94 -92 -124 -177 -124zM119 -7c0 -17 12 -32 35 -32s40 13 40 38c0 19 -12 33 -35 33
c-21 0 -40 -14 -40 -39zM141 134c0 -19 12 -30 32 -30s36 12 36 35c0 19 -14 30 -33 30c-17 0 -35 -12 -35 -35z" />
    <glyph glyph-name="nine.sub" horiz-adv-x="404" 
d="M174 261c104 0 177 -47 177 -155c0 -16 -1 -34 -4 -51l-2 -12c-17 -115 -82 -177 -205 -177c-86 0 -155 31 -160 123h132c3 -15 8 -22 31 -22c33 0 51 28 59 79c-17 -23 -46 -39 -90 -39c-65 0 -117 33 -117 105c0 99 83 149 179 149zM207 131c0 19 -9 35 -34 35
c-23 0 -39 -17 -39 -45c0 -19 10 -34 33 -34s40 15 40 44z" />
    <glyph glyph-name="hungarumlaut.uc" horiz-adv-x="400" 
d="M164 906h164l-91 -149h-130zM365 906h164l-90 -149h-131z" />
    <glyph glyph-name="dollar.old" horiz-adv-x="632" 
d="M235 -6c-118 16 -222 81 -225 226h194c0 -41 18 -67 55 -80l20 128c-149 32 -215 90 -215 202c0 147 128 230 284 233l14 86h79l-14 -91c115 -16 208 -69 213 -210h-191c-1 35 -19 53 -46 64l-19 -124c136 -29 222 -81 222 -200c0 -159 -124 -237 -291 -240l-19 -119h-80
zM411 197c0 25 -14 40 -55 53l-19 -118c49 4 74 26 74 65zM253 500c0 -27 14 -42 54 -54l18 113c-37 -4 -72 -20 -72 -59z" />
    <glyph glyph-name="tilde.uc" horiz-adv-x="400" 
d="M350 755c-58 0 -89 32 -120 32c-16 0 -30 -11 -33 -30h-110c19 112 76 160 140 160c56 0 88 -32 123 -32c17 0 28 10 34 30h109c-21 -111 -81 -160 -143 -160z" />
    <glyph glyph-name="ring.uc" horiz-adv-x="400" 
d="M294 810c27 0 45 21 45 50s-18 50 -45 50s-45 -19 -45 -51c0 -29 17 -49 45 -49zM294 742c-68 0 -122 53 -122 117c0 66 56 119 122 119c68 0 122 -54 122 -118s-56 -118 -122 -118z" />
    <glyph glyph-name="dotaccent.uc" horiz-adv-x="400" 
d="M292 752c-60 0 -103 39 -103 94c0 56 44 96 103 96s103 -39 103 -95s-44 -95 -103 -95z" />
    <glyph glyph-name="breve.uc" horiz-adv-x="400" 
d="M292 749c-109 0 -166 61 -167 157h124c3 -27 16 -42 45 -42c27 0 44 14 49 42h125c-15 -101 -81 -157 -176 -157z" />
    <glyph glyph-name="caron.uc" horiz-adv-x="400" 
d="M359 757h-164l-92 149h137l48 -47l59 47h145z" />
    <glyph glyph-name="circumflex.uc" horiz-adv-x="400" 
d="M215 906h164l93 -149h-137l-48 47l-60 -47h-144z" />
    <glyph glyph-name="acute.uc" horiz-adv-x="400" 
d="M257 906h201l-115 -149h-150z" />
    <glyph glyph-name="uni041B.bgr" horiz-adv-x="754" 
d="M410 532l-229 -532h-217l339 715h293l111 -715h-236z" />
    <glyph glyph-name="macron.uc" horiz-adv-x="400" 
d="M131 884h332l-18 -115h-332z" />
    <glyph glyph-name="dieresis.uc" horiz-adv-x="400" 
d="M177 752c-51 0 -91 40 -91 89s40 89 92 89c51 0 91 -38 91 -89c0 -49 -40 -89 -92 -89zM404 752c-51 0 -91 40 -91 89s40 89 91 89c52 0 92 -38 92 -89c0 -49 -40 -89 -92 -89z" />
    <glyph glyph-name="grave.uc" horiz-adv-x="400" 
d="M132 906h199l32 -149h-144z" />
    <glyph glyph-name="at.uc" horiz-adv-x="927" 
d="M475 -85c-268 0 -430 180 -430 404c0 270 220 442 459 442c232 0 407 -141 407 -357c0 -204 -114 -280 -229 -280c-83 0 -132 27 -145 80c-27 -51 -74 -81 -141 -81c-92 0 -149 67 -152 172c0 150 90 248 205 248c61 0 91 -25 104 -57l9 49h159l-44 -274
c-7 -40 3 -64 38 -64c54 0 114 58 114 210c0 167 -128 284 -327 284c-205 0 -370 -143 -370 -375c0 -186 115 -330 347 -330c117 0 213 42 260 89h94c-69 -96 -203 -160 -358 -160zM458 249c41 0 74 48 74 112c0 35 -17 58 -54 58c-39 0 -72 -41 -71 -112
c0 -35 16 -58 51 -58z" />
    <glyph glyph-name="bar.uc" horiz-adv-x="270" 
d="M80 776h136v-860h-135z" />
    <glyph glyph-name="backslash.uc" horiz-adv-x="447" 
d="M70 776h149l182 -860h-149z" />
    <glyph glyph-name="slash.uc" horiz-adv-x="440" 
d="M361 776h159l-419 -860h-157z" />
    <glyph glyph-name="braceright.uc" horiz-adv-x="425" 
d="M119 784c204 -1 290 -86 238 -243l-18 -55c-19 -49 5 -78 78 -82l-21 -136c-77 1 -102 -21 -101 -72v-61c3 -176 -97 -231 -316 -231l23 143c75 3 99 28 99 92l2 72c3 76 47 118 123 133c-76 19 -102 71 -79 144l20 65c20 63 1 84 -71 89z" />
    <glyph glyph-name="braceleft.uc" horiz-adv-x="425" 
d="M330 -96c-204 3 -290 87 -238 244l18 55c19 49 -5 78 -78 82l21 136c77 -1 102 21 101 72l-1 61c0 177 97 230 316 230l-22 -142c-75 -5 -99 -26 -99 -92l-3 -72c-3 -76 -46 -118 -122 -133c76 -19 102 -70 79 -145l-20 -65c-20 -63 -1 -83 71 -88z" />
    <glyph glyph-name="bracketright.uc" horiz-adv-x="419" 
d="M3 48h121l94 594h-121l23 142h319l-140 -879h-319z" />
    <glyph glyph-name="bracketleft.uc" horiz-adv-x="419" 
d="M143 784h321l-23 -142h-122l-94 -594h122l-22 -143h-321z" />
    <glyph glyph-name="space_uni0326" horiz-adv-x="400" 
d="M34 -206l47 175l171 -12l-110 -190z" />
    <glyph glyph-name="parenright.uc" horiz-adv-x="362" 
d="M239 785c51 -78 108 -183 108 -344c0 -215 -95 -395 -251 -539h-156c136 179 221 334 221 554c0 137 -34 249 -71 329h149z" />
    <glyph glyph-name="parenleft.uc" horiz-adv-x="362" 
d="M143 -98c-53 74 -108 185 -108 344c0 215 95 395 251 539h156c-136 -179 -221 -334 -221 -554c0 -137 34 -249 71 -329h-149z" />
    <glyph glyph-name="guillemotright.uc" horiz-adv-x="477" 
d="M459 296l-143 -191h-125l142 193l-90 199h118zM277 298l-143 -193h-125l142 197l-86 195h118z" />
    <glyph glyph-name="guillemotleft.uc" horiz-adv-x="477" 
d="M28 306l143 191h125l-142 -193l90 -199h-118zM210 304l143 193h125l-142 -197l86 -195h-118z" />
    <glyph glyph-name="guilsinglright.uc" horiz-adv-x="304" 
d="M284 295l-151 -190h-133l149 191l-84 201h124z" />
    <glyph glyph-name="uni0442.locl" horiz-adv-x="919" 
d="M191 712h642l-17 -107h-642zM853 164c-11 -69 -16 -120 -13 -164h-193c-3 23 -2 55 1 84c-35 -55 -97 -99 -177 -99c-68 0 -113 33 -132 98c-49 -68 -109 -98 -178 -98c-99 0 -168 66 -144 207l51 331h197l-48 -301c-8 -53 9 -78 48 -78c43 0 72 29 80 82l47 297h194
l-47 -302c-9 -52 9 -77 48 -77c45 0 71 30 79 82l47 297h197z" />
    <glyph glyph-name="guilsinglleft.uc" horiz-adv-x="304" 
d="M28 307l152 190h132l-149 -191l84 -201h-123z" />
    <glyph glyph-name="emdash.uc" horiz-adv-x="958" 
d="M65 385h866l-18 -111h-866z" />
    <glyph glyph-name="idotaccent" horiz-adv-x="303" 
d="M211 563c-61 0 -104 42 -104 98c0 57 44 98 105 98c60 0 104 -41 104 -98c0 -56 -46 -98 -105 -98zM93 523h197l-83 -523h-196z" />
    <glyph glyph-name="endash.uc" horiz-adv-x="543" 
d="M65 385h451l-18 -111h-451z" />
    <glyph glyph-name="plus.sub" horiz-adv-x="361" 
d="M90 22h-95l16 99h95l16 99h102l-16 -99h95l-16 -99h-95l-15 -98h-102z" />
    <glyph glyph-name="exclamdown.uc" horiz-adv-x="343" 
d="M240 0h-221l105 474h163zM227 726c64 0 109 -44 109 -104c0 -58 -48 -106 -111 -106c-64 0 -111 45 -111 105s50 105 113 105z" />
    <glyph glyph-name="questiondown.uc" horiz-adv-x="568" 
d="M432 456c-14 -81 -69 -121 -118 -159c-45 -35 -86 -59 -86 -103c1 -29 18 -44 49 -44c39 0 63 27 74 80h192c-19 -163 -139 -239 -288 -239c-159 0 -240 72 -240 183c0 90 48 139 102 179c51 38 114 70 132 122h186zM365 727c64 0 109 -43 109 -103
c0 -59 -48 -108 -111 -108c-64 0 -111 46 -111 106c0 59 50 105 113 105z" />
    <glyph glyph-name="caron.alt" horiz-adv-x="400" 
d="M229 750h139l-75 -175h-99z" />
    <glyph glyph-name="registered.alt" horiz-adv-x="842" 
d="M268 563h169c114 0 171 -44 171 -133v-2c0 -56 -26 -87 -65 -106l89 -164h-138l-72 136h-20v-136h-134v405zM429 380c33 0 49 14 49 41v3c0 25 -16 38 -48 38h-28v-82h27zM433 31c178 0 323 132 323 328c0 193 -141 325 -321 325c-181 0 -323 -133 -323 -327
c0 -196 145 -326 321 -326zM433 -21c-214 0 -386 163 -386 378c0 212 171 379 388 379c219 0 386 -165 386 -377c0 -216 -171 -380 -388 -380z" />
    <glyph glyph-name="space_uni0326.alt" horiz-adv-x="400" 
d="M382 740l-47 -175l-171 12l110 190z" />
    <glyph glyph-name="tcommaaccent.alt" horiz-adv-x="389" 
d="M-1 -206l47 175l171 -12l-110 -190zM101 391h-70l20 132h71l17 107h197l-17 -107h92l-20 -132h-93l-61 -391h-197z" />
    <glyph glyph-name="tcaron.alt" horiz-adv-x="389" 
d="M101 391h-70l20 132h71l17 107h197l-17 -107h92l-20 -132h-93l-61 -391h-197zM401 750h139l-75 -175h-99z" />
    <glyph glyph-name="tbar.alt" horiz-adv-x="389" 
d="M22 331h69l10 60h-70l20 132h71l17 107h197l-17 -107h92l-20 -132h-93l-10 -60h93l-17 -106h-92l-35 -225h-197l35 225h-70z" />
    <glyph glyph-name="germandbls.alt" horiz-adv-x="699" 
d="M460 -9c-117 0 -214 45 -211 173h162c0 -36 13 -50 37 -50c21 0 35 11 35 38c0 29 -30 37 -75 66c-48 27 -99 71 -99 130c0 112 144 152 144 216c0 35 -26 52 -69 52c-51 0 -89 -25 -100 -93l-82 -523h-197l83 527c27 165 146 235 307 235c124 0 250 -42 250 -170
c0 -126 -148 -166 -148 -201c0 -16 11 -23 67 -58c63 -42 105 -84 105 -164c0 -116 -82 -178 -209 -178z" />
    <glyph glyph-name="uni043A.bgr" horiz-adv-x="588" 
d="M238 230l-36 -230h-197l119 749h196l-67 -427l160 201h211l-208 -242l130 -281h-211z" />
    <glyph glyph-name="uni043D.bgr" horiz-adv-x="624" 
d="M367 195h-132l-31 -195h-196l82 523h196l-30 -196h132l31 196h195l-82 -523h-196z" />
    <glyph glyph-name="atilde.alt" horiz-adv-x="638" 
d="M323 393c-61 0 -103 -64 -103 -163c0 -60 23 -97 74 -97c61 0 104 71 104 165c0 60 -26 95 -75 95zM204 -13c-110 0 -186 79 -186 223c0 207 113 327 249 327c81 0 133 -38 153 -93l12 79h197l-56 -359c-11 -69 -15 -119 -11 -164h-195c-4 23 -4 58 -3 86
c-37 -63 -85 -99 -160 -99zM430 581c-59 0 -86 32 -118 32c-16 0 -28 -11 -33 -30h-103c17 112 67 162 132 162c55 0 87 -32 121 -32c16 0 27 10 32 31h104c-19 -113 -72 -163 -135 -163z" />
    <glyph glyph-name="aringacute.alt" horiz-adv-x="638" 
d="M323 393c-61 0 -103 -64 -103 -163c0 -60 23 -97 74 -97c61 0 104 71 104 165c0 60 -26 95 -75 95zM204 -13c-110 0 -186 79 -186 223c0 207 113 327 249 327c81 0 133 -38 153 -93l12 79h197l-56 -359c-11 -69 -15 -119 -11 -164h-195c-4 23 -4 58 -3 86
c-37 -63 -85 -99 -160 -99zM365 638c27 0 45 20 45 49c0 28 -17 48 -44 48s-45 -20 -45 -49c0 -28 17 -48 44 -48zM365 570c-66 0 -120 52 -120 116s54 117 121 117c66 0 120 -52 120 -116c0 -65 -54 -117 -121 -117zM370 978h201l-115 -149h-150z" />
    <glyph glyph-name="aring.alt" horiz-adv-x="638" 
d="M323 393c-61 0 -103 -64 -103 -163c0 -60 23 -97 74 -97c61 0 104 71 104 165c0 60 -26 95 -75 95zM204 -13c-110 0 -186 79 -186 223c0 207 113 327 249 327c81 0 133 -38 153 -93l12 79h197l-56 -359c-11 -69 -15 -119 -11 -164h-195c-4 23 -4 58 -3 86
c-37 -63 -85 -99 -160 -99zM365 642c27 0 45 20 45 49c0 28 -17 48 -44 48s-45 -20 -45 -49c0 -28 17 -48 44 -48zM365 574c-66 0 -120 52 -120 116s54 117 121 117c66 0 120 -52 120 -116c0 -65 -54 -117 -121 -117z" />
    <glyph glyph-name="uni0433.locl" horiz-adv-x="302" 
d="M95 712h255l-17 -107h-255zM93 523h197l-83 -523h-196z" />
    <glyph glyph-name="uni0446.bgr" horiz-adv-x="649" 
d="M427 -127l10 127h-81c-3 23 -3 55 0 84c-39 -56 -90 -97 -170 -97c-105 0 -177 64 -153 221l50 315h197l-49 -308c-8 -55 9 -83 52 -83c51 0 81 31 91 94l47 297h196l-60 -391h73l-41 -259h-162z" />
    <glyph glyph-name="uni0447.bgr" horiz-adv-x="589" 
d="M300 0l36 227c-29 -32 -75 -64 -144 -64c-112 0 -167 73 -144 216l22 144h197l-22 -142c-8 -51 6 -82 50 -82c22 0 40 5 53 14l36 210h195l-83 -523h-196z" />
    <glyph glyph-name="aogonek.alt" horiz-adv-x="638" 
d="M466 -182c-58 0 -115 19 -115 79c0 54 55 87 97 103h-81c-4 23 -4 58 -3 86c-37 -63 -85 -99 -160 -99c-110 0 -186 79 -186 223c0 207 113 327 249 327c81 0 133 -38 153 -93l12 79h197l-56 -359c-11 -65 -15 -113 -12 -156c-25 -23 -53 -44 -53 -71c0 -15 9 -22 28 -22
c9 0 18 1 25 3l-14 -85c-17 -7 -42 -15 -81 -15zM323 393c-61 0 -103 -64 -103 -163c0 -60 23 -97 74 -97c61 0 104 71 104 165c0 60 -26 95 -75 95z" />
    <glyph glyph-name="uni043B.bgr" horiz-adv-x="584" 
d="M538 0h-205l-38 311l-141 -311h-194l270 523h210z" />
    <glyph glyph-name="amacron.alt" horiz-adv-x="638" 
d="M323 393c-61 0 -103 -64 -103 -163c0 -60 23 -97 74 -97c61 0 104 71 104 165c0 60 -26 95 -75 95zM204 -13c-110 0 -186 79 -186 223c0 207 113 327 249 327c81 0 133 -38 153 -93l12 79h197l-56 -359c-11 -69 -15 -119 -11 -164h-195c-4 23 -4 58 -3 86
c-37 -63 -85 -99 -160 -99zM221 712h316l-17 -107h-316z" />
    <glyph glyph-name="agrave.alt" horiz-adv-x="638" 
d="M323 393c-61 0 -103 -64 -103 -163c0 -60 23 -97 74 -97c61 0 104 71 104 165c0 60 -26 95 -75 95zM204 -13c-110 0 -186 79 -186 223c0 207 113 327 249 327c81 0 133 -38 153 -93l12 79h197l-56 -359c-11 -69 -15 -119 -11 -164h-195c-4 23 -4 58 -3 86
c-37 -63 -85 -99 -160 -99zM200 747h192l38 -169h-137z" />
    <glyph glyph-name="adieresis.alt" horiz-adv-x="638" 
d="M323 393c-61 0 -103 -64 -103 -163c0 -60 23 -97 74 -97c61 0 104 71 104 165c0 60 -26 95 -75 95zM204 -13c-110 0 -186 79 -186 223c0 207 113 327 249 327c81 0 133 -38 153 -93l12 79h197l-56 -359c-11 -69 -15 -119 -11 -164h-195c-4 23 -4 58 -3 86
c-37 -63 -85 -99 -160 -99zM258 570c-51 0 -91 39 -91 89c0 49 40 89 92 89c51 0 91 -40 91 -89s-40 -89 -92 -89zM475 570c-51 0 -90 39 -90 89c0 49 39 89 90 89c52 0 92 -40 92 -89s-40 -89 -92 -89z" />
    <glyph glyph-name="acircumflex.alt" horiz-adv-x="638" 
d="M323 393c-61 0 -103 -64 -103 -163c0 -60 23 -97 74 -97c61 0 104 71 104 165c0 60 -26 95 -75 95zM204 -13c-110 0 -186 79 -186 223c0 207 113 327 249 327c81 0 133 -38 153 -93l12 79h197l-56 -359c-11 -69 -15 -119 -11 -164h-195c-4 23 -4 58 -3 86
c-37 -63 -85 -99 -160 -99zM312 746h137l99 -166h-132l-49 53l-63 -53h-139z" />
    <glyph glyph-name="abreve.alt" horiz-adv-x="638" 
d="M323 393c-61 0 -103 -64 -103 -163c0 -60 23 -97 74 -97c61 0 104 71 104 165c0 60 -26 95 -75 95zM204 -13c-110 0 -186 79 -186 223c0 207 113 327 249 327c81 0 133 -38 153 -93l12 79h197l-56 -359c-11 -69 -15 -119 -11 -164h-195c-4 23 -4 58 -3 86
c-37 -63 -85 -99 -160 -99zM363 581c-104 0 -168 59 -164 163h118c2 -30 18 -45 48 -45c31 0 48 15 52 45h120c-15 -107 -78 -163 -174 -163z" />
    <glyph glyph-name="aacute.alt" horiz-adv-x="638" 
d="M323 393c-61 0 -103 -64 -103 -163c0 -60 23 -97 74 -97c61 0 104 71 104 165c0 60 -26 95 -75 95zM204 -13c-110 0 -186 79 -186 223c0 207 113 327 249 327c81 0 133 -38 153 -93l12 79h197l-56 -359c-11 -69 -15 -119 -11 -164h-195c-4 23 -4 58 -3 86
c-37 -63 -85 -99 -160 -99zM351 747h194l-125 -169h-142z" />
    <glyph glyph-name="minus.sup" horiz-adv-x="361" 
d="M82 639h293l-16 -100h-293z" />
    <glyph glyph-name="plus.sup" horiz-adv-x="361" 
d="M162 539h-96l16 100h96l15 98h102l-15 -98h95l-16 -100h-95l-15 -97h-102z" />
    <glyph glyph-name="nine.sup" horiz-adv-x="404" 
d="M252 780c104 0 177 -47 177 -155c0 -16 -1 -34 -4 -51l-2 -12c-17 -115 -82 -177 -205 -177c-86 0 -155 31 -160 123h132c3 -15 8 -22 31 -22c33 0 51 28 59 79c-17 -23 -46 -39 -90 -39c-65 0 -117 33 -117 105c0 99 83 149 179 149zM285 650c0 19 -9 35 -34 35
c-23 0 -39 -17 -39 -45c0 -19 10 -34 33 -34s40 15 40 44z" />
    <glyph glyph-name="eight.sup" horiz-adv-x="393" 
d="M233 385c-86 0 -180 25 -180 109c0 60 33 87 84 103c-27 15 -45 36 -45 67c0 83 84 116 164 116c83 0 161 -30 161 -105c0 -47 -21 -76 -64 -89c39 -15 57 -44 57 -77c0 -94 -92 -124 -177 -124zM197 512c0 -17 12 -32 35 -32s40 13 40 38c0 19 -12 33 -35 33
c-21 0 -40 -14 -40 -39zM219 653c0 -19 12 -30 32 -30s36 12 36 35c0 19 -14 30 -33 30c-17 0 -35 -12 -35 -35z" />
    <glyph glyph-name="seven.sup" horiz-adv-x="357" 
d="M221 661h-144l18 113h329l-3 -16l-197 -366h-147z" />
    <glyph glyph-name="six.sup" horiz-adv-x="404" 
d="M247 385c-105 0 -181 47 -181 156c0 15 1 32 4 49l2 12c19 111 98 178 206 178c86 0 155 -31 158 -123h-132c-3 13 -9 22 -29 22c-32 0 -49 -32 -60 -79c19 23 46 39 91 39c65 0 116 -35 116 -104c0 -102 -79 -150 -175 -150zM210 515c0 -19 10 -35 35 -35
c23 0 39 16 39 44c0 20 -11 35 -34 35s-40 -16 -40 -44z" />
    <glyph glyph-name="uni0430.alt" horiz-adv-x="637" 
d="M323 393c-61 0 -103 -64 -103 -163c0 -60 23 -97 74 -97c61 0 104 71 104 165c0 60 -26 95 -75 95zM204 -13c-110 0 -186 79 -186 223c0 207 113 327 249 327c81 0 133 -38 153 -93l12 79h197l-56 -359c-11 -69 -15 -119 -11 -164h-195c-4 23 -4 58 -3 86
c-37 -63 -85 -99 -160 -99z" />
    <glyph glyph-name="five.sup" horiz-adv-x="378" 
d="M222 385c-84 0 -168 33 -171 130h135c1 -15 9 -26 32 -26c19 0 36 13 36 40c0 21 -11 32 -33 32c-19 0 -30 -8 -38 -23h-113l50 236h291l-16 -100h-192l-16 -76c17 24 47 49 103 49c63 0 107 -33 107 -104c-1 -108 -71 -158 -175 -158z" />
    <glyph glyph-name="uni0434.locl" horiz-adv-x="643" 
d="M298 168c70 0 109 63 109 141c-1 51 -29 86 -77 86c-71 0 -105 -67 -105 -135c0 -55 24 -92 73 -92zM558 31c-24 -153 -106 -225 -293 -225c-196 0 -275 89 -280 198h195c3 -29 24 -62 82 -62c69 0 92 38 99 89l14 82c-33 -52 -83 -82 -159 -82c-109 0 -194 72 -194 216
c0 173 107 291 254 291c80 0 128 -33 151 -88l12 73h197z" />
    <glyph glyph-name="four.sup" horiz-adv-x="408" 
d="M228 462h-189l9 54l197 258h173l-34 -218h48l-15 -94h-48l-11 -70h-141zM248 556l19 120l-88 -120h69z" />
    <glyph glyph-name="three.sup" horiz-adv-x="385" 
d="M225 385c-101 0 -171 40 -172 137h128c0 -25 13 -38 38 -38c17 0 36 9 36 33c0 18 -14 27 -41 27h-29l12 79h35c27 0 41 11 41 32c0 15 -7 26 -30 26c-19 0 -36 -11 -41 -35h-126c12 84 76 134 180 134c72 0 153 -24 153 -104c0 -48 -30 -78 -77 -91c39 -9 65 -31 65 -78
c0 -85 -80 -122 -172 -122z" />
    <glyph glyph-name="two.sup" horiz-adv-x="366" 
d="M24 410l149 133c38 32 87 77 87 104c0 19 -8 28 -25 28c-20 0 -35 -15 -43 -51h-132c15 105 87 156 186 156c85 0 157 -30 157 -117c0 -55 -41 -96 -104 -148l-24 -20h103l-16 -103h-341z" />
    <glyph glyph-name="one.sup" horiz-adv-x="297" 
d="M157 633l-89 -45l19 118l114 68h124l-61 -382h-145z" />
    <glyph glyph-name="zero.sup" horiz-adv-x="435" 
d="M210 552c0 -33 10 -58 45 -58c52 0 63 76 63 120c0 35 -10 58 -45 58c-53 0 -63 -83 -63 -120zM249 385c-107 0 -183 56 -183 162c0 132 80 233 214 233c107 0 182 -55 182 -162c0 -135 -78 -233 -213 -233z" />
    <glyph glyph-name="minus.sub" horiz-adv-x="361" 
d="M11 121h292l-16 -99h-292z" />
    <glyph glyph-name="uni02BC" unicode="&#x2bc;" horiz-adv-x="307" 
d="M73 458l100 270l168 -56l-161 -255z" />
    </font>
</defs>
</svg>
