<?xml version="1.0" standalone="no"?>
<!DOCTYPE svg PUBLIC "-//W3C//DTD SVG 1.1//EN" "http://www.w3.org/Graphics/SVG/1.1/DTD/svg11.dtd" >
<svg xmlns="http://www.w3.org/2000/svg" xmlns:xlink="http://www.w3.org/1999/xlink" version="1.1">
<metadata>
Created by FontForge 20190801 at Mon Jul  4 10:35:07 2016
 By Jimmy Wärting
LCG stand for Latin, Cyrillic and Greek.
</metadata>
<defs>
<font id="GraphikLCG-Black" horiz-adv-x="600" >
  <font-face 
    font-family="Graphik LCG"
    font-weight="900"
    font-stretch="normal"
    units-per-em="1000"
    panose-1="2 11 10 3 3 2 2 6 2 3"
    ascent="826"
    descent="-174"
    x-height="523"
    cap-height="715"
    bbox="-255 -233 1217 1142"
    underline-thickness="50"
    underline-position="-100"
    stemh="137"
    stemv="197"
    unicode-range="U+000D-FB02"
  />
<missing-glyph horiz-adv-x="523" 
 />
    <glyph glyph-name="f_f" unicode="ff" horiz-adv-x="731" 
d="M75 391h-64v132h64v33c0 136 86 196 213 196c35 0 60 -4 83 -11v-142c-12 4 -25 7 -44 7c-39 0 -55 -22 -55 -51v-32h141v39c0 136 87 196 215 196c35 0 60 -4 85 -11v-141c-12 3 -27 6 -47 6c-39 0 -56 -22 -56 -51v-38h102v-132h-102v-391h-197v391h-141v-391h-197v391
z" />
    <glyph glyph-name=".notdef" horiz-adv-x="523" 
 />
    <glyph glyph-name="NULL" horiz-adv-x="0" 
 />
    <glyph glyph-name="NULL" horiz-adv-x="0" 
 />
    <glyph glyph-name="CR" unicode="&#xd;" horiz-adv-x="185" 
 />
    <glyph glyph-name="space" unicode=" " horiz-adv-x="185" 
 />
    <glyph glyph-name="exclam" unicode="!" horiz-adv-x="342" 
d="M171 -12c-63 0 -114 46 -114 105s51 106 114 106s115 -47 115 -106s-52 -105 -115 -105zM61 715h221l-29 -474h-164z" />
    <glyph glyph-name="quotedbl" unicode="&#x22;" horiz-adv-x="478" 
d="M37 715h183l-22 -281h-139zM258 715h183l-22 -281h-139z" />
    <glyph glyph-name="numbersign" unicode="#" horiz-adv-x="589" 
d="M294 234h-57l-20 -135h-130l20 135h-66v154h89l9 65h-75v146h97l18 116h130l-18 -116h56l18 116h131l-18 -116h70v-146h-92l-9 -65h78v-154h-101l-20 -135h-130zM260 388h56l10 65h-57z" />
    <glyph glyph-name="dollar" unicode="$" horiz-adv-x="651" 
d="M289 -10c-175 12 -262 101 -269 237h199c4 -43 23 -74 70 -85v130c-183 24 -255 89 -255 228c0 124 96 213 255 224v89h81v-90c149 -12 238 -79 249 -220h-195c-4 35 -17 57 -54 68v-123c156 -21 259 -71 259 -218c0 -124 -78 -229 -259 -240v-125h-81v125zM227 517
c0 -32 15 -47 62 -58v115c-41 -7 -62 -26 -62 -57zM430 203c0 29 -15 44 -60 55v-118c41 9 60 32 60 63z" />
    <glyph glyph-name="percent" unicode="%" horiz-adv-x="835" 
d="M218 472c35 0 52 28 52 72s-17 71 -52 71s-53 -27 -53 -70c0 -47 18 -73 53 -73zM217 360c-124 0 -194 80 -194 184c0 102 83 179 195 179c110 0 193 -72 193 -176c0 -105 -74 -187 -194 -187zM622 715h102l-508 -715h-101zM618 99c35 0 52 28 52 72s-17 71 -52 71
s-53 -27 -53 -70c0 -47 18 -73 53 -73zM617 -13c-124 0 -193 80 -193 184c0 102 82 179 194 179s194 -72 194 -176c0 -105 -74 -187 -195 -187z" />
    <glyph glyph-name="ampersand" unicode="&#x26;" horiz-adv-x="777" 
d="M649 146l119 -146h-255l-37 46c-45 -33 -99 -59 -192 -59c-156 0 -256 80 -256 220c0 88 53 158 156 206c-29 43 -40 89 -40 121c0 124 108 191 241 191c119 0 225 -57 225 -170c0 -77 -43 -133 -142 -176l79 -97l46 91h171zM321 145c22 0 41 7 57 22l-105 127
c-19 -15 -36 -33 -36 -66c0 -47 27 -83 84 -83zM335 531c0 -24 15 -46 39 -73c43 21 64 47 64 78s-18 52 -49 52s-54 -22 -54 -57z" />
    <glyph glyph-name="quotesingle" unicode="'" horiz-adv-x="264" 
d="M37 715h190l-22 -281h-146z" />
    <glyph glyph-name="parenleft" unicode="(" horiz-adv-x="362" 
d="M202 -148c-74 90 -167 233 -167 462c0 227 93 371 167 461h150c-61 -101 -130 -251 -130 -461c0 -211 68 -362 130 -462h-150z" />
    <glyph glyph-name="parenright" unicode=")" horiz-adv-x="362" 
d="M10 -148c62 100 130 252 130 461c0 212 -68 360 -130 462h150c74 -90 167 -234 167 -462c0 -227 -93 -371 -167 -461h-150z" />
    <glyph glyph-name="asterisk" unicode="*" horiz-adv-x="444" 
d="M52 446l90 86l-116 10l37 134l108 -54l-26 121h154l-26 -121l108 54l36 -134l-116 -10l90 -86l-117 -83l-53 114l-52 -114z" />
    <glyph glyph-name="plus" unicode="+" horiz-adv-x="579" 
d="M211 269h-173v142h173v189h157v-189h174v-142h-174v-190h-157v190z" />
    <glyph glyph-name="comma" unicode="," horiz-adv-x="311" 
d="M13 -79l81 272l182 -63l-148 -252z" />
    <glyph glyph-name="hyphen" unicode="-" horiz-adv-x="390" 
d="M49 360h292v-146h-292v146z" />
    <glyph glyph-name="period" unicode="." horiz-adv-x="302" 
d="M150 -12c-63 0 -110 48 -110 108s46 107 110 107s112 -48 112 -107c0 -60 -48 -108 -112 -108z" />
    <glyph glyph-name="slash" unicode="/" horiz-adv-x="440" 
d="M292 776h155l-322 -924h-155z" />
    <glyph glyph-name="zero" unicode="0" horiz-adv-x="741" 
d="M373 162c80 0 111 58 111 183v26c0 125 -33 183 -113 183c-81 0 -114 -57 -114 -182v-28c0 -125 32 -182 116 -182zM366 -13c-206 0 -334 128 -334 356v28c0 228 147 355 338 355c189 0 339 -114 339 -350v-27c0 -230 -134 -362 -343 -362z" />
    <glyph glyph-name="one" unicode="1" horiz-adv-x="459" 
d="M163 492l-132 -79v188l164 114h195v-715h-227v492z" />
    <glyph glyph-name="two" unicode="2" horiz-adv-x="626" 
d="M7 31l243 258c72 77 120 136 120 196c0 41 -20 71 -65 71c-47 0 -74 -28 -83 -108h-204c7 187 118 278 298 278c182 0 277 -98 277 -231c0 -100 -53 -173 -133 -248l-82 -79h221v-168h-592v31z" />
    <glyph glyph-name="three" unicode="3" horiz-adv-x="661" 
d="M333 -13c-207 0 -300 92 -307 253h201c5 -56 28 -91 92 -91c56 0 81 25 81 72c0 48 -25 73 -84 73h-57v137h54c60 0 87 25 87 72c0 37 -24 62 -72 62c-49 0 -76 -29 -84 -84h-200c11 147 103 245 290 245c175 0 278 -75 278 -198c0 -80 -46 -131 -123 -154
c84 -15 140 -74 140 -159c0 -136 -101 -228 -296 -228z" />
    <glyph glyph-name="four" unicode="4" horiz-adv-x="689" 
d="M360 134h-346v86l294 495h270v-426h90v-155h-90v-134h-218v134zM366 289v255l-144 -255h144z" />
    <glyph glyph-name="five" unicode="5" horiz-adv-x="639" 
d="M311 -13c-196 0 -285 106 -288 243h205c5 -44 23 -73 82 -73c52 0 72 40 72 88c0 57 -30 90 -86 90c-55 0 -89 -21 -109 -48h-139l18 428h497v-164h-335l-5 -146c27 40 79 80 171 80c132 0 215 -87 215 -244c0 -153 -109 -254 -298 -254z" />
    <glyph glyph-name="six" unicode="6" horiz-adv-x="685" 
d="M358 -13c-235 0 -326 146 -326 355v19c0 228 143 365 328 365c171 0 268 -74 283 -219h-208c-5 31 -18 52 -65 52c-73 0 -110 -60 -114 -171c32 48 74 81 164 81c128 0 238 -74 238 -229c0 -151 -113 -253 -300 -253zM354 146c52 0 84 40 84 93c0 52 -31 91 -83 91
s-85 -40 -85 -91c0 -53 32 -93 84 -93z" />
    <glyph glyph-name="seven" unicode="7" horiz-adv-x="586" 
d="M297 531h-274v184h557v-23l-244 -692h-231z" />
    <glyph glyph-name="eight" unicode="8" horiz-adv-x="666" 
d="M333 -13c-192 0 -308 75 -308 214c0 80 42 144 130 175c-63 27 -100 74 -100 146c0 131 125 204 280 204c160 0 279 -72 279 -202c0 -73 -39 -120 -100 -147c87 -31 127 -90 127 -170c0 -137 -116 -220 -308 -220zM334 145c51 0 86 30 86 81c0 49 -34 82 -86 82
c-51 0 -87 -30 -87 -82c0 -51 36 -81 87 -81zM335 431c43 0 77 28 77 72s-34 72 -77 72c-41 0 -76 -28 -76 -72c0 -43 35 -72 76 -72z" />
    <glyph glyph-name="nine" unicode="9" horiz-adv-x="685" 
d="M327 -12c-175 0 -277 78 -290 219h207c5 -31 24 -52 71 -52c80 0 110 58 113 169c-32 -48 -69 -82 -158 -82c-137 0 -243 74 -243 230c0 151 115 255 302 255c221 0 324 -150 324 -356v-20c0 -232 -115 -363 -326 -363zM326 385c52 0 86 39 86 90c0 53 -33 93 -86 93
c-51 0 -84 -40 -84 -93c0 -51 32 -90 84 -90z" />
    <glyph glyph-name="colon" unicode=":" horiz-adv-x="308" 
d="M152 -12c-64 0 -109 47 -109 108c0 60 45 107 109 107c65 0 113 -48 113 -107c0 -61 -48 -108 -113 -108zM152 272c-64 0 -109 47 -109 107s45 108 109 108c65 0 113 -48 113 -108s-48 -107 -113 -107z" />
    <glyph glyph-name="semicolon" unicode=";" horiz-adv-x="326" 
d="M8 -79l81 272l182 -63l-148 -252zM178 272c-63 0 -110 47 -110 107s47 108 110 108c64 0 112 -48 112 -108s-48 -107 -112 -107z" />
    <glyph glyph-name="less" unicode="&#x3c;" horiz-adv-x="514" 
d="M40 304v37l428 251v-178l-177 -90l177 -99v-172z" />
    <glyph glyph-name="equal" unicode="=" horiz-adv-x="570" 
d="M38 293h493v-131h-493v131zM38 492h493v-131h-493v131z" />
    <glyph glyph-name="greater" unicode="&#x3e;" horiz-adv-x="514" 
d="M46 231l177 91l-177 99v172l428 -252v-36l-428 -251v177z" />
    <glyph glyph-name="question" unicode="?" horiz-adv-x="569" 
d="M167 254c0 76 53 124 97 166c35 32 64 59 64 94s-18 52 -53 52c-37 0 -62 -29 -69 -80h-192c5 157 117 240 277 240c159 0 251 -68 251 -193c0 -64 -29 -108 -68 -147c-50 -50 -110 -89 -120 -136v-9h-187v13zM261 -12c-65 0 -116 46 -116 105s51 106 116 106
c63 0 114 -47 114 -106s-51 -105 -114 -105z" />
    <glyph glyph-name="at" unicode="@" horiz-adv-x="922" 
d="M461 -160c-271 0 -435 180 -435 410c0 267 217 441 454 441s416 -142 416 -364c0 -200 -109 -277 -221 -277c-88 0 -137 27 -153 80c-25 -52 -67 -82 -131 -82c-100 0 -164 72 -164 188c0 143 89 235 198 235c61 0 92 -25 107 -57l7 49h159l-34 -276c-7 -39 7 -64 42 -64
c56 0 108 59 108 207c0 173 -131 291 -332 291c-205 0 -370 -144 -370 -373c0 -192 119 -338 352 -338c117 0 213 42 261 90h94c-69 -96 -203 -160 -358 -160zM444 175c41 0 72 45 72 109c0 39 -19 63 -58 63c-41 0 -68 -43 -68 -103c0 -39 17 -69 54 -69z" />
    <glyph glyph-name="A" unicode="A" horiz-adv-x="760" 
d="M234 715h293l224 -715h-240l-33 119h-226l-32 -119h-211zM295 273h141l-70 259z" />
    <glyph glyph-name="B" unicode="B" horiz-adv-x="690" 
d="M65 715h338c176 0 244 -81 244 -187v-4c0 -84 -44 -135 -124 -154c84 -15 143 -67 143 -167v-4c0 -127 -81 -199 -265 -199h-336v715zM358 149c59 0 85 27 85 75v4c0 47 -26 73 -90 73h-67v-152h72zM355 436c56 0 78 19 78 63v4c0 43 -23 64 -79 64h-68v-131h69z" />
    <glyph glyph-name="C" unicode="C" horiz-adv-x="764" 
d="M408 -13c-259 0 -380 147 -380 366v8c0 221 158 365 370 365c192 0 324 -88 340 -282h-234c-7 67 -41 103 -105 103c-83 0 -132 -64 -132 -185v-8c0 -120 48 -185 136 -185c64 0 110 33 118 105h226c-13 -188 -149 -287 -339 -287z" />
    <glyph glyph-name="D" unicode="D" horiz-adv-x="751" 
d="M330 174c112 0 158 55 158 180v8c0 131 -50 179 -159 179h-37v-367h38zM65 715h273c257 0 386 -121 386 -349v-7c0 -229 -133 -359 -386 -359h-273v715z" />
    <glyph glyph-name="E" unicode="E" horiz-adv-x="620" 
d="M65 715h508v-174h-282v-101h224v-159h-224v-107h298v-174h-524v715z" />
    <glyph glyph-name="F" unicode="F" horiz-adv-x="585" 
d="M65 715h495v-175h-268v-133h216v-167h-216v-240h-227v715z" />
    <glyph glyph-name="G" unicode="G" horiz-adv-x="791" 
d="M407 -13c-248 0 -380 151 -380 366v8c0 220 164 365 380 365c174 0 327 -79 340 -270h-224c-8 60 -44 92 -115 92c-91 0 -145 -70 -145 -191v-8c0 -105 35 -190 151 -190c90 0 124 44 129 91h-122v149h343v-92c0 -178 -117 -320 -357 -320z" />
    <glyph glyph-name="H" unicode="H" horiz-adv-x="794" 
d="M65 715h227v-264h210v264h227v-715h-227v275h-210v-275h-227v715z" />
    <glyph glyph-name="I" unicode="I" horiz-adv-x="366" 
d="M68 715h229v-715h-229v715z" />
    <glyph glyph-name="J" unicode="J" horiz-adv-x="489" 
d="M168 -9c-71 0 -105 10 -136 25v167c23 -7 46 -13 85 -13c53 0 90 22 90 93v452h227v-453c0 -179 -86 -271 -266 -271z" />
    <glyph glyph-name="K" unicode="K" horiz-adv-x="745" 
d="M65 715h227v-271l198 271h235l-251 -330l265 -385h-261l-186 286v-286h-227v715z" />
    <glyph glyph-name="L" unicode="L" horiz-adv-x="582" 
d="M65 715h227v-540h260v-175h-487v715z" />
    <glyph glyph-name="M" unicode="M" horiz-adv-x="958" 
d="M65 715h294l121 -347l123 347h288v-715h-225v422l-163 -422h-76l-160 422v-422h-202v715z" />
    <glyph glyph-name="N" unicode="N" horiz-adv-x="787" 
d="M65 715h254l203 -378v378h199v-715h-217l-239 428v-428h-200v715z" />
    <glyph glyph-name="O" unicode="O" horiz-adv-x="820" 
d="M411 165c89 0 146 69 146 189v8c0 121 -57 187 -148 187c-88 0 -145 -64 -145 -187v-8c0 -123 56 -189 147 -189zM405 -13c-235 0 -378 149 -378 366v8c0 221 168 365 382 365c220 0 384 -133 384 -359v-8c0 -223 -153 -372 -388 -372z" />
    <glyph glyph-name="P" unicode="P" horiz-adv-x="664" 
d="M65 715h285c205 0 294 -92 294 -245v-4c0 -149 -97 -233 -284 -233h-69v-233h-226v715zM338 385c61 0 91 27 91 80v4c0 56 -30 77 -90 77h-48v-161h47z" />
    <glyph glyph-name="Q" unicode="Q" horiz-adv-x="820" 
d="M487 -6c-27 -4 -54 -7 -82 -7c-235 0 -378 149 -378 366v8c0 220 168 364 382 364c220 0 385 -131 385 -358v-8c0 -125 -48 -227 -132 -292l67 -67l-124 -126zM263 354c0 -99 34 -160 90 -183l110 98l55 -57c26 34 39 82 39 143v8c0 121 -57 186 -148 186
c-89 0 -146 -63 -146 -187v-8z" />
    <glyph glyph-name="R" unicode="R" horiz-adv-x="710" 
d="M65 715h292c199 0 299 -79 299 -232v-4c0 -99 -50 -155 -121 -187l163 -292h-238l-133 245h-36v-245h-226v715zM344 391c62 0 93 26 93 78v4c0 52 -31 72 -92 72h-54v-154h53z" />
    <glyph glyph-name="S" unicode="S" horiz-adv-x="653" 
d="M334 -13c-203 0 -310 81 -315 242h215c3 -45 26 -82 100 -82c53 0 79 24 79 59c0 37 -25 50 -102 61c-206 24 -276 82 -276 230c0 132 107 228 286 228s276 -71 288 -228h-210c-5 44 -30 69 -78 69c-47 0 -71 -21 -71 -52c0 -35 21 -49 100 -60c180 -19 280 -65 280 -224
c0 -132 -105 -243 -296 -243z" />
    <glyph glyph-name="T" unicode="T" horiz-adv-x="629" 
d="M200 541h-180v174h589v-174h-181v-541h-228v541z" />
    <glyph glyph-name="U" unicode="U" horiz-adv-x="776" 
d="M388 -13c-211 0 -327 103 -327 308v420h226v-411c0 -93 20 -139 101 -139c80 0 100 45 100 140v410h228v-418c0 -216 -128 -310 -328 -310z" />
    <glyph glyph-name="V" unicode="V" horiz-adv-x="741" 
d="M9 715h245l133 -479l133 479h212l-231 -715h-256z" />
    <glyph glyph-name="W" unicode="W" horiz-adv-x="1009" 
d="M10 715h229l82 -427l86 427h197l97 -432l87 432h210l-166 -715h-229l-100 427l-101 -427h-226z" />
    <glyph glyph-name="X" unicode="X" horiz-adv-x="772" 
d="M236 368l-202 347h259l100 -201l98 201h232l-187 -339l219 -376h-258l-123 235l-123 -235h-233z" />
    <glyph glyph-name="Y" unicode="Y" horiz-adv-x="692" 
d="M237 305l-232 410h246l109 -224l110 224h217l-222 -409v-306h-228v305z" />
    <glyph glyph-name="Z" unicode="Z" horiz-adv-x="627" 
d="M10 24l286 521h-246v170h563v-24l-283 -520h266v-171h-586v24z" />
    <glyph glyph-name="bracketleft" unicode="[" horiz-adv-x="419" 
d="M61 776h321v-142h-122v-640h122v-142h-321v924z" />
    <glyph glyph-name="backslash" unicode="\" horiz-adv-x="440" 
d="M-7 776h154l323 -924h-155z" />
    <glyph glyph-name="bracketright" unicode="]" horiz-adv-x="419" 
d="M38 -6h120v640h-120v142h319v-924h-319v142z" />
    <glyph glyph-name="asciicircum" unicode="^" horiz-adv-x="535" 
d="M183 715h169l164 -324h-166l-84 165l-85 -165h-162z" />
    <glyph glyph-name="underscore" unicode="_" horiz-adv-x="441" 
d="M-1 -72h443v-89h-443v89z" />
    <glyph glyph-name="grave" unicode="`" horiz-adv-x="400" 
d="M32 747h193l52 -169h-141z" />
    <glyph glyph-name="a" unicode="a" horiz-adv-x="585" 
d="M198 -13c-94 0 -178 46 -178 158c0 123 100 171 281 171h45v9c0 44 -8 76 -61 76c-45 0 -59 -29 -62 -56h-184c8 128 108 193 258 193c152 0 244 -63 244 -200v-338h-190v60c-21 -37 -69 -73 -153 -73zM269 119c45 0 77 25 77 64v27h-42c-67 0 -90 -13 -90 -50
c0 -25 19 -41 55 -41z" />
    <glyph glyph-name="b" unicode="b" horiz-adv-x="646" 
d="M403 -13c-77 0 -132 37 -159 93v-80h-197v750h197v-303c29 49 80 90 160 90c119 0 219 -89 219 -272v-8c0 -183 -100 -270 -220 -270zM331 137c60 0 92 42 92 122v8c0 84 -33 124 -93 124c-59 0 -91 -44 -91 -124v-8c0 -81 31 -122 92 -122z" />
    <glyph glyph-name="c" unicode="c" horiz-adv-x="586" 
d="M300 -13c-156 0 -278 88 -278 267v8c0 178 126 275 283 275c131 0 251 -56 262 -220h-185c-7 43 -24 69 -72 69c-59 0 -88 -40 -88 -120v-8c0 -85 27 -128 91 -128c45 0 75 28 80 79h177c-5 -136 -94 -222 -270 -222z" />
    <glyph glyph-name="d" unicode="d" horiz-adv-x="645" 
d="M241 -13c-117 0 -218 85 -218 269v8c0 182 99 273 218 273c83 0 131 -33 160 -86v299h197v-750h-197v84c-27 -55 -80 -97 -160 -97zM314 137c60 0 92 42 92 123v8c0 80 -31 123 -91 123c-61 0 -92 -41 -92 -124v-8c0 -81 32 -122 91 -122z" />
    <glyph glyph-name="e" unicode="e" horiz-adv-x="604" 
d="M311 -13c-167 0 -290 95 -290 268v8c0 171 130 275 290 275c147 0 272 -84 272 -272v-48h-363c5 -64 42 -97 98 -97s75 25 82 56h184c-16 -121 -106 -190 -273 -190zM393 321c-3 56 -29 90 -82 90c-48 0 -82 -30 -90 -90h172z" />
    <glyph glyph-name="f" unicode="f" horiz-adv-x="393" 
d="M75 391h-64v132h64v39c0 136 87 196 215 196c35 0 60 -4 85 -11v-141c-12 3 -27 6 -47 6c-39 0 -56 -22 -56 -51v-38h102v-132h-102v-391h-197v391z" />
    <glyph glyph-name="g" unicode="g" horiz-adv-x="644" 
d="M299 -194c-181 0 -267 74 -280 198h195c8 -32 24 -62 86 -62c75 0 100 44 100 100v81c-27 -51 -80 -92 -159 -92c-119 0 -219 86 -219 248v8c0 157 99 251 218 251c83 0 131 -34 160 -87v72h197v-478c0 -157 -102 -239 -298 -239zM314 171c59 0 92 41 92 108v7
c0 64 -32 106 -92 106s-92 -40 -92 -107v-8c0 -64 32 -106 92 -106z" />
    <glyph glyph-name="h" unicode="h" horiz-adv-x="629" 
d="M47 750h197v-311c29 56 85 98 173 98c99 0 168 -63 168 -193v-344h-197v300c0 53 -19 80 -66 80c-49 0 -78 -28 -78 -91v-289h-197v750z" />
    <glyph glyph-name="i" unicode="i" horiz-adv-x="303" 
d="M53 523h196v-523h-196v523zM151 562c-61 0 -107 42 -107 99c0 59 46 100 107 100c60 0 106 -41 106 -100c0 -57 -46 -99 -106 -99z" />
    <glyph glyph-name="j" unicode="j" horiz-adv-x="303" 
d="M-9 -42c43 3 61 18 61 58v507h197v-512c0 -116 -55 -194 -258 -194v141zM151 562c-61 0 -107 42 -107 99c0 59 46 100 107 100c60 0 106 -41 106 -100c0 -57 -46 -99 -106 -99z" />
    <glyph glyph-name="k" unicode="k" horiz-adv-x="589" 
d="M47 750h197v-425l127 198h202l-161 -234l174 -289h-218l-124 218v-218h-197v750z" />
    <glyph glyph-name="l" unicode="l" horiz-adv-x="300" 
d="M52 750h196v-750h-196v750z" />
    <glyph glyph-name="m" unicode="m" horiz-adv-x="935" 
d="M47 523h197v-80c29 51 84 94 165 94c69 0 115 -28 140 -84c47 60 107 84 172 84c100 0 170 -64 170 -192v-345h-196v309c0 47 -23 70 -59 70c-44 0 -69 -28 -69 -79v-300h-195v309c0 47 -23 70 -58 70c-45 0 -70 -28 -70 -79v-300h-197v523z" />
    <glyph glyph-name="n" unicode="n" horiz-adv-x="629" 
d="M47 523h197v-84c29 56 85 98 173 98c99 0 168 -63 168 -193v-344h-197v300c0 53 -19 80 -66 80c-49 0 -78 -28 -78 -91v-289h-197v523z" />
    <glyph glyph-name="o" unicode="o" horiz-adv-x="626" 
d="M314 132c60 0 90 42 90 127v7c0 83 -29 126 -90 126c-60 0 -93 -40 -93 -123v-8c0 -86 31 -129 93 -129zM313 -13c-163 0 -291 96 -291 268v8c0 170 127 274 292 274c163 0 290 -101 290 -269v-8c0 -172 -128 -273 -291 -273z" />
    <glyph glyph-name="p" unicode="p" horiz-adv-x="646" 
d="M47 523h197v-76c29 49 80 90 160 90c119 0 219 -89 219 -272v-8c0 -183 -100 -270 -220 -270c-77 0 -132 37 -159 88v-249h-197v697zM331 137c60 0 92 42 92 122v8c0 84 -33 124 -93 124c-59 0 -91 -44 -91 -124v-8c0 -81 31 -122 92 -122z" />
    <glyph glyph-name="q" unicode="q" horiz-adv-x="645" 
d="M401 79c-27 -49 -80 -92 -160 -92c-117 0 -218 85 -218 269v8c0 182 99 273 218 273c83 0 131 -33 160 -86v72h197v-697h-197v253zM314 137c60 0 92 42 92 123v8c0 80 -31 123 -91 123c-61 0 -92 -41 -92 -124v-8c0 -81 32 -122 91 -122z" />
    <glyph glyph-name="r" unicode="r" horiz-adv-x="438" 
d="M47 523h197v-106c33 81 89 114 168 113v-184c-109 7 -168 -29 -168 -105v-241h-197v523z" />
    <glyph glyph-name="s" unicode="s" horiz-adv-x="523" 
d="M261 -13c-153 0 -243 62 -246 181h180c7 -35 20 -54 65 -54c39 0 55 14 55 37s-21 35 -92 44c-141 16 -203 54 -203 166c0 120 105 177 233 177c137 0 226 -45 239 -173h-177c-7 31 -23 49 -59 49s-52 -16 -52 -36c0 -24 23 -33 82 -40c151 -19 221 -54 221 -167
c0 -129 -98 -184 -246 -184z" />
    <glyph glyph-name="t" unicode="t" horiz-adv-x="396" 
d="M265 -12c-124 0 -193 55 -193 187v216h-61v132h61v107h197v-107h100v-132h-100v-197c0 -36 19 -51 51 -51c17 0 34 3 49 8v-148c-24 -7 -61 -15 -104 -15z" />
    <glyph glyph-name="u" unicode="u" horiz-adv-x="628" 
d="M218 -13c-100 0 -175 63 -175 193v343h197v-309c0 -53 19 -80 66 -80c49 0 78 28 78 91v298h197v-523h-197v81c-29 -56 -78 -94 -166 -94z" />
    <glyph glyph-name="v" unicode="v" horiz-adv-x="604" 
d="M5 523h210l99 -318l100 318h185l-191 -523h-211z" />
    <glyph glyph-name="w" unicode="w" horiz-adv-x="854" 
d="M5 523h205l68 -293l80 293h158l70 -293l79 293h184l-166 -523h-185l-73 273l-72 -273h-191z" />
    <glyph glyph-name="x" unicode="x" horiz-adv-x="613" 
d="M180 265l-161 258h226l71 -128l71 128h201l-163 -243l180 -280h-226l-84 146l-88 -146h-199z" />
    <glyph glyph-name="y" unicode="y" 
d="M214 52l-209 471h213l99 -261l92 261h186l-279 -697h-187z" />
    <glyph glyph-name="z" unicode="z" horiz-adv-x="513" 
d="M8 19l214 357h-191v147h471v-20l-224 -357h210v-146h-480v19z" />
    <glyph glyph-name="braceleft" unicode="{" horiz-adv-x="425" 
d="M388 -148c-212 0 -306 72 -279 236l13 81c8 45 -20 78 -93 78v137c73 0 101 32 93 77l-13 80c-28 169 68 236 279 236v-143c-73 -4 -93 -23 -85 -86l12 -99c8 -67 -29 -115 -104 -132c76 -16 112 -65 104 -133l-12 -98c-8 -64 12 -87 85 -91v-143z" />
    <glyph glyph-name="bar" unicode="|" horiz-adv-x="270" 
d="M67 776h136v-924h-136v924z" />
    <glyph glyph-name="braceright" unicode="}" horiz-adv-x="425" 
d="M37 -5c73 4 93 27 85 91l-12 98c-8 68 28 117 104 133c-75 17 -112 65 -104 132l12 99c8 63 -12 82 -85 86v143c211 0 307 -67 279 -236l-13 -80c-8 -45 18 -77 93 -77v-137c-75 0 -101 -33 -93 -78l13 -81c27 -164 -67 -236 -279 -236v143z" />
    <glyph glyph-name="asciitilde" unicode="~" horiz-adv-x="532" 
d="M25 213c8 152 79 211 155 211c72 0 121 -44 156 -44c27 0 40 17 45 45h125c-5 -141 -76 -211 -154 -211c-75 0 -120 43 -156 43c-28 0 -41 -17 -45 -44h-126z" />
    <glyph glyph-name="uni00A0" unicode="&#xa0;" horiz-adv-x="253" 
 />
    <glyph glyph-name="exclamdown" unicode="&#xa1;" horiz-adv-x="343" 
d="M171 609c63 0 114 -45 114 -104s-51 -106 -114 -106s-115 47 -115 106s52 104 115 104zM281 -117h-221l29 474h164z" />
    <glyph glyph-name="cent" unicode="&#xa2;" 
d="M279 -11c-148 11 -258 101 -258 266v8c0 160 112 257 258 273v93h75v-93c122 -11 220 -79 228 -219h-177c-5 39 -22 63 -51 73v-266c35 11 57 37 61 85h170c-4 -125 -86 -208 -231 -220v-124h-75v124zM215 257c0 -75 21 -116 64 -131v264c-40 -15 -64 -53 -64 -125v-8z
" />
    <glyph glyph-name="sterling" unicode="&#xa3;" horiz-adv-x="668" 
d="M32 409h48c-7 26 -11 54 -11 83c0 152 124 233 285 233c197 0 277 -101 285 -250h-206c-7 57 -28 81 -71 81s-69 -29 -69 -77c0 -23 2 -46 5 -70h170v-124h-153c1 -15 2 -31 2 -46c0 -21 -3 -38 -8 -55c31 -9 56 -18 79 -18c36 0 55 18 58 54h204
c-5 -131 -78 -229 -217 -229c-104 0 -160 50 -208 50c-28 0 -42 -17 -45 -41h-166c5 80 38 151 103 184c4 15 7 32 7 55c0 16 -2 31 -5 46h-87v124z" />
    <glyph glyph-name="yen" unicode="&#xa5;" horiz-adv-x="659" 
d="M61 370h134l-187 345h245l91 -216l91 216h216l-178 -345h136v-73h-160v-47h160v-74h-160v-176h-228v176h-160v74h160v47h-160v73z" />
    <glyph glyph-name="brokenbar" unicode="&#xa6;" horiz-adv-x="272" 
d="M67 302h136v-450h-136v450zM67 776h136v-403h-136v403z" />
    <glyph glyph-name="section" unicode="&#xa7;" horiz-adv-x="618" 
d="M297 -137c-145 0 -223 71 -228 187h177c3 -35 19 -57 56 -57c33 0 50 13 50 38c0 28 -26 38 -101 55c-141 35 -233 77 -233 200c0 69 43 113 107 138c-28 31 -41 69 -41 113c0 117 98 188 238 188c144 0 221 -71 226 -188h-176c-4 36 -19 55 -56 55
c-33 0 -49 -14 -49 -37c0 -31 21 -38 99 -57c138 -32 235 -72 235 -198c0 -68 -43 -112 -107 -139c27 -29 41 -67 41 -112c0 -113 -96 -186 -238 -186zM376 231c27 5 36 18 36 39c0 29 -27 37 -95 59l-73 24c-24 -4 -36 -17 -36 -39c0 -27 30 -37 95 -58z" />
    <glyph glyph-name="dieresis" unicode="&#xa8;" horiz-adv-x="400" 
d="M91 570c-51 0 -91 40 -91 89s40 89 91 89c52 0 92 -40 92 -89s-40 -89 -92 -89zM308 570c-51 0 -90 40 -90 89s39 89 90 89c52 0 92 -40 92 -89s-40 -89 -92 -89z" />
    <glyph glyph-name="copyright" unicode="&#xa9;" horiz-adv-x="842" 
d="M429 150c-147 0 -215 81 -215 204v8c0 124 90 203 210 203c109 0 183 -48 192 -160h-137c-4 35 -22 54 -55 54c-43 0 -70 -32 -70 -97v-7c0 -66 24 -99 72 -99c35 0 59 18 63 57h132c-5 -107 -84 -163 -192 -163zM420 31c178 0 323 132 323 328c0 193 -141 325 -321 325
c-181 0 -323 -133 -323 -327c0 -196 146 -326 321 -326zM420 -21c-214 0 -386 163 -386 378c0 212 171 379 388 379c220 0 387 -165 387 -377c0 -216 -173 -380 -389 -380z" />
    <glyph glyph-name="ordfeminine" unicode="&#xaa;" horiz-adv-x="495" 
d="M168 287c-75 0 -141 36 -141 125c0 99 71 133 220 133h37v13c0 28 -7 48 -40 48c-31 0 -40 -21 -43 -40h-160c7 101 84 157 212 157c129 0 201 -52 201 -160v-265h-166v47c-15 -27 -51 -58 -120 -58zM233 401c31 0 51 17 51 42v18h-31c-43 0 -57 -9 -57 -32
c0 -19 12 -28 37 -28z" />
    <glyph glyph-name="guillemotleft" unicode="&#xab;" horiz-adv-x="477" 
d="M25 261l124 194h121l-119 -194l119 -194h-121zM206 261l124 194h121l-119 -194l119 -194h-121z" />
    <glyph glyph-name="uni00AD" unicode="&#xad;" horiz-adv-x="390" 
d="M49 360h292v-146h-292v146z" />
    <glyph glyph-name="registered" unicode="&#xae;" horiz-adv-x="517" 
d="M172 615h91c62 0 93 -24 93 -72v-1c0 -31 -14 -47 -35 -58l48 -88h-76l-38 73h-10v-73h-73v219zM259 516c17 0 26 7 26 22v1c0 13 -9 20 -26 20h-14v-43h14zM259 320c105 0 185 75 185 183s-77 183 -185 183c-109 0 -186 -76 -186 -184c0 -109 82 -182 186 -182zM259 280
c-128 0 -231 97 -231 222c0 124 102 224 231 224c131 0 230 -99 230 -223c0 -126 -102 -223 -230 -223z" />
    <glyph glyph-name="macron" unicode="&#xaf;" horiz-adv-x="400" 
d="M42 712h316v-107h-316v107z" />
    <glyph glyph-name="degree" unicode="&#xb0;" horiz-adv-x="457" 
d="M230 448c53 0 90 44 90 101c0 60 -37 103 -90 103c-56 0 -93 -43 -93 -103c0 -57 37 -101 93 -101zM230 376c-100 0 -180 80 -180 173c0 96 80 175 180 175c97 0 177 -79 177 -175c0 -93 -80 -173 -177 -173z" />
    <glyph glyph-name="plusminus" unicode="&#xb1;" horiz-adv-x="579" 
d="M211 343h-173v142h173v162h157v-162h174v-142h-174v-161h-157v161zM38 126h507v-126h-507v126z" />
    <glyph glyph-name="twosuperior" unicode="&#xb2;" horiz-adv-x="366" 
d="M4 351l129 132c43 44 70 74 70 103c0 19 -8 30 -28 30s-32 -17 -36 -51h-131c3 104 70 156 175 156c111 0 161 -55 161 -124c0 -53 -33 -92 -78 -135l-28 -26h108v-103h-342v18z" />
    <glyph glyph-name="threesuperior" unicode="&#xb3;" horiz-adv-x="385" 
d="M193 326c-125 0 -173 58 -176 137h127c3 -21 13 -38 40 -38c23 0 34 10 34 31c0 19 -14 29 -41 29h-31v79h31c29 0 43 10 43 31c0 18 -10 27 -31 27s-34 -12 -38 -35h-126c7 77 60 134 168 134c103 0 162 -39 162 -107c0 -43 -25 -71 -69 -82c45 -7 77 -38 77 -82
c0 -73 -54 -124 -170 -124z" />
    <glyph glyph-name="acute" unicode="&#xb4;" horiz-adv-x="400" 
d="M175 747h193l-104 -169h-141z" />
    <glyph glyph-name="mu" unicode="&#xb5;" horiz-adv-x="630" 
d="M47 523h197v-314c0 -52 22 -78 66 -78c51 0 78 27 78 90v302h197v-523h-193v69c-16 -45 -45 -68 -86 -68c-27 0 -47 11 -62 34v-209h-197v697z" />
    <glyph glyph-name="paragraph" unicode="&#xb6;" horiz-adv-x="544" 
d="M253 326h-7c-135 0 -221 63 -221 191c0 134 90 198 221 198h232v-815h-76v750h-74v-750h-75v426z" />
    <glyph glyph-name="periodcentered" unicode="&#xb7;" horiz-adv-x="302" 
d="M150 219c-63 0 -110 47 -110 107s47 108 110 108c64 0 112 -48 112 -108s-48 -107 -112 -107z" />
    <glyph glyph-name="cedilla" unicode="&#xb8;" horiz-adv-x="400" 
d="M203 -228c-76 0 -121 33 -132 94h90c3 -13 12 -26 35 -26c19 0 30 12 30 29s-10 30 -33 30c-15 0 -25 -4 -32 -12l-40 41l48 72h76l-31 -44c60 5 114 -20 114 -87c0 -61 -49 -97 -125 -97z" />
    <glyph glyph-name="onesuperior" unicode="&#xb9;" horiz-adv-x="297" 
d="M102 576l-83 -45v116l104 68h124v-382h-145v243z" />
    <glyph glyph-name="ordmasculine" unicode="&#xba;" horiz-adv-x="527" 
d="M264 413c43 0 60 30 60 90v6c0 59 -17 89 -60 89c-41 0 -61 -29 -61 -87v-6c0 -61 20 -92 61 -92zM263 287c-131 0 -235 72 -235 211v6c0 138 104 219 236 219s235 -78 235 -213v-6c0 -139 -105 -217 -236 -217z" />
    <glyph glyph-name="guillemotright" unicode="&#xbb;" horiz-adv-x="477" 
d="M145 261l-119 194h121l124 -194l-124 -194h-121zM325 261l-119 194h121l124 -194l-124 -194h-121z" />
    <glyph glyph-name="onequarter" unicode="&#xbc;" horiz-adv-x="817" 
d="M104 576l-83 -45v116l104 68h124v-382h-145v243zM638 715h99l-569 -715h-100zM606 70h-190v54l157 258h172v-218h48v-94h-48v-70h-139v70zM610 164v124l-72 -124h72z" />
    <glyph glyph-name="onehalf" unicode="&#xbd;" horiz-adv-x="831" 
d="M105 576l-83 -45v116l104 68h124v-382h-145v243zM624 715h99l-569 -715h-100zM464 18l129 132c43 44 70 74 70 103c0 19 -8 30 -28 30s-32 -17 -36 -51h-131c3 104 70 156 175 156c111 0 161 -55 161 -124c0 -53 -33 -92 -78 -135l-28 -26h108v-103h-342v18z" />
    <glyph glyph-name="threequarters" unicode="&#xbe;" horiz-adv-x="852" 
d="M196 326c-125 0 -173 58 -176 137h127c3 -21 13 -38 40 -38c23 0 34 10 34 31c0 19 -14 29 -41 29h-31v79h31c29 0 43 10 43 31c0 18 -10 27 -31 27s-34 -12 -38 -35h-126c7 77 60 134 168 134c103 0 162 -39 162 -107c0 -43 -25 -71 -69 -82c45 -7 77 -38 77 -82
c0 -73 -54 -124 -170 -124zM688 715h99l-569 -715h-100zM640 70h-190v54l157 258h172v-218h48v-94h-48v-70h-139v70zM644 164v124l-72 -124h72z" />
    <glyph glyph-name="questiondown" unicode="&#xbf;" horiz-adv-x="569" 
d="M402 345c0 -76 -53 -124 -97 -166c-35 -32 -64 -59 -64 -94s18 -52 53 -52c37 0 62 29 69 80h192c-5 -157 -117 -240 -277 -240c-159 0 -251 68 -251 193c0 64 29 108 68 147c50 50 110 89 120 136v9h187v-13zM308 610c65 0 116 -45 116 -104s-51 -106 -116 -106
c-63 0 -114 47 -114 106s51 104 114 104z" />
    <glyph glyph-name="Agrave" unicode="&#xc0;" horiz-adv-x="760" 
d="M234 715h293l224 -715h-240l-33 119h-226l-32 -119h-211zM295 273h141l-70 259zM212 906h202l47 -149h-149z" />
    <glyph glyph-name="Aacute" unicode="&#xc1;" horiz-adv-x="760" 
d="M234 715h293l224 -715h-240l-33 119h-226l-32 -119h-211zM295 273h141l-70 259zM346 906h201l-103 -149h-149z" />
    <glyph glyph-name="Acircumflex" unicode="&#xc2;" horiz-adv-x="760" 
d="M234 715h293l224 -715h-240l-33 119h-226l-32 -119h-211zM295 273h141l-70 259zM298 906h164l110 -149h-142l-54 47l-54 -47h-139z" />
    <glyph glyph-name="Atilde" unicode="&#xc3;" horiz-adv-x="760" 
d="M234 715h293l224 -715h-240l-33 119h-226l-32 -119h-211zM295 273h141l-70 259zM444 755c-58 0 -90 32 -121 32c-16 0 -27 -11 -30 -30h-109c8 111 62 160 126 160c56 0 90 -32 124 -32c17 0 26 11 29 30h110c-8 -111 -68 -160 -129 -160z" />
    <glyph glyph-name="Adieresis" unicode="&#xc4;" horiz-adv-x="760" 
d="M234 715h293l224 -715h-240l-33 119h-226l-32 -119h-211zM295 273h141l-70 259zM264 752c-51 0 -91 40 -91 89c0 50 40 89 91 89c52 0 92 -39 92 -89c0 -49 -40 -89 -92 -89zM491 752c-51 0 -91 40 -91 89c0 50 40 89 91 89c52 0 92 -39 92 -89c0 -49 -40 -89 -92 -89z
" />
    <glyph glyph-name="Aring" unicode="&#xc5;" horiz-adv-x="760" 
d="M234 715h293l224 -715h-240l-33 119h-226l-32 -119h-211zM295 273h141l-70 259zM378 810c27 0 45 21 45 50c0 31 -18 50 -45 50s-45 -19 -45 -50c0 -29 18 -50 45 -50zM378 742c-68 0 -122 54 -122 118s54 118 122 118s122 -54 122 -118s-54 -118 -122 -118z" />
    <glyph glyph-name="AE" unicode="&#xc6;" horiz-adv-x="1012" 
d="M320 715h645v-174h-275v-101h217v-159h-217v-107h291v-174h-516v135h-187l-56 -135h-215zM340 285h125v256h-18z" />
    <glyph glyph-name="Ccedilla" unicode="&#xc7;" horiz-adv-x="764" 
d="M379 -228c-76 0 -121 33 -132 94h90c3 -13 12 -26 35 -26c19 0 30 12 30 29s-10 30 -33 30c-15 0 -25 -4 -32 -12l-40 41l42 63c-211 24 -311 162 -311 362v8c0 221 158 365 370 365c192 0 324 -88 340 -282h-234c-7 67 -41 103 -105 103c-83 0 -132 -64 -132 -185v-8
c0 -120 48 -185 136 -185c64 0 110 33 118 105h226c-13 -188 -147 -284 -335 -287l-22 -31c60 5 114 -20 114 -87c0 -61 -49 -97 -125 -97z" />
    <glyph glyph-name="Egrave" unicode="&#xc8;" horiz-adv-x="620" 
d="M65 715h508v-174h-282v-101h224v-159h-224v-107h298v-174h-524v715zM161 906h202l47 -149h-149z" />
    <glyph glyph-name="Eacute" unicode="&#xc9;" horiz-adv-x="620" 
d="M65 715h508v-174h-282v-101h224v-159h-224v-107h298v-174h-524v715zM295 906h201l-103 -149h-149z" />
    <glyph glyph-name="Ecircumflex" unicode="&#xca;" horiz-adv-x="620" 
d="M65 715h508v-174h-282v-101h224v-159h-224v-107h298v-174h-524v715zM247 906h164l110 -149h-142l-54 47l-54 -47h-139z" />
    <glyph glyph-name="Edieresis" unicode="&#xcb;" horiz-adv-x="620" 
d="M65 715h508v-174h-282v-101h224v-159h-224v-107h298v-174h-524v715zM213 752c-51 0 -91 40 -91 89c0 50 40 89 91 89c52 0 92 -39 92 -89c0 -49 -40 -89 -92 -89zM440 752c-51 0 -91 40 -91 89c0 50 40 89 91 89c52 0 92 -39 92 -89c0 -49 -40 -89 -92 -89z" />
    <glyph glyph-name="Igrave" unicode="&#xcc;" horiz-adv-x="366" 
d="M68 715h229v-715h-229v715zM17 906h202l47 -149h-149z" />
    <glyph glyph-name="Iacute" unicode="&#xcd;" horiz-adv-x="366" 
d="M68 715h229v-715h-229v715zM151 906h201l-103 -149h-149z" />
    <glyph glyph-name="Icircumflex" unicode="&#xce;" horiz-adv-x="366" 
d="M68 715h229v-715h-229v715zM103 906h164l110 -149h-142l-54 47l-54 -47h-139z" />
    <glyph glyph-name="Idieresis" unicode="&#xcf;" horiz-adv-x="366" 
d="M68 715h229v-715h-229v715zM69 752c-51 0 -91 40 -91 89c0 50 40 89 91 89c52 0 92 -39 92 -89c0 -49 -40 -89 -92 -89zM296 752c-51 0 -91 40 -91 89c0 50 40 89 91 89c52 0 92 -39 92 -89c0 -49 -40 -89 -92 -89z" />
    <glyph glyph-name="Eth" unicode="&#xd0;" horiz-adv-x="785" 
d="M29 435h54v280h273c257 0 387 -121 387 -349v-7c0 -229 -132 -359 -387 -359h-273v284h-54v151zM349 174c112 0 157 55 157 180v8c0 131 -50 179 -159 179h-41v-106h104v-151h-104v-110h43z" />
    <glyph glyph-name="Ntilde" unicode="&#xd1;" horiz-adv-x="787" 
d="M65 715h254l203 -378v378h199v-715h-217l-239 428v-428h-200v715zM479 755c-58 0 -90 32 -121 32c-16 0 -27 -11 -30 -30h-109c8 111 62 160 126 160c56 0 90 -32 124 -32c17 0 26 11 29 30h110c-8 -111 -68 -160 -129 -160z" />
    <glyph glyph-name="Ograve" unicode="&#xd2;" horiz-adv-x="820" 
d="M411 165c89 0 146 69 146 189v8c0 121 -57 187 -148 187c-88 0 -145 -64 -145 -187v-8c0 -123 56 -189 147 -189zM405 -13c-235 0 -378 149 -378 366v8c0 221 168 365 382 365c220 0 384 -133 384 -359v-8c0 -223 -153 -372 -388 -372zM243 906h202l47 -149h-149z" />
    <glyph glyph-name="Oacute" unicode="&#xd3;" horiz-adv-x="820" 
d="M411 165c89 0 146 69 146 189v8c0 121 -57 187 -148 187c-88 0 -145 -64 -145 -187v-8c0 -123 56 -189 147 -189zM405 -13c-235 0 -378 149 -378 366v8c0 221 168 365 382 365c220 0 384 -133 384 -359v-8c0 -223 -153 -372 -388 -372zM377 906h201l-103 -149h-149z" />
    <glyph glyph-name="Ocircumflex" unicode="&#xd4;" horiz-adv-x="820" 
d="M411 165c89 0 146 69 146 189v8c0 121 -57 187 -148 187c-88 0 -145 -64 -145 -187v-8c0 -123 56 -189 147 -189zM405 -13c-235 0 -378 149 -378 366v8c0 221 168 365 382 365c220 0 384 -133 384 -359v-8c0 -223 -153 -372 -388 -372zM329 906h164l110 -149h-142l-54 47
l-54 -47h-139z" />
    <glyph glyph-name="Otilde" unicode="&#xd5;" horiz-adv-x="820" 
d="M411 165c89 0 146 69 146 189v8c0 121 -57 187 -148 187c-88 0 -145 -64 -145 -187v-8c0 -123 56 -189 147 -189zM405 -13c-235 0 -378 149 -378 366v8c0 221 168 365 382 365c220 0 384 -133 384 -359v-8c0 -223 -153 -372 -388 -372zM475 755c-58 0 -90 32 -121 32
c-16 0 -27 -11 -30 -30h-109c8 111 62 160 126 160c56 0 90 -32 124 -32c17 0 26 11 29 30h110c-8 -111 -68 -160 -129 -160z" />
    <glyph glyph-name="Odieresis" unicode="&#xd6;" horiz-adv-x="820" 
d="M411 165c89 0 146 69 146 189v8c0 121 -57 187 -148 187c-88 0 -145 -64 -145 -187v-8c0 -123 56 -189 147 -189zM405 -13c-235 0 -378 149 -378 366v8c0 221 168 365 382 365c220 0 384 -133 384 -359v-8c0 -223 -153 -372 -388 -372zM295 752c-51 0 -91 40 -91 89
c0 50 40 89 91 89c52 0 92 -39 92 -89c0 -49 -40 -89 -92 -89zM522 752c-51 0 -91 40 -91 89c0 50 40 89 91 89c52 0 92 -39 92 -89c0 -49 -40 -89 -92 -89z" />
    <glyph glyph-name="multiply" unicode="&#xd7;" horiz-adv-x="589" 
d="M40 185l152 152l-155 154l103 104l154 -156l153 152l102 -102l-152 -152l155 -154l-104 -104l-154 156l-152 -152z" />
    <glyph glyph-name="Oslash" unicode="&#xd8;" horiz-adv-x="820" 
d="M34 23l78 82c-56 64 -85 148 -85 248v8c0 220 168 364 382 364c88 0 167 -22 231 -62l73 78l57 -56l-68 -72c59 -60 92 -142 92 -246v-8c0 -223 -153 -372 -389 -372c-93 0 -172 22 -233 65l-81 -85zM410 165c92 0 149 69 149 190v8c0 32 -4 61 -12 86l-235 -248
c25 -24 57 -36 98 -36zM261 354c0 -32 3 -59 10 -81l231 245c-26 21 -57 31 -93 31c-91 0 -148 -63 -148 -187v-8z" />
    <glyph glyph-name="Ugrave" unicode="&#xd9;" horiz-adv-x="776" 
d="M388 -13c-211 0 -327 103 -327 308v420h226v-411c0 -93 20 -139 101 -139c80 0 100 45 100 140v410h228v-418c0 -216 -128 -310 -328 -310zM220 906h202l47 -149h-149z" />
    <glyph glyph-name="Uacute" unicode="&#xda;" horiz-adv-x="776" 
d="M388 -13c-211 0 -327 103 -327 308v420h226v-411c0 -93 20 -139 101 -139c80 0 100 45 100 140v410h228v-418c0 -216 -128 -310 -328 -310zM354 906h201l-103 -149h-149z" />
    <glyph glyph-name="Ucircumflex" unicode="&#xdb;" horiz-adv-x="776" 
d="M388 -13c-211 0 -327 103 -327 308v420h226v-411c0 -93 20 -139 101 -139c80 0 100 45 100 140v410h228v-418c0 -216 -128 -310 -328 -310zM306 906h164l110 -149h-142l-54 47l-54 -47h-139z" />
    <glyph glyph-name="Udieresis" unicode="&#xdc;" horiz-adv-x="776" 
d="M388 -13c-211 0 -327 103 -327 308v420h226v-411c0 -93 20 -139 101 -139c80 0 100 45 100 140v410h228v-418c0 -216 -128 -310 -328 -310zM272 752c-51 0 -91 40 -91 89c0 50 40 89 91 89c52 0 92 -39 92 -89c0 -49 -40 -89 -92 -89zM499 752c-51 0 -91 40 -91 89
c0 50 40 89 91 89c52 0 92 -39 92 -89c0 -49 -40 -89 -92 -89z" />
    <glyph glyph-name="Yacute" unicode="&#xdd;" horiz-adv-x="692" 
d="M237 305l-232 410h246l109 -224l110 224h217l-222 -409v-306h-228v305zM321 906h201l-103 -149h-149z" />
    <glyph glyph-name="Thorn" unicode="&#xde;" horiz-adv-x="664" 
d="M65 715h226v-114h59c207 0 294 -78 294 -234v-4c0 -149 -97 -233 -284 -233h-69v-130h-226v715zM338 282c61 0 91 27 91 80v4c0 55 -30 76 -90 76h-48v-160h47z" />
    <glyph glyph-name="germandbls" unicode="&#xdf;" horiz-adv-x="644" 
d="M389 -10c-44 0 -77 5 -97 10v147c11 -4 24 -8 43 -8c48 0 89 25 89 110v6c0 93 -53 113 -128 113v137c59 1 85 35 85 71v2c0 40 -23 65 -66 65c-44 0 -71 -30 -71 -86v-557h-197v540c0 167 128 230 280 230c148 0 240 -60 240 -183v-2c0 -71 -50 -119 -118 -139
c92 -22 175 -83 175 -205v-7c0 -161 -97 -244 -235 -244z" />
    <glyph glyph-name="agrave" unicode="&#xe0;" horiz-adv-x="585" 
d="M198 -13c-94 0 -178 46 -178 158c0 123 100 171 281 171h45v9c0 44 -8 76 -61 76c-45 0 -59 -29 -62 -56h-184c8 128 108 193 258 193c152 0 244 -63 244 -200v-338h-190v60c-21 -37 -69 -73 -153 -73zM269 119c45 0 77 25 77 64v27h-42c-67 0 -90 -13 -90 -50
c0 -25 19 -41 55 -41zM125 747h193l52 -169h-141z" />
    <glyph glyph-name="aacute" unicode="&#xe1;" horiz-adv-x="585" 
d="M198 -13c-94 0 -178 46 -178 158c0 123 100 171 281 171h45v9c0 44 -8 76 -61 76c-45 0 -59 -29 -62 -56h-184c8 128 108 193 258 193c152 0 244 -63 244 -200v-338h-190v60c-21 -37 -69 -73 -153 -73zM269 119c45 0 77 25 77 64v27h-42c-67 0 -90 -13 -90 -50
c0 -25 19 -41 55 -41zM272 747h193l-104 -169h-141z" />
    <glyph glyph-name="acircumflex" unicode="&#xe2;" horiz-adv-x="585" 
d="M198 -13c-94 0 -178 46 -178 158c0 123 100 171 281 171h45v9c0 44 -8 76 -61 76c-45 0 -59 -29 -62 -56h-184c8 128 108 193 258 193c152 0 244 -63 244 -200v-338h-190v60c-21 -37 -69 -73 -153 -73zM269 119c45 0 77 25 77 64v27h-42c-67 0 -90 -13 -90 -50
c0 -25 19 -41 55 -41zM225 746h138l120 -166h-137l-56 53l-56 -53h-134z" />
    <glyph glyph-name="atilde" unicode="&#xe3;" horiz-adv-x="585" 
d="M198 -13c-94 0 -178 46 -178 158c0 123 100 171 281 171h45v9c0 44 -8 76 -61 76c-45 0 -59 -29 -62 -56h-184c8 128 108 193 258 193c152 0 244 -63 244 -200v-338h-190v60c-21 -37 -69 -73 -153 -73zM269 119c45 0 77 25 77 64v27h-42c-67 0 -90 -13 -90 -50
c0 -25 19 -41 55 -41zM361 581c-58 0 -89 32 -118 32c-16 0 -27 -13 -30 -30h-104c7 111 54 162 118 162c55 0 88 -32 121 -32c17 0 27 10 30 31h104c-8 -111 -59 -163 -121 -163z" />
    <glyph glyph-name="adieresis" unicode="&#xe4;" horiz-adv-x="585" 
d="M198 -13c-94 0 -178 46 -178 158c0 123 100 171 281 171h45v9c0 44 -8 76 -61 76c-45 0 -59 -29 -62 -56h-184c8 128 108 193 258 193c152 0 244 -63 244 -200v-338h-190v60c-21 -37 -69 -73 -153 -73zM269 119c45 0 77 25 77 64v27h-42c-67 0 -90 -13 -90 -50
c0 -25 19 -41 55 -41zM186 570c-51 0 -91 40 -91 89s40 89 91 89c52 0 92 -40 92 -89s-40 -89 -92 -89zM403 570c-51 0 -90 40 -90 89s39 89 90 89c52 0 92 -40 92 -89s-40 -89 -92 -89z" />
    <glyph glyph-name="aring" unicode="&#xe5;" horiz-adv-x="585" 
d="M198 -13c-94 0 -178 46 -178 158c0 123 100 171 281 171h45v9c0 44 -8 76 -61 76c-45 0 -59 -29 -62 -56h-184c8 128 108 193 258 193c152 0 244 -63 244 -200v-338h-190v60c-21 -37 -69 -73 -153 -73zM269 119c45 0 77 25 77 64v27h-42c-67 0 -90 -13 -90 -50
c0 -25 19 -41 55 -41zM295 642c27 0 44 20 44 48c0 29 -17 49 -44 49s-44 -20 -44 -49c0 -28 17 -48 44 -48zM295 574c-66 0 -120 52 -120 116s54 117 120 117s120 -53 120 -117s-54 -116 -120 -116z" />
    <glyph glyph-name="ae" unicode="&#xe6;" horiz-adv-x="913" 
d="M626 -13c-94 0 -163 29 -206 88c-41 -55 -100 -88 -203 -88c-109 0 -198 46 -198 158c0 123 99 174 280 174h49v6c0 45 -11 76 -63 76c-45 0 -59 -24 -63 -56h-184c8 128 109 193 254 193c79 0 134 -19 166 -57c43 38 98 57 165 57c146 0 269 -82 269 -272v-47h-357
c5 -65 37 -98 94 -98c56 0 74 25 81 56h182c-15 -121 -105 -190 -266 -190zM703 319c-3 59 -28 92 -80 92c-48 0 -80 -32 -87 -92h167zM269 119c49 0 79 25 79 64v33h-46c-61 0 -89 -12 -89 -51c0 -31 19 -46 56 -46z" />
    <glyph glyph-name="ccedilla" unicode="&#xe7;" horiz-adv-x="586" 
d="M280 -228c-76 0 -121 33 -132 94h90c3 -13 12 -26 35 -26c19 0 30 12 30 29s-10 30 -33 30c-15 0 -25 -4 -32 -12l-40 41l42 64c-128 19 -218 107 -218 262v8c0 178 126 275 283 275c131 0 251 -56 262 -220h-185c-7 43 -24 69 -72 69c-59 0 -88 -40 -88 -120v-8
c0 -85 27 -128 91 -128c45 0 75 28 80 79h177c-5 -132 -90 -218 -257 -222l-22 -31c60 5 114 -20 114 -87c0 -61 -49 -97 -125 -97z" />
    <glyph glyph-name="egrave" unicode="&#xe8;" horiz-adv-x="604" 
d="M311 -13c-167 0 -290 95 -290 268v8c0 171 130 275 290 275c147 0 272 -84 272 -272v-48h-363c5 -64 42 -97 98 -97s75 25 82 56h184c-16 -121 -106 -190 -273 -190zM393 321c-3 56 -29 90 -82 90c-48 0 -82 -30 -90 -90h172zM136 747h193l52 -169h-141z" />
    <glyph glyph-name="eacute" unicode="&#xe9;" horiz-adv-x="604" 
d="M311 -13c-167 0 -290 95 -290 268v8c0 171 130 275 290 275c147 0 272 -84 272 -272v-48h-363c5 -64 42 -97 98 -97s75 25 82 56h184c-16 -121 -106 -190 -273 -190zM393 321c-3 56 -29 90 -82 90c-48 0 -82 -30 -90 -90h172zM283 747h193l-104 -169h-141z" />
    <glyph glyph-name="ecircumflex" unicode="&#xea;" horiz-adv-x="604" 
d="M311 -13c-167 0 -290 95 -290 268v8c0 171 130 275 290 275c147 0 272 -84 272 -272v-48h-363c5 -64 42 -97 98 -97s75 25 82 56h184c-16 -121 -106 -190 -273 -190zM393 321c-3 56 -29 90 -82 90c-48 0 -82 -30 -90 -90h172zM239 746h138l120 -166h-137l-56 53l-56 -53
h-134z" />
    <glyph glyph-name="edieresis" unicode="&#xeb;" horiz-adv-x="604" 
d="M311 -13c-167 0 -290 95 -290 268v8c0 171 130 275 290 275c147 0 272 -84 272 -272v-48h-363c5 -64 42 -97 98 -97s75 25 82 56h184c-16 -121 -106 -190 -273 -190zM393 321c-3 56 -29 90 -82 90c-48 0 -82 -30 -90 -90h172zM197 570c-51 0 -91 40 -91 89s40 89 91 89
c52 0 92 -40 92 -89s-40 -89 -92 -89zM414 570c-51 0 -90 40 -90 89s39 89 90 89c52 0 92 -40 92 -89s-40 -89 -92 -89z" />
    <glyph glyph-name="igrave" unicode="&#xec;" horiz-adv-x="303" 
d="M53 523h196v-523h-196v523zM-18 747h193l52 -169h-141z" />
    <glyph glyph-name="iacute" unicode="&#xed;" horiz-adv-x="303" 
d="M53 523h196v-523h-196v523zM129 747h193l-104 -169h-141z" />
    <glyph glyph-name="icircumflex" unicode="&#xee;" horiz-adv-x="303" 
d="M53 523h196v-523h-196v523zM85 746h138l120 -166h-137l-56 53l-56 -53h-134z" />
    <glyph glyph-name="idieresis" unicode="&#xef;" horiz-adv-x="303" 
d="M43 570c-51 0 -91 40 -91 89s40 89 91 89c52 0 92 -40 92 -89s-40 -89 -92 -89zM258 570c-51 0 -90 40 -90 89s39 89 90 89c52 0 92 -40 92 -89s-40 -89 -92 -89zM53 523h196v-523h-196v523z" />
    <glyph glyph-name="eth" unicode="&#xf0;" horiz-adv-x="627" 
d="M101 618l111 37c-43 36 -85 67 -122 94h222c19 -11 39 -25 60 -40l111 38l23 -62l-73 -25c89 -81 171 -197 171 -355v-22c0 -184 -116 -296 -295 -296c-163 0 -288 98 -288 277v12c0 164 120 253 231 253c51 0 76 -14 105 -43c-21 41 -53 81 -90 118l-143 -48zM314 132
c60 0 90 45 90 126v8c0 83 -29 126 -90 126s-92 -41 -92 -123v-8c0 -86 31 -129 92 -129z" />
    <glyph glyph-name="ntilde" unicode="&#xf1;" horiz-adv-x="629" 
d="M47 523h197v-84c29 56 85 98 173 98c99 0 168 -63 168 -193v-344h-197v300c0 53 -19 80 -66 80c-49 0 -78 -28 -78 -91v-289h-197v523zM381 581c-58 0 -89 32 -118 32c-16 0 -27 -13 -30 -30h-104c7 111 54 162 118 162c55 0 88 -32 121 -32c17 0 27 10 30 31h104
c-8 -111 -59 -163 -121 -163z" />
    <glyph glyph-name="ograve" unicode="&#xf2;" horiz-adv-x="626" 
d="M314 132c60 0 90 42 90 127v7c0 83 -29 126 -90 126c-60 0 -93 -40 -93 -123v-8c0 -86 31 -129 93 -129zM313 -13c-163 0 -291 96 -291 268v8c0 170 127 274 292 274c163 0 290 -101 290 -269v-8c0 -172 -128 -273 -291 -273zM142 747h193l52 -169h-141z" />
    <glyph glyph-name="oacute" unicode="&#xf3;" horiz-adv-x="626" 
d="M314 132c60 0 90 42 90 127v7c0 83 -29 126 -90 126c-60 0 -93 -40 -93 -123v-8c0 -86 31 -129 93 -129zM313 -13c-163 0 -291 96 -291 268v8c0 170 127 274 292 274c163 0 290 -101 290 -269v-8c0 -172 -128 -273 -291 -273zM289 747h193l-104 -169h-141z" />
    <glyph glyph-name="ocircumflex" unicode="&#xf4;" horiz-adv-x="626" 
d="M314 132c60 0 90 42 90 127v7c0 83 -29 126 -90 126c-60 0 -93 -40 -93 -123v-8c0 -86 31 -129 93 -129zM313 -13c-163 0 -291 96 -291 268v8c0 170 127 274 292 274c163 0 290 -101 290 -269v-8c0 -172 -128 -273 -291 -273zM245 746h138l120 -166h-137l-56 53l-56 -53
h-134z" />
    <glyph glyph-name="otilde" unicode="&#xf5;" horiz-adv-x="626" 
d="M314 132c60 0 90 42 90 127v7c0 83 -29 126 -90 126c-60 0 -93 -40 -93 -123v-8c0 -86 31 -129 93 -129zM313 -13c-163 0 -291 96 -291 268v8c0 170 127 274 292 274c163 0 290 -101 290 -269v-8c0 -172 -128 -273 -291 -273zM378 581c-58 0 -89 32 -118 32
c-16 0 -27 -13 -30 -30h-104c7 111 54 162 118 162c55 0 88 -32 121 -32c17 0 27 10 30 31h104c-8 -111 -59 -163 -121 -163z" />
    <glyph glyph-name="odieresis" unicode="&#xf6;" horiz-adv-x="626" 
d="M314 132c60 0 90 42 90 127v7c0 83 -29 126 -90 126c-60 0 -93 -40 -93 -123v-8c0 -86 31 -129 93 -129zM313 -13c-163 0 -291 96 -291 268v8c0 170 127 274 292 274c163 0 290 -101 290 -269v-8c0 -172 -128 -273 -291 -273zM203 570c-51 0 -91 40 -91 89s40 89 91 89
c52 0 92 -40 92 -89s-40 -89 -92 -89zM420 570c-51 0 -90 40 -90 89s39 89 90 89c52 0 92 -40 92 -89s-40 -89 -92 -89z" />
    <glyph glyph-name="divide" unicode="&#xf7;" horiz-adv-x="582" 
d="M291 34c-56 0 -100 42 -100 98c0 54 45 97 100 97s100 -43 100 -97c0 -56 -44 -98 -100 -98zM38 407h507v-134h-507v134zM291 450c-55 0 -100 43 -100 97c0 56 44 98 100 98s100 -42 100 -98c0 -54 -45 -97 -100 -97z" />
    <glyph glyph-name="oslash" unicode="&#xf8;" horiz-adv-x="626" 
d="M22 7l64 68c-41 45 -65 104 -65 180v8c0 171 128 275 293 275c63 0 119 -14 167 -43l65 69l50 -46l-62 -66c44 -45 70 -108 70 -184v-8c0 -172 -128 -273 -291 -273c-65 0 -125 14 -173 45l-67 -71zM314 131c63 0 93 44 93 127v8c0 17 -1 31 -4 46l-150 -160
c15 -14 35 -21 61 -21zM219 261c0 -15 1 -29 3 -42l147 157c-15 11 -34 17 -55 17c-63 0 -95 -41 -95 -124v-8z" />
    <glyph glyph-name="ugrave" unicode="&#xf9;" horiz-adv-x="628" 
d="M218 -13c-100 0 -175 63 -175 193v343h197v-309c0 -53 19 -80 66 -80c49 0 78 28 78 91v298h197v-523h-197v81c-29 -56 -78 -94 -166 -94zM142 747h193l52 -169h-141z" />
    <glyph glyph-name="uacute" unicode="&#xfa;" horiz-adv-x="628" 
d="M218 -13c-100 0 -175 63 -175 193v343h197v-309c0 -53 19 -80 66 -80c49 0 78 28 78 91v298h197v-523h-197v81c-29 -56 -78 -94 -166 -94zM289 747h193l-104 -169h-141z" />
    <glyph glyph-name="ucircumflex" unicode="&#xfb;" horiz-adv-x="628" 
d="M218 -13c-100 0 -175 63 -175 193v343h197v-309c0 -53 19 -80 66 -80c49 0 78 28 78 91v298h197v-523h-197v81c-29 -56 -78 -94 -166 -94zM245 746h138l120 -166h-137l-56 53l-56 -53h-134z" />
    <glyph glyph-name="udieresis" unicode="&#xfc;" horiz-adv-x="628" 
d="M218 -13c-100 0 -175 63 -175 193v343h197v-309c0 -53 19 -80 66 -80c49 0 78 28 78 91v298h197v-523h-197v81c-29 -56 -78 -94 -166 -94zM203 570c-51 0 -91 40 -91 89s40 89 91 89c52 0 92 -40 92 -89s-40 -89 -92 -89zM420 570c-51 0 -90 40 -90 89s39 89 90 89
c52 0 92 -40 92 -89s-40 -89 -92 -89z" />
    <glyph glyph-name="yacute" unicode="&#xfd;" 
d="M214 52l-209 471h213l99 -261l92 261h186l-279 -697h-187zM288 747h193l-104 -169h-141z" />
    <glyph glyph-name="thorn" unicode="&#xfe;" horiz-adv-x="646" 
d="M47 750h197v-303c29 49 80 90 160 90c119 0 219 -89 219 -272v-8c0 -183 -100 -270 -220 -270c-77 0 -132 37 -159 88v-249h-197v924zM331 137c60 0 92 42 92 122v8c0 84 -33 124 -93 124c-59 0 -91 -44 -91 -124v-8c0 -81 31 -122 92 -122z" />
    <glyph glyph-name="ydieresis" unicode="&#xff;" 
d="M214 52l-209 471h213l99 -261l92 261h186l-279 -697h-187zM202 570c-51 0 -91 40 -91 89s40 89 91 89c52 0 92 -40 92 -89s-40 -89 -92 -89zM419 570c-51 0 -90 40 -90 89s39 89 90 89c52 0 92 -40 92 -89s-40 -89 -92 -89z" />
    <glyph glyph-name="Amacron" unicode="&#x100;" horiz-adv-x="760" 
d="M234 715h293l224 -715h-240l-33 119h-226l-32 -119h-211zM295 273h141l-70 259zM211 884h333v-115h-333v115z" />
    <glyph glyph-name="amacron" unicode="&#x101;" horiz-adv-x="585" 
d="M198 -13c-94 0 -178 46 -178 158c0 123 100 171 281 171h45v9c0 44 -8 76 -61 76c-45 0 -59 -29 -62 -56h-184c8 128 108 193 258 193c152 0 244 -63 244 -200v-338h-190v60c-21 -37 -69 -73 -153 -73zM269 119c45 0 77 25 77 64v27h-42c-67 0 -90 -13 -90 -50
c0 -25 19 -41 55 -41zM137 712h316v-107h-316v107z" />
    <glyph glyph-name="Abreve" unicode="&#x102;" horiz-adv-x="760" 
d="M234 715h293l224 -715h-240l-33 119h-226l-32 -119h-211zM295 273h141l-70 259zM378 749c-104 0 -164 57 -171 157h124c3 -27 19 -42 47 -42c27 0 44 17 47 42h124c-7 -100 -71 -157 -171 -157z" />
    <glyph glyph-name="abreve" unicode="&#x103;" horiz-adv-x="585" 
d="M198 -13c-94 0 -178 46 -178 158c0 123 100 171 281 171h45v9c0 44 -8 76 -61 76c-45 0 -59 -29 -62 -56h-184c8 128 108 193 258 193c152 0 244 -63 244 -200v-338h-190v60c-21 -37 -69 -73 -153 -73zM269 119c45 0 77 25 77 64v27h-42c-67 0 -90 -13 -90 -50
c0 -25 19 -41 55 -41zM295 581c-101 0 -164 56 -169 163h119c3 -28 19 -45 50 -45c29 0 48 17 51 45h118c-7 -107 -73 -163 -169 -163z" />
    <glyph glyph-name="Aogonek" unicode="&#x104;" horiz-adv-x="760" 
d="M646 -182c-80 0 -128 31 -128 82c0 49 47 79 87 100h-94l-33 119h-226l-32 -119h-211l225 715h293l219 -700c-39 -21 -59 -51 -59 -70c0 -16 9 -24 28 -24c11 0 19 1 25 4v-90c-17 -9 -50 -17 -94 -17zM295 273h141l-70 259z" />
    <glyph glyph-name="aogonek" unicode="&#x105;" horiz-adv-x="585" 
d="M450 -182c-73 0 -119 30 -119 81c0 53 45 79 88 101h-68v60c-21 -37 -69 -73 -153 -73c-94 0 -178 46 -178 158c0 123 100 171 281 171h45v9c0 44 -8 76 -61 76c-45 0 -59 -29 -62 -56h-184c8 128 108 193 258 193c152 0 244 -63 244 -200v-326c-39 -29 -52 -51 -52 -71
c0 -17 10 -26 29 -26c10 0 19 1 26 4v-84c-19 -9 -47 -17 -94 -17zM269 119c45 0 77 25 77 64v27h-42c-67 0 -90 -13 -90 -50c0 -25 19 -41 55 -41z" />
    <glyph glyph-name="Cacute" unicode="&#x106;" horiz-adv-x="764" 
d="M408 -13c-259 0 -380 147 -380 366v8c0 221 158 365 370 365c192 0 324 -88 340 -282h-234c-7 67 -41 103 -105 103c-83 0 -132 -64 -132 -185v-8c0 -120 48 -185 136 -185c64 0 110 33 118 105h226c-13 -188 -149 -287 -339 -287zM364 906h201l-103 -149h-149z" />
    <glyph glyph-name="cacute" unicode="&#x107;" horiz-adv-x="586" 
d="M300 -13c-156 0 -278 88 -278 267v8c0 178 126 275 283 275c131 0 251 -56 262 -220h-185c-7 43 -24 69 -72 69c-59 0 -88 -40 -88 -120v-8c0 -85 27 -128 91 -128c45 0 75 28 80 79h177c-5 -136 -94 -222 -270 -222zM276 747h193l-104 -169h-141z" />
    <glyph glyph-name="Ccircumflex" unicode="&#x108;" horiz-adv-x="764" 
d="M408 -13c-259 0 -380 147 -380 366v8c0 221 158 365 370 365c192 0 324 -88 340 -282h-234c-7 67 -41 103 -105 103c-83 0 -132 -64 -132 -185v-8c0 -120 48 -185 136 -185c64 0 110 33 118 105h226c-13 -188 -149 -287 -339 -287zM316 906h164l110 -149h-142l-54 47
l-54 -47h-139z" />
    <glyph glyph-name="ccircumflex" unicode="&#x109;" horiz-adv-x="586" 
d="M300 -13c-156 0 -278 88 -278 267v8c0 178 126 275 283 275c131 0 251 -56 262 -220h-185c-7 43 -24 69 -72 69c-59 0 -88 -40 -88 -120v-8c0 -85 27 -128 91 -128c45 0 75 28 80 79h177c-5 -136 -94 -222 -270 -222zM233 746h138l120 -166h-137l-56 53l-56 -53h-134z
" />
    <glyph glyph-name="Cdotaccent" unicode="&#x10a;" horiz-adv-x="764" 
d="M408 -13c-259 0 -380 147 -380 366v8c0 221 158 365 370 365c192 0 324 -88 340 -282h-234c-7 67 -41 103 -105 103c-83 0 -132 -64 -132 -185v-8c0 -120 48 -185 136 -185c64 0 110 33 118 105h226c-13 -188 -149 -287 -339 -287zM396 752c-60 0 -103 40 -103 95
c0 56 43 96 103 96c59 0 102 -40 102 -96c0 -55 -43 -95 -102 -95z" />
    <glyph glyph-name="cdotaccent" unicode="&#x10b;" horiz-adv-x="586" 
d="M300 -13c-156 0 -278 88 -278 267v8c0 178 126 275 283 275c131 0 251 -56 262 -220h-185c-7 43 -24 69 -72 69c-59 0 -88 -40 -88 -120v-8c0 -85 27 -128 91 -128c45 0 75 28 80 79h177c-5 -136 -94 -222 -270 -222zM303 570c-60 0 -103 39 -103 95s43 96 103 96
c59 0 103 -40 103 -96s-44 -95 -103 -95z" />
    <glyph glyph-name="Ccaron" unicode="&#x10c;" horiz-adv-x="764" 
d="M408 -13c-259 0 -380 147 -380 366v8c0 221 158 365 370 365c192 0 324 -88 340 -282h-234c-7 67 -41 103 -105 103c-83 0 -132 -64 -132 -185v-8c0 -120 48 -185 136 -185c64 0 110 33 118 105h226c-13 -188 -149 -287 -339 -287zM200 906h142l54 -47l54 47h139
l-115 -149h-164z" />
    <glyph glyph-name="ccaron" unicode="&#x10d;" horiz-adv-x="586" 
d="M300 -13c-156 0 -278 88 -278 267v8c0 178 126 275 283 275c131 0 251 -56 262 -220h-185c-7 43 -24 69 -72 69c-59 0 -88 -40 -88 -120v-8c0 -85 27 -128 91 -128c45 0 75 28 80 79h177c-5 -136 -94 -222 -270 -222zM108 746h137l56 -52l56 52h134l-125 -166h-138z" />
    <glyph glyph-name="Dcaron" unicode="&#x10e;" horiz-adv-x="751" 
d="M330 174c112 0 158 55 158 180v8c0 131 -50 179 -159 179h-37v-367h38zM65 715h273c257 0 386 -121 386 -349v-7c0 -229 -133 -359 -386 -359h-273v715zM144 906h142l54 -47l54 47h139l-115 -149h-164z" />
    <glyph glyph-name="dcaron" unicode="&#x10f;" horiz-adv-x="645" 
d="M241 -13c-117 0 -218 85 -218 269v8c0 182 99 273 218 273c83 0 131 -33 160 -86v299h197v-750h-197v84c-27 -55 -80 -97 -160 -97zM314 137c60 0 92 42 92 123v8c0 80 -31 123 -91 123c-61 0 -92 -41 -92 -124v-8c0 -81 32 -122 91 -122zM640 750h140l-50 -175h-98z" />
    <glyph glyph-name="Dcroat" unicode="&#x110;" horiz-adv-x="785" 
d="M29 435h54v280h273c257 0 387 -121 387 -349v-7c0 -229 -132 -359 -387 -359h-273v284h-54v151zM349 174c112 0 157 55 157 180v8c0 131 -50 179 -159 179h-41v-106h104v-151h-104v-110h43z" />
    <glyph glyph-name="dcroat" unicode="&#x111;" horiz-adv-x="645" 
d="M250 684h151v66h197v-66h53v-103h-53v-581h-197v84c-27 -55 -80 -97 -160 -97c-117 0 -218 85 -218 269v8c0 182 99 273 218 273c83 0 131 -33 160 -86v130h-151v103zM314 137c60 0 92 42 92 123v8c0 80 -31 123 -91 123c-61 0 -92 -41 -92 -124v-8
c0 -81 32 -122 91 -122z" />
    <glyph glyph-name="Emacron" unicode="&#x112;" horiz-adv-x="620" 
d="M65 715h508v-174h-282v-101h224v-159h-224v-107h298v-174h-524v715zM160 884h333v-115h-333v115z" />
    <glyph glyph-name="emacron" unicode="&#x113;" horiz-adv-x="604" 
d="M311 -13c-167 0 -290 95 -290 268v8c0 171 130 275 290 275c147 0 272 -84 272 -272v-48h-363c5 -64 42 -97 98 -97s75 25 82 56h184c-16 -121 -106 -190 -273 -190zM393 321c-3 56 -29 90 -82 90c-48 0 -82 -30 -90 -90h172zM148 712h316v-107h-316v107z" />
    <glyph glyph-name="Ebreve" unicode="&#x114;" horiz-adv-x="620" 
d="M65 715h508v-174h-282v-101h224v-159h-224v-107h298v-174h-524v715zM325 749c-104 0 -164 57 -171 157h124c3 -27 19 -42 47 -42c27 0 44 17 47 42h124c-7 -100 -71 -157 -171 -157z" />
    <glyph glyph-name="ebreve" unicode="&#x115;" horiz-adv-x="604" 
d="M311 -13c-167 0 -290 95 -290 268v8c0 171 130 275 290 275c147 0 272 -84 272 -272v-48h-363c5 -64 42 -97 98 -97s75 25 82 56h184c-16 -121 -106 -190 -273 -190zM393 321c-3 56 -29 90 -82 90c-48 0 -82 -30 -90 -90h172zM301 581c-101 0 -164 56 -169 163h119
c3 -28 19 -45 50 -45c29 0 48 17 51 45h118c-7 -107 -73 -163 -169 -163z" />
    <glyph glyph-name="Edotaccent" unicode="&#x116;" horiz-adv-x="620" 
d="M65 715h508v-174h-282v-101h224v-159h-224v-107h298v-174h-524v715zM327 752c-60 0 -103 40 -103 95c0 56 43 96 103 96c59 0 102 -40 102 -96c0 -55 -43 -95 -102 -95z" />
    <glyph glyph-name="edotaccent" unicode="&#x117;" horiz-adv-x="604" 
d="M311 -13c-167 0 -290 95 -290 268v8c0 171 130 275 290 275c147 0 272 -84 272 -272v-48h-363c5 -64 42 -97 98 -97s75 25 82 56h184c-16 -121 -106 -190 -273 -190zM393 321c-3 56 -29 90 -82 90c-48 0 -82 -30 -90 -90h172zM307 570c-60 0 -103 39 -103 95
s43 96 103 96c59 0 103 -40 103 -96s-44 -95 -103 -95z" />
    <glyph glyph-name="Eogonek" unicode="&#x118;" horiz-adv-x="620" 
d="M470 -182c-79 0 -125 31 -125 82c0 49 45 78 86 100h-366v715h508v-174h-282v-101h224v-159h-224v-107h298v-174h-40c-24 -21 -36 -36 -36 -55c0 -16 9 -24 28 -24c10 0 19 1 26 4v-90c-19 -9 -50 -17 -97 -17z" />
    <glyph glyph-name="eogonek" unicode="&#x119;" horiz-adv-x="604" 
d="M408 -182c-73 0 -121 28 -121 79c0 43 44 70 85 95c-17 -3 -42 -5 -61 -5c-167 0 -290 95 -290 268v8c0 171 130 275 290 275c147 0 272 -84 272 -272v-48h-363c5 -64 42 -97 98 -97s75 25 82 56h184c-8 -65 -40 -105 -68 -134c-43 -44 -71 -71 -71 -102
c0 -17 10 -26 29 -26c10 0 19 1 26 4v-84c-19 -9 -41 -17 -92 -17zM393 321c-3 56 -29 90 -82 90c-48 0 -82 -30 -90 -90h172z" />
    <glyph glyph-name="Ecaron" unicode="&#x11a;" horiz-adv-x="620" 
d="M65 715h508v-174h-282v-101h224v-159h-224v-107h298v-174h-524v715zM131 906h142l54 -47l54 47h139l-115 -149h-164z" />
    <glyph glyph-name="ecaron" unicode="&#x11b;" horiz-adv-x="604" 
d="M311 -13c-167 0 -290 95 -290 268v8c0 171 130 275 290 275c147 0 272 -84 272 -272v-48h-363c5 -64 42 -97 98 -97s75 25 82 56h184c-16 -121 -106 -190 -273 -190zM393 321c-3 56 -29 90 -82 90c-48 0 -82 -30 -90 -90h172zM114 746h137l56 -52l56 52h134l-125 -166
h-138z" />
    <glyph glyph-name="Gcircumflex" unicode="&#x11c;" horiz-adv-x="791" 
d="M407 -13c-248 0 -380 151 -380 366v8c0 220 164 365 380 365c174 0 327 -79 340 -270h-224c-8 60 -44 92 -115 92c-91 0 -145 -70 -145 -191v-8c0 -105 35 -190 151 -190c90 0 124 44 129 91h-122v149h343v-92c0 -178 -117 -320 -357 -320zM325 906h164l110 -149h-142
l-54 47l-54 -47h-139z" />
    <glyph glyph-name="gcircumflex" unicode="&#x11d;" horiz-adv-x="644" 
d="M299 -194c-181 0 -267 74 -280 198h195c8 -32 24 -62 86 -62c75 0 100 44 100 100v81c-27 -51 -80 -92 -159 -92c-119 0 -219 86 -219 248v8c0 157 99 251 218 251c83 0 131 -34 160 -87v72h197v-478c0 -157 -102 -239 -298 -239zM314 171c59 0 92 41 92 108v7
c0 64 -32 106 -92 106s-92 -40 -92 -107v-8c0 -64 32 -106 92 -106zM240 746h138l120 -166h-137l-56 53l-56 -53h-134z" />
    <glyph glyph-name="Gbreve" unicode="&#x11e;" horiz-adv-x="791" 
d="M407 -13c-248 0 -380 151 -380 366v8c0 220 164 365 380 365c174 0 327 -79 340 -270h-224c-8 60 -44 92 -115 92c-91 0 -145 -70 -145 -191v-8c0 -105 35 -190 151 -190c90 0 124 44 129 91h-122v149h343v-92c0 -178 -117 -320 -357 -320zM405 749
c-104 0 -164 57 -171 157h124c3 -27 19 -42 47 -42c27 0 44 17 47 42h124c-7 -100 -71 -157 -171 -157z" />
    <glyph glyph-name="gbreve" unicode="&#x11f;" horiz-adv-x="644" 
d="M299 -194c-181 0 -267 74 -280 198h195c8 -32 24 -62 86 -62c75 0 100 44 100 100v81c-27 -51 -80 -92 -159 -92c-119 0 -219 86 -219 248v8c0 157 99 251 218 251c83 0 131 -34 160 -87v72h197v-478c0 -157 -102 -239 -298 -239zM314 171c59 0 92 41 92 108v7
c0 64 -32 106 -92 106s-92 -40 -92 -107v-8c0 -64 32 -106 92 -106zM307 581c-101 0 -164 56 -169 163h119c3 -28 19 -45 50 -45c29 0 48 17 51 45h118c-7 -107 -73 -163 -169 -163z" />
    <glyph glyph-name="Gdotaccent" unicode="&#x120;" horiz-adv-x="791" 
d="M407 -13c-248 0 -380 151 -380 366v8c0 220 164 365 380 365c174 0 327 -79 340 -270h-224c-8 60 -44 92 -115 92c-91 0 -145 -70 -145 -191v-8c0 -105 35 -190 151 -190c90 0 124 44 129 91h-122v149h343v-92c0 -178 -117 -320 -357 -320zM405 752
c-60 0 -103 40 -103 95c0 56 43 96 103 96c59 0 102 -40 102 -96c0 -55 -43 -95 -102 -95z" />
    <glyph glyph-name="gdotaccent" unicode="&#x121;" horiz-adv-x="644" 
d="M299 -194c-181 0 -267 74 -280 198h195c8 -32 24 -62 86 -62c75 0 100 44 100 100v81c-27 -51 -80 -92 -159 -92c-119 0 -219 86 -219 248v8c0 157 99 251 218 251c83 0 131 -34 160 -87v72h197v-478c0 -157 -102 -239 -298 -239zM314 171c59 0 92 41 92 108v7
c0 64 -32 106 -92 106s-92 -40 -92 -107v-8c0 -64 32 -106 92 -106zM308 570c-60 0 -103 39 -103 95s43 96 103 96c59 0 103 -40 103 -96s-44 -95 -103 -95z" />
    <glyph glyph-name="uni0122" unicode="&#x122;" horiz-adv-x="790" 
d="M407 -13c-248 0 -380 151 -380 366v8c0 220 164 365 380 365c174 0 327 -79 340 -270h-224c-8 60 -44 92 -115 92c-91 0 -145 -70 -145 -191v-8c0 -105 35 -190 151 -190c90 0 124 44 129 91h-122v149h343v-92c0 -178 -117 -320 -357 -320zM283 -206l39 175l172 -12
l-101 -190z" />
    <glyph glyph-name="uni0123" unicode="&#x123;" horiz-adv-x="644" 
d="M299 -194c-181 0 -267 74 -280 198h195c8 -32 24 -62 86 -62c75 0 100 44 100 100v81c-27 -51 -80 -92 -159 -92c-119 0 -219 86 -219 248v8c0 157 99 251 218 251c83 0 131 -34 160 -87v72h197v-478c0 -157 -102 -239 -298 -239zM314 171c59 0 92 41 92 108v7
c0 64 -32 106 -92 106s-92 -40 -92 -107v-8c0 -64 32 -106 92 -106zM227 577l101 190l110 -27l-39 -175z" />
    <glyph glyph-name="Hcircumflex" unicode="&#x124;" horiz-adv-x="794" 
d="M65 715h227v-264h210v264h227v-715h-227v275h-210v-275h-227v715zM316 906h164l110 -149h-142l-54 47l-54 -47h-139z" />
    <glyph glyph-name="hcircumflex" unicode="&#x125;" horiz-adv-x="629" 
d="M47 750h197v-311c29 56 85 98 173 98c99 0 168 -63 168 -193v-344h-197v300c0 53 -19 80 -66 80c-49 0 -78 -28 -78 -91v-289h-197v750zM238 928h164l110 -149h-142l-54 47l-54 -47h-139z" />
    <glyph glyph-name="Hbar" unicode="&#x126;" horiz-adv-x="794" 
d="M7 627h58v88h227v-88h210v88h227v-88h58v-101h-58v-526h-227v275h-210v-275h-227v526h-58v101zM502 451v75h-210v-75h210z" />
    <glyph glyph-name="hbar" unicode="&#x127;" horiz-adv-x="629" 
d="M-6 684h53v66h197v-66h151v-103h-151v-142c29 56 85 98 173 98c99 0 168 -63 168 -193v-344h-197v300c0 53 -19 80 -66 80c-49 0 -78 -28 -78 -91v-289h-197v581h-53v103z" />
    <glyph glyph-name="Itilde" unicode="&#x128;" horiz-adv-x="366" 
d="M68 715h229v-715h-229v715zM249 755c-58 0 -90 32 -121 32c-16 0 -27 -11 -30 -30h-109c8 111 62 160 126 160c56 0 90 -32 124 -32c17 0 26 11 29 30h110c-8 -111 -68 -160 -129 -160z" />
    <glyph glyph-name="itilde" unicode="&#x129;" horiz-adv-x="303" 
d="M53 523h196v-523h-196v523zM218 581c-58 0 -89 32 -118 32c-16 0 -27 -13 -30 -30h-104c7 111 54 162 118 162c55 0 88 -32 121 -32c17 0 27 10 30 31h104c-8 -111 -59 -163 -121 -163z" />
    <glyph glyph-name="Imacron" unicode="&#x12a;" horiz-adv-x="366" 
d="M68 715h229v-715h-229v715zM16 884h333v-115h-333v115z" />
    <glyph glyph-name="imacron" unicode="&#x12b;" horiz-adv-x="303" 
d="M24 712h255v-107h-255v107zM53 523h196v-523h-196v523z" />
    <glyph glyph-name="Ibreve" unicode="&#x12c;" horiz-adv-x="366" 
d="M68 715h229v-715h-229v715zM183 749c-104 0 -164 57 -171 157h124c3 -27 19 -42 47 -42c27 0 44 17 47 42h124c-7 -100 -71 -157 -171 -157z" />
    <glyph glyph-name="ibreve" unicode="&#x12d;" horiz-adv-x="303" 
d="M53 523h196v-523h-196v523zM152 581c-101 0 -164 56 -169 163h119c3 -28 19 -45 50 -45c29 0 48 17 51 45h118c-7 -107 -73 -163 -169 -163z" />
    <glyph glyph-name="Iogonek" unicode="&#x12e;" horiz-adv-x="366" 
d="M205 -182c-80 0 -127 31 -127 82c0 49 45 79 87 100h-97v715h229v-702c-31 -23 -50 -45 -50 -68c0 -16 9 -24 28 -24c11 0 19 1 25 4v-90c-17 -9 -50 -17 -95 -17z" />
    <glyph glyph-name="iogonek" unicode="&#x12f;" horiz-adv-x="303" 
d="M161 -182c-73 0 -119 31 -119 82c0 53 45 79 87 100h-76v523h196v-513c-37 -29 -49 -49 -49 -69c0 -17 10 -26 29 -26c11 0 19 1 25 4v-84c-17 -9 -44 -17 -93 -17zM151 562c-61 0 -107 42 -107 99c0 59 46 100 107 100c60 0 106 -41 106 -100c0 -57 -46 -99 -106 -99z
" />
    <glyph glyph-name="Idotaccent" unicode="&#x130;" horiz-adv-x="366" 
d="M68 715h229v-715h-229v715zM184 752c-60 0 -103 40 -103 95c0 56 43 96 103 96c59 0 102 -40 102 -96c0 -55 -43 -95 -102 -95z" />
    <glyph glyph-name="dotlessi" unicode="&#x131;" horiz-adv-x="303" 
d="M53 523h196v-523h-196v523z" />
    <glyph glyph-name="IJ" unicode="&#x132;" horiz-adv-x="830" 
d="M68 715h229v-715h-229v715zM509 -9c-71 0 -105 10 -136 25v167c23 -7 46 -13 85 -13c53 0 90 22 90 93v452h227v-453c0 -179 -86 -271 -266 -271z" />
    <glyph glyph-name="ij" unicode="&#x133;" horiz-adv-x="303" 
d="M53 523h196v-523h-196v523zM151 562c-61 0 -107 42 -107 99c0 59 46 100 107 100c60 0 106 -41 106 -100c0 -57 -46 -99 -106 -99zM293 -42c43 3 61 18 61 58v507h197v-512c0 -116 -55 -194 -258 -194v141zM453 562c-61 0 -107 42 -107 99c0 59 46 100 107 100
c60 0 106 -41 106 -100c0 -57 -46 -99 -106 -99z" />
    <glyph glyph-name="Jcircumflex" unicode="&#x134;" horiz-adv-x="489" 
d="M168 -9c-71 0 -105 10 -136 25v167c23 -7 46 -13 85 -13c53 0 90 22 90 93v452h227v-453c0 -179 -86 -271 -266 -271zM239 906h164l110 -149h-142l-54 47l-54 -47h-139z" />
    <glyph glyph-name="jcircumflex" unicode="&#x135;" horiz-adv-x="303" 
d="M-9 -42c43 3 61 18 61 58v507h197v-512c0 -116 -55 -194 -258 -194v141zM84 746h138l120 -166h-137l-56 53l-56 -53h-134z" />
    <glyph glyph-name="uni0136" unicode="&#x136;" horiz-adv-x="745" 
d="M65 715h227v-271l198 271h235l-251 -330l265 -385h-261l-186 286v-286h-227v715zM260 -206l39 175l172 -12l-101 -190z" />
    <glyph glyph-name="uni0137" unicode="&#x137;" horiz-adv-x="589" 
d="M47 750h197v-425l127 198h202l-161 -234l174 -289h-218l-124 218v-218h-197v750zM185 -206l39 175l172 -12l-101 -190z" />
    <glyph glyph-name="Lacute" unicode="&#x139;" horiz-adv-x="582" 
d="M65 715h227v-540h260v-175h-487v715zM150 906h201l-103 -149h-149z" />
    <glyph glyph-name="lacute" unicode="&#x13a;" horiz-adv-x="300" 
d="M52 750h196v-750h-196v750zM122 928h201l-103 -149h-149z" />
    <glyph glyph-name="uni013B" unicode="&#x13b;" horiz-adv-x="582" 
d="M65 715h227v-540h260v-175h-487v715zM183 -206l39 175l172 -12l-101 -190z" />
    <glyph glyph-name="uni013C" unicode="&#x13c;" horiz-adv-x="300" 
d="M52 750h196v-750h-196v750zM29 -206l39 175l172 -12l-101 -190z" />
    <glyph glyph-name="Lcaron" unicode="&#x13d;" horiz-adv-x="582" 
d="M368 715h158l-61 -180h-112zM65 715h227v-540h260v-175h-487v715z" />
    <glyph glyph-name="lcaron" unicode="&#x13e;" horiz-adv-x="300" 
d="M52 750h196v-750h-196v750zM291 750h140l-50 -175h-98z" />
    <glyph glyph-name="Ldot" unicode="&#x13f;" horiz-adv-x="613" 
d="M65 715h227v-540h260v-175h-487v715zM488 297c-63 0 -110 47 -110 107s47 108 110 108c64 0 112 -48 112 -108s-48 -107 -112 -107z" />
    <glyph glyph-name="ldot" unicode="&#x140;" horiz-adv-x="479" 
d="M52 750h196v-750h-196v750zM387 251c-63 0 -110 47 -110 107s47 108 110 108c64 0 112 -48 112 -108s-48 -107 -112 -107z" />
    <glyph glyph-name="Lslash" unicode="&#x141;" 
d="M22 340l61 21v354h228v-276l176 61v-116l-176 -61v-148h260v-175h-488v245l-61 -21v116z" />
    <glyph glyph-name="lslash" unicode="&#x142;" horiz-adv-x="344" 
d="M16 376l58 27v347h196v-256l61 29v-123l-61 -29v-371h-196v279l-58 -27v124z" />
    <glyph glyph-name="Nacute" unicode="&#x143;" horiz-adv-x="787" 
d="M65 715h254l203 -378v378h199v-715h-217l-239 428v-428h-200v715zM381 906h201l-103 -149h-149z" />
    <glyph glyph-name="nacute" unicode="&#x144;" horiz-adv-x="629" 
d="M47 523h197v-84c29 56 85 98 173 98c99 0 168 -63 168 -193v-344h-197v300c0 53 -19 80 -66 80c-49 0 -78 -28 -78 -91v-289h-197v523zM292 747h193l-104 -169h-141z" />
    <glyph glyph-name="uni0145" unicode="&#x145;" horiz-adv-x="787" 
d="M65 715h254l203 -378v378h199v-715h-217l-239 428v-428h-200v715zM269 -206l39 175l172 -12l-101 -190z" />
    <glyph glyph-name="uni0146" unicode="&#x146;" horiz-adv-x="629" 
d="M47 523h197v-84c29 56 85 98 173 98c99 0 168 -63 168 -193v-344h-197v300c0 53 -19 80 -66 80c-49 0 -78 -28 -78 -91v-289h-197v523zM193 -206l39 175l172 -12l-101 -190z" />
    <glyph glyph-name="Ncaron" unicode="&#x147;" horiz-adv-x="787" 
d="M65 715h254l203 -378v378h199v-715h-217l-239 428v-428h-200v715zM217 906h142l54 -47l54 47h139l-115 -149h-164z" />
    <glyph glyph-name="ncaron" unicode="&#x148;" horiz-adv-x="629" 
d="M47 523h197v-84c29 56 85 98 173 98c99 0 168 -63 168 -193v-344h-197v300c0 53 -19 80 -66 80c-49 0 -78 -28 -78 -91v-289h-197v523zM123 746h137l56 -52l56 52h134l-125 -166h-138z" />
    <glyph glyph-name="napostrophe" unicode="&#x149;" horiz-adv-x="769" 
d="M186 523h197v-84c29 56 85 98 173 98c99 0 168 -63 168 -193v-344h-197v300c0 53 -19 80 -66 80c-49 0 -78 -28 -78 -91v-289h-197v523zM-28 459l78 269l171 -55l-140 -256z" />
    <glyph glyph-name="Eng" unicode="&#x14a;" horiz-adv-x="787" 
d="M473 -192c-65 0 -97 10 -128 23v159c23 -7 40 -13 75 -13c39 0 66 13 75 42l-227 420v-439h-203v715h257l197 -384v384h202v-689c0 -128 -80 -218 -248 -218z" />
    <glyph glyph-name="eng" unicode="&#x14b;" horiz-adv-x="629" 
d="M328 -42c43 3 60 18 60 58v284c0 53 -19 80 -66 80c-49 0 -78 -28 -78 -91v-289h-197v523h197v-84c29 56 85 98 173 98c99 0 168 -63 168 -193v-333c0 -116 -55 -194 -257 -194v141z" />
    <glyph glyph-name="Omacron" unicode="&#x14c;" horiz-adv-x="820" 
d="M411 165c89 0 146 69 146 189v8c0 121 -57 187 -148 187c-88 0 -145 -64 -145 -187v-8c0 -123 56 -189 147 -189zM405 -13c-235 0 -378 149 -378 366v8c0 221 168 365 382 365c220 0 384 -133 384 -359v-8c0 -223 -153 -372 -388 -372zM242 884h333v-115h-333v115z" />
    <glyph glyph-name="omacron" unicode="&#x14d;" horiz-adv-x="626" 
d="M314 132c60 0 90 42 90 127v7c0 83 -29 126 -90 126c-60 0 -93 -40 -93 -123v-8c0 -86 31 -129 93 -129zM313 -13c-163 0 -291 96 -291 268v8c0 170 127 274 292 274c163 0 290 -101 290 -269v-8c0 -172 -128 -273 -291 -273zM154 712h316v-107h-316v107z" />
    <glyph glyph-name="Obreve" unicode="&#x14e;" horiz-adv-x="820" 
d="M411 165c89 0 146 69 146 189v8c0 121 -57 187 -148 187c-88 0 -145 -64 -145 -187v-8c0 -123 56 -189 147 -189zM405 -13c-235 0 -378 149 -378 366v8c0 221 168 365 382 365c220 0 384 -133 384 -359v-8c0 -223 -153 -372 -388 -372zM409 749c-104 0 -164 57 -171 157
h124c3 -27 19 -42 47 -42c27 0 44 17 47 42h124c-7 -100 -71 -157 -171 -157z" />
    <glyph glyph-name="obreve" unicode="&#x14f;" horiz-adv-x="626" 
d="M314 132c60 0 90 42 90 127v7c0 83 -29 126 -90 126c-60 0 -93 -40 -93 -123v-8c0 -86 31 -129 93 -129zM313 -13c-163 0 -291 96 -291 268v8c0 170 127 274 292 274c163 0 290 -101 290 -269v-8c0 -172 -128 -273 -291 -273zM312 581c-101 0 -164 56 -169 163h119
c3 -28 19 -45 50 -45c29 0 48 17 51 45h118c-7 -107 -73 -163 -169 -163z" />
    <glyph glyph-name="Ohungarumlaut" unicode="&#x150;" horiz-adv-x="820" 
d="M411 165c89 0 146 69 146 189v8c0 121 -57 187 -148 187c-88 0 -145 -64 -145 -187v-8c0 -123 56 -189 147 -189zM405 -13c-235 0 -378 149 -378 366v8c0 221 168 365 382 365c220 0 384 -133 384 -359v-8c0 -223 -153 -372 -388 -372zM272 906h163l-75 -149h-130z
M473 906h164l-75 -149h-130z" />
    <glyph glyph-name="ohungarumlaut" unicode="&#x151;" horiz-adv-x="626" 
d="M314 132c60 0 90 42 90 127v7c0 83 -29 126 -90 126c-60 0 -93 -40 -93 -123v-8c0 -86 31 -129 93 -129zM313 -13c-163 0 -291 96 -291 268v8c0 170 127 274 292 274c163 0 290 -101 290 -269v-8c0 -172 -128 -273 -291 -273zM195 747h148l-78 -169h-114zM376 747h148
l-77 -169h-115z" />
    <glyph glyph-name="OE" unicode="&#x152;" horiz-adv-x="983" 
d="M27 356c0 229 134 359 385 359h525v-174h-268v-101h209v-159h-209v-107h283v-174h-540c-255 0 -385 121 -385 349v7zM419 541c-111 0 -155 -55 -155 -180v-8c0 -131 47 -179 157 -179h23v367h-25z" />
    <glyph glyph-name="oe" unicode="&#x153;" horiz-adv-x="984" 
d="M313 -13c-164 0 -292 96 -292 268v8c0 171 128 275 293 275c79 0 142 -26 189 -73c47 47 112 73 188 73c147 0 272 -84 272 -271v-48h-363c5 -65 42 -98 98 -98s75 25 82 56h183c-15 -121 -105 -190 -272 -190c-81 0 -145 23 -192 69c-47 -46 -109 -69 -186 -69zM314 132
c60 0 90 45 90 126v8c0 83 -29 126 -90 126s-92 -41 -92 -123v-8c0 -86 31 -129 92 -129zM773 322c-3 55 -29 89 -82 89c-48 0 -82 -30 -90 -89h172z" />
    <glyph glyph-name="Racute" unicode="&#x154;" horiz-adv-x="710" 
d="M65 715h292c199 0 299 -79 299 -232v-4c0 -99 -50 -155 -121 -187l163 -292h-238l-133 245h-36v-245h-226v715zM344 391c62 0 93 26 93 78v4c0 52 -31 72 -92 72h-54v-154h53zM310 906h201l-103 -149h-149z" />
    <glyph glyph-name="racute" unicode="&#x155;" horiz-adv-x="438" 
d="M47 523h197v-106c33 81 89 114 168 113v-184c-109 7 -168 -29 -168 -105v-241h-197v523zM217 747h193l-104 -169h-141z" />
    <glyph glyph-name="uni0156" unicode="&#x156;" horiz-adv-x="710" 
d="M65 715h292c199 0 299 -79 299 -232v-4c0 -99 -50 -155 -121 -187l163 -292h-238l-133 245h-36v-245h-226v715zM344 391c62 0 93 26 93 78v4c0 52 -31 72 -92 72h-54v-154h53zM255 -206l39 175l172 -12l-101 -190z" />
    <glyph glyph-name="uni0157" unicode="&#x157;" horiz-adv-x="438" 
d="M47 523h197v-106c33 81 89 114 168 113v-184c-109 7 -168 -29 -168 -105v-241h-197v523zM28 -206l39 175l172 -12l-101 -190z" />
    <glyph glyph-name="Rcaron" unicode="&#x158;" horiz-adv-x="710" 
d="M65 715h292c199 0 299 -79 299 -232v-4c0 -99 -50 -155 -121 -187l163 -292h-238l-133 245h-36v-245h-226v715zM344 391c62 0 93 26 93 78v4c0 52 -31 72 -92 72h-54v-154h53zM146 906h142l54 -47l54 47h139l-115 -149h-164z" />
    <glyph glyph-name="rcaron" unicode="&#x159;" horiz-adv-x="438" 
d="M47 523h197v-106c33 81 89 114 168 113v-184c-109 7 -168 -29 -168 -105v-241h-197v523zM48 746h137l56 -52l56 52h134l-125 -166h-138z" />
    <glyph glyph-name="Sacute" unicode="&#x15a;" horiz-adv-x="653" 
d="M334 -13c-203 0 -310 81 -315 242h215c3 -45 26 -82 100 -82c53 0 79 24 79 59c0 37 -25 50 -102 61c-206 24 -276 82 -276 230c0 132 107 228 286 228s276 -71 288 -228h-210c-5 44 -30 69 -78 69c-47 0 -71 -21 -71 -52c0 -35 21 -49 100 -60c180 -19 280 -65 280 -224
c0 -132 -105 -243 -296 -243zM292 906h201l-103 -149h-149z" />
    <glyph glyph-name="sacute" unicode="&#x15b;" horiz-adv-x="523" 
d="M261 -13c-153 0 -243 62 -246 181h180c7 -35 20 -54 65 -54c39 0 55 14 55 37s-21 35 -92 44c-141 16 -203 54 -203 166c0 120 105 177 233 177c137 0 226 -45 239 -173h-177c-7 31 -23 49 -59 49s-52 -16 -52 -36c0 -24 23 -33 82 -40c151 -19 221 -54 221 -167
c0 -129 -98 -184 -246 -184zM236 747h193l-104 -169h-141z" />
    <glyph glyph-name="Scircumflex" unicode="&#x15c;" horiz-adv-x="653" 
d="M334 -13c-203 0 -310 81 -315 242h215c3 -45 26 -82 100 -82c53 0 79 24 79 59c0 37 -25 50 -102 61c-206 24 -276 82 -276 230c0 132 107 228 286 228s276 -71 288 -228h-210c-5 44 -30 69 -78 69c-47 0 -71 -21 -71 -52c0 -35 21 -49 100 -60c180 -19 280 -65 280 -224
c0 -132 -105 -243 -296 -243zM244 906h164l110 -149h-142l-54 47l-54 -47h-139z" />
    <glyph glyph-name="scircumflex" unicode="&#x15d;" horiz-adv-x="523" 
d="M261 -13c-153 0 -243 62 -246 181h180c7 -35 20 -54 65 -54c39 0 55 14 55 37s-21 35 -92 44c-141 16 -203 54 -203 166c0 120 105 177 233 177c137 0 226 -45 239 -173h-177c-7 31 -23 49 -59 49s-52 -16 -52 -36c0 -24 23 -33 82 -40c151 -19 221 -54 221 -167
c0 -129 -98 -184 -246 -184zM190 746h138l120 -166h-137l-56 53l-56 -53h-134z" />
    <glyph glyph-name="uni015E" unicode="&#x15e;" horiz-adv-x="653" 
d="M307 -228c-76 0 -121 33 -132 94h90c3 -13 12 -26 35 -26c19 0 30 12 30 29s-10 30 -33 30c-15 0 -25 -4 -32 -12l-40 41l41 63c-159 16 -243 95 -247 238h215c3 -45 26 -82 100 -82c53 0 79 24 79 59c0 37 -25 50 -102 61c-206 24 -276 82 -276 230
c0 132 107 228 286 228s276 -71 288 -228h-210c-5 44 -30 69 -78 69c-47 0 -71 -21 -71 -52c0 -35 21 -49 100 -60c180 -19 280 -65 280 -224c0 -132 -102 -240 -290 -243l-22 -31c60 5 114 -20 114 -87c0 -61 -49 -97 -125 -97z" />
    <glyph glyph-name="uni015F" unicode="&#x15f;" horiz-adv-x="523" 
d="M243 -228c-76 0 -121 33 -132 94h90c3 -13 12 -26 35 -26c19 0 30 12 30 29s-10 30 -33 30c-15 0 -25 -4 -32 -12l-40 41l41 63c-117 15 -184 74 -187 177h180c7 -35 20 -54 65 -54c39 0 55 14 55 37s-21 35 -92 44c-141 16 -203 54 -203 166c0 120 105 177 233 177
c137 0 226 -45 239 -173h-177c-7 31 -23 49 -59 49s-52 -16 -52 -36c0 -24 23 -33 82 -40c151 -19 221 -54 221 -167c0 -124 -92 -181 -231 -184l-22 -31c60 5 114 -20 114 -87c0 -61 -49 -97 -125 -97z" />
    <glyph glyph-name="Scaron" unicode="&#x160;" horiz-adv-x="653" 
d="M334 -13c-203 0 -310 81 -315 242h215c3 -45 26 -82 100 -82c53 0 79 24 79 59c0 37 -25 50 -102 61c-206 24 -276 82 -276 230c0 132 107 228 286 228s276 -71 288 -228h-210c-5 44 -30 69 -78 69c-47 0 -71 -21 -71 -52c0 -35 21 -49 100 -60c180 -19 280 -65 280 -224
c0 -132 -105 -243 -296 -243zM128 906h142l54 -47l54 47h139l-115 -149h-164z" />
    <glyph glyph-name="scaron" unicode="&#x161;" horiz-adv-x="523" 
d="M261 -13c-153 0 -243 62 -246 181h180c7 -35 20 -54 65 -54c39 0 55 14 55 37s-21 35 -92 44c-141 16 -203 54 -203 166c0 120 105 177 233 177c137 0 226 -45 239 -173h-177c-7 31 -23 49 -59 49s-52 -16 -52 -36c0 -24 23 -33 82 -40c151 -19 221 -54 221 -167
c0 -129 -98 -184 -246 -184zM62 746h137l56 -52l56 52h134l-125 -166h-138z" />
    <glyph glyph-name="Tcommaaccent" unicode="&#x162;" horiz-adv-x="629" 
d="M200 541h-180v174h589v-174h-181v-541h-228v541zM191 -206l39 175l172 -12l-101 -190z" />
    <glyph glyph-name="tcommaaccent" unicode="&#x163;" horiz-adv-x="396" 
d="M265 -12c-124 0 -193 55 -193 187v216h-61v132h61v107h197v-107h100v-132h-100v-197c0 -36 19 -51 51 -51c17 0 34 3 49 8v-148c-24 -7 -61 -15 -104 -15zM90 -206l39 175l172 -12l-101 -190z" />
    <glyph glyph-name="Tcaron" unicode="&#x164;" horiz-adv-x="629" 
d="M200 541h-180v174h589v-174h-181v-541h-228v541zM117 906h142l54 -47l54 47h139l-115 -149h-164z" />
    <glyph glyph-name="tcaron" unicode="&#x165;" horiz-adv-x="396" 
d="M265 -12c-124 0 -193 55 -193 187v216h-61v132h61v107h197v-107h100v-132h-100v-197c0 -36 19 -51 51 -51c17 0 34 3 49 8v-148c-24 -7 -61 -15 -104 -15zM318 750h140l-50 -175h-98z" />
    <glyph glyph-name="Tbar" unicode="&#x166;" horiz-adv-x="629" 
d="M78 408h122v133h-180v174h589v-174h-181v-133h123v-140h-123v-268h-228v268h-122v140z" />
    <glyph glyph-name="tbar" unicode="&#x167;" horiz-adv-x="396" 
d="M12 331h60v60h-60v132h60v107h197v-107h100v-132h-100v-60h100v-96h-100v-42c0 -34 17 -51 51 -51c19 0 32 2 48 9v-148c-24 -7 -60 -16 -103 -16c-124 0 -193 56 -193 188v60h-60v96z" />
    <glyph glyph-name="Utilde" unicode="&#x168;" horiz-adv-x="776" 
d="M388 -13c-211 0 -327 103 -327 308v420h226v-411c0 -93 20 -139 101 -139c80 0 100 45 100 140v410h228v-418c0 -216 -128 -310 -328 -310zM452 755c-58 0 -90 32 -121 32c-16 0 -27 -11 -30 -30h-109c8 111 62 160 126 160c56 0 90 -32 124 -32c17 0 26 11 29 30h110
c-8 -111 -68 -160 -129 -160z" />
    <glyph glyph-name="utilde" unicode="&#x169;" horiz-adv-x="628" 
d="M218 -13c-100 0 -175 63 -175 193v343h197v-309c0 -53 19 -80 66 -80c49 0 78 28 78 91v298h197v-523h-197v81c-29 -56 -78 -94 -166 -94zM378 581c-58 0 -89 32 -118 32c-16 0 -27 -13 -30 -30h-104c7 111 54 162 118 162c55 0 88 -32 121 -32c17 0 27 10 30 31h104
c-8 -111 -59 -163 -121 -163z" />
    <glyph glyph-name="Umacron" unicode="&#x16a;" horiz-adv-x="776" 
d="M388 -13c-211 0 -327 103 -327 308v420h226v-411c0 -93 20 -139 101 -139c80 0 100 45 100 140v410h228v-418c0 -216 -128 -310 -328 -310zM219 884h333v-115h-333v115z" />
    <glyph glyph-name="umacron" unicode="&#x16b;" horiz-adv-x="628" 
d="M218 -13c-100 0 -175 63 -175 193v343h197v-309c0 -53 19 -80 66 -80c49 0 78 28 78 91v298h197v-523h-197v81c-29 -56 -78 -94 -166 -94zM154 712h316v-107h-316v107z" />
    <glyph glyph-name="Ubreve" unicode="&#x16c;" horiz-adv-x="776" 
d="M388 -13c-211 0 -327 103 -327 308v420h226v-411c0 -93 20 -139 101 -139c80 0 100 45 100 140v410h228v-418c0 -216 -128 -310 -328 -310zM386 749c-104 0 -164 57 -171 157h124c3 -27 19 -42 47 -42c27 0 44 17 47 42h124c-7 -100 -71 -157 -171 -157z" />
    <glyph glyph-name="ubreve" unicode="&#x16d;" horiz-adv-x="628" 
d="M218 -13c-100 0 -175 63 -175 193v343h197v-309c0 -53 19 -80 66 -80c49 0 78 28 78 91v298h197v-523h-197v81c-29 -56 -78 -94 -166 -94zM312 581c-101 0 -164 56 -169 163h119c3 -28 19 -45 50 -45c29 0 48 17 51 45h118c-7 -107 -73 -163 -169 -163z" />
    <glyph glyph-name="Uring" unicode="&#x16e;" horiz-adv-x="776" 
d="M388 -13c-211 0 -327 103 -327 308v420h226v-411c0 -93 20 -139 101 -139c80 0 100 45 100 140v410h228v-418c0 -216 -128 -310 -328 -310zM386 790c27 0 45 21 45 50c0 31 -18 50 -45 50s-45 -19 -45 -50c0 -29 18 -50 45 -50zM386 722c-68 0 -122 54 -122 118
s54 118 122 118s122 -54 122 -118s-54 -118 -122 -118z" />
    <glyph glyph-name="uring" unicode="&#x16f;" horiz-adv-x="628" 
d="M218 -13c-100 0 -175 63 -175 193v343h197v-309c0 -53 19 -80 66 -80c49 0 78 28 78 91v298h197v-523h-197v81c-29 -56 -78 -94 -166 -94zM311 620c27 0 44 20 44 48c0 29 -17 49 -44 49s-44 -20 -44 -49c0 -28 17 -48 44 -48zM311 552c-66 0 -120 52 -120 116
s54 117 120 117s120 -53 120 -117s-54 -116 -120 -116z" />
    <glyph glyph-name="Uhungarumlaut" unicode="&#x170;" horiz-adv-x="776" 
d="M388 -13c-211 0 -327 103 -327 308v420h226v-411c0 -93 20 -139 101 -139c80 0 100 45 100 140v410h228v-418c0 -216 -128 -310 -328 -310zM249 906h163l-75 -149h-130zM450 906h164l-75 -149h-130z" />
    <glyph glyph-name="uhungarumlaut" unicode="&#x171;" horiz-adv-x="628" 
d="M218 -13c-100 0 -175 63 -175 193v343h197v-309c0 -53 19 -80 66 -80c49 0 78 28 78 91v298h197v-523h-197v81c-29 -56 -78 -94 -166 -94zM195 747h148l-78 -169h-114zM376 747h148l-77 -169h-115z" />
    <glyph glyph-name="Uogonek" unicode="&#x172;" horiz-adv-x="776" 
d="M426 -182c-76 0 -123 31 -123 80c0 41 31 69 64 90c-197 7 -306 108 -306 307v420h226v-411c0 -93 20 -139 101 -139c80 0 100 45 100 140v410h228v-418c0 -147 -59 -235 -158 -280c-45 -20 -87 -36 -87 -71c0 -17 10 -25 29 -25c11 0 19 1 25 4v-90
c-17 -9 -50 -17 -99 -17z" />
    <glyph glyph-name="uogonek" unicode="&#x173;" horiz-adv-x="628" 
d="M490 -182c-73 0 -119 31 -119 82c0 53 45 78 88 100h-75v81c-29 -56 -78 -94 -166 -94c-100 0 -175 63 -175 193v343h197v-309c0 -53 19 -80 66 -80c49 0 78 28 78 91v298h197v-510c-39 -31 -52 -52 -52 -72c0 -17 11 -26 30 -26c11 0 19 1 25 4v-84
c-19 -9 -47 -17 -94 -17z" />
    <glyph glyph-name="Wcircumflex" unicode="&#x174;" horiz-adv-x="1009" 
d="M10 715h229l82 -427l86 427h197l97 -432l87 432h210l-166 -715h-229l-100 427l-101 -427h-226zM425 906h164l110 -149h-142l-54 47l-54 -47h-139z" />
    <glyph glyph-name="wcircumflex" unicode="&#x175;" horiz-adv-x="854" 
d="M5 523h205l68 -293l80 293h158l70 -293l79 293h184l-166 -523h-185l-73 273l-72 -273h-191zM359 746h138l120 -166h-137l-56 53l-56 -53h-134z" />
    <glyph glyph-name="Ycircumflex" unicode="&#x176;" horiz-adv-x="692" 
d="M237 305l-232 410h246l109 -224l110 224h217l-222 -409v-306h-228v305zM273 906h164l110 -149h-142l-54 47l-54 -47h-139z" />
    <glyph glyph-name="ycircumflex" unicode="&#x177;" 
d="M214 52l-209 471h213l99 -261l92 261h186l-279 -697h-187zM242 746h138l120 -166h-137l-56 53l-56 -53h-134z" />
    <glyph glyph-name="Ydieresis" unicode="&#x178;" horiz-adv-x="692" 
d="M237 305l-232 410h246l109 -224l110 224h217l-222 -409v-306h-228v305zM239 752c-51 0 -91 40 -91 89c0 50 40 89 91 89c52 0 92 -39 92 -89c0 -49 -40 -89 -92 -89zM466 752c-51 0 -91 40 -91 89c0 50 40 89 91 89c52 0 92 -39 92 -89c0 -49 -40 -89 -92 -89z" />
    <glyph glyph-name="Zacute" unicode="&#x179;" horiz-adv-x="627" 
d="M10 24l286 521h-246v170h563v-24l-283 -520h266v-171h-586v24zM288 906h201l-103 -149h-149z" />
    <glyph glyph-name="zacute" unicode="&#x17a;" horiz-adv-x="513" 
d="M8 19l214 357h-191v147h471v-20l-224 -357h210v-146h-480v19zM239 747h193l-104 -169h-141z" />
    <glyph glyph-name="Zdotaccent" unicode="&#x17b;" horiz-adv-x="627" 
d="M10 24l286 521h-246v170h563v-24l-283 -520h266v-171h-586v24zM321 752c-60 0 -103 40 -103 95c0 56 43 96 103 96c59 0 102 -40 102 -96c0 -55 -43 -95 -102 -95z" />
    <glyph glyph-name="zdotaccent" unicode="&#x17c;" horiz-adv-x="513" 
d="M8 19l214 357h-191v147h471v-20l-224 -357h210v-146h-480v19zM263 570c-60 0 -103 39 -103 95s43 96 103 96c59 0 103 -40 103 -96s-44 -95 -103 -95z" />
    <glyph glyph-name="Zcaron" unicode="&#x17d;" horiz-adv-x="627" 
d="M10 24l286 521h-246v170h563v-24l-283 -520h266v-171h-586v24zM124 906h142l54 -47l54 47h139l-115 -149h-164z" />
    <glyph glyph-name="zcaron" unicode="&#x17e;" horiz-adv-x="513" 
d="M8 19l214 357h-191v147h471v-20l-224 -357h210v-146h-480v19zM70 746h137l56 -52l56 52h134l-125 -166h-138z" />
    <glyph glyph-name="uni0192" unicode="&#x192;" horiz-adv-x="456" 
d="M22 415h89l17 119c19 139 106 191 230 191c33 0 53 -3 80 -11v-146c-15 5 -26 7 -49 7c-39 0 -62 -19 -68 -58l-15 -102h111v-132h-129l-65 -465h-195l65 465h-71v132z" />
    <glyph glyph-name="Aringacute" unicode="&#x1fa;" horiz-adv-x="760" 
d="M234 715h293l224 -715h-240l-33 119h-226l-32 -119h-211zM295 273h141l-70 259zM381 808c27 0 45 21 45 50c0 31 -18 50 -45 50s-45 -19 -45 -50c0 -29 18 -50 45 -50zM381 740c-68 0 -122 54 -122 118s54 118 122 118s122 -54 122 -118s-54 -118 -122 -118zM357 1142
h201l-103 -149h-149z" />
    <glyph glyph-name="aringacute" unicode="&#x1fb;" horiz-adv-x="585" 
d="M198 -13c-94 0 -178 46 -178 158c0 123 100 171 281 171h45v9c0 44 -8 76 -61 76c-45 0 -59 -29 -62 -56h-184c8 128 108 193 258 193c152 0 244 -63 244 -200v-338h-190v60c-21 -37 -69 -73 -153 -73zM269 119c45 0 77 25 77 64v27h-42c-67 0 -90 -13 -90 -50
c0 -25 19 -41 55 -41zM295 638c27 0 44 20 44 48c0 29 -17 49 -44 49s-44 -20 -44 -49c0 -28 17 -48 44 -48zM295 570c-66 0 -120 52 -120 116s54 117 120 117s120 -53 120 -117s-54 -116 -120 -116zM276 978h201l-103 -149h-149z" />
    <glyph glyph-name="AEacute" unicode="&#x1fc;" horiz-adv-x="1012" 
d="M320 715h645v-174h-275v-101h217v-159h-217v-107h291v-174h-516v135h-187l-56 -135h-215zM340 285h125v256h-18zM582 906h201l-103 -149h-149z" />
    <glyph glyph-name="aeacute" unicode="&#x1fd;" horiz-adv-x="913" 
d="M626 -13c-94 0 -163 29 -206 88c-41 -55 -100 -88 -203 -88c-109 0 -198 46 -198 158c0 123 99 174 280 174h49v6c0 45 -11 76 -63 76c-45 0 -59 -24 -63 -56h-184c8 128 109 193 254 193c79 0 134 -19 166 -57c43 38 98 57 165 57c146 0 269 -82 269 -272v-47h-357
c5 -65 37 -98 94 -98c56 0 74 25 81 56h182c-15 -121 -105 -190 -266 -190zM703 319c-3 59 -28 92 -80 92c-48 0 -80 -32 -87 -92h167zM269 119c49 0 79 25 79 64v33h-46c-61 0 -89 -12 -89 -51c0 -31 19 -46 56 -46zM451 747h193l-104 -169h-141z" />
    <glyph glyph-name="Oslashacute" unicode="&#x1fe;" horiz-adv-x="820" 
d="M34 23l78 82c-56 64 -85 148 -85 248v8c0 220 168 364 382 364c88 0 167 -22 231 -62l73 78l57 -56l-68 -72c59 -60 92 -142 92 -246v-8c0 -223 -153 -372 -389 -372c-93 0 -172 22 -233 65l-81 -85zM410 165c92 0 149 69 149 190v8c0 32 -4 61 -12 86l-235 -248
c25 -24 57 -36 98 -36zM261 354c0 -32 3 -59 10 -81l231 245c-26 21 -57 31 -93 31c-91 0 -148 -63 -148 -187v-8zM377 906h201l-103 -149h-149z" />
    <glyph glyph-name="oslashacute" unicode="&#x1ff;" horiz-adv-x="626" 
d="M22 7l64 68c-41 45 -65 104 -65 180v8c0 171 128 275 293 275c63 0 119 -14 167 -43l65 69l50 -46l-62 -66c44 -45 70 -108 70 -184v-8c0 -172 -128 -273 -291 -273c-65 0 -125 14 -173 45l-67 -71zM314 131c63 0 93 44 93 127v8c0 17 -1 31 -4 46l-150 -160
c15 -14 35 -21 61 -21zM219 261c0 -15 1 -29 3 -42l147 157c-15 11 -34 17 -55 17c-63 0 -95 -41 -95 -124v-8zM289 747h193l-104 -169h-141z" />
    <glyph glyph-name="uni0218" unicode="&#x218;" horiz-adv-x="655" 
d="M334 -13c-203 0 -310 81 -315 242h215c3 -45 26 -82 100 -82c53 0 79 24 79 59c0 37 -25 50 -102 61c-206 24 -276 82 -276 230c0 132 107 228 286 228s276 -71 288 -228h-210c-5 44 -30 69 -78 69c-47 0 -71 -21 -71 -52c0 -35 21 -49 100 -60c180 -19 280 -65 280 -224
c0 -132 -105 -243 -296 -243zM202 -206l39 175l172 -12l-101 -190z" />
    <glyph glyph-name="uni0219" unicode="&#x219;" horiz-adv-x="521" 
d="M259 -13c-153 0 -243 62 -246 181h180c7 -35 20 -54 65 -54c39 0 55 14 55 37s-21 35 -92 44c-141 16 -203 54 -203 166c0 120 105 177 233 177c137 0 226 -45 239 -173h-177c-7 31 -23 49 -59 49s-52 -16 -52 -36c0 -24 23 -33 82 -40c151 -19 221 -54 221 -167
c0 -129 -98 -184 -246 -184zM135 -206l39 175l172 -12l-101 -190z" />
    <glyph glyph-name="uni021A" unicode="&#x21a;" horiz-adv-x="629" 
d="M200 541h-180v174h589v-174h-181v-541h-228v541zM191 -206l39 175l172 -12l-101 -190z" />
    <glyph glyph-name="uni021B" unicode="&#x21b;" horiz-adv-x="396" 
d="M265 -12c-124 0 -193 55 -193 187v216h-61v132h61v107h197v-107h100v-132h-100v-197c0 -36 19 -51 51 -51c17 0 34 3 49 8v-148c-24 -7 -61 -15 -104 -15zM90 -206l39 175l172 -12l-101 -190z" />
    <glyph glyph-name="uni0237" unicode="&#x237;" horiz-adv-x="303" 
d="M-9 -42c43 3 61 18 61 58v507h197v-512c0 -116 -55 -194 -258 -194v141z" />
    <glyph glyph-name="circumflex" unicode="&#x2c6;" horiz-adv-x="400" 
d="M133 746h138l120 -166h-137l-56 53l-56 -53h-134z" />
    <glyph glyph-name="caron" unicode="&#x2c7;" horiz-adv-x="400" 
d="M8 746h137l56 -52l56 52h134l-125 -166h-138z" />
    <glyph glyph-name="breve" unicode="&#x2d8;" horiz-adv-x="400" 
d="M200 581c-101 0 -164 56 -169 163h119c3 -28 19 -45 50 -45c29 0 48 17 51 45h118c-7 -107 -73 -163 -169 -163z" />
    <glyph glyph-name="dotaccent" unicode="&#x2d9;" horiz-adv-x="400" 
d="M200 570c-60 0 -103 39 -103 95s43 96 103 96c59 0 103 -40 103 -96s-44 -95 -103 -95z" />
    <glyph glyph-name="ring" unicode="&#x2da;" horiz-adv-x="400" 
d="M200 642c27 0 44 20 44 48c0 29 -17 49 -44 49s-44 -20 -44 -49c0 -28 17 -48 44 -48zM200 574c-66 0 -120 52 -120 116s54 117 120 117s120 -53 120 -117s-54 -116 -120 -116z" />
    <glyph glyph-name="ogonek" unicode="&#x2db;" horiz-adv-x="400" 
d="M194 -182c-65 0 -119 27 -119 78c0 53 45 82 88 104h108c-25 -21 -38 -39 -38 -59c0 -17 11 -26 30 -26c11 0 19 1 25 4v-84c-19 -9 -51 -17 -94 -17z" />
    <glyph glyph-name="tilde" unicode="&#x2dc;" horiz-adv-x="400" 
d="M266 581c-58 0 -89 32 -118 32c-16 0 -27 -13 -30 -30h-104c7 111 54 162 118 162c55 0 88 -32 121 -32c17 0 27 10 30 31h104c-8 -111 -59 -163 -121 -163z" />
    <glyph glyph-name="hungarumlaut" unicode="&#x2dd;" horiz-adv-x="400" 
d="M91 747h148l-78 -169h-114zM272 747h148l-77 -169h-115z" />
    <glyph glyph-name="uni037E" unicode="&#x37e;" horiz-adv-x="326" 
d="M8 -79l81 272l182 -63l-148 -252zM178 272c-63 0 -110 47 -110 107s47 108 110 108c64 0 112 -48 112 -108s-48 -107 -112 -107z" />
    <glyph glyph-name="tonos" unicode="&#x384;" horiz-adv-x="400" 
d="M175 747h193l-104 -169h-141z" />
    <glyph glyph-name="dieresistonos" unicode="&#x385;" horiz-adv-x="494" 
d="M213 768h142l-84 -185h-105zM421 578c-44 0 -80 35 -80 78s36 78 80 78c47 0 80 -35 80 -78s-33 -78 -80 -78zM72 578c-44 0 -80 35 -80 78s36 78 80 78c45 0 81 -35 81 -78s-36 -78 -81 -78z" />
    <glyph glyph-name="Alphatonos" unicode="&#x386;" horiz-adv-x="760" 
d="M234 715h293l224 -715h-240l-33 119h-226l-32 -119h-211zM295 273h141l-70 259zM-13 716h193l-104 -169h-141z" />
    <glyph glyph-name="anoteleia" unicode="&#x387;" horiz-adv-x="302" 
d="M150 219c-63 0 -110 47 -110 107s47 108 110 108c64 0 112 -48 112 -108s-48 -107 -112 -107z" />
    <glyph glyph-name="Epsilontonos" unicode="&#x388;" horiz-adv-x="620" 
d="M65 715h508v-174h-282v-101h224v-159h-224v-107h298v-174h-524v715zM-155 716h193l-104 -169h-141z" />
    <glyph glyph-name="Etatonos" unicode="&#x389;" horiz-adv-x="794" 
d="M65 715h227v-264h210v264h227v-715h-227v275h-210v-275h-227v715zM-155 716h193l-104 -169h-141z" />
    <glyph glyph-name="Iotatonos" unicode="&#x38a;" horiz-adv-x="366" 
d="M68 715h229v-715h-229v715zM-155 716h193l-104 -169h-141z" />
    <glyph glyph-name="Omicrontonos" unicode="&#x38c;" horiz-adv-x="820" 
d="M411 165c89 0 146 69 146 189v8c0 121 -57 187 -148 187c-88 0 -145 -64 -145 -187v-8c0 -123 56 -189 147 -189zM405 -13c-235 0 -378 149 -378 366v8c0 221 168 365 382 365c220 0 384 -133 384 -359v-8c0 -223 -153 -372 -388 -372zM-93 716h193l-104 -169h-141z" />
    <glyph glyph-name="Upsilontonos" unicode="&#x38e;" horiz-adv-x="692" 
d="M237 305l-232 410h246l109 -224l110 224h217l-222 -409v-306h-228v305zM-203 716h193l-104 -169h-141z" />
    <glyph glyph-name="Omegatonos" unicode="&#x38f;" horiz-adv-x="826" 
d="M264 351c0 -108 38 -180 107 -237v-114h-338v167h98c-57 41 -100 124 -100 205v6c0 202 160 347 381 347c224 0 383 -134 383 -342v-6c0 -89 -43 -170 -99 -210h97v-167h-338v114c68 55 107 129 107 237v8c0 125 -55 190 -150 190c-92 0 -148 -65 -148 -190v-8zM-93 716
h193l-104 -169h-141z" />
    <glyph glyph-name="iotadieresistonos" unicode="&#x390;" horiz-adv-x="302" 
d="M53 523h196v-523h-196v523zM141 768h142l-84 -185h-105zM349 578c-44 0 -80 35 -80 78s36 78 80 78c47 0 80 -35 80 -78s-33 -78 -80 -78zM0 578c-44 0 -80 35 -80 78s36 78 80 78c45 0 81 -35 81 -78s-36 -78 -81 -78z" />
    <glyph glyph-name="Alpha" unicode="&#x391;" horiz-adv-x="760" 
d="M234 715h293l224 -715h-240l-33 119h-226l-32 -119h-211zM295 273h141l-70 259z" />
    <glyph glyph-name="Beta" unicode="&#x392;" horiz-adv-x="690" 
d="M65 715h338c176 0 244 -81 244 -187v-4c0 -84 -44 -135 -124 -154c84 -15 143 -67 143 -167v-4c0 -127 -81 -199 -265 -199h-336v715zM358 149c59 0 85 27 85 75v4c0 47 -26 73 -90 73h-67v-152h72zM355 436c56 0 78 19 78 63v4c0 43 -23 64 -79 64h-68v-131h69z" />
    <glyph glyph-name="Gamma" unicode="&#x393;" horiz-adv-x="575" 
d="M65 715h490v-175h-262v-540h-228v715z" />
    <glyph glyph-name="uni0394" unicode="&#x394;" horiz-adv-x="772" 
d="M16 24l215 691h312l213 -691v-24h-740v24zM266 173h215l-107 383z" />
    <glyph glyph-name="Epsilon" unicode="&#x395;" horiz-adv-x="620" 
d="M65 715h508v-174h-282v-101h224v-159h-224v-107h298v-174h-524v715z" />
    <glyph glyph-name="Zeta" unicode="&#x396;" horiz-adv-x="627" 
d="M10 24l286 521h-246v170h563v-24l-283 -520h266v-171h-586v24z" />
    <glyph glyph-name="Eta" unicode="&#x397;" horiz-adv-x="794" 
d="M65 715h227v-264h210v264h227v-715h-227v275h-210v-275h-227v715z" />
    <glyph glyph-name="Theta" unicode="&#x398;" horiz-adv-x="839" 
d="M415 -13c-243 0 -388 141 -388 366v8c0 229 169 364 392 364c227 0 393 -123 393 -358v-8c0 -232 -155 -372 -397 -372zM420 160c97 0 159 74 159 195v8c0 121 -63 190 -160 190s-158 -67 -158 -191v-8c0 -123 62 -194 159 -194zM333 427h173v-135h-173v135z" />
    <glyph glyph-name="Iota" unicode="&#x399;" horiz-adv-x="366" 
d="M68 715h229v-715h-229v715z" />
    <glyph glyph-name="Kappa" unicode="&#x39a;" horiz-adv-x="746" 
d="M65 715h227v-271l198 271h235l-251 -330l265 -385h-261l-186 286v-286h-227v715z" />
    <glyph glyph-name="Lambda" unicode="&#x39b;" horiz-adv-x="741" 
d="M732 0h-245l-132 471l-134 -471h-212l229 715h263z" />
    <glyph glyph-name="Mu" unicode="&#x39c;" horiz-adv-x="958" 
d="M65 715h294l121 -347l123 347h288v-715h-225v422l-163 -422h-76l-160 422v-422h-202v715z" />
    <glyph glyph-name="Nu" unicode="&#x39d;" horiz-adv-x="787" 
d="M65 715h254l203 -378v378h199v-715h-217l-239 428v-428h-200v715z" />
    <glyph glyph-name="Xi" unicode="&#x39e;" horiz-adv-x="632" 
d="M594 715v-179h-555v179h555zM547 441v-164h-462v164h462zM32 180h568v-180h-568v180z" />
    <glyph glyph-name="Omicron" unicode="&#x39f;" horiz-adv-x="820" 
d="M411 165c89 0 146 69 146 189v8c0 121 -57 187 -148 187c-88 0 -145 -64 -145 -187v-8c0 -123 56 -189 147 -189zM405 -13c-235 0 -378 149 -378 366v8c0 221 168 365 382 365c220 0 384 -133 384 -359v-8c0 -223 -153 -372 -388 -372z" />
    <glyph glyph-name="Pi" unicode="&#x3a0;" horiz-adv-x="788" 
d="M65 715h658v-715h-227v533h-203v-533h-228v715z" />
    <glyph glyph-name="Rho" unicode="&#x3a1;" horiz-adv-x="665" 
d="M65 715h285c205 0 294 -92 294 -245v-4c0 -149 -97 -233 -284 -233h-69v-233h-226v715zM338 385c61 0 91 27 91 80v4c0 56 -30 77 -90 77h-48v-161h47z" />
    <glyph glyph-name="Sigma" unicode="&#x3a3;" horiz-adv-x="616" 
d="M42 548v167h529v-168h-268l152 -176l-151 -194h281v-177h-547v142l165 217z" />
    <glyph glyph-name="Tau" unicode="&#x3a4;" horiz-adv-x="629" 
d="M200 541h-180v174h589v-174h-181v-541h-228v541z" />
    <glyph glyph-name="Upsilon" unicode="&#x3a5;" horiz-adv-x="692" 
d="M237 305l-232 410h246l109 -224l110 224h217l-222 -409v-306h-228v305z" />
    <glyph glyph-name="Phi" unicode="&#x3a6;" horiz-adv-x="972" 
d="M383 41c-232 11 -356 145 -356 318v7c0 175 143 304 356 317v60h204v-60c216 -13 358 -132 358 -311v-7c0 -178 -128 -311 -358 -324v-69h-204v69zM247 360c0 -87 48 -141 136 -156v317c-91 -15 -136 -69 -136 -154v-7zM725 367c0 85 -50 139 -138 154v-318
c89 15 138 73 138 157v7z" />
    <glyph glyph-name="Chi" unicode="&#x3a7;" horiz-adv-x="773" 
d="M236 368l-202 347h259l100 -201l98 201h232l-187 -339l219 -376h-258l-123 235l-123 -235h-233z" />
    <glyph glyph-name="Psi" unicode="&#x3a8;" horiz-adv-x="920" 
d="M360 160c-217 11 -318 135 -318 303v252h215v-237c0 -87 26 -135 103 -147v384h205v-381c71 15 110 58 110 150v231h204v-237c0 -175 -101 -298 -314 -317v-161h-205v160z" />
    <glyph glyph-name="uni03A9" unicode="&#x3a9;" horiz-adv-x="826" 
d="M264 351c0 -108 38 -180 107 -237v-114h-338v167h98c-57 41 -100 124 -100 205v6c0 202 160 347 381 347c224 0 383 -134 383 -342v-6c0 -89 -43 -170 -99 -210h97v-167h-338v114c68 55 107 129 107 237v8c0 125 -55 190 -150 190c-92 0 -148 -65 -148 -190v-8z" />
    <glyph glyph-name="Iotadieresis" unicode="&#x3aa;" horiz-adv-x="366" 
d="M68 715h229v-715h-229v715zM69 752c-51 0 -91 40 -91 89c0 50 40 89 91 89c52 0 92 -39 92 -89c0 -49 -40 -89 -92 -89zM296 752c-51 0 -91 40 -91 89c0 50 40 89 91 89c52 0 92 -39 92 -89c0 -49 -40 -89 -92 -89z" />
    <glyph glyph-name="Upsilondieresis" unicode="&#x3ab;" horiz-adv-x="692" 
d="M237 305l-232 410h246l109 -224l110 224h217l-222 -409v-306h-228v305zM241 752c-51 0 -91 40 -91 89c0 50 40 89 91 89c52 0 92 -39 92 -89c0 -49 -40 -89 -92 -89zM468 752c-51 0 -91 40 -91 89c0 50 40 89 91 89c52 0 92 -39 92 -89c0 -49 -40 -89 -92 -89z" />
    <glyph glyph-name="alphatonos" unicode="&#x3ac;" horiz-adv-x="638" 
d="M310 137c56 0 89 42 89 123v8c0 83 -31 123 -87 123c-57 0 -89 -40 -89 -124v-8c0 -81 31 -122 87 -122zM239 -13c-115 0 -216 85 -216 269v8c0 182 101 273 216 273c80 0 125 -33 154 -86v72h197v-523h-197v83c-27 -53 -77 -96 -154 -96zM315 747h193l-104 -169h-141z
" />
    <glyph glyph-name="epsilontonos" unicode="&#x3ad;" horiz-adv-x="583" 
d="M134 273c-55 11 -100 55 -100 114c0 80 68 151 259 151c137 0 250 -47 269 -179h-184c-3 23 -14 52 -73 52c-44 0 -70 -13 -70 -48c0 -19 10 -43 49 -43h93v-103h-91c-47 0 -64 -18 -64 -46c0 -33 28 -49 83 -49c59 0 80 24 83 56h179c-11 -123 -98 -191 -273 -191
c-187 0 -272 61 -272 162c0 61 40 109 112 124zM287 747h193l-104 -169h-141z" />
    <glyph glyph-name="etatonos" unicode="&#x3ae;" horiz-adv-x="629" 
d="M47 523h197v-84c29 56 85 99 173 99c99 0 168 -63 168 -194v-518h-196v474c0 53 -20 80 -67 80c-48 0 -78 -28 -78 -91v-289h-197v523zM292 747h193l-104 -169h-141z" />
    <glyph glyph-name="iotatonos" unicode="&#x3af;" horiz-adv-x="302" 
d="M53 523h196v-523h-196v523zM135 747h193l-104 -169h-141z" />
    <glyph glyph-name="upsilondieresistonos" unicode="&#x3b0;" horiz-adv-x="620" 
d="M309 -13c-180 0 -268 101 -268 251v285h197v-298c0 -60 21 -91 72 -91s72 32 72 89v300h197v-281c0 -155 -89 -255 -270 -255zM281 768h142l-84 -185h-105zM489 578c-44 0 -80 35 -80 78s36 78 80 78c47 0 80 -35 80 -78s-33 -78 -80 -78zM140 578c-44 0 -80 35 -80 78
s36 78 80 78c45 0 81 -35 81 -78s-36 -78 -81 -78z" />
    <glyph glyph-name="alpha" unicode="&#x3b1;" horiz-adv-x="638" 
d="M310 137c56 0 89 42 89 123v8c0 83 -31 123 -87 123c-57 0 -89 -40 -89 -124v-8c0 -81 31 -122 87 -122zM239 -13c-115 0 -216 85 -216 269v8c0 182 101 273 216 273c80 0 125 -33 154 -86v72h197v-523h-197v83c-27 -53 -77 -96 -154 -96z" />
    <glyph glyph-name="beta" unicode="&#x3b2;" horiz-adv-x="640" 
d="M306 466c71 -3 101 32 101 80v5c0 41 -31 72 -82 72c-48 0 -81 -34 -81 -97v-285c0 -68 43 -103 87 -103c51 0 88 31 88 99v6c0 61 -34 98 -113 95v128zM471 413c93 -23 148 -96 148 -189v-7c0 -132 -95 -224 -226 -224c-61 0 -120 29 -149 85v-252h-197v689
c0 171 117 243 275 243c153 0 262 -68 262 -191v-4c0 -67 -45 -131 -113 -150z" />
    <glyph glyph-name="gamma" unicode="&#x3b3;" horiz-adv-x="624" 
d="M432 523h188l-210 -516v-181h-195v181l-211 516h212l108 -309z" />
    <glyph glyph-name="delta" unicode="&#x3b4;" horiz-adv-x="624" 
d="M106 749h441v-148h-188l117 -115c83 -80 126 -136 126 -232v-8c0 -153 -128 -259 -291 -259s-290 96 -290 257v7c0 122 83 225 216 225c5 0 18 -1 27 -4l-158 154v123zM402 256c0 68 -34 113 -90 113c-60 0 -90 -42 -90 -111v-7c0 -72 27 -119 90 -119c61 0 90 44 90 116
v8z" />
    <glyph glyph-name="epsilon" unicode="&#x3b5;" horiz-adv-x="583" 
d="M134 273c-55 11 -100 55 -100 114c0 80 68 151 259 151c137 0 250 -47 269 -179h-184c-3 23 -14 52 -73 52c-44 0 -70 -13 -70 -48c0 -19 10 -43 49 -43h93v-103h-91c-47 0 -64 -18 -64 -46c0 -33 28 -49 83 -49c59 0 80 24 83 56h179c-11 -123 -98 -191 -273 -191
c-187 0 -272 61 -272 162c0 61 40 109 112 124z" />
    <glyph glyph-name="zeta" unicode="&#x3b6;" horiz-adv-x="520" 
d="M258 0c-155 0 -237 81 -237 213c0 128 93 272 195 371h-159v165h466v-40c-160 -160 -299 -369 -299 -476c0 -57 31 -76 87 -76h39c113 0 164 -62 164 -150c0 -55 -19 -118 -30 -153h-151c8 23 19 70 19 90c0 39 -15 56 -54 56h-40z" />
    <glyph glyph-name="eta" unicode="&#x3b7;" horiz-adv-x="629" 
d="M47 523h197v-84c29 56 85 99 173 99c99 0 168 -63 168 -194v-518h-196v474c0 53 -20 80 -67 80c-48 0 -78 -28 -78 -91v-289h-197v523z" />
    <glyph glyph-name="theta" unicode="&#x3b8;" horiz-adv-x="642" 
d="M607 364c0 -229 -90 -377 -286 -377c-195 0 -287 144 -287 371v30c0 227 107 370 287 370c176 0 286 -129 286 -365v-29zM321 614c-72 0 -96 -63 -99 -174h197c-3 112 -27 174 -98 174zM322 130c69 0 94 66 97 174h-197c1 -111 27 -174 100 -174z" />
    <glyph glyph-name="iota" unicode="&#x3b9;" horiz-adv-x="302" 
d="M53 523h196v-523h-196v523z" />
    <glyph glyph-name="kappa" unicode="&#x3ba;" horiz-adv-x="593" 
d="M244 313l139 210h203l-171 -243l176 -280h-218l-129 214v-214h-197v523h197v-210z" />
    <glyph glyph-name="lambda" unicode="&#x3bb;" horiz-adv-x="611" 
d="M185 557c-16 40 -34 53 -73 53c-21 0 -47 -6 -66 -11v141c31 11 81 18 125 18c76 0 142 -26 193 -159l157 -414c8 -20 22 -38 45 -38c15 0 35 3 40 4v-147c-23 -8 -61 -13 -96 -13c-76 0 -126 42 -155 123l-63 179l-91 -293h-204l205 514z" />
    <glyph glyph-name="uni03BC" unicode="&#x3bc;" horiz-adv-x="630" 
d="M47 523h197v-314c0 -52 22 -78 66 -78c51 0 78 27 78 90v302h197v-523h-193v69c-16 -45 -45 -68 -86 -68c-27 0 -47 11 -62 34v-209h-197v697z" />
    <glyph glyph-name="nu" unicode="&#x3bd;" horiz-adv-x="604" 
d="M5 523h210l99 -318l100 318h185l-191 -523h-211z" />
    <glyph glyph-name="xi" unicode="&#x3be;" horiz-adv-x="531" 
d="M364 156c113 0 161 -62 161 -150c0 -53 -20 -119 -30 -152h-151c8 23 19 70 19 90c0 39 -15 56 -54 56h-31c-157 0 -257 76 -257 209c0 93 65 159 149 175c-68 23 -103 64 -103 120c0 53 32 92 89 111h-120v134h470v-154h-144c-61 0 -101 -17 -101 -68
c0 -39 32 -66 89 -66h112v-157h-136c-68 0 -104 -23 -104 -78c0 -51 40 -70 96 -70h46z" />
    <glyph glyph-name="omicron" unicode="&#x3bf;" horiz-adv-x="626" 
d="M314 132c60 0 90 42 90 127v7c0 83 -29 126 -90 126c-60 0 -93 -40 -93 -123v-8c0 -86 31 -129 93 -129zM313 -13c-163 0 -291 96 -291 268v8c0 170 127 274 292 274c163 0 290 -101 290 -269v-8c0 -172 -128 -273 -291 -273z" />
    <glyph glyph-name="pi" unicode="&#x3c0;" horiz-adv-x="666" 
d="M394 382h-123v-382h-195v382h-64v141h642v-141h-64v-382h-196v382z" />
    <glyph glyph-name="rho" unicode="&#x3c1;" horiz-adv-x="631" 
d="M321 132c60 0 88 45 88 126v8c0 83 -27 126 -90 126c-61 0 -91 -41 -91 -123v-8c0 -86 31 -129 93 -129zM364 -4c-51 0 -106 26 -133 77v-247h-198v437c0 171 122 275 286 275c163 0 290 -102 290 -270v-8c0 -168 -109 -264 -245 -264z" />
    <glyph glyph-name="uni03C2" unicode="&#x3c2;" horiz-adv-x="585" 
d="M222 264c0 -68 32 -112 105 -112h22c113 0 174 -58 174 -146c0 -54 -21 -118 -31 -152h-150c5 24 19 68 19 93c0 39 -17 53 -54 53h-14c-157 0 -272 97 -272 255v8c0 176 128 275 284 275c130 0 253 -57 261 -221h-185c-7 43 -29 69 -76 69c-55 0 -83 -38 -83 -113v-9z
" />
    <glyph glyph-name="sigma" unicode="&#x3c3;" horiz-adv-x="655" 
d="M313 -13c-164 0 -292 96 -292 268v8c0 168 122 260 288 260h334v-141h-114c47 -25 70 -78 70 -129v-7c0 -163 -123 -259 -286 -259zM314 132c60 0 90 45 90 126v10c0 82 -30 123 -90 123c-61 0 -92 -40 -92 -120v-10c0 -86 31 -129 92 -129z" />
    <glyph glyph-name="tau" unicode="&#x3c4;" horiz-adv-x="498" 
d="M332 -8c-129 0 -189 69 -189 201v189h-131v141h467v-141h-139v-170c0 -51 17 -70 64 -70c15 0 38 3 53 6v-145c-31 -7 -64 -11 -125 -11z" />
    <glyph glyph-name="upsilon" unicode="&#x3c5;" horiz-adv-x="620" 
d="M309 -13c-180 0 -268 101 -268 251v285h197v-298c0 -60 21 -91 72 -91s72 32 72 89v300h197v-281c0 -155 -89 -255 -270 -255z" />
    <glyph glyph-name="phi" unicode="&#x3c6;" horiz-adv-x="842" 
d="M820 262c0 -179 -130 -265 -302 -268v-168h-194v168c-178 3 -303 86 -303 266v8c0 143 85 243 253 263v-144c-43 -16 -59 -52 -59 -124v-8c0 -79 28 -118 109 -125v400c28 4 87 8 140 8c219 0 356 -104 356 -268v-8zM627 268c0 76 -26 126 -109 127v-265
c85 0 109 54 109 130v8z" />
    <glyph glyph-name="chi" unicode="&#x3c7;" horiz-adv-x="606" 
d="M189 196l-82 145c-15 27 -31 36 -58 36c-11 0 -25 -2 -37 -6v141c33 15 70 22 102 22c68 0 116 -19 152 -88l57 -109l78 186h198l-179 -342l99 -171c15 -25 29 -34 52 -34c11 0 21 1 32 4v-145c-37 -13 -78 -15 -101 -15c-61 0 -112 28 -155 105l-62 117l-96 -216h-190z
" />
    <glyph glyph-name="psi" unicode="&#x3c8;" horiz-adv-x="851" 
d="M234 254c0 -67 26 -112 94 -119v388h194v-388c68 7 95 52 95 119v269h195v-265c0 -179 -132 -258 -290 -263v-169h-194v169c-165 3 -290 80 -290 261v267h196v-269z" />
    <glyph glyph-name="omega" unicode="&#x3c9;" horiz-adv-x="843" 
d="M518 214c0 -53 12 -83 48 -83c37 0 56 40 56 115v8c0 75 -17 126 -82 141v143c185 -9 281 -118 281 -286v-8c0 -151 -84 -257 -229 -257c-102 0 -147 53 -171 106c-21 -51 -75 -106 -169 -106c-151 0 -231 106 -231 257v8c0 169 97 277 282 286v-143
c-64 -15 -81 -64 -81 -140v-8c0 -76 18 -116 55 -116c35 0 48 31 48 83v135h193v-135z" />
    <glyph glyph-name="iotadieresis" unicode="&#x3ca;" horiz-adv-x="302" 
d="M53 523h196v-523h-196v523zM43 570c-51 0 -91 40 -91 89s40 89 91 89c52 0 92 -40 92 -89s-40 -89 -92 -89zM260 570c-51 0 -90 40 -90 89s39 89 90 89c52 0 92 -40 92 -89s-40 -89 -92 -89z" />
    <glyph glyph-name="upsilondieresis" unicode="&#x3cb;" horiz-adv-x="620" 
d="M309 -13c-180 0 -268 101 -268 251v285h197v-298c0 -60 21 -91 72 -91s72 32 72 89v300h197v-281c0 -155 -89 -255 -270 -255zM200 570c-51 0 -91 40 -91 89s40 89 91 89c52 0 92 -40 92 -89s-40 -89 -92 -89zM417 570c-51 0 -90 40 -90 89s39 89 90 89
c52 0 92 -40 92 -89s-40 -89 -92 -89z" />
    <glyph glyph-name="omicrontonos" unicode="&#x3cc;" horiz-adv-x="626" 
d="M314 132c60 0 90 42 90 127v7c0 83 -29 126 -90 126c-60 0 -93 -40 -93 -123v-8c0 -86 31 -129 93 -129zM313 -13c-163 0 -291 96 -291 268v8c0 170 127 274 292 274c163 0 290 -101 290 -269v-8c0 -172 -128 -273 -291 -273zM293 747h193l-104 -169h-141z" />
    <glyph glyph-name="upsilontonos" unicode="&#x3cd;" horiz-adv-x="620" 
d="M309 -13c-180 0 -268 101 -268 251v285h197v-298c0 -60 21 -91 72 -91s72 32 72 89v300h197v-281c0 -155 -89 -255 -270 -255zM289 747h193l-104 -169h-141z" />
    <glyph glyph-name="omegatonos" unicode="&#x3ce;" horiz-adv-x="843" 
d="M518 214c0 -53 12 -83 48 -83c37 0 56 40 56 115v8c0 75 -17 126 -82 141v143c185 -9 281 -118 281 -286v-8c0 -151 -84 -257 -229 -257c-102 0 -147 53 -171 106c-21 -51 -75 -106 -169 -106c-151 0 -231 106 -231 257v8c0 169 97 277 282 286v-143
c-64 -15 -81 -64 -81 -140v-8c0 -76 18 -116 55 -116c35 0 48 31 48 83v135h193v-135zM404 747h193l-104 -169h-141z" />
    <glyph glyph-name="uni0401" unicode="&#x401;" horiz-adv-x="620" 
d="M65 715h508v-174h-282v-101h224v-159h-224v-107h298v-174h-524v715zM213 752c-51 0 -91 40 -91 89c0 50 40 89 91 89c52 0 92 -39 92 -89c0 -49 -40 -89 -92 -89zM440 752c-51 0 -91 40 -91 89c0 50 40 89 91 89c52 0 92 -39 92 -89c0 -49 -40 -89 -92 -89z" />
    <glyph glyph-name="uni0402" unicode="&#x402;" horiz-adv-x="855" 
d="M428 410c12 7 26 14 42 21c27 11 67 22 120 22c154 0 237 -96 237 -236c0 -147 -74 -241 -235 -241c-60 0 -96 15 -115 24v156c5 -3 25 -13 61 -13c43 0 63 28 63 71c0 40 -20 68 -81 68c-31 0 -52 -8 -68 -15c-9 -4 -17 -9 -24 -14v-253h-228v541h-180v174h589v-174
h-181v-131z" />
    <glyph glyph-name="uni0403" unicode="&#x403;" horiz-adv-x="574" 
d="M65 715h485v-175h-257v-540h-228v715zM279 906h201l-103 -149h-149z" />
    <glyph glyph-name="uni0404" unicode="&#x404;" horiz-adv-x="764" 
d="M746 258c-24 -180 -152 -271 -340 -271c-256 0 -378 147 -378 366v8c0 221 158 365 370 365c188 0 311 -80 338 -264h-234c-10 58 -44 87 -103 87c-63 0 -107 -36 -124 -108h219v-159h-221c15 -76 61 -115 130 -115c60 0 104 27 117 91h226z" />
    <glyph glyph-name="uni0405" unicode="&#x405;" horiz-adv-x="653" 
d="M334 -13c-203 0 -310 81 -315 242h215c3 -45 26 -82 100 -82c53 0 79 24 79 59c0 37 -25 50 -102 61c-206 24 -276 82 -276 230c0 132 107 228 286 228s276 -71 288 -228h-210c-5 44 -30 69 -78 69c-47 0 -71 -21 -71 -52c0 -35 21 -49 100 -60c180 -19 280 -65 280 -224
c0 -132 -105 -243 -296 -243z" />
    <glyph glyph-name="uni0406" unicode="&#x406;" horiz-adv-x="366" 
d="M68 715h229v-715h-229v715z" />
    <glyph glyph-name="uni0407" unicode="&#x407;" horiz-adv-x="366" 
d="M68 715h229v-715h-229v715zM69 752c-51 0 -91 40 -91 89c0 50 40 89 91 89c52 0 92 -39 92 -89c0 -49 -40 -89 -92 -89zM296 752c-51 0 -91 40 -91 89c0 50 40 89 91 89c52 0 92 -39 92 -89c0 -49 -40 -89 -92 -89z" />
    <glyph glyph-name="uni0408" unicode="&#x408;" horiz-adv-x="489" 
d="M168 -9c-71 0 -105 10 -136 25v167c23 -7 46 -13 85 -13c53 0 90 22 90 93v452h227v-453c0 -179 -86 -271 -266 -271z" />
    <glyph glyph-name="uni0409" unicode="&#x409;" horiz-adv-x="1056" 
d="M464 540h-132c-3 -84 -4 -165 -11 -234c-16 -195 -70 -319 -226 -319c-47 0 -76 13 -77 13v172l6 -3c5 -1 12 -2 20 -2c51 0 72 61 83 173c8 75 9 220 9 375h555v-239h60c187 0 284 -80 284 -231v-4c0 -152 -87 -241 -294 -241h-277v540zM730 167c59 0 90 18 90 73v4
c0 52 -30 78 -91 78h-38v-155h39z" />
    <glyph glyph-name="uni040A" unicode="&#x40a;" horiz-adv-x="1070" 
d="M744 167c60 0 90 18 90 73v4c0 52 -30 78 -91 78h-38v-155h39zM479 275h-186v-275h-228v715h228v-264h186v264h226v-239h60c187 0 284 -80 284 -231v-4c0 -152 -87 -241 -294 -241h-276v275z" />
    <glyph glyph-name="uni040B" unicode="&#x40b;" horiz-adv-x="865" 
d="M428 410c12 7 26 14 42 21c27 11 67 22 120 22c164 0 237 -98 237 -259v-194h-226v186c0 64 -19 96 -86 96c-28 0 -50 -8 -65 -15c-9 -4 -16 -9 -22 -14v-253h-228v541h-180v174h589v-174h-181v-131z" />
    <glyph glyph-name="uni040C" unicode="&#x40c;" horiz-adv-x="746" 
d="M352 906h201l-103 -149h-149zM65 715h227v-271l198 271h235l-251 -330l265 -385h-261l-186 286v-286h-227v715z" />
    <glyph glyph-name="uni040D" unicode="&#x40d;" horiz-adv-x="809" 
d="M65 0v715h228v-412l227 412h224v-715h-227v416l-227 -416h-225zM239 906h202l47 -149h-149z" />
    <glyph glyph-name="uni040E" unicode="&#x40e;" horiz-adv-x="679" 
d="M357 749c-108 0 -166 58 -173 157h130c3 -27 12 -49 43 -49s40 24 44 49h129c-8 -99 -70 -157 -173 -157zM204 -11c-51 0 -87 12 -94 15v173c7 -3 24 -9 63 -9c29 0 54 14 74 41l-241 506h235l118 -273l107 273h213l-219 -511c-61 -140 -117 -215 -256 -215z" />
    <glyph glyph-name="uni040F" unicode="&#x40f;" horiz-adv-x="784" 
d="M65 0v715h228v-540h199v540h227v-715h-231l-5 -130h-185l-5 130h-228z" />
    <glyph glyph-name="uni0410" unicode="&#x410;" horiz-adv-x="760" 
d="M234 715h293l224 -715h-240l-33 119h-226l-32 -119h-211zM295 273h141l-70 259z" />
    <glyph glyph-name="uni0411" unicode="&#x411;" horiz-adv-x="670" 
d="M651 232c0 -148 -86 -232 -282 -232h-304v715h515v-174h-291v-87h85c185 0 277 -82 277 -218v-4zM344 160c59 0 88 24 88 72v4c0 47 -29 73 -89 73h-54v-149h55z" />
    <glyph glyph-name="uni0412" unicode="&#x412;" horiz-adv-x="690" 
d="M65 715h338c176 0 244 -81 244 -187v-4c0 -84 -44 -135 -124 -154c84 -15 143 -67 143 -167v-4c0 -127 -81 -199 -265 -199h-336v715zM358 149c59 0 85 27 85 75v4c0 47 -26 73 -90 73h-67v-152h72zM355 436c56 0 78 19 78 63v4c0 43 -23 64 -79 64h-68v-131h69z" />
    <glyph glyph-name="uni0413" unicode="&#x413;" horiz-adv-x="574" 
d="M65 715h485v-175h-257v-540h-228v715z" />
    <glyph glyph-name="uni0414" unicode="&#x414;" horiz-adv-x="776" 
d="M304 322c-7 -60 -15 -108 -34 -147h194v366h-149c-3 -80 -4 -156 -11 -219zM189 -130h-196v305h47c40 19 60 73 71 169c8 66 9 216 9 371h569v-540h87v-305h-196l-7 130h-377z" />
    <glyph glyph-name="uni0415" unicode="&#x415;" horiz-adv-x="620" 
d="M65 715h508v-174h-282v-101h224v-159h-224v-107h298v-174h-524v715z" />
    <glyph glyph-name="uni0416" unicode="&#x416;" horiz-adv-x="1045" 
d="M411 300l-166 -300h-237l225 377l-215 338h227l166 -285v285h221v-283l167 283h224l-216 -327l230 -388h-247l-158 299v-299h-221v300z" />
    <glyph glyph-name="uni0417" unicode="&#x417;" horiz-adv-x="668" 
d="M330 -12c-172 0 -294 85 -315 260h214c11 -55 40 -89 101 -89c55 0 82 23 82 70c0 44 -23 66 -75 66h-68v144h66c47 0 67 17 67 60c0 39 -31 57 -70 57c-62 0 -85 -38 -93 -87h-209c20 167 131 257 310 257c175 0 285 -88 285 -200c0 -85 -43 -137 -123 -157
c84 -13 143 -66 143 -162c0 -133 -130 -219 -315 -219z" />
    <glyph glyph-name="uni0418" unicode="&#x418;" horiz-adv-x="809" 
d="M65 0v715h228v-412l227 412h224v-715h-227v416l-227 -416h-225z" />
    <glyph glyph-name="uni0419" unicode="&#x419;" horiz-adv-x="809" 
d="M399 749c-107 0 -165 58 -172 157h130c3 -27 11 -49 42 -49s41 24 44 49h129c-8 -99 -70 -157 -173 -157zM65 0v715h228v-412l227 412h224v-715h-227v416l-227 -416h-225z" />
    <glyph glyph-name="uni041A" unicode="&#x41a;" horiz-adv-x="746" 
d="M65 715h227v-271l198 271h235l-251 -330l265 -385h-261l-186 286v-286h-227v715z" />
    <glyph glyph-name="uni041B" unicode="&#x41b;" horiz-adv-x="760" 
d="M317 268c-21 -171 -73 -281 -222 -281c-47 0 -76 13 -77 13v172l6 -3c5 -1 12 -2 20 -2c48 0 70 55 81 159c8 77 11 226 11 389h559v-715h-227v540h-136c-3 -99 -6 -192 -15 -272z" />
    <glyph glyph-name="uni041C" unicode="&#x41c;" horiz-adv-x="958" 
d="M65 715h294l121 -347l123 347h288v-715h-225v422l-163 -422h-76l-160 422v-422h-202v715z" />
    <glyph glyph-name="uni041D" unicode="&#x41d;" horiz-adv-x="794" 
d="M65 715h227v-264h210v264h227v-715h-227v275h-210v-275h-227v715z" />
    <glyph glyph-name="uni041E" unicode="&#x41e;" horiz-adv-x="820" 
d="M411 165c89 0 146 69 146 189v8c0 121 -57 187 -148 187c-88 0 -145 -64 -145 -187v-8c0 -123 56 -189 147 -189zM405 -13c-235 0 -378 149 -378 366v8c0 221 168 365 382 365c220 0 384 -133 384 -359v-8c0 -223 -153 -372 -388 -372z" />
    <glyph glyph-name="uni041F" unicode="&#x41f;" horiz-adv-x="784" 
d="M492 539h-199v-539h-228v715h654v-715h-227v539z" />
    <glyph glyph-name="uni0420" unicode="&#x420;" horiz-adv-x="665" 
d="M65 715h285c205 0 294 -92 294 -245v-4c0 -149 -97 -233 -284 -233h-69v-233h-226v715zM338 385c61 0 91 27 91 80v4c0 56 -30 77 -90 77h-48v-161h47z" />
    <glyph glyph-name="uni0421" unicode="&#x421;" horiz-adv-x="764" 
d="M408 -13c-259 0 -380 147 -380 366v8c0 221 158 365 370 365c192 0 324 -88 340 -282h-234c-7 67 -41 103 -105 103c-83 0 -132 -64 -132 -185v-8c0 -120 48 -185 136 -185c64 0 110 33 118 105h226c-13 -188 -149 -287 -339 -287z" />
    <glyph glyph-name="uni0422" unicode="&#x422;" horiz-adv-x="629" 
d="M200 541h-180v174h589v-174h-181v-541h-228v541z" />
    <glyph glyph-name="uni0423" unicode="&#x423;" horiz-adv-x="679" 
d="M204 -11c-51 0 -87 12 -94 15v173c7 -3 24 -9 63 -9c29 0 54 14 74 41l-241 506h235l118 -273l107 273h213l-219 -511c-61 -140 -117 -215 -256 -215z" />
    <glyph glyph-name="uni0424" unicode="&#x424;" horiz-adv-x="940" 
d="M583 649c200 -5 333 -108 333 -284v-8c0 -179 -148 -276 -333 -281v-86h-226v86c-200 5 -333 106 -333 283v8c0 178 149 277 333 282v86h226v-86zM357 494c-62 -3 -115 -42 -115 -126v-8c0 -89 52 -125 115 -128v262zM583 230c61 3 115 41 115 126v8
c0 89 -51 125 -115 128v-262z" />
    <glyph glyph-name="uni0425" unicode="&#x425;" horiz-adv-x="773" 
d="M236 368l-202 347h259l100 -201l98 201h232l-187 -339l219 -376h-258l-123 235l-123 -235h-233z" />
    <glyph glyph-name="uni0426" unicode="&#x426;" horiz-adv-x="805" 
d="M609 -130l-7 130h-537v715h228v-540h199v540h227v-540h86v-305h-196z" />
    <glyph glyph-name="uni0427" unicode="&#x427;" horiz-adv-x="753" 
d="M462 0v266c-13 -5 -60 -35 -146 -35c-187 0 -274 97 -274 298v186h226v-192c0 -87 30 -122 101 -122c55 0 88 24 93 27v287h226v-715h-226z" />
    <glyph glyph-name="uni0428" unicode="&#x428;" horiz-adv-x="1087" 
d="M65 715h224v-540h143v540h224v-540h143v540h223v-715h-957v715z" />
    <glyph glyph-name="uni0429" unicode="&#x429;" horiz-adv-x="1112" 
d="M916 -130l-7 130h-844v715h224v-540h143v540h224v-540h143v540h223v-540h90v-305h-196z" />
    <glyph glyph-name="uni042A" unicode="&#x42a;" horiz-adv-x="776" 
d="M177 541h-159v174h385v-232h69c187 0 283 -85 283 -234v-4c0 -153 -88 -245 -293 -245h-285v541zM451 167c59 0 90 22 90 77v4c0 53 -30 80 -91 80h-47v-161h48z" />
    <glyph glyph-name="uni042B" unicode="&#x42b;" horiz-adv-x="965" 
d="M899 0h-224v715h224v-715zM65 715h225v-232h61c187 0 282 -85 282 -234v-4c0 -152 -86 -245 -292 -245h-276v715zM330 167c59 0 89 22 89 77v4c0 53 -30 80 -90 80h-39v-161h40z" />
    <glyph glyph-name="uni042C" unicode="&#x42c;" horiz-adv-x="665" 
d="M65 715h226v-232h69c187 0 284 -85 284 -234v-4c0 -153 -89 -245 -294 -245h-285v715zM339 167c59 0 90 22 90 77v4c0 53 -30 80 -91 80h-47v-161h48z" />
    <glyph glyph-name="uni042D" unicode="&#x42d;" horiz-adv-x="763" 
d="M358 -13c-184 0 -317 91 -341 271h226c13 -64 58 -91 118 -91c69 0 112 35 129 114h-221v159h222c-15 76 -58 109 -121 109c-62 0 -98 -29 -109 -87h-232c25 181 148 264 343 264c205 0 363 -140 363 -353v-8c0 -228 -121 -378 -377 -378z" />
    <glyph glyph-name="uni042E" unicode="&#x42e;" horiz-adv-x="1104" 
d="M702 -13c-199 0 -329 114 -356 290h-54v-277h-227v715h227v-268h57c35 171 179 278 357 278c210 0 371 -131 371 -358v-8c0 -223 -147 -372 -375 -372zM706 165c83 0 135 69 135 190v8c0 121 -55 186 -136 186c-80 0 -133 -63 -133 -187v-8c0 -123 53 -189 134 -189z" />
    <glyph glyph-name="uni042F" unicode="&#x42f;" horiz-adv-x="714" 
d="M369 548c-59 0 -91 -23 -91 -75v-4c0 -54 31 -81 92 -81h55v160h-56zM249 0h-235l176 293c-76 21 -129 88 -129 184v4c0 153 100 234 297 234h291v-715h-224v246h-40z" />
    <glyph glyph-name="uni0430" unicode="&#x430;" horiz-adv-x="585" 
d="M198 -13c-94 0 -178 46 -178 158c0 123 100 171 281 171h45v9c0 44 -8 76 -61 76c-45 0 -59 -29 -62 -56h-184c8 128 108 193 258 193c152 0 244 -63 244 -200v-338h-190v60c-21 -37 -69 -73 -153 -73zM269 119c45 0 77 25 77 64v27h-42c-67 0 -90 -13 -90 -50
c0 -25 19 -41 55 -41z" />
    <glyph glyph-name="uni0431" unicode="&#x431;" horiz-adv-x="626" 
d="M313 -13c-173 0 -290 92 -290 336v21c0 272 124 388 324 399l49 2c83 4 131 12 154 20v-146c-32 -15 -76 -25 -160 -29l-40 -2c-113 -7 -166 -64 -182 -164h6c32 52 88 91 185 91c145 0 245 -106 245 -258v-8c0 -164 -128 -262 -291 -262zM314 129c60 0 90 42 90 118v8
c0 76 -29 117 -90 117s-92 -38 -92 -115v-7c0 -81 31 -121 92 -121z" />
    <glyph glyph-name="uni0432" unicode="&#x432;" horiz-adv-x="573" 
d="M48 523h296c132 0 190 -51 190 -131v-2c0 -67 -35 -102 -103 -117c73 -11 120 -48 120 -120v-2c0 -92 -58 -151 -201 -151h-302v523zM242 413v-95h44c38 0 57 16 57 49v1c0 32 -19 45 -62 45h-39zM242 218v-109h50c43 0 65 18 65 54v1c0 33 -16 54 -59 54h-56z" />
    <glyph glyph-name="uni0433" unicode="&#x433;" horiz-adv-x="456" 
d="M244 386v-386h-196v523h392v-137h-196z" />
    <glyph glyph-name="uni0434" unicode="&#x434;" horiz-adv-x="631" 
d="M255 258c-4 -49 -12 -90 -25 -121h127v251h-97c-1 -49 -2 -93 -5 -130zM180 -127h-170v264h27c28 15 45 53 53 137c5 56 7 136 7 249h454v-386h70v-264h-170l-2 127h-267z" />
    <glyph glyph-name="uni0435" unicode="&#x435;" horiz-adv-x="604" 
d="M311 -13c-167 0 -290 95 -290 268v8c0 171 130 275 290 275c147 0 272 -84 272 -272v-48h-363c5 -64 42 -97 98 -97s75 25 82 56h184c-16 -121 -106 -190 -273 -190zM393 321c-3 56 -29 90 -82 90c-48 0 -82 -30 -90 -90h172z" />
    <glyph glyph-name="uni0436" unicode="&#x436;" horiz-adv-x="818" 
d="M313 224l-103 -224h-204l146 280l-138 243h196l103 -210v210h190v-210l102 210h194l-137 -236l150 -287h-210l-99 223v-223h-190v224z" />
    <glyph glyph-name="uni0437" unicode="&#x437;" horiz-adv-x="547" 
d="M510 392c0 -68 -37 -105 -105 -118c73 -11 118 -49 118 -118v-3c0 -92 -87 -166 -247 -166c-161 0 -241 76 -260 201h173c12 -45 37 -69 82 -69c36 0 54 16 54 49v3c0 27 -16 43 -57 43h-56v107h52c33 0 50 15 50 39v3c0 21 -13 36 -49 36s-60 -21 -69 -57h-171
c16 132 117 196 249 196c152 0 236 -62 236 -143v-3z" />
    <glyph glyph-name="uni0438" unicode="&#x438;" horiz-adv-x="631" 
d="M48 0v523h195v-292l148 292h192v-523h-195v291l-148 -291h-192z" />
    <glyph glyph-name="uni0439" unicode="&#x439;" horiz-adv-x="631" 
d="M313 582c-107 0 -164 60 -171 160h129c3 -29 11 -54 42 -54s41 26 44 54h129c-9 -100 -69 -160 -173 -160zM48 0v523h195v-292l148 292h192v-523h-195v291l-148 -291h-192z" />
    <glyph glyph-name="uni043A" unicode="&#x43a;" horiz-adv-x="588" 
d="M244 215v-215h-197v523h197v-201l127 201h202l-161 -236l174 -287h-218z" />
    <glyph glyph-name="uni043B" unicode="&#x43b;" horiz-adv-x="605" 
d="M265 231c-13 -158 -55 -243 -179 -243c-23 0 -37 2 -48 5c-7 2 -12 4 -16 6v139c1 -1 2 -1 5 -2c2 -1 7 -1 16 -1c35 0 50 38 57 125c3 32 5 96 5 155l2 108h450v-523h-196v386h-88c-1 -57 -3 -110 -8 -155z" />
    <glyph glyph-name="uni043C" unicode="&#x43c;" horiz-adv-x="760" 
d="M206 320v-320h-158v523h251l84 -241l91 241h238v-523h-190v320l-125 -320h-73z" />
    <glyph glyph-name="uni043D" unicode="&#x43d;" horiz-adv-x="625" 
d="M381 196h-137v-196h-196v523h196v-190h137v190h196v-523h-196v196z" />
    <glyph glyph-name="uni043E" unicode="&#x43e;" horiz-adv-x="626" 
d="M314 132c60 0 90 42 90 127v7c0 83 -29 126 -90 126c-60 0 -93 -40 -93 -123v-8c0 -86 31 -129 93 -129zM313 -13c-163 0 -291 96 -291 268v8c0 170 127 274 292 274c163 0 290 -101 290 -269v-8c0 -172 -128 -273 -291 -273z" />
    <glyph glyph-name="uni043F" unicode="&#x43f;" horiz-adv-x="615" 
d="M371 386h-127v-386h-196v523h519v-523h-196v386z" />
    <glyph glyph-name="uni0440" unicode="&#x440;" horiz-adv-x="646" 
d="M47 523h197v-76c29 49 80 90 160 90c119 0 219 -89 219 -272v-8c0 -183 -100 -270 -220 -270c-77 0 -132 37 -159 88v-249h-197v697zM331 137c60 0 92 42 92 122v8c0 84 -33 124 -93 124c-59 0 -91 -44 -91 -124v-8c0 -81 31 -122 92 -122z" />
    <glyph glyph-name="uni0441" unicode="&#x441;" horiz-adv-x="585" 
d="M300 -13c-156 0 -278 88 -278 267v8c0 178 126 275 283 275c131 0 251 -56 262 -220h-185c-7 43 -24 69 -72 69c-59 0 -88 -40 -88 -120v-8c0 -85 27 -128 91 -128c45 0 75 28 80 79h177c-5 -136 -94 -222 -270 -222z" />
    <glyph glyph-name="uni0442" unicode="&#x442;" horiz-adv-x="509" 
d="M495 386h-143v-386h-195v386h-143v137h481v-137z" />
    <glyph glyph-name="uni0443" unicode="&#x443;" 
d="M214 52l-209 471h213l99 -261l92 261h186l-279 -697h-187z" />
    <glyph glyph-name="uni0444" unicode="&#x444;" horiz-adv-x="830" 
d="M511 537c164 -8 291 -95 291 -267v-8c0 -170 -127 -269 -291 -274v-162h-192v162c-164 8 -291 94 -291 267v8c0 170 127 269 291 274v212h192v-212zM511 125c60 7 97 54 97 131v8c0 80 -33 130 -97 137v-276zM319 400c-61 -7 -97 -54 -97 -131v-8c0 -80 33 -130 97 -137
v276z" />
    <glyph glyph-name="uni0445" unicode="&#x445;" horiz-adv-x="613" 
d="M180 265l-161 258h226l71 -128l71 128h201l-163 -243l180 -280h-226l-84 146l-88 -146h-199z" />
    <glyph glyph-name="uni0446" unicode="&#x446;" horiz-adv-x="647" 
d="M470 -127l-6 127h-416v523h196v-386h127v386h196v-386h70v-264h-167z" />
    <glyph glyph-name="uni0447" unicode="&#x447;" horiz-adv-x="602" 
d="M357 0v214c-8 -8 -54 -61 -156 -61c-101 0 -165 62 -165 193v177h197v-145c0 -51 12 -78 57 -78c49 0 66 28 67 29v194h197v-523h-197z" />
    <glyph glyph-name="uni0448" unicode="&#x448;" horiz-adv-x="860" 
d="M48 523h194v-386h91v386h194v-386h92v386h193v-523h-764v523z" />
    <glyph glyph-name="uni0449" unicode="&#x449;" horiz-adv-x="894" 
d="M718 -127l-6 127h-664v523h194v-386h91v386h194v-386h92v386h193v-386h72v-264h-166z" />
    <glyph glyph-name="uni044A" unicode="&#x44a;" horiz-adv-x="646" 
d="M134 388h-120v135h314v-154h83c139 0 214 -72 214 -183v-3c0 -111 -71 -183 -218 -183h-273v388zM366 125c45 0 67 19 67 57v3c0 39 -22 59 -67 59h-38v-119h38z" />
    <glyph glyph-name="uni044B" unicode="&#x44b;" horiz-adv-x="803" 
d="M562 523h193v-523h-193v523zM48 523h195v-154h75c139 0 213 -72 213 -183v-3c0 -111 -71 -183 -218 -183h-265v523zM274 125c45 0 67 19 67 57v3c0 39 -22 59 -67 59h-31v-119h31z" />
    <glyph glyph-name="uni044C" unicode="&#x44c;" horiz-adv-x="561" 
d="M48 523h195v-154h83c139 0 214 -72 214 -183v-3c0 -112 -71 -183 -219 -183h-273v523zM280 125c45 0 67 19 67 57v3c0 39 -22 59 -67 59h-37v-119h37z" />
    <glyph glyph-name="uni044D" unicode="&#x44d;" horiz-adv-x="585" 
d="M285 -13c-172 0 -253 76 -269 207h177c13 -45 40 -68 81 -68c47 0 74 29 85 80h-146v112h146c-8 48 -35 72 -80 72c-47 0 -65 -25 -74 -58h-185c16 149 133 206 262 206c157 0 282 -94 282 -270v-8c0 -179 -122 -273 -279 -273z" />
    <glyph glyph-name="uni044E" unicode="&#x44e;" horiz-adv-x="862" 
d="M557 -12c-136 0 -239 68 -268 193c-3 5 -3 11 -4 16h-42v-197h-195v523h195v-191h44c27 129 135 206 271 206c161 0 283 -101 283 -269v-8c0 -172 -124 -273 -284 -273zM558 133c55 0 83 43 83 126v8c0 83 -27 126 -83 126c-53 0 -83 -41 -83 -124v-8
c0 -85 28 -128 83 -128z" />
    <glyph glyph-name="uni044F" unicode="&#x44f;" horiz-adv-x="572" 
d="M291 397c-45 0 -69 -20 -69 -53v-3c0 -37 23 -56 69 -56h39v112h-39zM204 0h-203l118 208c-56 24 -89 71 -89 138v3c0 105 74 174 214 174h280v-523h-194v167h-41z" />
    <glyph glyph-name="uni0451" unicode="&#x451;" horiz-adv-x="604" 
d="M311 -13c-167 0 -290 95 -290 268v8c0 171 130 275 290 275c147 0 272 -84 272 -272v-48h-363c5 -64 42 -97 98 -97s75 25 82 56h184c-16 -121 -106 -190 -273 -190zM393 321c-3 56 -29 90 -82 90c-48 0 -82 -30 -90 -90h172zM197 570c-51 0 -91 40 -91 89s40 89 91 89
c52 0 92 -40 92 -89s-40 -89 -92 -89zM414 570c-51 0 -90 40 -90 89s39 89 90 89c52 0 92 -40 92 -89s-40 -89 -92 -89z" />
    <glyph glyph-name="uni0452" unicode="&#x452;" horiz-adv-x="629" 
d="M389 300c0 53 -20 80 -67 80c-48 0 -78 -28 -78 -91v-289h-197v582h-53v102h53v65h197v-65h151v-102h-151v-143c29 56 85 99 173 99c99 0 168 -63 168 -194v-302c0 -149 -55 -228 -257 -228v141c41 3 61 19 61 74v271z" />
    <glyph glyph-name="uni0453" unicode="&#x453;" horiz-adv-x="456" 
d="M244 386v-386h-196v523h392v-137h-196zM228 747h193l-104 -169h-141z" />
    <glyph glyph-name="uni0454" unicode="&#x454;" horiz-adv-x="585" 
d="M569 194c-16 -131 -96 -207 -269 -207c-157 0 -279 88 -279 268v8c0 176 128 275 284 275c129 0 244 -57 260 -206h-185c-8 33 -25 58 -72 58c-43 0 -70 -25 -81 -72h146v-112h-147c11 -51 37 -80 85 -80c42 0 69 23 81 68h177z" />
    <glyph glyph-name="uni0455" unicode="&#x455;" horiz-adv-x="523" 
d="M261 -13c-153 0 -243 62 -246 181h180c7 -35 20 -54 65 -54c39 0 55 14 55 37s-21 35 -92 44c-141 16 -203 54 -203 166c0 120 105 177 233 177c137 0 226 -45 239 -173h-177c-7 31 -23 49 -59 49s-52 -16 -52 -36c0 -24 23 -33 82 -40c151 -19 221 -54 221 -167
c0 -129 -98 -184 -246 -184z" />
    <glyph glyph-name="uni0456" unicode="&#x456;" horiz-adv-x="302" 
d="M53 523h196v-523h-196v523zM151 562c-61 0 -107 42 -107 99c0 59 46 100 107 100c60 0 106 -41 106 -100c0 -57 -46 -99 -106 -99z" />
    <glyph glyph-name="uni0457" unicode="&#x457;" horiz-adv-x="302" 
d="M43 570c-51 0 -91 40 -91 89s40 89 91 89c52 0 92 -40 92 -89s-40 -89 -92 -89zM258 570c-51 0 -90 40 -90 89s39 89 90 89c52 0 92 -40 92 -89s-40 -89 -92 -89zM53 523h196v-523h-196v523z" />
    <glyph glyph-name="uni0458" unicode="&#x458;" horiz-adv-x="302" 
d="M-9 -42c43 3 61 18 61 58v507h197v-512c0 -116 -55 -194 -258 -194v141zM151 562c-61 0 -107 42 -107 99c0 59 46 100 107 100c60 0 106 -41 106 -100c0 -57 -46 -99 -106 -99z" />
    <glyph glyph-name="uni0459" unicode="&#x459;" horiz-adv-x="853" 
d="M350 386h-77c-1 -52 -3 -101 -6 -142c-13 -166 -55 -256 -181 -256c-23 0 -37 2 -48 5c-7 2 -12 4 -16 6v139c1 -1 2 -1 5 -2c2 -1 7 -1 16 -1c36 0 51 42 58 135c4 61 5 144 5 253h439v-154h73c139 0 214 -72 214 -183v-3c0 -111 -71 -183 -219 -183h-263v386zM573 125
c44 0 66 19 66 57v3c0 39 -22 59 -66 59h-28v-119h28z" />
    <glyph glyph-name="uni045A" unicode="&#x45a;" horiz-adv-x="873" 
d="M593 125c45 0 67 19 67 57v3c0 39 -22 59 -67 59h-28v-119h28zM371 196h-127v-196h-196v523h196v-190h127v190h194v-154h73c139 0 214 -72 214 -183v-3c0 -111 -71 -183 -218 -183h-263v196z" />
    <glyph glyph-name="uni045B" unicode="&#x45b;" horiz-adv-x="629" 
d="M-6 684h53v66h197v-66h151v-103h-151v-142c29 56 85 98 173 98c99 0 168 -63 168 -193v-344h-197v300c0 53 -19 80 -66 80c-49 0 -78 -28 -78 -91v-289h-197v581h-53v103z" />
    <glyph glyph-name="uni045C" unicode="&#x45c;" horiz-adv-x="588" 
d="M283 747h193l-104 -169h-141zM244 215v-215h-197v523h197v-201l127 201h202l-161 -236l174 -287h-218z" />
    <glyph glyph-name="uni045D" unicode="&#x45d;" horiz-adv-x="631" 
d="M48 0v523h195v-292l148 292h192v-523h-195v291l-148 -291h-192zM150 747h193l52 -169h-141z" />
    <glyph glyph-name="uni045E" unicode="&#x45e;" 
d="M314 582c-107 0 -164 60 -171 160h129c3 -29 11 -54 42 -54s41 26 44 54h128c-8 -100 -69 -160 -172 -160zM214 52l-209 471h213l99 -261l92 261h186l-279 -697h-187z" />
    <glyph glyph-name="uni045F" unicode="&#x45f;" horiz-adv-x="615" 
d="M48 0v523h196v-386h127v386h196v-523h-175l-2 -127h-163l-3 127h-176z" />
    <glyph glyph-name="uni0490" unicode="&#x490;" horiz-adv-x="580" 
d="M293 539v-539h-228v715h284l7 134h196v-310h-259z" />
    <glyph glyph-name="uni0491" unicode="&#x491;" horiz-adv-x="456" 
d="M244 386v-386h-196v523h213l5 134h167v-271h-189z" />
    <glyph glyph-name="Wgrave" unicode="&#x1e80;" horiz-adv-x="1009" 
d="M10 715h229l82 -427l86 427h197l97 -432l87 432h210l-166 -715h-229l-100 427l-101 -427h-226zM340 906h202l47 -149h-149z" />
    <glyph glyph-name="wgrave" unicode="&#x1e81;" horiz-adv-x="854" 
d="M5 523h205l68 -293l80 293h158l70 -293l79 293h184l-166 -523h-185l-73 273l-72 -273h-191zM265 747h193l52 -169h-141z" />
    <glyph glyph-name="Wacute" unicode="&#x1e82;" horiz-adv-x="1009" 
d="M10 715h229l82 -427l86 427h197l97 -432l87 432h210l-166 -715h-229l-100 427l-101 -427h-226zM478 906h201l-103 -149h-149z" />
    <glyph glyph-name="wacute" unicode="&#x1e83;" horiz-adv-x="854" 
d="M5 523h205l68 -293l80 293h158l70 -293l79 293h184l-166 -523h-185l-73 273l-72 -273h-191zM419 747h193l-104 -169h-141z" />
    <glyph glyph-name="Wdieresis" unicode="&#x1e84;" horiz-adv-x="1009" 
d="M10 715h229l82 -427l86 427h197l97 -432l87 432h210l-166 -715h-229l-100 427l-101 -427h-226zM393 752c-51 0 -91 40 -91 89c0 50 40 89 91 89c52 0 92 -39 92 -89c0 -49 -40 -89 -92 -89zM620 752c-51 0 -91 40 -91 89c0 50 40 89 91 89c52 0 92 -39 92 -89
c0 -49 -40 -89 -92 -89z" />
    <glyph glyph-name="wdieresis" unicode="&#x1e85;" horiz-adv-x="854" 
d="M5 523h205l68 -293l80 293h158l70 -293l79 293h184l-166 -523h-185l-73 273l-72 -273h-191zM327 570c-51 0 -91 40 -91 89s40 89 91 89c52 0 92 -40 92 -89s-40 -89 -92 -89zM544 570c-51 0 -90 40 -90 89s39 89 90 89c52 0 92 -40 92 -89s-40 -89 -92 -89z" />
    <glyph glyph-name="Ygrave" unicode="&#x1ef2;" horiz-adv-x="692" 
d="M237 305l-232 410h246l109 -224l110 224h217l-222 -409v-306h-228v305zM188 906h202l47 -149h-149z" />
    <glyph glyph-name="ygrave" unicode="&#x1ef3;" 
d="M214 52l-209 471h213l99 -261l92 261h186l-279 -697h-187zM141 747h193l52 -169h-141z" />
    <glyph glyph-name="uni2009" unicode="&#x2009;" horiz-adv-x="83" 
 />
    <glyph glyph-name="endash" unicode="&#x2013;" horiz-adv-x="543" 
d="M46 351h451v-112h-451v112z" />
    <glyph glyph-name="emdash" unicode="&#x2014;" horiz-adv-x="958" 
d="M46 351h866v-112h-866v112z" />
    <glyph glyph-name="quoteleft" unicode="&#x2018;" horiz-adv-x="321" 
d="M28 473l141 255l110 -40l-78 -271z" />
    <glyph glyph-name="quoteright" unicode="&#x2019;" horiz-adv-x="321" 
d="M42 459l78 269l171 -55l-140 -256z" />
    <glyph glyph-name="quotesinglbase" unicode="&#x201a;" horiz-adv-x="319" 
d="M38 -63l78 270l172 -56l-141 -256z" />
    <glyph glyph-name="quotedblleft" unicode="&#x201c;" horiz-adv-x="555" 
d="M28 473l141 255l110 -40l-78 -271zM265 473l140 255l109 -40l-78 -271z" />
    <glyph glyph-name="quotedblright" unicode="&#x201d;" horiz-adv-x="555" 
d="M42 459l78 269l171 -55l-140 -256zM277 459l78 269l173 -55l-141 -256z" />
    <glyph glyph-name="quotedblbase" unicode="&#x201e;" horiz-adv-x="555" 
d="M38 -63l78 270l172 -56l-141 -256zM273 -63l78 270l173 -56l-141 -256z" />
    <glyph glyph-name="dagger" unicode="&#x2020;" horiz-adv-x="411" 
d="M127 464h-105v136h105v115h157v-115h105v-136h-105v-251h-157v251z" />
    <glyph glyph-name="daggerdbl" unicode="&#x2021;" horiz-adv-x="411" 
d="M127 497h-105v123h105v95h157v-95h105v-123h-105v-66h105v-123h-105v-95h-157v95h-105v123h105v66z" />
    <glyph glyph-name="bullet" unicode="&#x2022;" horiz-adv-x="379" 
d="M189 150c-86 0 -151 68 -151 152s65 152 151 152c88 0 152 -68 152 -152s-64 -152 -152 -152z" />
    <glyph glyph-name="ellipsis" unicode="&#x2026;" horiz-adv-x="909" 
d="M150 -12c-63 0 -110 48 -110 108s46 107 110 107s112 -48 112 -107c0 -60 -48 -108 -112 -108zM453 -12c-64 0 -109 47 -109 108c0 60 45 107 109 107s112 -48 112 -107c0 -61 -47 -108 -112 -108zM756 -12c-64 0 -109 47 -109 108c0 60 45 107 109 107
c65 0 113 -48 113 -107c0 -61 -48 -108 -113 -108z" />
    <glyph glyph-name="perthousand" unicode="&#x2030;" horiz-adv-x="1240" 
d="M216 475c35 0 52 27 52 71c0 43 -17 69 -52 69c-32 0 -52 -26 -52 -69c0 -45 20 -71 52 -71zM216 363c-124 0 -193 79 -193 182c0 101 82 178 193 178s193 -73 193 -174c0 -104 -73 -186 -193 -186zM620 715h102l-508 -715h-101zM613 99c35 0 52 28 52 71s-17 69 -52 69
c-32 0 -52 -26 -52 -69c0 -45 20 -71 52 -71zM613 -13c-124 0 -193 79 -193 182c0 102 82 179 193 179s193 -72 193 -175c0 -104 -73 -186 -193 -186zM1024 99c35 0 52 28 52 71s-17 69 -52 69c-33 0 -52 -26 -52 -69c0 -45 19 -71 52 -71zM1023 -13
c-124 0 -192 79 -192 182c0 102 82 179 193 179c110 0 193 -72 193 -175c0 -104 -74 -186 -194 -186z" />
    <glyph glyph-name="uni2032" unicode="&#x2032;" horiz-adv-x="256" 
d="M52 715h183l-63 -281h-139z" />
    <glyph glyph-name="uni2033" unicode="&#x2033;" horiz-adv-x="478" 
d="M52 715h183l-63 -281h-139zM274 715h183l-64 -281h-139z" />
    <glyph glyph-name="guilsinglleft" unicode="&#x2039;" horiz-adv-x="304" 
d="M25 261l124 194h129l-119 -194l119 -194h-129z" />
    <glyph glyph-name="guilsinglright" unicode="&#x203a;" horiz-adv-x="304" 
d="M145 261l-119 194h129l124 -194l-124 -194h-129z" />
    <glyph glyph-name="fraction" unicode="&#x2044;" horiz-adv-x="178" 
d="M324 715h99l-569 -715h-100z" />
    <glyph glyph-name="Euro" unicode="&#x20ac;" horiz-adv-x="728" 
d="M21 452h61c27 161 146 274 319 274c180 0 283 -89 299 -265h-209c-7 63 -38 94 -92 94c-57 0 -86 -39 -97 -103h139l-13 -74h-131v-46h123l-12 -74h-107c11 -63 39 -97 99 -97c64 0 89 35 97 107h208c-21 -177 -118 -281 -311 -281c-187 0 -291 112 -312 271h-61v74h56
v46h-56v74z" />
    <glyph glyph-name="uni20B4" unicode="&#x20b4;" horiz-adv-x="670" 
d="M334 -13c-187 0 -287 83 -287 212c0 25 4 47 11 66h-38v73h94c21 17 50 33 86 48h-180v73h367c16 15 22 31 22 54c0 35 -21 53 -63 53c-44 0 -68 -25 -73 -69h-210c14 152 108 228 282 228c173 0 275 -75 275 -195c0 -27 -3 -50 -10 -71h41v-73h-87
c-18 -18 -41 -34 -70 -48h157v-73h-353c-28 -17 -37 -37 -37 -62c0 -35 22 -56 71 -56c69 0 85 37 90 82h214c-8 -157 -103 -242 -302 -242z" />
    <glyph glyph-name="uni20B8" unicode="&#x20b8;" horiz-adv-x="609" 
d="M20 642v73h569v-73h-569zM190 415h-170v174h569v-174h-171v-415h-228v415z" />
    <glyph glyph-name="uni20BD" unicode="&#x20bd;" horiz-adv-x="703" 
d="M376 385c61 0 91 27 91 80v4c0 55 -30 77 -90 77h-48v-161h47zM329 112v-112h-226v112h-90v73h90v47h-90v74h90v409h285c207 0 294 -92 294 -245v-4c0 -149 -97 -234 -284 -234h-69v-47h205v-73h-205z" />
    <glyph glyph-name="uni2116" unicode="&#x2116;" horiz-adv-x="1196" 
d="M958 328c-119 0 -213 67 -213 191v6c0 124 94 198 214 198c118 0 212 -70 212 -193v-5c0 -126 -95 -197 -213 -197zM959 445c35 0 52 26 52 79v5c0 51 -17 77 -52 77c-36 0 -54 -25 -54 -75v-5c0 -56 17 -81 54 -81zM65 715h254l171 -364v364h198v-715h-218l-206 415
v-415h-199v715zM760 270h397v-100h-397v100z" />
    <glyph glyph-name="trademark" unicode="&#x2122;" horiz-adv-x="768" 
d="M341 715h137l54 -146l55 146h139v-321h-117v170l-66 -170h-37l-65 170v-170h-100v321zM109 623h-81v92h277v-92h-80v-229h-116v229z" />
    <glyph glyph-name="Omega" unicode="&#x2126;" horiz-adv-x="826" 
d="M264 351c0 -108 38 -180 107 -237v-114h-338v167h98c-57 41 -100 124 -100 205v6c0 202 160 347 381 347c224 0 383 -134 383 -342v-6c0 -89 -43 -170 -99 -210h97v-167h-338v114c68 55 107 129 107 237v8c0 125 -55 190 -150 190c-92 0 -148 -65 -148 -190v-8z" />
    <glyph glyph-name="onethird" unicode="&#x2153;" horiz-adv-x="829" 
d="M104 576l-83 -45v116l104 68h124v-382h-145v243zM629 715h99l-569 -715h-100zM633 -7c-125 0 -173 58 -176 137h127c3 -21 13 -38 40 -38c23 0 34 10 34 31c0 19 -14 29 -41 29h-31v79h31c29 0 43 10 43 31c0 18 -10 27 -31 27s-34 -12 -38 -35h-126c7 77 60 134 168 134
c103 0 162 -39 162 -107c0 -43 -25 -71 -69 -82c45 -7 77 -38 77 -82c0 -73 -54 -124 -170 -124z" />
    <glyph glyph-name="twothirds" unicode="&#x2154;" horiz-adv-x="879" 
d="M7 351l129 132c43 44 70 74 70 103c0 19 -8 30 -28 30s-32 -17 -36 -51h-131c3 104 70 156 175 156c111 0 161 -55 161 -124c0 -53 -33 -92 -78 -135l-28 -26h108v-103h-342v18zM695 715h99l-569 -715h-100zM683 -7c-125 0 -173 58 -176 137h127c3 -21 13 -38 40 -38
c23 0 34 10 34 31c0 19 -14 29 -41 29h-31v79h31c29 0 43 10 43 31c0 18 -10 27 -31 27s-34 -12 -38 -35h-126c7 77 60 134 168 134c103 0 162 -39 162 -107c0 -43 -25 -71 -69 -82c45 -7 77 -38 77 -82c0 -73 -54 -124 -170 -124z" />
    <glyph glyph-name="oneeighth" unicode="&#x215b;" horiz-adv-x="824" 
d="M104 576l-83 -45v116l104 68h124v-382h-145v243zM619 715h99l-569 -715h-100zM625 -7c-119 0 -179 39 -179 114c0 40 21 76 70 92c-33 15 -53 37 -53 78c0 71 71 111 163 111c96 0 162 -38 162 -111c0 -40 -20 -64 -53 -77c48 -15 68 -49 68 -89
c0 -75 -61 -118 -178 -118zM625 88c23 0 38 15 38 36c0 20 -15 35 -38 35s-38 -13 -38 -36c0 -21 15 -35 38 -35zM626 231c19 0 34 14 34 33s-15 32 -34 32s-35 -13 -35 -33c0 -19 16 -32 35 -32z" />
    <glyph glyph-name="threeeighths" unicode="&#x215c;" horiz-adv-x="866" 
d="M196 326c-125 0 -173 58 -176 137h127c3 -21 13 -38 40 -38c23 0 34 10 34 31c0 19 -14 29 -41 29h-31v79h31c29 0 43 10 43 31c0 18 -10 27 -31 27s-34 -12 -38 -35h-126c7 77 60 134 168 134c103 0 162 -39 162 -107c0 -43 -25 -71 -69 -82c45 -7 77 -38 77 -82
c0 -73 -54 -124 -170 -124zM672 715h99l-569 -715h-100zM665 -7c-119 0 -179 39 -179 114c0 40 21 76 70 92c-33 15 -53 37 -53 78c0 71 71 111 163 111c96 0 162 -38 162 -111c0 -40 -20 -64 -53 -77c48 -15 68 -49 68 -89c0 -75 -61 -118 -178 -118zM665 88
c23 0 38 15 38 36c0 20 -15 35 -38 35s-38 -13 -38 -36c0 -21 15 -35 38 -35zM666 231c19 0 34 14 34 33s-15 32 -34 32s-35 -13 -35 -33c0 -19 16 -32 35 -32z" />
    <glyph glyph-name="fiveeighths" unicode="&#x215d;" horiz-adv-x="850" 
d="M189 326c-116 0 -166 55 -167 130h131c3 -15 9 -26 32 -26c20 0 32 14 32 37s-12 35 -35 35c-20 0 -31 -11 -35 -23h-114l12 236h293v-100h-194l-4 -78c16 25 42 51 103 51c71 0 118 -41 118 -118c0 -89 -61 -144 -172 -144zM656 715h99l-569 -715h-100zM651 -7
c-119 0 -179 39 -179 114c0 40 21 76 70 92c-33 15 -53 37 -53 78c0 71 71 111 163 111c96 0 162 -38 162 -111c0 -40 -20 -64 -53 -77c48 -15 68 -49 68 -89c0 -75 -61 -118 -178 -118zM651 88c23 0 38 15 38 36c0 20 -15 35 -38 35s-38 -13 -38 -36c0 -21 15 -35 38 -35z
M652 231c19 0 34 14 34 33s-15 32 -34 32s-35 -13 -35 -33c0 -19 16 -32 35 -32z" />
    <glyph glyph-name="seveneighths" unicode="&#x215e;" horiz-adv-x="819" 
d="M169 602h-147v113h328v-14l-139 -368h-144zM606 715h99l-569 -715h-100zM619 -7c-119 0 -179 39 -179 114c0 40 21 76 70 92c-33 15 -53 37 -53 78c0 71 71 111 163 111c96 0 162 -38 162 -111c0 -40 -20 -64 -53 -77c48 -15 68 -49 68 -89c0 -75 -61 -118 -178 -118z
M619 88c23 0 38 15 38 36c0 20 -15 35 -38 35s-38 -13 -38 -36c0 -21 15 -35 38 -35zM620 231c19 0 34 14 34 33s-15 32 -34 32s-35 -13 -35 -33c0 -19 16 -32 35 -32z" />
    <glyph glyph-name="Delta" unicode="&#x2206;" horiz-adv-x="772" 
d="M16 24l215 691h312l213 -691v-24h-740v24zM266 173h215l-107 383z" />
    <glyph glyph-name="minus" unicode="&#x2212;" horiz-adv-x="582" 
d="M38 414h507v-149h-507v149z" />
    <glyph glyph-name="approxequal" unicode="&#x2248;" horiz-adv-x="593" 
d="M36 113c8 135 73 188 146 188c82 0 171 -39 219 -39c27 0 42 15 45 44h111c-5 -128 -70 -189 -144 -189c-82 0 -172 40 -221 40c-27 0 -41 -17 -45 -44h-111zM36 341c8 135 73 188 146 188c82 0 171 -38 219 -38c27 0 42 14 45 42h111c-5 -126 -70 -187 -144 -187
c-82 0 -172 39 -221 39c-27 0 -41 -17 -45 -44h-111z" />
    <glyph glyph-name="notequal" unicode="&#x2260;" horiz-adv-x="570" 
d="M38 492h250l37 96h122l-37 -96h121v-131h-172l-26 -68h198v-131h-248l-37 -96h-123l37 96h-122v131h172l27 68h-199v131z" />
    <glyph glyph-name="lessequal" unicode="&#x2264;" horiz-adv-x="514" 
d="M40 376v37l428 229v-174l-149 -72l149 -73v-176zM40 126h428v-126h-428v126z" />
    <glyph glyph-name="greaterequal" unicode="&#x2265;" horiz-adv-x="514" 
d="M46 323l149 73l-149 72v174l428 -229v-37l-428 -229v176zM46 126h428v-126h-428v126z" />
    <glyph glyph-name="uni24C5" unicode="&#x24c5;" horiz-adv-x="842" 
d="M274 562h165c120 0 169 -55 169 -140v-2c0 -87 -53 -134 -161 -134h-38v-129h-135v405zM431 376c33 0 50 15 50 44v2c0 26 -16 39 -49 39h-23v-85h22zM420 31c178 0 323 132 323 328c0 193 -141 325 -321 325c-181 0 -323 -133 -323 -327c0 -196 146 -326 321 -326z
M420 -21c-214 0 -386 163 -386 378c0 212 171 379 388 379c220 0 387 -165 387 -377c0 -216 -173 -380 -389 -380z" />
    <glyph glyph-name="zero.tab" unicode="&#xe44f;" 
d="M303 157c51 0 63 34 63 122v157c0 88 -16 123 -65 123c-51 0 -67 -35 -67 -123v-157c0 -89 18 -122 69 -122zM296 -13c-169 0 -267 101 -267 292v156c0 191 115 290 271 290c155 0 271 -89 271 -285v-156c0 -192 -104 -297 -275 -297z" />
    <glyph glyph-name="one.tab" unicode="&#xe450;" 
d="M242 493l-166 -108v188l196 142h197v-715h-227v493z" />
    <glyph glyph-name="two.tab" unicode="&#xe451;" 
d="M20 31l212 258c72 91 115 146 115 207c0 41 -17 65 -52 65c-40 0 -57 -28 -61 -112h-203c5 168 79 276 274 276c177 0 262 -86 262 -215c0 -101 -65 -179 -143 -265l-70 -75h211v-170h-545v31z" />
    <glyph glyph-name="three.tab" unicode="&#xe452;" 
d="M306 -13c-195 0 -282 86 -289 253h195c3 -60 22 -91 81 -91c51 0 72 28 72 72c0 48 -22 73 -75 73h-58v137h56c53 0 78 26 78 71c0 39 -20 62 -64 62c-45 0 -72 -25 -76 -84h-192c7 153 100 245 272 245c163 0 257 -73 257 -197c0 -80 -42 -131 -114 -154
c76 -16 129 -74 129 -158c0 -138 -92 -229 -272 -229z" />
    <glyph glyph-name="four.tab" unicode="&#xe453;" 
d="M309 135h-294v77l245 503h247v-434h70v-146h-70v-135h-198v135zM313 281v262l-124 -262h124z" />
    <glyph glyph-name="five.tab" unicode="&#xe454;" 
d="M294 -13c-181 0 -261 85 -266 245h190c3 -51 20 -73 75 -73c47 0 66 35 66 91c0 55 -30 85 -82 85c-49 0 -79 -22 -98 -49h-131l16 429h461v-163h-307l-6 -152c27 43 75 81 156 81c131 0 201 -87 201 -231c0 -161 -96 -263 -275 -263z" />
    <glyph glyph-name="six.tab" unicode="&#xe455;" 
d="M314 -13c-197 0 -286 124 -286 324v73c0 219 121 341 297 341c148 0 239 -65 244 -217h-185c-4 36 -18 61 -58 61c-65 0 -98 -56 -99 -185c27 43 64 80 144 80c112 0 206 -68 206 -224c0 -152 -98 -253 -263 -253zM309 150c47 0 78 35 78 86c0 56 -32 87 -79 87
s-81 -31 -81 -84c0 -56 35 -89 82 -89z" />
    <glyph glyph-name="seven.tab" unicode="&#xe456;" 
d="M298 536h-265v179h542v-23l-248 -692h-226z" />
    <glyph glyph-name="eight.tab" unicode="&#xe457;" 
d="M300 -13c-173 0 -278 76 -278 215c0 80 39 142 119 173c-56 28 -92 75 -92 147c0 131 114 203 253 203c145 0 252 -72 252 -202c0 -73 -35 -120 -91 -147c77 -29 115 -89 115 -169c0 -137 -103 -220 -278 -220zM301 148c47 0 79 30 79 78c0 49 -30 80 -78 80
c-47 0 -80 -28 -80 -79c0 -49 32 -79 79 -79zM303 431c39 0 70 28 70 71c0 44 -32 71 -71 71c-37 0 -70 -27 -70 -70s32 -72 71 -72z" />
    <glyph glyph-name="nine.tab" unicode="&#xe458;" 
d="M284 -12c-159 0 -249 68 -256 220h186c4 -36 22 -63 65 -63c71 0 94 56 95 184c-27 -43 -66 -79 -145 -79c-111 0 -206 65 -206 221c0 152 99 255 264 255c191 0 285 -115 285 -322v-78c0 -217 -105 -338 -288 -338zM292 393c47 0 81 31 81 83c0 56 -35 90 -82 90
s-78 -35 -78 -86c0 -56 32 -87 79 -87z" />
    <glyph glyph-name="cent.tab" unicode="&#xe459;" 
d="M279 -11c-147 11 -253 101 -253 266v8c0 160 110 257 253 273v93h74v-93c119 -11 217 -79 225 -219h-174c-5 38 -22 62 -51 73v-266c33 11 57 37 61 85h167c-4 -125 -85 -209 -228 -220v-124h-74v124zM216 257c0 -75 22 -115 63 -130v263c-40 -15 -63 -53 -63 -125v-8z
" />
    <glyph glyph-name="dollar.tab" unicode="&#xe45a;" 
d="M264 -10c-161 11 -245 98 -250 237h186c3 -43 20 -74 64 -85v128c-168 24 -238 90 -238 230c0 124 89 213 238 224v89h77v-90c139 -12 222 -79 231 -220h-182c-4 33 -16 56 -49 67v-122c140 -21 241 -74 241 -220c0 -123 -71 -227 -241 -238v-125h-77v125zM207 517
c0 -31 13 -46 57 -57v113c-39 -7 -57 -28 -57 -56zM395 204c0 28 -13 42 -54 53v-116c36 9 54 32 54 63z" />
    <glyph glyph-name="Euro.tab" unicode="&#xe45b;" 
d="M11 454h46c8 175 117 272 266 272c148 0 242 -71 247 -246h-181c-3 60 -21 82 -65 82c-47 0 -69 -32 -72 -108h131l-13 -74h-118v-47h110l-12 -73h-98c3 -77 22 -108 73 -108c47 0 67 22 70 90h178c-3 -179 -92 -255 -257 -255c-156 0 -252 96 -259 273h-46v73h46v47h-46
v74z" />
    <glyph glyph-name="a.alt" unicode="&#xe4c0;" horiz-adv-x="638" 
d="M239 -13c-115 0 -216 85 -216 269v8c0 182 101 273 216 273c80 0 125 -33 154 -86v72h197v-523h-197v83c-27 -53 -77 -96 -154 -96zM310 137c56 0 89 42 89 123v8c0 83 -31 123 -87 123c-57 0 -89 -40 -89 -124v-8c0 -81 31 -122 87 -122z" />
    <glyph glyph-name="t.alt" unicode="&#xe4d3;" horiz-adv-x="386" 
d="M82 391h-71v132h71v107h197v-107h92v-132h-92v-391h-197v391z" />
    <glyph glyph-name="f_i" unicode="&#xfb01;" horiz-adv-x="689" 
d="M75 391h-64v132h64v39c0 136 87 196 215 196c35 0 59 -3 83 -10v-142c-13 4 -25 6 -45 6c-39 0 -56 -22 -56 -51v-38h101v-132h-101v-391h-197v391zM439 523h196v-523h-196v523zM537 562c-61 0 -107 42 -107 99c0 59 46 100 107 100c60 0 106 -41 106 -100
c0 -57 -46 -99 -106 -99z" />
    <glyph glyph-name="f_l" unicode="&#xfb02;" horiz-adv-x="687" 
d="M75 391h-64v132h64v39c0 136 87 196 215 196c35 0 59 -3 83 -10v-142c-13 4 -25 6 -45 6c-39 0 -56 -22 -56 -51v-38h101v-132h-101v-391h-197v391zM438 750h196v-750h-196v750z" />
    <glyph glyph-name="hyphen.uc" horiz-adv-x="412" 
d="M49 403h314v-154h-314v154z" />
    <glyph glyph-name="four.old" horiz-adv-x="679" 
d="M360 38h-349v70l296 511h262v-443h91v-138h-91v-130h-209v130zM365 176v284l-154 -284h154z" />
    <glyph glyph-name="zero.num" horiz-adv-x="435" 
d="M217 435c37 0 51 27 51 87v6c0 63 -15 85 -52 85c-36 0 -49 -24 -49 -85v-7c0 -60 13 -86 50 -86zM214 326c-124 0 -192 68 -192 195v6c0 125 84 194 195 194c108 0 196 -58 196 -191v-5c0 -127 -75 -199 -199 -199z" />
    <glyph glyph-name="nine.oldtab" 
d="M289 298c47 0 84 34 84 90c0 57 -36 93 -85 93c-47 0 -82 -36 -82 -91c0 -59 35 -92 83 -92zM283 -107c-157 0 -247 74 -254 223h179c5 -39 26 -67 73 -67c68 0 91 56 91 188c-27 -43 -67 -73 -143 -73c-112 0 -207 60 -207 214c0 151 102 254 265 254
c190 0 281 -122 281 -320v-80c0 -217 -102 -339 -285 -339z" />
    <glyph glyph-name="eight.oldtab" 
d="M300 -13c-171 0 -275 77 -275 214c0 80 44 142 123 173c-60 28 -96 75 -96 148c0 131 111 204 251 204c141 0 248 -72 248 -203c0 -75 -37 -121 -96 -148c79 -29 120 -89 120 -168c0 -137 -103 -220 -275 -220zM302 432c40 0 72 28 72 75c0 45 -32 74 -71 74
s-72 -29 -72 -74s32 -75 71 -75zM301 139c48 0 81 31 81 82s-30 84 -81 84c-47 0 -81 -31 -81 -83c0 -51 32 -83 81 -83z" />
    <glyph glyph-name="seven.oldtab" 
d="M295 445h-262v174h539v-23l-250 -688h-225z" />
    <glyph glyph-name="six.oldtab" 
d="M315 -13c-192 0 -283 121 -283 321v78c0 217 118 340 294 340c145 0 236 -67 243 -216h-183c-4 36 -20 62 -60 62c-65 0 -97 -61 -98 -198c27 40 69 81 147 81c112 0 203 -61 203 -216c0 -152 -99 -252 -263 -252zM315 141c47 0 82 35 82 90c0 59 -35 92 -83 92
c-47 0 -84 -33 -84 -89c0 -57 36 -93 85 -93z" />
    <glyph glyph-name="five.oldtab" 
d="M294 -104c-179 0 -263 88 -264 235h186c4 -48 21 -78 77 -78c51 0 73 36 73 95c0 60 -31 91 -86 91c-43 0 -77 -20 -97 -51h-129l16 431h454v-160h-303l-6 -157c27 41 72 81 154 81c125 0 197 -86 197 -225c0 -163 -95 -262 -272 -262z" />
    <glyph glyph-name="four.oldtab" 
d="M307 38h-294v69l245 512h247v-444h72v-137h-72v-130h-198v130zM312 175v276l-129 -276h129z" />
    <glyph glyph-name="three.oldtab" 
d="M298 -105c-193 0 -277 100 -282 249h191c3 -59 26 -94 85 -94c52 0 76 31 76 78c0 49 -25 77 -80 77h-56v130h54c55 0 81 30 81 77c0 39 -22 67 -67 67c-47 0 -74 -28 -78 -87h-189c8 139 103 240 274 240c161 0 251 -73 251 -197c0 -80 -40 -133 -112 -154
c77 -16 129 -74 129 -159c0 -137 -97 -227 -277 -227z" />
    <glyph glyph-name="two.oldtab" 
d="M20 29l222 214c73 71 107 118 107 169c0 37 -17 61 -57 61c-43 0 -64 -31 -72 -95h-189c11 160 107 254 276 254c163 0 252 -82 252 -200c0 -85 -48 -148 -127 -220l-67 -61h199v-151h-544v29z" />
    <glyph glyph-name="one.oldtab" 
d="M252 412l-171 -109v175l200 141h181v-619h-210v412z" />
    <glyph glyph-name="zero.oldtab" 
d="M296 -13c-168 0 -266 104 -266 285v78c0 179 113 282 269 282c155 0 271 -90 271 -278v-78c0 -181 -104 -289 -274 -289zM302 154c51 0 67 38 67 118v78c0 83 -18 119 -69 119s-69 -38 -69 -119v-78c0 -81 19 -118 71 -118z" />
    <glyph glyph-name="yen.oldtab" 
d="M56 375h131l-165 319h217l75 -184l74 184h190l-161 -319h138v-72h-146v-45h146v-72h-146v-186h-213v186h-140v72h140v45h-140v72z" />
    <glyph glyph-name="sterling.oldtab" 
d="M26 397h40c-5 24 -9 50 -9 79c0 152 119 227 259 227c169 0 247 -83 251 -240h-186c-7 59 -20 76 -57 76c-39 0 -60 -20 -60 -75c0 -23 1 -44 4 -67h143v-120h-129c1 -15 2 -30 2 -45c0 -19 -3 -37 -8 -54c24 -8 44 -15 64 -15c31 0 50 14 53 51h186
c-5 -139 -78 -223 -198 -223c-90 0 -131 49 -171 49c-27 0 -37 -16 -40 -40h-158c4 72 34 134 85 169c5 16 9 36 9 63c0 13 -2 28 -5 45h-75v120z" />
    <glyph glyph-name="f.short" horiz-adv-x="384" 
d="M75 391h-64v132h64v39c0 136 87 196 215 196c35 0 59 -3 83 -10v-142c-13 4 -25 6 -45 6c-39 0 -56 -22 -56 -51v-38h101v-132h-101v-391h-197v391z" />
    <glyph glyph-name="f_f.short" horiz-adv-x="722" 
d="M75 391h-64v132h64v33c0 136 86 196 213 196c35 0 60 -4 83 -11v-142c-12 4 -25 7 -44 7c-39 0 -55 -22 -55 -51v-32h141v39c0 136 87 196 214 196c35 0 60 -3 84 -10v-142c-13 4 -26 6 -45 6c-39 0 -56 -22 -56 -51v-38h101v-132h-101v-391h-197v391h-141v-391h-197v391
z" />
    <glyph glyph-name="Euro.oldtab" 
d="M23 440h43c8 170 113 264 258 264c143 0 236 -68 241 -238h-176c-4 59 -20 80 -64 80c-45 0 -66 -30 -69 -106h127l-12 -71h-115v-46h107l-12 -71h-95c3 -75 21 -105 70 -105c45 0 66 23 69 88h172c-3 -173 -91 -248 -248 -248c-153 0 -246 93 -253 265h-43v71h43v46h-43
v71z" />
    <glyph glyph-name="dollar.oldtab" 
d="M210 501c0 -29 12 -44 55 -55v109c-37 -7 -55 -27 -55 -54zM396 198c0 28 -12 41 -55 52v-113c37 8 55 28 55 61zM265 -10c-159 12 -240 97 -244 230h182c3 -41 19 -71 62 -82v124c-164 27 -233 85 -233 223c0 120 87 206 233 217v87h76v-88c137 -12 218 -77 229 -213
h-180c-4 31 -17 53 -49 64v-117c139 -21 237 -71 237 -214c0 -119 -70 -220 -237 -231v-121h-76v121z" />
    <glyph glyph-name="braceright.tab" horiz-adv-x="300" 
d="M13 -21c60 4 74 27 62 91l-17 95c-15 77 12 125 100 152c-88 28 -115 74 -100 151l17 96c11 61 -2 82 -62 86v127c199 0 266 -71 229 -240l-19 -84c-9 -45 3 -73 64 -77v-121c-61 -5 -73 -33 -64 -78l19 -85c35 -163 -30 -240 -229 -240v127z" />
    <glyph glyph-name="braceleft.tab" horiz-adv-x="300" 
d="M287 -148c-199 0 -264 77 -229 240l19 85c9 45 -3 73 -64 78v121c61 4 73 32 64 77l-19 84c-37 169 30 240 229 240v-127c-60 -4 -73 -25 -62 -86l17 -96c15 -77 -12 -123 -100 -151c88 -27 115 -75 100 -152l-17 -95c-12 -64 2 -87 62 -91v-127z" />
    <glyph glyph-name="bracketright.tab" horiz-adv-x="300" 
d="M13 -21h71v670h-71v127h246v-924h-246v127z" />
    <glyph glyph-name="bracketleft.tab" horiz-adv-x="300" 
d="M41 776h246v-127h-71v-670h71v-127h-246v924z" />
    <glyph glyph-name="parenright.tab" horiz-adv-x="300" 
d="M-11 -148c51 99 110 254 110 462c0 210 -59 360 -110 461h135c62 -91 146 -233 146 -461c0 -230 -84 -371 -146 -462h-135z" />
    <glyph glyph-name="parenleft.tab" horiz-adv-x="300" 
d="M176 -148c-62 91 -146 232 -146 462c0 228 84 370 146 461h135c-53 -100 -110 -252 -110 -461c0 -207 57 -364 110 -462h-135z" />
    <glyph glyph-name="semicolon.tab" horiz-adv-x="300" 
d="M-18 -79l81 272l182 -63l-148 -252zM152 272c-63 0 -110 47 -110 107s47 108 110 108c64 0 112 -48 112 -108s-48 -107 -112 -107z" />
    <glyph glyph-name="colon.tab" horiz-adv-x="300" 
d="M149 -12c-64 0 -109 47 -109 108c0 60 45 107 109 107c65 0 113 -48 113 -107c0 -61 -48 -108 -113 -108zM149 272c-64 0 -109 47 -109 107s45 108 109 108c65 0 113 -48 113 -108s-48 -107 -113 -107z" />
    <glyph glyph-name="comma.tab" horiz-adv-x="300" 
d="M5 -79l81 272l182 -63l-148 -252z" />
    <glyph glyph-name="period.tab" horiz-adv-x="300" 
d="M148 -12c-64 0 -109 47 -109 108c0 60 45 107 109 107c65 0 113 -48 113 -107c0 -61 -48 -108 -113 -108z" />
    <glyph glyph-name="greaterequal.tab" 
d="M88 323l149 73l-149 72v174l428 -229v-37l-428 -229v176zM88 126h428v-126h-428v126z" />
    <glyph glyph-name="lessequal.tab" 
d="M83 376v37l428 229v-174l-149 -72l149 -73v-176zM83 126h428v-126h-428v126z" />
    <glyph glyph-name="greater.tab" 
d="M74 231l192 91l-192 99v172l452 -252v-36l-452 -251v177z" />
    <glyph glyph-name="less.tab" 
d="M75 304v37l452 251v-178l-193 -90l193 -99v-172z" />
    <glyph glyph-name="approxequal.tab" 
d="M43 113c8 135 73 188 146 188c81 0 164 -39 213 -39c26 0 41 15 45 44h110c-5 -128 -70 -189 -144 -189c-82 0 -166 40 -214 40c-27 0 -41 -17 -46 -44h-110zM43 341c8 135 73 188 146 188c81 0 164 -38 213 -38c26 0 41 14 45 42h110c-5 -126 -70 -187 -144 -187
c-82 0 -166 39 -214 39c-27 0 -41 -17 -46 -44h-110z" />
    <glyph glyph-name="notequal.tab" 
d="M53 492h250l37 96h122l-37 -96h121v-131h-172l-26 -68h198v-131h-248l-37 -96h-123l37 96h-122v131h172l27 68h-199v131z" />
    <glyph glyph-name="equal.tab" 
d="M61 293h478v-131h-478v131zM61 492h478v-131h-478v131z" />
    <glyph glyph-name="divide.tab" 
d="M299 34c-56 0 -100 42 -100 98c0 54 45 97 100 97s100 -43 100 -97c0 -56 -44 -98 -100 -98zM46 407h507v-134h-507v134zM299 450c-55 0 -100 43 -100 97c0 56 44 98 100 98s100 -42 100 -98c0 -54 -45 -97 -100 -97z" />
    <glyph glyph-name="multiply.tab" 
d="M47 185l152 152l-155 154l103 104l154 -156l153 152l102 -102l-152 -152l155 -154l-104 -104l-154 156l-152 -152z" />
    <glyph glyph-name="plusminus.tab" 
d="M221 343h-173v142h173v162h157v-162h174v-142h-174v-161h-157v161zM48 126h507v-126h-507v126z" />
    <glyph glyph-name="minus.tab" 
d="M54 414h492v-149h-492v149z" />
    <glyph glyph-name="plus.tab" 
d="M222 269h-166v142h166v181h156v-181h166v-142h-166v-182h-156v182z" />
    <glyph glyph-name="perthousand.tab" horiz-adv-x="1000" 
d="M176 481c25 0 35 18 35 74c0 57 -10 75 -35 75c-24 0 -36 -17 -36 -74s12 -75 36 -75zM175 385c-100 0 -157 67 -157 170s67 168 158 168c89 0 158 -60 158 -164s-60 -174 -159 -174zM530 715h99l-492 -715h-98zM486 84c25 0 36 18 36 74s-11 73 -36 73
c-24 0 -36 -17 -36 -72c0 -57 12 -75 36 -75zM485 -13c-100 0 -157 68 -157 171c0 101 67 167 158 167s158 -60 158 -164s-60 -174 -159 -174zM825 84c25 0 35 18 35 74s-10 73 -35 73c-24 0 -36 -17 -36 -72c0 -57 12 -75 36 -75zM824 -13c-100 0 -158 68 -158 171
c0 101 68 167 159 167c89 0 157 -60 157 -164s-61 -174 -158 -174z" />
    <glyph glyph-name="percent.tab" horiz-adv-x="800" 
d="M213 488c31 0 47 26 47 67s-16 67 -47 67s-47 -26 -47 -66c0 -43 16 -68 47 -68zM212 383c-115 0 -181 75 -181 172c0 95 77 168 182 168c104 0 181 -68 181 -165c0 -99 -68 -175 -182 -175zM597 715h102l-492 -715h-101zM588 92c31 0 46 26 46 67s-15 67 -46 67
s-48 -25 -48 -66c0 -43 17 -68 48 -68zM587 -13c-115 0 -181 75 -181 172c0 96 77 169 182 169c104 0 181 -68 181 -165c0 -99 -69 -176 -182 -176z" />
    <glyph glyph-name="two.num" horiz-adv-x="366" 
d="M4 351l129 132c43 44 70 74 70 103c0 19 -8 30 -28 30s-32 -17 -36 -51h-131c3 104 70 156 175 156c111 0 161 -55 161 -124c0 -53 -33 -92 -78 -135l-28 -26h108v-103h-342v18z" />
    <glyph glyph-name="uni045D.bgr" horiz-adv-x="628" 
d="M218 -13c-100 0 -175 63 -175 193v343h197v-309c0 -53 19 -80 66 -80c49 0 78 28 78 91v298h197v-523h-197v81c-29 -56 -78 -94 -166 -94zM142 747h193l52 -169h-141z" />
    <glyph glyph-name="three.num" horiz-adv-x="385" 
d="M193 326c-125 0 -173 58 -176 137h127c3 -21 13 -38 40 -38c23 0 34 10 34 31c0 19 -14 29 -41 29h-31v79h31c29 0 43 10 43 31c0 18 -10 27 -31 27s-34 -12 -38 -35h-126c7 77 60 134 168 134c103 0 162 -39 162 -107c0 -43 -25 -71 -69 -82c45 -7 77 -38 77 -82
c0 -73 -54 -124 -170 -124z" />
    <glyph glyph-name="four.num" horiz-adv-x="408" 
d="M201 403h-190v54l157 258h172v-218h48v-94h-48v-70h-139v70zM205 497v124l-72 -124h72z" />
    <glyph glyph-name="uni20B4.old" horiz-adv-x="655" 
d="M325 -13c-180 0 -277 82 -277 202c0 27 4 49 11 68h-38v71h92c21 16 49 31 84 46h-176v71h357c16 15 21 30 21 53c0 36 -22 50 -63 50s-65 -22 -70 -66h-202c13 147 104 221 273 221c165 0 267 -75 267 -191c0 -24 -3 -46 -9 -67h38v-71h-83c-17 -17 -39 -32 -67 -46h150
v-71h-340c-29 -17 -38 -36 -38 -60c0 -35 24 -55 72 -55c67 0 82 36 87 80h204c-7 -153 -101 -235 -293 -235z" />
    <glyph glyph-name="uni20B4.oldtab" 
d="M300 -13c-171 0 -260 82 -260 211c0 21 3 41 9 59h-34v71h85c19 15 45 31 78 46h-163v71h331c15 15 20 30 20 53c0 36 -22 50 -61 50s-61 -22 -66 -66h-184c11 147 96 221 253 221c155 0 248 -75 248 -196c0 -21 -3 -42 -8 -62h35v-71h-77c-15 -16 -36 -31 -63 -46h140
v-71h-316c-27 -17 -35 -36 -35 -60c0 -35 20 -55 67 -55c62 0 77 36 82 80h189c-4 -157 -95 -235 -270 -235z" />
    <glyph glyph-name="uni20B4.tab" 
d="M301 -13c-171 0 -260 84 -260 217c0 21 3 42 8 61h-32v73h82c20 17 46 33 78 48h-160v73h328c15 15 20 31 20 54c0 35 -19 53 -57 53c-40 0 -60 -25 -65 -69h-187c13 152 97 228 253 228s247 -77 247 -202c0 -23 -1 -44 -8 -64h35v-73h-76c-16 -19 -36 -33 -63 -48h139
v-73h-315c-27 -17 -34 -37 -34 -62c0 -35 21 -56 65 -56c63 0 74 37 79 82h191c-5 -159 -93 -242 -268 -242z" />
    <glyph glyph-name="five.num" horiz-adv-x="378" 
d="M186 326c-116 0 -166 55 -167 130h131c3 -15 9 -26 32 -26c20 0 32 14 32 37s-12 35 -35 35c-20 0 -31 -11 -35 -23h-114l12 236h293v-100h-194l-4 -78c16 25 42 51 103 51c71 0 118 -41 118 -118c0 -89 -61 -144 -172 -144z" />
    <glyph glyph-name="uni20B8.old" horiz-adv-x="591" 
d="M20 623v71h552v-71h-552zM185 402h-165v169h552v-169h-165v-402h-222v402z" />
    <glyph glyph-name="uni20B8.oldtab" 
d="M35 623v71h525v-71h-525zM188 402h-153v169h525v-169h-151v-402h-221v402z" />
    <glyph glyph-name="uni20B8.tab" 
d="M39 642v73h522v-73h-522zM186 415h-147v174h522v-174h-147v-415h-228v415z" />
    <glyph glyph-name="six.num" horiz-adv-x="404" 
d="M212 326c-136 0 -190 77 -190 193v11c0 117 82 191 191 191c103 0 157 -43 164 -123h-131c-3 11 -9 22 -29 22c-35 0 -48 -33 -51 -80c17 23 39 40 90 40c69 0 129 -31 129 -117c0 -83 -64 -137 -173 -137zM210 421c23 0 37 17 37 40s-14 39 -37 39s-36 -17 -36 -40
s13 -39 36 -39z" />
    <glyph glyph-name="uni20BD.old" horiz-adv-x="690" 
d="M372 374c59 0 88 26 88 77v4c0 53 -30 74 -87 74h-46v-155h45zM327 108v-108h-219v108h-88v71h88v47h-88v71h88v397h276c199 0 284 -90 284 -238v-4c0 -145 -94 -226 -274 -226h-67v-47h199v-71h-199z" />
    <glyph glyph-name="uni20BD.oldtab" 
d="M325 374c53 0 79 26 79 77v4c0 53 -27 74 -78 74h-42v-155h41zM284 108v-108h-195v108h-79v71h79v47h-79v71h79v397h246c179 0 254 -90 254 -238v-4c0 -145 -84 -226 -245 -226h-60v-47h178v-71h-178z" />
    <glyph glyph-name="uni20BD.tab" 
d="M285 112v-112h-199v112h-76v73h76v47h-76v74h76v409h245c181 0 257 -93 257 -245v-4c0 -149 -85 -234 -244 -234h-59v-47h182v-73h-182zM321 385c51 0 77 27 77 80v4c0 55 -25 77 -76 77h-37v-161h36z" />
    <glyph glyph-name="seven.num" horiz-adv-x="357" 
d="M166 602h-147v113h328v-14l-139 -368h-144z" />
    <glyph glyph-name="eight.num" horiz-adv-x="393" 
d="M197 326c-119 0 -179 39 -179 114c0 40 21 76 70 92c-33 15 -53 37 -53 78c0 71 71 111 163 111c96 0 162 -38 162 -111c0 -40 -20 -64 -53 -77c48 -15 68 -49 68 -89c0 -75 -61 -118 -178 -118zM197 421c23 0 38 15 38 36c0 20 -15 35 -38 35s-38 -13 -38 -36
c0 -21 15 -35 38 -35zM198 564c19 0 34 14 34 33s-15 32 -34 32s-35 -13 -35 -33c0 -19 16 -32 35 -32z" />
    <glyph glyph-name="nine.num" horiz-adv-x="404" 
d="M192 326c-100 0 -159 44 -166 123h132c3 -12 8 -22 31 -22c36 0 47 31 48 78c-16 -23 -34 -38 -83 -38c-75 0 -135 30 -135 117c0 83 65 137 173 137c131 0 190 -82 190 -193v-8c0 -124 -65 -194 -190 -194zM192 547c23 0 37 15 37 38s-13 41 -37 41
c-23 0 -36 -17 -36 -41c0 -23 13 -38 36 -38z" />
    <glyph glyph-name="zero.den" horiz-adv-x="435" 
d="M217 102c37 0 51 27 51 87v6c0 63 -15 85 -52 85c-36 0 -49 -24 -49 -85v-7c0 -60 13 -86 50 -86zM214 -7c-124 0 -192 68 -192 195v6c0 125 84 194 195 194c108 0 196 -58 196 -191v-5c0 -127 -75 -199 -199 -199z" />
    <glyph glyph-name="one.den" horiz-adv-x="297" 
d="M102 243l-83 -45v116l104 68h124v-382h-145v243z" />
    <glyph glyph-name="two.den" horiz-adv-x="366" 
d="M4 18l129 132c43 44 70 74 70 103c0 19 -8 30 -28 30s-32 -17 -36 -51h-131c3 104 70 156 175 156c111 0 161 -55 161 -124c0 -53 -33 -92 -78 -135l-28 -26h108v-103h-342v18z" />
    <glyph glyph-name="uni021B.alt" horiz-adv-x="386" 
d="M60 -206l39 175l172 -12l-101 -190zM82 391h-71v132h71v107h197v-107h92v-132h-92v-391h-197v391z" />
    <glyph glyph-name="uni0437.bgr" horiz-adv-x="542" 
d="M524 27c0 -131 -88 -221 -261 -221c-163 0 -247 86 -260 208h192c4 -40 21 -72 64 -72c51 0 70 36 70 85v5c0 56 -20 84 -79 84h-50v132h41c52 0 73 25 73 74v9c0 51 -20 70 -55 70c-39 0 -58 -25 -61 -85h-183c13 165 121 222 254 222c152 0 236 -88 236 -192v-7
c0 -76 -48 -131 -109 -147c77 -19 128 -69 128 -158v-7z" />
    <glyph glyph-name="uni0449.bgr" horiz-adv-x="967" 
d="M791 -127l-6 127h-93v80c-29 -50 -83 -95 -165 -95c-69 0 -115 28 -140 85c-47 -60 -105 -85 -172 -85c-100 0 -170 65 -170 193v345h196v-309c0 -47 24 -70 59 -70c44 0 69 28 69 79v300h195v-309c0 -47 24 -70 59 -70c44 0 69 28 69 79v300h197v-386h68v-264h-166z" />
    <glyph glyph-name="three.den" horiz-adv-x="385" 
d="M193 -7c-125 0 -173 58 -176 137h127c3 -21 13 -38 40 -38c23 0 34 10 34 31c0 19 -14 29 -41 29h-31v79h31c29 0 43 10 43 31c0 18 -10 27 -31 27s-34 -12 -38 -35h-126c7 77 60 134 168 134c103 0 162 -39 162 -107c0 -43 -25 -71 -69 -82c45 -7 77 -38 77 -82
c0 -73 -54 -124 -170 -124z" />
    <glyph glyph-name="uni044A.bgr" horiz-adv-x="637" 
d="M14 388v135h304v-156c13 1 36 3 65 2c157 -1 233 -67 233 -178v-6c0 -115 -90 -197 -250 -197c-180 0 -242 84 -242 227v173h-110zM369 108c37 0 54 27 54 70v4c0 41 -21 66 -64 66c-17 0 -30 -1 -41 -2v-67c0 -45 15 -71 51 -71z" />
    <glyph glyph-name="four.den" horiz-adv-x="408" 
d="M201 70h-190v54l157 258h172v-218h48v-94h-48v-70h-139v70zM205 164v124l-72 -124h72z" />
    <glyph glyph-name="five.den" horiz-adv-x="379" 
d="M186 -7c-116 0 -166 55 -167 130h131c3 -15 9 -26 32 -26c20 0 32 14 32 37s-12 35 -35 35c-20 0 -31 -11 -35 -23h-114l12 236h293v-100h-194l-4 -78c16 25 42 51 103 51c71 0 118 -41 118 -118c0 -89 -61 -144 -172 -144z" />
    <glyph glyph-name="six.den" horiz-adv-x="404" 
d="M212 -7c-136 0 -190 77 -190 193v11c0 117 82 191 191 191c103 0 157 -43 164 -123h-131c-3 11 -9 22 -29 22c-35 0 -48 -33 -51 -80c17 23 39 40 90 40c69 0 129 -31 129 -117c0 -83 -64 -137 -173 -137zM210 88c23 0 37 17 37 40s-14 39 -37 39s-36 -17 -36 -40
s13 -39 36 -39z" />
    <glyph glyph-name="seven.den" horiz-adv-x="357" 
d="M166 269h-147v113h328v-14l-139 -368h-144z" />
    <glyph glyph-name="florin.tab" 
d="M82 415h101l17 119c19 139 106 191 230 191c35 0 54 -3 81 -11v-146c-15 5 -28 7 -49 7c-39 0 -62 -19 -68 -58l-15 -102h121v-132h-139l-65 -465h-196l65 465h-83v132z" />
    <glyph glyph-name="uni0431.locl" horiz-adv-x="626" 
d="M313 -13c-164 0 -292 92 -292 256v7c0 100 60 192 172 216c9 3 20 3 29 4l15 2c-104 27 -176 61 -176 147c0 80 55 130 166 130h163c92 0 146 8 169 15v-138c-21 -12 -75 -22 -176 -22h-143c-18 0 -27 -6 -27 -19c0 -11 10 -23 74 -42c186 -50 317 -116 317 -284v-9
c0 -165 -128 -263 -291 -263zM314 132c60 0 90 40 90 116v7c0 78 -30 117 -90 117c-61 0 -92 -39 -92 -116v-7c0 -78 31 -117 92 -117z" />
    <glyph glyph-name="yen.tab" 
d="M48 370h135l-168 345h224l75 -193l75 193h196l-167 -345h144v-73h-151v-47h151v-74h-151v-176h-219v176h-144v74h144v47h-144v73z" />
    <glyph glyph-name="eight.den" horiz-adv-x="393" 
d="M197 -7c-119 0 -179 39 -179 114c0 40 21 76 70 92c-33 15 -53 37 -53 78c0 71 71 111 163 111c96 0 162 -38 162 -111c0 -40 -20 -64 -53 -77c48 -15 68 -49 68 -89c0 -75 -61 -118 -178 -118zM197 88c23 0 38 15 38 36c0 20 -15 35 -38 35s-38 -13 -38 -36
c0 -21 15 -35 38 -35zM198 231c19 0 34 14 34 33s-15 32 -34 32s-35 -13 -35 -33c0 -19 16 -32 35 -32z" />
    <glyph glyph-name="nine.den" horiz-adv-x="404" 
d="M192 -7c-100 0 -159 44 -166 123h132c3 -12 8 -22 31 -22c36 0 47 31 48 78c-16 -23 -34 -38 -83 -38c-75 0 -135 30 -135 117c0 83 65 137 173 137c131 0 190 -82 190 -193v-8c0 -124 -65 -194 -190 -194zM192 214c23 0 37 15 37 38s-13 41 -37 41
c-23 0 -36 -17 -36 -41c0 -23 13 -38 36 -38z" />
    <glyph glyph-name="zero.sub" horiz-adv-x="435" 
d="M217 -24c37 0 51 27 51 87v6c0 63 -15 85 -52 85c-36 0 -49 -24 -49 -85v-7c0 -60 13 -86 50 -86zM214 -133c-124 0 -192 68 -192 195v6c0 125 84 194 195 194c108 0 196 -58 196 -191v-5c0 -127 -75 -199 -199 -199z" />
    <glyph glyph-name="one.sub" horiz-adv-x="297" 
d="M102 117l-83 -45v116l104 68h124v-382h-145v243z" />
    <glyph glyph-name="sterling.tab" 
d="M27 405h42c-7 27 -10 54 -10 87c0 156 113 233 257 233c175 0 249 -83 253 -246h-180c-7 60 -25 77 -64 77c-40 0 -65 -21 -65 -77c0 -24 2 -49 5 -74h153v-115h-137c2 -17 3 -34 3 -51c0 -21 -4 -38 -9 -55c27 -8 49 -16 70 -16c32 0 53 15 56 52h182
c-4 -143 -73 -229 -196 -229c-92 0 -136 50 -180 50c-27 0 -38 -16 -41 -41h-154c5 79 31 147 87 180c5 16 8 35 8 59c0 17 -2 34 -6 51h-74v115z" />
    <glyph glyph-name="two.sub" horiz-adv-x="366" 
d="M4 -108l129 132c43 44 70 74 70 103c0 19 -8 30 -28 30s-32 -17 -36 -51h-131c3 104 70 156 175 156c111 0 161 -55 161 -124c0 -53 -33 -92 -78 -135l-28 -26h108v-103h-342v18z" />
    <glyph glyph-name="three.sub" horiz-adv-x="385" 
d="M193 -133c-125 0 -173 58 -176 137h127c3 -21 13 -38 40 -38c23 0 34 10 34 31c0 19 -14 29 -41 29h-31v79h31c29 0 43 10 43 31c0 18 -10 27 -31 27s-34 -12 -38 -35h-126c7 77 60 134 168 134c103 0 162 -39 162 -107c0 -43 -25 -71 -69 -82c45 -7 77 -38 77 -82
c0 -73 -54 -124 -170 -124z" />
    <glyph glyph-name="four.sub" horiz-adv-x="408" 
d="M201 -56h-190v54l157 258h172v-218h48v-94h-48v-70h-139v70zM205 38v124l-72 -124h72z" />
    <glyph glyph-name="space.tab" horiz-adv-x="300" 
 />
    <glyph glyph-name="uni0433.bgr" horiz-adv-x="525" 
d="M256 -13c-143 0 -240 56 -240 169c0 104 78 140 203 164c76 15 97 26 97 50c0 21 -14 36 -47 36c-39 0 -54 -16 -61 -47h-177c20 123 106 179 249 179c128 0 222 -55 222 -163c0 -102 -61 -142 -192 -166c-82 -13 -99 -27 -99 -53c0 -20 13 -35 52 -35c45 0 59 19 64 54
h181c-7 -121 -92 -188 -252 -188z" />
    <glyph glyph-name="uni043F.bgr" horiz-adv-x="629" 
d="M47 523h197v-84c29 56 85 99 173 99c99 0 168 -63 168 -194v-344h-196v300c0 53 -20 80 -67 80c-48 0 -78 -28 -78 -91v-289h-197v523z" />
    <glyph glyph-name="uni0448.bgr" horiz-adv-x="935" 
d="M889 0h-197v80c-29 -50 -83 -95 -165 -95c-69 0 -115 28 -140 85c-47 -60 -105 -85 -172 -85c-100 0 -170 65 -170 193v345h196v-309c0 -47 24 -70 59 -70c44 0 69 28 69 79v300h195v-309c0 -47 24 -70 59 -70c44 0 69 28 69 79v300h197v-523z" />
    <glyph glyph-name="uni044E.bgr" horiz-adv-x="862" 
d="M557 -12c-139 0 -243 71 -270 203c-1 3 -2 5 -2 6h-42v-197h-195v749h195v-417h44c27 129 135 206 271 206c161 0 283 -101 283 -269v-8c0 -172 -124 -273 -284 -273zM558 133c55 0 83 43 83 126v8c0 83 -27 126 -83 126c-53 0 -83 -41 -83 -124v-8
c0 -85 28 -128 83 -128z" />
    <glyph glyph-name="nine.old" horiz-adv-x="658" 
d="M309 -106c-167 0 -264 81 -277 222h199c7 -32 29 -63 78 -63c75 0 102 49 107 195c-31 -47 -76 -84 -160 -84c-125 0 -231 71 -231 218c0 151 110 250 293 250c227 0 310 -142 310 -352v-31c0 -218 -111 -355 -319 -355zM318 297c55 0 88 40 88 91c0 52 -32 92 -88 92
c-53 0 -86 -40 -86 -92s31 -91 86 -91z" />
    <glyph glyph-name="eight.old" horiz-adv-x="646" 
d="M323 -13c-185 0 -299 77 -299 214c0 80 50 142 135 173c-61 28 -105 75 -105 148c0 131 122 204 271 204c155 0 270 -72 270 -203c0 -75 -45 -121 -105 -148c84 -29 132 -89 132 -168c0 -137 -112 -220 -299 -220zM324 139c53 0 88 32 88 83s-33 84 -88 84
c-52 0 -89 -31 -89 -83s36 -84 89 -84zM325 432c43 0 77 29 77 74s-34 74 -77 74s-77 -29 -77 -74s34 -74 77 -74z" />
    <glyph glyph-name="seven.old" horiz-adv-x="580" 
d="M297 445h-277v174h553v-23l-255 -688h-225z" />
    <glyph glyph-name="six.old" horiz-adv-x="658" 
d="M340 -12c-224 0 -311 140 -311 344v35c0 228 135 359 320 359c163 0 255 -75 270 -216h-199c-7 33 -23 57 -70 57c-69 0 -104 -62 -108 -195c29 47 75 84 160 84c125 0 231 -72 231 -223c0 -147 -110 -245 -293 -245zM340 140c53 0 86 40 86 92s-31 91 -86 91
s-88 -40 -88 -92c0 -51 32 -91 88 -91z" />
    <glyph glyph-name="uni0434.bgr" horiz-adv-x="644" 
d="M314 171c59 0 92 41 92 108v7c0 64 -32 106 -92 106s-92 -40 -92 -107v-8c0 -64 32 -106 92 -106zM299 -194c-181 0 -267 74 -280 198h195c8 -32 24 -62 86 -62c75 0 100 44 100 100v81c-27 -51 -80 -92 -159 -92c-119 0 -219 86 -219 248v8c0 157 99 251 218 251
c83 0 131 -34 160 -87v72h197v-478c0 -157 -102 -239 -298 -239z" />
    <glyph glyph-name="five.old" horiz-adv-x="620" 
d="M304 -104c-189 0 -281 102 -284 235h196c5 -44 23 -78 86 -78c55 0 84 43 84 94c0 56 -37 91 -96 91c-53 0 -88 -23 -109 -50h-133l17 431h487v-162h-333l-6 -155c31 43 84 78 171 78c125 0 211 -82 211 -231c0 -154 -105 -253 -291 -253z" />
    <glyph glyph-name="uni0438.bgr" horiz-adv-x="628" 
d="M218 -13c-100 0 -175 63 -175 193v343h197v-309c0 -53 19 -80 66 -80c51 0 78 28 78 91v298h197v-523h-197v81c-28 -56 -78 -94 -166 -94z" />
    <glyph glyph-name="uni043F.locl" horiz-adv-x="615" 
d="M371 386h-127v-386h-196v523h519v-523h-196v386z" />
    <glyph glyph-name="one.num" horiz-adv-x="297" 
d="M102 576l-83 -45v116l104 68h124v-382h-145v243z" />
    <glyph glyph-name="five.sub" horiz-adv-x="379" 
d="M186 -133c-116 0 -166 55 -167 130h131c3 -15 9 -26 32 -26c20 0 32 14 32 37s-12 35 -35 35c-20 0 -31 -11 -35 -23h-114l12 236h293v-100h-194l-4 -78c16 25 42 51 103 51c71 0 118 -41 118 -118c0 -89 -61 -144 -172 -144z" />
    <glyph glyph-name="uni044C.bgr" horiz-adv-x="558" 
d="M287 -12c-180 0 -242 84 -242 227v308h194v-156c13 1 36 3 65 2c157 -1 233 -67 233 -178v-6c0 -115 -90 -197 -250 -197zM290 108c37 0 54 27 54 70v4c0 41 -21 66 -64 66c-17 0 -30 -1 -41 -2v-67c0 -45 15 -71 51 -71z" />
    <glyph glyph-name="three.old" horiz-adv-x="625" 
d="M318 -104c-203 0 -291 96 -299 248h192c5 -57 31 -93 95 -93c56 0 84 31 84 78c0 51 -31 76 -92 76h-59v130h55c67 0 92 31 92 75s-26 69 -70 69c-51 0 -82 -31 -90 -87h-190c8 137 100 240 287 240c165 0 261 -76 261 -196c0 -80 -43 -129 -119 -156
c83 -21 135 -69 135 -165c0 -126 -93 -219 -282 -219z" />
    <glyph glyph-name="uni0439.bgr" horiz-adv-x="628" 
d="M308 582c-108 0 -164 60 -171 160h128c3 -29 12 -54 43 -54s40 26 44 54h128c-8 -100 -69 -160 -172 -160zM218 -13c-100 0 -175 63 -175 193v343h197v-309c0 -53 19 -80 66 -80c51 0 78 28 78 91v298h197v-523h-197v81c-28 -56 -78 -94 -166 -94z" />
    <glyph glyph-name="uni0414.bgr" horiz-adv-x="772" 
d="M278 175h184l-92 327zM203 -130h-196v305h63l178 540h272l181 -540h64v-305h-196l-7 130h-352z" />
    <glyph glyph-name="uni0416.bgr" horiz-adv-x="1045" 
d="M411 300l-166 -300h-237l225 377l-215 338h227l166 -285v285h221v-283l167 283h224l-216 -327l230 -388h-247l-158 299v-299h-221v300z" />
    <glyph glyph-name="uni041A.bgr" horiz-adv-x="746" 
d="M293 285v-285h-228v715h228v-270l197 270h236l-252 -330l265 -385h-261z" />
    <glyph glyph-name="uni0436.bgr" horiz-adv-x="818" 
d="M313 224l-103 -224h-204l146 280l-138 243h196l103 -210v436h190v-436l102 210h194l-137 -236l150 -287h-210l-99 223v-223h-190v224z" />
    <glyph glyph-name="two.old" horiz-adv-x="594" 
d="M9 29l222 214c73 71 119 119 119 171c0 35 -19 59 -62 59s-72 -31 -79 -95h-189c7 160 110 254 282 254c165 0 258 -82 258 -200c0 -84 -54 -148 -131 -220l-66 -61h203v-151h-557v29z" />
    <glyph glyph-name="one.old" horiz-adv-x="444" 
d="M159 412l-127 -76v175l157 108h180v-619h-210v412z" />
    <glyph glyph-name="uni0432.bgr" horiz-adv-x="558" 
d="M30 477c0 195 100 283 257 283c149 0 234 -70 234 -195v-9c0 -84 -50 -149 -122 -165c91 -15 140 -74 140 -166v-5c0 -128 -95 -234 -257 -234c-161 0 -252 85 -252 249v242zM224 447h26c60 0 81 34 81 94v9c0 53 -14 74 -49 74c-41 0 -58 -42 -58 -118v-59zM282 121
c45 0 64 34 64 101v10c0 63 -24 90 -87 90h-35v-98c0 -64 11 -103 58 -103z" />
    <glyph glyph-name="zero.old" horiz-adv-x="680" 
d="M341 147c71 0 101 53 101 154v19c0 103 -30 153 -102 153c-71 0 -102 -50 -102 -151v-21c0 -103 31 -154 103 -154zM337 -13c-184 0 -312 111 -312 311v21c0 199 136 313 315 313c177 0 314 -105 314 -308v-20c0 -200 -131 -317 -317 -317z" />
    <glyph glyph-name="uni0424.bgr" horiz-adv-x="951" 
d="M589 678c204 -8 337 -117 337 -311v-8c0 -196 -150 -300 -337 -308v-61h-225v61c-204 8 -337 117 -337 310v8c0 196 150 301 337 309v57h225v-57zM364 521c-64 -3 -119 -47 -119 -151v-8c0 -106 53 -149 119 -152v311zM589 208c64 3 119 47 119 150v8
c0 107 -51 150 -119 153v-311z" />
    <glyph glyph-name="yen.old" horiz-adv-x="639" 
d="M58 359h130l-180 335h237l88 -210l89 210h210l-173 -335h132v-71h-156v-46h156v-71h-156v-171h-221v171h-156v71h156v46h-156v71z" />
    <glyph glyph-name="sterling.old" horiz-adv-x="657" 
d="M31 397h46c-7 24 -10 49 -10 80c0 148 120 226 277 226c188 0 271 -97 276 -243h-200c-7 56 -28 79 -69 79s-67 -28 -67 -75c0 -23 2 -44 5 -67h165v-120h-148c1 -15 2 -30 2 -45c0 -20 -3 -37 -8 -54c29 -8 53 -17 76 -17c35 0 54 18 56 53h199
c-5 -128 -78 -223 -211 -223c-100 0 -155 49 -202 49c-27 0 -41 -17 -44 -40h-161c7 77 37 147 100 178c5 16 8 34 8 54c0 15 -2 30 -6 45h-84v120z" />
    <glyph glyph-name="Euro.old" horiz-adv-x="706" 
d="M20 438h60c24 156 142 265 309 265c175 0 274 -87 289 -256h-201c-8 61 -38 91 -90 91c-56 0 -84 -37 -95 -100h137l-14 -71h-127v-45h120l-12 -71h-104c11 -61 37 -95 96 -95c61 0 87 33 94 104h201c-19 -172 -113 -273 -301 -273c-180 0 -282 109 -303 264h-59v71h55
v45h-55v71z" />
    <glyph glyph-name="uni0442.bgr" horiz-adv-x="935" 
d="M47 523h197v-80c29 50 83 95 165 95c69 0 115 -28 140 -85c47 60 105 85 172 85c100 0 170 -65 170 -193v-345h-196v309c0 47 -24 70 -59 70c-44 0 -69 -28 -69 -79v-300h-195v309c0 47 -24 70 -59 70c-44 0 -69 -28 -69 -79v-300h-197v523z" />
    <glyph glyph-name="six.sub" horiz-adv-x="404" 
d="M212 -133c-136 0 -190 77 -190 193v11c0 117 82 191 191 191c103 0 157 -43 164 -123h-131c-3 11 -9 22 -29 22c-35 0 -48 -33 -51 -80c17 23 39 40 90 40c69 0 129 -31 129 -117c0 -83 -64 -137 -173 -137zM210 -38c23 0 37 17 37 40s-14 39 -37 39s-36 -17 -36 -40
s13 -39 36 -39z" />
    <glyph glyph-name="seven.sub" horiz-adv-x="357" 
d="M166 143h-147v113h328v-14l-139 -368h-144z" />
    <glyph glyph-name="eight.sub" horiz-adv-x="393" 
d="M197 -133c-119 0 -179 39 -179 114c0 40 21 76 70 92c-33 15 -53 37 -53 78c0 71 71 111 163 111c96 0 162 -38 162 -111c0 -40 -20 -64 -53 -77c48 -15 68 -49 68 -89c0 -75 -61 -118 -178 -118zM197 -38c23 0 38 15 38 36c0 20 -15 35 -38 35s-38 -13 -38 -36
c0 -21 15 -35 38 -35zM198 105c19 0 34 14 34 33s-15 32 -34 32s-35 -13 -35 -33c0 -19 16 -32 35 -32z" />
    <glyph glyph-name="nine.sub" horiz-adv-x="404" 
d="M192 -133c-100 0 -159 44 -166 123h132c3 -12 8 -22 31 -22c36 0 47 31 48 78c-16 -23 -34 -38 -83 -38c-75 0 -135 30 -135 117c0 83 65 137 173 137c131 0 190 -82 190 -193v-8c0 -124 -65 -194 -190 -194zM192 88c23 0 37 15 37 38s-13 41 -37 41
c-23 0 -36 -17 -36 -41c0 -23 13 -38 36 -38z" />
    <glyph glyph-name="hungarumlaut.uc" horiz-adv-x="400" 
d="M71 906h163l-75 -149h-130zM272 906h164l-75 -149h-130z" />
    <glyph glyph-name="dollar.old" horiz-adv-x="639" 
d="M279 -10c-168 12 -252 99 -259 230h194c3 -40 21 -71 65 -82v126c-176 24 -246 85 -246 221c0 120 93 207 246 218v86h81v-87c144 -12 230 -78 242 -214h-190c-4 32 -17 54 -52 65v-118c149 -21 250 -70 250 -212c0 -120 -75 -222 -250 -233v-121h-81v121zM417 197
c0 28 -13 42 -57 53v-114c39 9 57 30 57 61zM221 501c0 -31 15 -44 58 -55v110c-39 -7 -58 -27 -58 -55z" />
    <glyph glyph-name="tilde.uc" horiz-adv-x="400" 
d="M266 755c-58 0 -90 32 -121 32c-16 0 -27 -11 -30 -30h-109c8 111 62 160 126 160c56 0 90 -32 124 -32c17 0 26 11 29 30h110c-8 -111 -68 -160 -129 -160z" />
    <glyph glyph-name="ring.uc" horiz-adv-x="400" 
d="M200 810c27 0 45 21 45 50c0 31 -18 50 -45 50s-45 -19 -45 -50c0 -29 18 -50 45 -50zM200 742c-68 0 -122 54 -122 118s54 118 122 118s122 -54 122 -118s-54 -118 -122 -118z" />
    <glyph glyph-name="dotaccent.uc" horiz-adv-x="400" 
d="M200 752c-60 0 -103 40 -103 95c0 56 43 96 103 96c59 0 102 -40 102 -96c0 -55 -43 -95 -102 -95z" />
    <glyph glyph-name="breve.uc" horiz-adv-x="400" 
d="M200 749c-104 0 -164 57 -171 157h124c3 -27 19 -42 47 -42c27 0 44 17 47 42h124c-7 -100 -71 -157 -171 -157z" />
    <glyph glyph-name="caron.uc" horiz-adv-x="400" 
d="M4 906h142l54 -47l54 47h139l-115 -149h-164z" />
    <glyph glyph-name="circumflex.uc" horiz-adv-x="400" 
d="M120 906h164l110 -149h-142l-54 47l-54 -47h-139z" />
    <glyph glyph-name="acute.uc" horiz-adv-x="400" 
d="M166 906h201l-103 -149h-149z" />
    <glyph glyph-name="uni041B.bgr" horiz-adv-x="740" 
d="M354 479l-134 -479h-212l232 715h256l236 -715h-245z" />
    <glyph glyph-name="macron.uc" horiz-adv-x="400" 
d="M33 884h333v-115h-333v115z" />
    <glyph glyph-name="dieresis.uc" horiz-adv-x="400" 
d="M86 752c-51 0 -91 40 -91 89c0 50 40 89 91 89c52 0 92 -39 92 -89c0 -49 -40 -89 -92 -89zM313 752c-51 0 -91 40 -91 89c0 50 40 89 91 89c52 0 92 -39 92 -89c0 -49 -40 -89 -92 -89z" />
    <glyph glyph-name="grave.uc" horiz-adv-x="400" 
d="M36 906h202l47 -149h-149z" />
    <glyph glyph-name="at.uc" horiz-adv-x="922" 
d="M461 -85c-270 0 -433 180 -433 408c0 267 216 438 451 438c236 0 414 -141 414 -361c0 -200 -108 -276 -220 -276c-85 0 -136 27 -152 80c-25 -52 -66 -81 -130 -81c-99 0 -162 70 -162 186c0 142 88 234 196 234c61 0 91 -25 106 -57l7 49h159l-34 -274
c-5 -40 6 -64 42 -64c54 0 107 58 107 206c0 172 -131 288 -330 288c-205 0 -367 -143 -367 -370c0 -191 117 -335 349 -335c116 0 211 41 259 89h94c-69 -96 -201 -160 -356 -160zM444 249c41 0 71 44 71 108c0 37 -18 62 -57 62c-40 0 -67 -42 -67 -102
c0 -37 16 -68 53 -68z" />
    <glyph glyph-name="bar.uc" horiz-adv-x="270" 
d="M67 776h136v-860h-136v860z" />
    <glyph glyph-name="backslash.uc" horiz-adv-x="440" 
d="M-7 776h154l301 -860h-155z" />
    <glyph glyph-name="slash.uc" horiz-adv-x="440" 
d="M292 776h155l-301 -860h-155z" />
    <glyph glyph-name="braceright.uc" horiz-adv-x="425" 
d="M37 47c72 3 90 27 82 87l-8 81c-7 68 28 116 104 132c-75 17 -111 64 -104 131l8 81c8 61 -10 78 -82 83v142c211 0 304 -63 277 -231l-10 -63c-8 -45 17 -76 92 -76v-137c-75 0 -100 -32 -92 -77l10 -64c25 -161 -65 -232 -277 -232v143z" />
    <glyph glyph-name="braceleft.uc" horiz-adv-x="425" 
d="M388 -96c-212 0 -304 71 -277 232l10 64c7 45 -19 77 -92 77v137c73 0 99 31 92 76l-10 63c-27 168 66 231 277 231v-142c-72 -5 -91 -22 -83 -83l9 -81c7 -67 -29 -114 -104 -131c75 -16 111 -64 104 -132l-9 -81c-8 -60 11 -84 83 -87v-143z" />
    <glyph glyph-name="bracketright.uc" horiz-adv-x="419" 
d="M38 48h120v594h-120v142h319v-879h-319v143z" />
    <glyph glyph-name="bracketleft.uc" horiz-adv-x="419" 
d="M61 784h321v-142h-122v-594h122v-143h-321v879z" />
    <glyph glyph-name="space_uni0326" horiz-adv-x="400" 
d="M90 -206l39 175l172 -12l-101 -190z" />
    <glyph glyph-name="parenright.uc" horiz-adv-x="362" 
d="M10 -98c59 99 129 249 129 442c0 192 -70 342 -129 441h150c73 -89 166 -227 166 -441c0 -212 -93 -353 -166 -442h-150z" />
    <glyph glyph-name="parenleft.uc" horiz-adv-x="362" 
d="M202 -98c-73 89 -166 230 -166 442s94 353 166 441h150c-61 -99 -129 -249 -129 -441c0 -194 68 -343 129 -442h-150z" />
    <glyph glyph-name="guillemotright.uc" horiz-adv-x="477" 
d="M145 301l-119 196h121l124 -196l-124 -196h-121zM325 301l-119 196h121l124 -196l-124 -196h-121z" />
    <glyph glyph-name="guillemotleft.uc" horiz-adv-x="477" 
d="M25 301l124 196h121l-119 -196l119 -196h-121zM206 301l124 196h121l-119 -196l119 -196h-121z" />
    <glyph glyph-name="guilsinglright.uc" horiz-adv-x="304" 
d="M145 301l-119 196h129l124 -196l-124 -196h-129z" />
    <glyph glyph-name="uni0442.locl" horiz-adv-x="505" 
d="M493 386h-143v-386h-195v386h-143v137h481v-137z" />
    <glyph glyph-name="guilsinglleft.uc" horiz-adv-x="304" 
d="M25 301l124 196h129l-119 -196l119 -196h-129z" />
    <glyph glyph-name="emdash.uc" horiz-adv-x="958" 
d="M46 385h866v-111h-866v111z" />
    <glyph glyph-name="idotaccent" horiz-adv-x="303" 
d="M151 562c-61 0 -107 42 -107 99c0 59 46 100 107 100c60 0 106 -41 106 -100c0 -57 -46 -99 -106 -99zM53 523h196v-523h-196v523z" />
    <glyph glyph-name="endash.uc" horiz-adv-x="543" 
d="M46 385h451v-111h-451v111z" />
    <glyph glyph-name="plus.sub" horiz-adv-x="361" 
d="M130 22h-96v99h96v99h101v-99h96v-99h-96v-98h-101v98z" />
    <glyph glyph-name="exclamdown.uc" horiz-adv-x="343" 
d="M172 726c63 0 114 -45 114 -104s-51 -106 -114 -106s-115 47 -115 106s52 104 115 104zM282 0h-221l29 474h164z" />
    <glyph glyph-name="questiondown.uc" horiz-adv-x="569" 
d="M401 460c0 -76 -53 -124 -97 -166c-35 -32 -64 -59 -64 -94s18 -52 53 -52c37 0 62 29 69 80h192c-5 -157 -117 -240 -277 -240c-159 0 -251 68 -251 193c0 64 29 108 68 147c50 50 110 89 120 136v9h187v-13zM307 725c65 0 116 -45 116 -104s-51 -106 -116 -106
c-63 0 -114 47 -114 106s51 104 114 104z" />
    <glyph glyph-name="caron.alt" horiz-adv-x="400" 
d="M153 750h140l-50 -175h-98z" />
    <glyph glyph-name="registered.alt" horiz-adv-x="842" 
d="M256 563h168c115 0 172 -44 172 -133v-2c0 -56 -27 -87 -66 -106l89 -164h-138l-72 136h-20v-136h-133v405zM416 380c33 0 49 14 49 41v3c0 25 -16 38 -48 38h-28v-82h27zM420 31c178 0 323 132 323 328c0 193 -141 325 -321 325c-181 0 -323 -133 -323 -327
c0 -196 146 -326 321 -326zM420 -21c-214 0 -386 163 -386 378c0 212 171 379 388 379c220 0 387 -165 387 -377c0 -216 -173 -380 -389 -380z" />
    <glyph glyph-name="space_uni0326.alt" horiz-adv-x="400" 
d="M111 577l101 190l110 -27l-39 -175z" />
    <glyph glyph-name="tcommaaccent.alt" horiz-adv-x="386" 
d="M60 -206l39 175l172 -12l-101 -190zM82 391h-71v132h71v107h197v-107h92v-132h-92v-391h-197v391z" />
    <glyph glyph-name="tcaron.alt" horiz-adv-x="386" 
d="M82 391h-71v132h71v107h197v-107h92v-132h-92v-391h-197v391zM325 750h140l-50 -175h-98z" />
    <glyph glyph-name="tbar.alt" horiz-adv-x="386" 
d="M11 331h71v60h-71v132h71v107h197v-107h92v-132h-92v-60h92v-106h-92v-225h-197v225h-71v106z" />
    <glyph glyph-name="germandbls.alt" horiz-adv-x="706" 
d="M479 -9c-144 0 -210 65 -213 173h163c3 -36 17 -50 40 -50c20 0 33 9 33 36c0 35 -33 42 -86 66c-56 27 -123 62 -123 140c0 94 108 147 108 202c0 39 -23 58 -70 58c-52 0 -87 -27 -87 -86v-530h-197v527c0 151 119 235 288 235c151 0 260 -60 260 -173
c0 -117 -116 -154 -116 -192c0 -18 23 -27 92 -62c60 -30 116 -77 116 -163c0 -120 -88 -181 -208 -181z" />
    <glyph glyph-name="uni043A.bgr" horiz-adv-x="588" 
d="M244 215v-215h-197v749h197v-427l127 201h202l-161 -236l174 -287h-218z" />
    <glyph glyph-name="uni043D.bgr" horiz-adv-x="625" 
d="M381 196h-137v-196h-196v523h196v-190h137v190h196v-523h-196v196z" />
    <glyph glyph-name="atilde.alt" horiz-adv-x="638" 
d="M239 -13c-115 0 -216 85 -216 269v8c0 182 101 273 216 273c80 0 125 -33 154 -86v72h197v-523h-197v83c-27 -53 -77 -96 -154 -96zM310 137c56 0 89 42 89 123v8c0 83 -31 123 -87 123c-57 0 -89 -40 -89 -124v-8c0 -81 31 -122 87 -122zM392 581c-58 0 -89 32 -118 32
c-16 0 -27 -13 -30 -30h-104c7 111 54 162 118 162c55 0 88 -32 121 -32c17 0 27 10 30 31h104c-8 -111 -59 -163 -121 -163z" />
    <glyph glyph-name="aringacute.alt" horiz-adv-x="638" 
d="M239 -13c-115 0 -216 85 -216 269v8c0 182 101 273 216 273c80 0 125 -33 154 -86v72h197v-523h-197v83c-27 -53 -77 -96 -154 -96zM310 137c56 0 89 42 89 123v8c0 83 -31 123 -87 123c-57 0 -89 -40 -89 -124v-8c0 -81 31 -122 87 -122zM325 638c27 0 44 20 44 48
c0 29 -17 49 -44 49s-44 -20 -44 -49c0 -28 17 -48 44 -48zM325 570c-66 0 -120 52 -120 116s54 117 120 117s120 -53 120 -117s-54 -116 -120 -116zM306 978h201l-103 -149h-149z" />
    <glyph glyph-name="aring.alt" horiz-adv-x="638" 
d="M239 -13c-115 0 -216 85 -216 269v8c0 182 101 273 216 273c80 0 125 -33 154 -86v72h197v-523h-197v83c-27 -53 -77 -96 -154 -96zM310 137c56 0 89 42 89 123v8c0 83 -31 123 -87 123c-57 0 -89 -40 -89 -124v-8c0 -81 31 -122 87 -122zM325 642c27 0 44 20 44 48
c0 29 -17 49 -44 49s-44 -20 -44 -49c0 -28 17 -48 44 -48zM325 574c-66 0 -120 52 -120 116s54 117 120 117s120 -53 120 -117s-54 -116 -120 -116z" />
    <glyph glyph-name="uni0433.locl" horiz-adv-x="452" 
d="M244 386v-386h-196v523h392v-137h-196z" />
    <glyph glyph-name="uni0446.bgr" horiz-adv-x="660" 
d="M483 -127l-6 127h-93v81c-28 -56 -78 -94 -166 -94c-100 0 -175 63 -175 193v343h197v-309c0 -53 19 -80 66 -80c51 0 78 28 78 91v298h197v-386h69v-264h-167z" />
    <glyph glyph-name="uni0447.bgr" horiz-adv-x="602" 
d="M357 0v214c-8 -8 -54 -61 -156 -61c-101 0 -165 62 -165 193v177h197v-145c0 -51 12 -78 57 -78c49 0 66 28 67 29v194h197v-523h-197z" />
    <glyph glyph-name="aogonek.alt" horiz-adv-x="638" 
d="M499 -182c-73 0 -119 31 -119 82c0 53 45 79 87 100h-74v83c-27 -53 -77 -96 -154 -96c-115 0 -216 85 -216 269v8c0 182 101 273 216 273c80 0 125 -33 154 -86v72h197v-510c-39 -31 -53 -52 -53 -72c0 -17 11 -26 30 -26c11 0 19 1 25 4v-84c-17 -9 -46 -17 -93 -17z
M310 137c56 0 89 42 89 123v8c0 83 -31 123 -87 123c-57 0 -89 -40 -89 -124v-8c0 -81 31 -122 87 -122z" />
    <glyph glyph-name="uni043B.bgr" horiz-adv-x="597" 
d="M593 0h-210l-97 317l-95 -317h-186l188 523h211z" />
    <glyph glyph-name="amacron.alt" horiz-adv-x="638" 
d="M239 -13c-115 0 -216 85 -216 269v8c0 182 101 273 216 273c80 0 125 -33 154 -86v72h197v-523h-197v83c-27 -53 -77 -96 -154 -96zM310 137c56 0 89 42 89 123v8c0 83 -31 123 -87 123c-57 0 -89 -40 -89 -124v-8c0 -81 31 -122 87 -122zM168 712h316v-107h-316v107z
" />
    <glyph glyph-name="agrave.alt" horiz-adv-x="638" 
d="M239 -13c-115 0 -216 85 -216 269v8c0 182 101 273 216 273c80 0 125 -33 154 -86v72h197v-523h-197v83c-27 -53 -77 -96 -154 -96zM310 137c56 0 89 42 89 123v8c0 83 -31 123 -87 123c-57 0 -89 -40 -89 -124v-8c0 -81 31 -122 87 -122zM156 747h193l52 -169h-141z" />
    <glyph glyph-name="adieresis.alt" horiz-adv-x="638" 
d="M239 -13c-115 0 -216 85 -216 269v8c0 182 101 273 216 273c80 0 125 -33 154 -86v72h197v-523h-197v83c-27 -53 -77 -96 -154 -96zM310 137c56 0 89 42 89 123v8c0 83 -31 123 -87 123c-57 0 -89 -40 -89 -124v-8c0 -81 31 -122 87 -122zM217 570c-51 0 -91 40 -91 89
s40 89 91 89c52 0 92 -40 92 -89s-40 -89 -92 -89zM434 570c-51 0 -90 40 -90 89s39 89 90 89c52 0 92 -40 92 -89s-40 -89 -92 -89z" />
    <glyph glyph-name="acircumflex.alt" horiz-adv-x="638" 
d="M239 -13c-115 0 -216 85 -216 269v8c0 182 101 273 216 273c80 0 125 -33 154 -86v72h197v-523h-197v83c-27 -53 -77 -96 -154 -96zM310 137c56 0 89 42 89 123v8c0 83 -31 123 -87 123c-57 0 -89 -40 -89 -124v-8c0 -81 31 -122 87 -122zM259 746h138l120 -166h-137
l-56 53l-56 -53h-134z" />
    <glyph glyph-name="abreve.alt" horiz-adv-x="638" 
d="M239 -13c-115 0 -216 85 -216 269v8c0 182 101 273 216 273c80 0 125 -33 154 -86v72h197v-523h-197v83c-27 -53 -77 -96 -154 -96zM310 137c56 0 89 42 89 123v8c0 83 -31 123 -87 123c-57 0 -89 -40 -89 -124v-8c0 -81 31 -122 87 -122zM326 581
c-101 0 -164 56 -169 163h119c3 -28 19 -45 50 -45c29 0 48 17 51 45h118c-7 -107 -73 -163 -169 -163z" />
    <glyph glyph-name="aacute.alt" horiz-adv-x="638" 
d="M239 -13c-115 0 -216 85 -216 269v8c0 182 101 273 216 273c80 0 125 -33 154 -86v72h197v-523h-197v83c-27 -53 -77 -96 -154 -96zM310 137c56 0 89 42 89 123v8c0 83 -31 123 -87 123c-57 0 -89 -40 -89 -124v-8c0 -81 31 -122 87 -122zM303 747h193l-104 -169h-141z
" />
    <glyph glyph-name="minus.sup" horiz-adv-x="361" 
d="M34 639h293v-100h-293v100z" />
    <glyph glyph-name="plus.sup" horiz-adv-x="361" 
d="M130 539h-96v100h96v98h101v-98h96v-100h-96v-97h-101v97z" />
    <glyph glyph-name="nine.sup" horiz-adv-x="404" 
d="M192 385c-100 0 -159 44 -166 123h132c3 -12 8 -22 31 -22c36 0 47 31 48 78c-16 -23 -34 -38 -83 -38c-75 0 -135 30 -135 117c0 83 65 137 173 137c131 0 190 -82 190 -193v-8c0 -124 -65 -194 -190 -194zM192 606c23 0 37 15 37 38s-13 41 -37 41
c-23 0 -36 -17 -36 -41c0 -23 13 -38 36 -38z" />
    <glyph glyph-name="eight.sup" horiz-adv-x="393" 
d="M197 385c-119 0 -179 39 -179 114c0 40 21 76 70 92c-33 15 -53 37 -53 78c0 71 71 111 163 111c96 0 162 -38 162 -111c0 -40 -20 -64 -53 -77c48 -15 68 -49 68 -89c0 -75 -61 -118 -178 -118zM197 480c23 0 38 15 38 36c0 20 -15 35 -38 35s-38 -13 -38 -36
c0 -21 15 -35 38 -35zM198 623c19 0 34 14 34 33s-15 32 -34 32s-35 -13 -35 -33c0 -19 16 -32 35 -32z" />
    <glyph glyph-name="seven.sup" horiz-adv-x="357" 
d="M166 661h-147v113h328v-14l-139 -368h-144z" />
    <glyph glyph-name="six.sup" horiz-adv-x="404" 
d="M212 385c-136 0 -190 77 -190 193v11c0 117 82 191 191 191c103 0 157 -43 164 -123h-131c-3 11 -9 22 -29 22c-35 0 -48 -33 -51 -80c17 23 39 40 90 40c69 0 129 -31 129 -117c0 -83 -64 -137 -173 -137zM210 480c23 0 37 17 37 40s-14 39 -37 39s-36 -17 -36 -40
s13 -39 36 -39z" />
    <glyph glyph-name="uni0430.alt" horiz-adv-x="638" 
d="M239 -13c-115 0 -216 85 -216 269v8c0 182 101 273 216 273c80 0 125 -33 154 -86v72h197v-523h-197v83c-27 -53 -77 -96 -154 -96zM310 137c56 0 89 42 89 123v8c0 83 -31 123 -87 123c-57 0 -89 -40 -89 -124v-8c0 -81 31 -122 87 -122z" />
    <glyph glyph-name="five.sup" horiz-adv-x="379" 
d="M186 385c-116 0 -166 55 -167 130h131c3 -15 9 -26 32 -26c20 0 32 14 32 37s-12 35 -35 35c-20 0 -31 -11 -35 -23h-114l12 236h293v-100h-194l-4 -78c16 25 42 51 103 51c71 0 118 -41 118 -118c0 -89 -61 -144 -172 -144z" />
    <glyph glyph-name="uni0434.locl" horiz-adv-x="624" 
d="M255 258c-4 -49 -12 -90 -25 -121h127v251h-97c-1 -49 -2 -93 -5 -130zM180 -127h-170v264h27c28 15 45 53 53 137c5 56 7 136 7 249h454v-386h70v-264h-170l-2 127h-267z" />
    <glyph glyph-name="four.sup" horiz-adv-x="408" 
d="M201 462h-190v54l157 258h172v-218h48v-94h-48v-70h-139v70zM205 556v124l-72 -124h72z" />
    <glyph glyph-name="three.sup" horiz-adv-x="385" 
d="M193 385c-125 0 -173 58 -176 137h127c3 -21 13 -38 40 -38c23 0 34 10 34 31c0 19 -14 29 -41 29h-31v79h31c29 0 43 10 43 31c0 18 -10 27 -31 27s-34 -12 -38 -35h-126c7 77 60 134 168 134c103 0 162 -39 162 -107c0 -43 -25 -71 -69 -82c45 -7 77 -38 77 -82
c0 -73 -54 -124 -170 -124z" />
    <glyph glyph-name="two.sup" horiz-adv-x="366" 
d="M4 410l129 132c43 44 70 74 70 103c0 19 -8 30 -28 30s-32 -17 -36 -51h-131c3 104 70 156 175 156c111 0 161 -55 161 -124c0 -53 -33 -92 -78 -135l-28 -26h108v-103h-342v18z" />
    <glyph glyph-name="one.sup" horiz-adv-x="297" 
d="M102 635l-83 -45v116l104 68h124v-382h-145v243z" />
    <glyph glyph-name="zero.sup" horiz-adv-x="435" 
d="M217 494c37 0 51 27 51 87v6c0 63 -15 85 -52 85c-36 0 -49 -24 -49 -85v-7c0 -60 13 -86 50 -86zM214 385c-124 0 -192 68 -192 195v6c0 125 84 194 195 194c108 0 196 -58 196 -191v-5c0 -127 -75 -199 -199 -199z" />
    <glyph glyph-name="minus.sub" horiz-adv-x="361" 
d="M34 121h293v-99h-293v99z" />
    <glyph glyph-name="uni02BC" unicode="&#x2bc;" horiz-adv-x="321" 
d="M42 459l78 269l171 -55l-140 -256z" />
    </font>
</defs>
</svg>
